osu file format v14

[General]
AudioFilename: audio.mp3
AudioLeadIn: 0
PreviewTime: 201061
Countdown: 1
SampleSet: Soft
StackLeniency: 0.3
Mode: 0
LetterboxInBreaks: 0
WidescreenStoryboard: 1

[Editor]
Bookmarks: 15618,78018,87618,105618,109465,140161,155521,186241,203521,216985,247681,263041
DistanceSpacing: 0.8
BeatDivisor: 8
GridSize: 4
TimelineZoom: 2.899999

[Metadata]
Title:Edin in Ashes
TitleUnicode:Edin in Ashes
Artist:Shylmagoghnar
ArtistUnicode:Shylmagoghnar
Creator:Osuology
Version:std
Source:
Tags:
BeatmapID:1518349
BeatmapSetID:718949

[Difficulty]
HPDrainRate:6
CircleSize:4
OverallDifficulty:9
ApproachRate:9.7
SliderMultiplier:1.6
SliderTickRate:1

[Events]
//Background and Video events
0,0,"Shylmagoghnar - Emergence - Shylmagoghnar Wallpaper.jpg",0,0
//Break Periods
2,15698,48468
2,64944,77523
2,111904,201130
2,217185,357879
//Storyboard Layer 0 (Background)
//Storyboard Layer 1 (Fail)
//Storyboard Layer 2 (Pass)
//Storyboard Layer 3 (Foreground)
//Storyboard Sound Samples

[TimingPoints]
258,480,4,2,0,50,1,0
15618,-66.6666666666667,4,2,0,50,0,0
49218,300,4,2,0,50,1,0
49218,-50,4,2,0,50,0,0
51618,-50,4,2,0,50,0,0
56418,-50,4,2,0,50,0,0
58818,-66.6666666666667,4,2,0,50,0,0
88818,-50,4,2,0,50,0,0
105618,335.195530726257,4,2,0,50,1,0
106958,291.26213592233,4,2,0,50,1,0
108178,329.67032967033,4,2,0,50,1,0
109465,480,4,2,0,50,1,0
203521,-100,4,2,0,50,0,0
263041,666.666666666667,4,2,0,50,1,0

[HitObjects]
147,120,258,6,0,B|265:130|265:130|400:159,1,240
423,162,1218,2,0,L|379:154,4,40
363,325,2178,6,0,B|244:314|244:314|109:285,1,240
106,284,2958,2,0,L|139:292,2,20
66,275,3138,2,0,L|116:286,4,40
171,46,4098,6,0,B|181:164|181:164|206:282,1,240
214,322,5058,2,0,L|202:266,4,40
341,46,6018,6,0,B|330:164|330:164|305:282,1,240
301,302,6798,2,0,L|307:267,2,20
293,341,6978,2,0,L|304:287,7,40
307,269,7938,6,0,B|188:279|188:279|53:308,1,240
30,312,8898,2,0,L|85:300,4,40
205,115,9858,6,0,B|324:105|324:105|459:76,1,240
461,75,10698,2,0,L|425:82,2,20
499,64,10938,2,0,L|451:77,3,40
354,117,11778,6,0,B|235:127|235:127|113:158,1,240
79,165,12738,2,0,L|136:152,4,40
256,338,13698,5,0,0:0:0:0:
256,144,14418,2,0,L|256:109,3,20
256,184,14658,2,0,L|256:141,7,40
334,204,49218,6,0,B|370:180|415:190|415:190|397:144|349:130,1,160
256,48,49518,1,0,0:0:0:0:
256,48,49593,1,0,0:0:0:0:
256,48,49668,1,0,0:0:0:0:
256,48,49818,1,0,0:0:0:0:
256,48,49893,1,0,0:0:0:0:
256,48,49968,1,0,0:0:0:0:
256,48,50118,1,0,0:0:0:0:
256,48,50193,1,0,0:0:0:0:
256,48,50268,1,0,0:0:0:0:
150,295,50418,5,0,0:0:0:0:
110,92,50568,1,0,0:0:0:0:
256,336,50718,1,0,0:0:0:0:
256,336,50793,1,0,0:0:0:0:
256,336,50868,1,0,0:0:0:0:
256,336,51018,1,0,0:0:0:0:
256,336,51093,1,0,0:0:0:0:
256,336,51168,1,0,0:0:0:0:
256,336,51318,1,0,0:0:0:0:
256,336,51393,1,0,0:0:0:0:
256,336,51468,1,0,0:0:0:0:
334,204,51618,6,0,B|370:180|415:190|415:190|397:144|349:130,1,160
256,48,51918,1,0,0:0:0:0:
256,48,51993,1,0,0:0:0:0:
256,48,52068,1,0,0:0:0:0:
256,48,52218,1,0,0:0:0:0:
256,48,52293,1,0,0:0:0:0:
256,48,52368,1,0,0:0:0:0:
256,48,52518,1,0,0:0:0:0:
256,48,52593,1,0,0:0:0:0:
256,48,52668,1,0,0:0:0:0:
225,267,52818,6,0,B|219:309|182:337|182:337|228:353|271:326,1,160
335,273,53118,1,0,0:0:0:0:
134,138,53268,6,0,B|117:178|74:194|74:194|115:222|162:207,1,160
238,172,53568,1,0,0:0:0:0:
43,24,53718,6,0,B|16:58|-29:63|-29:63|2:101|52:98,1,160
297,86,54018,6,0,B|323:51|369:46|369:46|337:8|287:11,1,160
134,138,54318,1,0,0:0:0:0:
134,138,54393,1,0,0:0:0:0:
134,138,54468,1,0,0:0:0:0:
134,138,54618,1,0,0:0:0:0:
134,138,54693,1,0,0:0:0:0:
134,138,54768,1,0,0:0:0:0:
134,138,54918,1,0,0:0:0:0:
134,138,54993,1,0,0:0:0:0:
134,138,55068,6,0,L|147:98,2,40
206,175,55218,6,0,B|264:189|273:238|273:238|313:221|307:174,1,160
315,49,55518,1,0,0:0:0:0:
315,49,55593,1,0,0:0:0:0:
315,49,55668,1,0,0:0:0:0:
315,49,55818,1,0,0:0:0:0:
315,49,55893,1,0,0:0:0:0:
315,49,55968,1,0,0:0:0:0:
315,49,56118,1,0,0:0:0:0:
315,49,56193,1,0,0:0:0:0:
315,49,56268,1,0,0:0:0:0:
153,140,56418,6,0,B|95:126|86:77|86:77|46:94|52:141,1,160
44,266,56718,1,0,0:0:0:0:
44,266,56793,1,0,0:0:0:0:
44,266,56868,1,0,0:0:0:0:
44,266,57018,1,0,0:0:0:0:
44,266,57093,1,0,0:0:0:0:
44,266,57168,1,0,0:0:0:0:
44,266,57318,1,0,0:0:0:0:
44,266,57393,1,0,0:0:0:0:
44,266,57468,1,0,0:0:0:0:
156,345,57618,6,0,L|204:368,5,53.3333333333333
172,306,57918,2,0,L|221:324,5,53.3333333333333
181,268,58218,2,0,L|232:282,5,53.3333333333333
167,225,58518,2,0,L|219:234,4,53.3333333333333
101,190,58818,6,0,B|81:153|128:123|128:123|113:100|134:72,1,120.000004577637
153,47,59043,1,0,0:0:0:0:
200,48,59118,2,0,L|208:124,1,60.0000022888184
375,139,59268,2,0,L|380:80,1,60.0000022888184
290,116,59417,2,0,L|289:57,1,60.0000022888184
469,118,59568,2,0,L|460:196,1,60.0000022888184
273,241,59718,2,0,L|281:317,1,60.0000022888184
448,332,59868,2,0,L|452:272,1,60.0000022888184
199,178,60018,6,0,B|148:211|148:211|112:279,1,120.000004577637
106,309,60243,1,0,0:0:0:0:
147,333,60318,2,0,L|208:352,1,60.0000022888184
353,246,60468,2,0,L|300:219,1,60.0000022888184
278,299,60617,2,0,L|223:277,1,60.0000022888184
367,160,60768,2,0,L|421:194,1,60.0000022888184
356,329,60918,2,0,L|333:384,1,60.0000022888184
220,186,61068,2,0,L|254:131,1,60.0000022888184
326,29,61218,6,0,B|359:17|403:32|403:32|409:55|390:74,1,120.000004577637
364,109,61443,1,0,0:0:0:0:
324,135,61518,2,0,L|249:152,1,60.0000022888184
88,105,61668,2,0,L|143:81,1,60.0000022888184
233,51,61819,2,0,L|290:32,1,60.0000022888184
89,206,61968,2,0,L|9:233,1,60.0000022888184
252,259,62118,2,0,L|194:277,1,60.0000022888184
41,330,62268,2,0,L|103:311,1,60.0000022888184
233,51,62418,6,0,B|207:70|207:70|174:119,3,60.0000022888184
320,100,62718,2,0,B|300:122|300:122|275:139,1,60.0000022888184
128,139,62868,2,0,B|117:169|117:169|117:228,3,60.0000022888184
211,169,63168,2,0,B|207:198|207:198|196:226,1,60.0000022888184
115,277,63318,2,0,B|122:308|122:308|155:357,3,60.0000022888184
242,354,63618,6,0,B|280:370|319:329|319:329|334:334|361:328,1,120.000004577637
384,333,63843,1,0,0:0:0:0:
420,335,63918,2,0,L|433:268,1,60.0000022888184
245,132,64068,2,0,L|224:189,1,60.0000022888184
347,183,64219,2,0,L|331:241,1,60.0000022888184
119,132,64368,2,0,L|148:70,1,60.0000022888184
162,334,64518,2,0,L|188:280,1,60.0000022888184
86,218,64669,2,0,L|64:274,1,60.0000022888184
309,177,78018,6,0,B|271:140|298:91|298:91|221:87|185:186,1,240.000009155274
147,240,78393,2,0,L|141:301,1,60.0000022888184
48,164,78618,2,0,L|47:225,1,60.0000022888184
46,345,78768,1,0,0:0:0:0:
122,49,78918,2,0,L|126:110,1,60.0000022888184
147,240,79068,1,0,0:0:0:0:
241,139,79218,5,0,0:0:0:0:
426,59,79368,1,0,0:0:0:0:
439,270,79518,2,0,L|368:260,1,60.0000022888184
257,238,79668,1,0,0:0:0:0:
434,351,79818,2,0,L|362:347,1,60.0000022888184
243,342,79968,1,0,0:0:0:0:
443,183,80118,2,0,L|373:166,1,60.0000022888184
241,139,80268,1,0,0:0:0:0:
71,53,80418,5,0,0:0:0:0:
132,248,80568,1,0,0:0:0:0:
58,155,80718,2,0,L|138:170,1,60.0000022888184
239,226,80868,1,0,0:0:0:0:
168,42,81018,2,0,L|246:63,1,60.0000022888184
344,137,81168,1,0,0:0:0:0:
313,12,81318,2,0,L|389:40,1,60.0000022888184
477,139,81468,1,0,0:0:0:0:
412,296,81618,5,0,0:0:0:0:
346,302,81693,1,0,0:0:0:0:
295,306,81768,1,0,0:0:0:0:
481,182,81918,1,0,0:0:0:0:
429,322,82068,1,0,0:0:0:0:
351,328,82143,1,0,0:0:0:0:
273,331,82218,1,0,0:0:0:0:
485,227,82368,1,0,0:0:0:0:
445,358,82518,1,0,0:0:0:0:
354,368,82593,1,0,0:0:0:0:
262,368,82668,1,0,0:0:0:0:
158,131,82818,6,0,B|188:113|192:61|192:61|219:71|241:55,1,120.000004577637
279,59,83043,1,0,0:0:0:0:
326,59,83118,2,0,L|386:65,1,60.0000022888184
479,119,83268,1,0,0:0:0:0:
255,168,83418,2,0,L|314:179,1,60.0000022888184
389,245,83568,1,0,0:0:0:0:
183,264,83718,2,0,L|241:280,1,60.0000022888184
315,356,83868,1,0,0:0:0:0:
41,345,84018,5,0,0:0:0:0:
157,175,84168,1,0,0:0:0:0:
189,354,84318,2,0,L|102:323,1,60.0000022888184
20,253,84468,1,0,0:0:0:0:
248,264,84618,2,0,L|158:240,1,60.0000022888184
70,178,84768,1,0,0:0:0:0:
319,176,84918,2,0,L|227:160,1,60.0000022888184
134,105,85068,1,0,0:0:0:0:
314,25,85218,5,0,0:0:0:0:
374,269,85368,1,0,0:0:0:0:
253,106,85518,2,0,L|264:205,1,60.0000022888184
276,293,85668,1,0,0:0:0:0:
138,125,85818,2,0,L|157:222,1,60.0000022888184
177,308,85968,1,0,0:0:0:0:
372,92,86118,2,0,L|374:191,1,60.0000022888184
378,280,86268,1,0,0:0:0:0:
109,195,86418,5,0,0:0:0:0:
138,144,86493,1,0,0:0:0:0:
170,98,86568,1,0,0:0:0:0:
204,312,86718,1,0,0:0:0:0:
124,230,86868,1,0,0:0:0:0:
173,154,86943,1,0,0:0:0:0:
220,75,87018,1,0,0:0:0:0:
233,330,87168,1,0,0:0:0:0:
99,192,87318,5,0,0:0:0:0:
70,95,87393,1,0,0:0:0:0:
34,0,87468,1,0,0:0:0:0:
264,350,87618,5,0,0:0:0:0:
264,350,87918,1,0,0:0:0:0:
14,14,88218,5,0,0:0:0:0:
69,24,88293,1,0,0:0:0:0:
123,34,88368,1,0,0:0:0:0:
178,37,88443,1,0,0:0:0:0:
233,36,88518,1,0,0:0:0:0:
288,31,88593,1,0,0:0:0:0:
343,24,88668,1,0,0:0:0:0:
397,12,88743,1,0,0:0:0:0:
443,43,88818,6,0,L|398:118,3,80
329,196,89118,2,0,L|277:266,3,80
239,367,89418,1,0,0:0:0:0:
183,373,89493,1,0,0:0:0:0:
127,367,89568,1,0,0:0:0:0:
76,343,89643,1,0,0:0:0:0:
38,301,89718,1,0,0:0:0:0:
31,245,89793,1,0,0:0:0:0:
46,191,89868,1,0,0:0:0:0:
76,144,89943,1,0,0:0:0:0:
59,90,90018,6,0,L|148:79,3,80
247,71,90318,2,0,L|336:67,3,80
445,39,90618,5,0,0:0:0:0:
466,90,90693,1,0,0:0:0:0:
471,145,90768,1,0,0:0:0:0:
463,200,90843,1,0,0:0:0:0:
422,239,90918,1,0,0:0:0:0:
371,262,90993,1,0,0:0:0:0:
315,266,91068,1,0,0:0:0:0:
263,244,91143,1,0,0:0:0:0:
215,214,91218,6,0,B|133:206|133:206|34:219,1,160
1,226,91443,1,0,0:0:0:0:
19,173,91518,2,0,B|102:162|102:162|236:176,1,160
348,202,91818,1,0,0:0:0:0:
232,325,91968,1,0,0:0:0:0:
232,325,92043,1,0,0:0:0:0:
232,325,92118,1,0,0:0:0:0:
177,169,92268,1,0,0:0:0:0:
290,35,92418,5,0,0:0:0:0:
290,35,92568,2,0,L|364:64,1,80
290,35,92718,1,0,0:0:0:0:
114,16,93018,5,0,0:0:0:0:
66,45,93093,1,0,0:0:0:0:
33,90,93168,1,0,0:0:0:0:
19,144,93243,1,0,0:0:0:0:
25,199,93318,1,0,0:0:0:0:
48,249,93393,1,0,0:0:0:0:
84,291,93468,1,0,0:0:0:0:
134,314,93543,1,0,0:0:0:0:
189,320,93618,6,0,L|274:341,3,80
359,315,93918,2,0,L|441:343,3,80
508,357,94218,1,0,0:0:0:0:
506,301,94293,1,0,0:0:0:0:
480,251,94368,1,0,0:0:0:0:
432,220,94443,1,0,0:0:0:0:
378,201,94518,1,0,0:0:0:0:
329,173,94593,1,0,0:0:0:0:
303,122,94668,1,0,0:0:0:0:
299,66,94743,1,0,0:0:0:0:
257,28,94818,6,0,L|194:116,3,80
139,183,95118,2,0,L|68:265,3,80
17,380,95418,5,0,0:0:0:0:
8,324,95493,1,0,0:0:0:0:
18,268,95568,1,0,0:0:0:0:
42,217,95643,1,0,0:0:0:0:
83,179,95718,1,0,0:0:0:0:
121,138,95793,1,0,0:0:0:0:
145,87,95868,1,0,0:0:0:0:
130,32,95943,1,0,0:0:0:0:
76,49,96018,5,0,0:0:0:0:
215,181,96168,1,0,0:0:0:0:
215,181,96243,1,0,0:0:0:0:
215,181,96318,2,0,B|286:226|286:226|372:232,1,160
331,93,96618,5,0,0:0:0:0:
215,181,96768,1,0,0:0:0:0:
215,181,96843,1,0,0:0:0:0:
215,181,96918,2,0,B|170:252|170:252|164:337,1,160
194,37,97218,5,0,0:0:0:0:
194,37,97518,1,0,0:0:0:0:
21,180,97818,5,0,0:0:0:0:
48,237,97893,1,0,0:0:0:0:
87,287,97968,1,0,0:0:0:0:
144,315,98043,1,0,0:0:0:0:
207,323,98118,1,0,0:0:0:0:
270,326,98193,1,0,0:0:0:0:
332,313,98268,1,0,0:0:0:0:
384,276,98343,1,0,0:0:0:0:
431,232,98418,5,0,0:0:0:0:
466,178,98493,1,0,0:0:0:0:
467,114,98568,1,0,0:0:0:0:
415,76,98643,1,0,0:0:0:0:
353,94,98718,1,0,0:0:0:0:
318,147,98793,1,0,0:0:0:0:
290,204,98868,1,0,0:0:0:0:
227,219,98943,1,0,0:0:0:0:
168,192,99018,1,0,0:0:0:0:
137,135,99093,1,0,0:0:0:0:
175,83,99168,1,0,0:0:0:0:
230,115,99243,1,0,0:0:0:0:
225,178,99318,1,0,0:0:0:0:
203,175,99393,1,0,0:0:0:0:
139,181,99468,1,0,0:0:0:0:
80,207,99543,1,0,0:0:0:0:
49,263,99618,5,0,0:0:0:0:
66,324,99693,1,0,0:0:0:0:
121,356,99768,1,0,0:0:0:0:
183,369,99843,1,0,0:0:0:0:
246,365,99918,1,0,0:0:0:0:
303,336,99993,1,0,0:0:0:0:
344,287,100068,1,0,0:0:0:0:
359,224,100143,1,0,0:0:0:0:
349,160,100218,1,0,0:0:0:0:
309,109,100293,1,0,0:0:0:0:
248,88,100368,1,0,0:0:0:0:
184,87,100443,1,0,0:0:0:0:
130,121,100518,1,0,0:0:0:0:
114,182,100593,1,0,0:0:0:0:
132,243,100668,1,0,0:0:0:0:
187,275,100743,1,0,0:0:0:0:
250,273,100818,5,0,0:0:0:0:
277,215,100893,1,0,0:0:0:0:
230,171,100968,1,0,0:0:0:0:
180,212,101043,1,0,0:0:0:0:
187,275,101118,2,0,B|113:315|113:315|1:318,1,160
361,173,101418,1,0,0:0:0:0:
341,322,101568,1,0,0:0:0:0:
341,322,101643,1,0,0:0:0:0:
341,322,101718,1,0,0:0:0:0:
341,322,101868,1,0,0:0:0:0:
196,77,102018,5,0,0:0:0:0:
196,77,102318,1,0,0:0:0:0:
33,256,102618,5,0,0:0:0:0:
87,289,102693,1,0,0:0:0:0:
150,285,102768,1,0,0:0:0:0:
209,261,102843,1,0,0:0:0:0:
239,204,102918,1,0,0:0:0:0:
227,140,102993,1,0,0:0:0:0:
177,99,103068,1,0,0:0:0:0:
113,89,103143,1,0,0:0:0:0:
58,121,103218,1,0,0:0:0:0:
41,182,103293,1,0,0:0:0:0:
81,231,103368,1,0,0:0:0:0:
143,245,103443,1,0,0:0:0:0:
206,234,103518,1,0,0:0:0:0:
265,211,103593,1,0,0:0:0:0:
328,209,103668,1,0,0:0:0:0:
387,233,103743,1,0,0:0:0:0:
422,286,103818,1,0,0:0:0:0:
412,349,103893,1,0,0:0:0:0:
354,376,103968,1,0,0:0:0:0:
291,360,104043,1,0,0:0:0:0:
266,300,104118,1,0,0:0:0:0:
299,245,104193,1,0,0:0:0:0:
355,214,104268,1,0,0:0:0:0:
398,167,104343,1,0,0:0:0:0:
380,105,104418,5,0,0:0:0:0:
348,49,104493,1,0,0:0:0:0:
286,30,104568,1,0,0:0:0:0:
223,43,104643,1,0,0:0:0:0:
163,67,104718,1,0,0:0:0:0:
112,106,104793,1,0,0:0:0:0:
74,157,104868,1,0,0:0:0:0:
50,216,104943,1,0,0:0:0:0:
94,262,105018,1,0,0:0:0:0:
147,293,105093,1,0,0:0:0:0:
206,304,105168,1,0,0:0:0:0:
264,304,105243,1,0,0:0:0:0:
318,303,105318,1,0,0:0:0:0:
370,297,105393,1,0,0:0:0:0:
417,281,105468,1,0,0:0:0:0:
457,259,105543,1,0,0:0:0:0:
485,237,105618,6,0,B|462:200|480:157|480:157|450:118|388:121,1,160
168,194,106288,1,0,0:0:0:0:
111,275,106455,1,0,0:0:0:0:
277,168,106623,5,0,0:0:0:0:
279,38,106958,6,0,B|218:30|187:82|187:82|161:57|114:73,1,160
30,56,107394,1,0,0:0:0:0:
195,199,107540,1,0,0:0:0:0:
89,183,107831,1,0,0:0:0:0:
121,343,108178,6,0,L|210:354,1,80
379,328,108507,1,0,0:0:0:0:
379,328,108562,1,0,0:0:0:0:
379,328,108617,1,0,0:0:0:0:
379,328,108672,1,0,0:0:0:0:
379,328,108727,1,0,0:0:0:0:
379,328,108782,1,0,0:0:0:0:
379,328,108837,1,0,0:0:0:0:
379,328,108892,1,0,0:0:0:0:
379,328,108947,1,0,0:0:0:0:
392,311,109002,1,0,0:0:0:0:
395,289,109057,1,0,0:0:0:0:
392,267,109112,1,0,0:0:0:0:
383,247,109167,1,0,0:0:0:0:
370,229,109221,1,0,0:0:0:0:
356,212,109276,1,0,0:0:0:0:
343,194,109331,1,0,0:0:0:0:
336,173,109386,1,0,0:0:0:0:
355,136,109465,5,0,0:0:0:0:
254,26,109785,1,0,0:0:0:0:
181,198,109945,2,0,P|179:133|148:58,1,106.666666666667
95,228,110425,2,0,P|97:293|128:368,1,106.666666666667
207,360,110905,1,0,0:0:0:0:
275,189,111225,1,0,0:0:0:0:
360,354,111385,6,0,P|351:264|326:214,1,106.666666666667
293,175,201625,5,0,0:0:0:0:
43,97,203545,5,0,0:0:0:0:
47,147,203625,1,0,0:0:0:0:
59,195,203705,1,0,0:0:0:0:
84,238,203785,1,0,0:0:0:0:
123,270,203865,1,0,0:0:0:0:
173,272,203945,1,0,0:0:0:0:
208,236,204025,1,0,0:0:0:0:
237,195,204105,1,0,0:0:0:0:
221,146,204185,1,0,0:0:0:0:
181,114,204265,1,0,0:0:0:0:
131,105,204345,1,0,0:0:0:0:
89,133,204425,1,0,0:0:0:0:
39,120,204505,1,0,0:0:0:0:
19,73,204585,1,0,0:0:0:0:
39,26,204665,1,0,0:0:0:0:
86,8,204745,1,0,0:0:0:0:
136,14,204825,1,0,0:0:0:0:
180,38,204905,1,0,0:0:0:0:
227,19,204985,1,0,0:0:0:0:
277,14,205065,1,0,0:0:0:0:
325,27,205145,1,0,0:0:0:0:
365,57,205225,1,0,0:0:0:0:
381,104,205305,1,0,0:0:0:0:
367,152,205385,1,0,0:0:0:0:
323,177,205465,5,0,0:0:0:0:
274,191,205545,1,0,0:0:0:0:
229,216,205625,1,0,0:0:0:0:
186,243,205705,1,0,0:0:0:0:
157,285,205785,1,0,0:0:0:0:
154,335,205865,1,0,0:0:0:0:
184,375,205945,1,0,0:0:0:0:
234,373,206025,1,0,0:0:0:0:
282,357,206105,1,0,0:0:0:0:
313,317,206185,1,0,0:0:0:0:
327,268,206265,1,0,0:0:0:0:
312,219,206345,1,0,0:0:0:0:
274,191,206425,1,0,0:0:0:0:
227,170,206505,1,0,0:0:0:0:
176,175,206585,1,0,0:0:0:0:
126,183,206665,1,0,0:0:0:0:
79,203,206745,1,0,0:0:0:0:
48,243,206825,1,0,0:0:0:0:
30,290,206905,1,0,0:0:0:0:
37,340,206985,1,0,0:0:0:0:
76,371,207065,1,0,0:0:0:0:
126,371,207145,1,0,0:0:0:0:
173,353,207225,1,0,0:0:0:0:
196,308,207305,1,0,0:0:0:0:
190,257,207385,5,0,0:0:0:0:
204,208,207465,1,0,0:0:0:0:
245,178,207545,1,0,0:0:0:0:
294,168,207625,1,0,0:0:0:0:
343,177,207705,1,0,0:0:0:0:
386,202,207785,1,0,0:0:0:0:
417,242,207865,1,0,0:0:0:0:
466,253,207945,1,0,0:0:0:0:
495,211,208025,1,0,0:0:0:0:
496,160,208105,1,0,0:0:0:0:
452,134,208185,1,0,0:0:0:0:
407,158,208265,1,0,0:0:0:0:
386,202,208345,1,0,0:0:0:0:
355,242,208425,1,0,0:0:0:0:
306,253,208505,1,0,0:0:0:0:
277,211,208585,1,0,0:0:0:0:
276,160,208665,1,0,0:0:0:0:
320,134,208745,1,0,0:0:0:0:
365,158,208825,1,0,0:0:0:0:
386,202,208905,1,0,0:0:0:0:
417,242,208985,1,0,0:0:0:0:
466,253,209065,1,0,0:0:0:0:
495,211,209145,1,0,0:0:0:0:
496,160,209225,1,0,0:0:0:0:
452,133,209305,5,0,0:0:0:0:
418,94,209385,1,0,0:0:0:0:
400,46,209465,1,0,0:0:0:0:
434,8,209545,1,0,0:0:0:0:
452,55,209625,1,0,0:0:0:0:
418,94,209705,1,0,0:0:0:0:
369,107,209785,1,0,0:0:0:0:
321,90,209865,1,0,0:0:0:0:
286,52,209945,1,0,0:0:0:0:
313,9,210025,1,0,0:0:0:0:
357,34,210105,1,0,0:0:0:0:
397,64,210185,1,0,0:0:0:0:
369,107,210265,1,0,0:0:0:0:
337,146,210345,1,0,0:0:0:0:
294,173,210425,1,0,0:0:0:0:
248,195,210505,1,0,0:0:0:0:
202,216,210585,1,0,0:0:0:0:
151,211,210665,1,0,0:0:0:0:
102,194,210745,1,0,0:0:0:0:
59,167,210825,1,0,0:0:0:0:
42,118,210905,1,0,0:0:0:0:
59,70,210985,1,0,0:0:0:0:
95,34,211065,1,0,0:0:0:0:
145,32,211145,1,0,0:0:0:0:
183,65,211225,5,0,0:0:0:0:
232,74,211305,1,0,0:0:0:0:
282,73,211385,1,0,0:0:0:0:
331,64,211465,1,0,0:0:0:0:
379,49,211545,1,0,0:0:0:0:
426,30,211625,1,0,0:0:0:0:
475,39,211705,1,0,0:0:0:0:
501,82,211785,1,0,0:0:0:0:
505,132,211865,1,0,0:0:0:0:
487,179,211945,1,0,0:0:0:0:
446,208,212025,1,0,0:0:0:0:
395,215,212105,1,0,0:0:0:0:
346,231,212185,1,0,0:0:0:0:
303,258,212265,1,0,0:0:0:0:
288,306,212345,1,0,0:0:0:0:
306,353,212425,1,0,0:0:0:0:
354,367,212505,1,0,0:0:0:0:
402,352,212585,1,0,0:0:0:0:
425,307,212665,1,0,0:0:0:0:
419,256,212745,1,0,0:0:0:0:
431,207,212825,1,0,0:0:0:0:
457,163,212905,1,0,0:0:0:0:
475,116,212985,1,0,0:0:0:0:
509,78,213065,1,0,0:0:0:0:
484,33,213145,5,0,0:0:0:0:
438,11,213225,1,0,0:0:0:0:
387,9,213305,1,0,0:0:0:0:
336,14,213385,1,0,0:0:0:0:
285,21,213465,1,0,0:0:0:0:
237,37,213545,1,0,0:0:0:0:
192,61,213625,1,0,0:0:0:0:
158,99,213705,1,0,0:0:0:0:
130,141,213785,1,0,0:0:0:0:
115,189,213865,1,0,0:0:0:0:
116,239,213945,1,0,0:0:0:0:
135,285,214025,1,0,0:0:0:0:
169,321,214105,1,0,0:0:0:0:
216,338,214185,1,0,0:0:0:0:
266,340,214265,1,0,0:0:0:0:
315,329,214345,1,0,0:0:0:0:
356,300,214425,1,0,0:0:0:0:
372,252,214505,1,0,0:0:0:0:
363,202,214585,1,0,0:0:0:0:
343,155,214665,1,0,0:0:0:0:
300,127,214745,1,0,0:0:0:0:
249,120,214825,1,0,0:0:0:0:
201,138,214905,1,0,0:0:0:0:
167,176,214985,1,0,0:0:0:0:
130,211,215065,5,0,0:0:0:0:
79,217,215145,1,0,0:0:0:0:
34,191,215225,1,0,0:0:0:0:
24,141,215305,1,0,0:0:0:0:
47,96,215385,1,0,0:0:0:0:
89,69,215465,1,0,0:0:0:0:
139,73,215545,1,0,0:0:0:0:
185,93,215625,1,0,0:0:0:0:
225,63,215705,1,0,0:0:0:0:
222,12,215785,1,0,0:0:0:0:
172,2,215865,1,0,0:0:0:0:
131,32,215945,1,0,0:0:0:0:
139,73,216025,1,0,0:0:0:0:
159,119,216105,1,0,0:0:0:0:
167,168,216185,1,0,0:0:0:0:
147,214,216265,1,0,0:0:0:0:
120,257,216345,1,0,0:0:0:0:
88,296,216425,1,0,0:0:0:0:
47,326,216505,1,0,0:0:0:0:
119,320,216585,1,0,0:0:0:0:
197,320,216665,1,0,0:0:0:0:
277,326,216745,1,0,0:0:0:0:
357,345,216825,1,0,0:0:0:0:
441,335,216905,1,0,0:0:0:0:
487,259,216985,5,0,0:0:0:0:
356,285,358374,5,0,0:0:0:0:
364,265,358457,1,0,0:0:0:0:
366,243,358541,1,0,0:0:0:0:
366,243,358624,1,0,0:0:0:0:
356,223,358707,1,0,0:0:0:0:
339,209,358791,1,0,0:0:0:0:
352,192,358874,1,0,0:0:0:0:
359,177,358957,1,0,0:0:0:0:
361,161,359041,5,0,0:0:0:0:
