osu file format v14

[General]
AudioFilename: audio.mp3
AudioLeadIn: 0
PreviewTime: 466
Countdown: 0
SampleSet: Soft
StackLeniency: 0.4
Mode: 0
LetterboxInBreaks: 0
WidescreenStoryboard: 0

[Editor]
Bookmarks: 465,12465,24465,48465,60465,72465,96465,131153,144465,156465,168465,180465,192465,204465,229965
DistanceSpacing: 1
BeatDivisor: 8
GridSize: 4
TimelineZoom: 1.7

[Metadata]
Title:Raw Town
TitleUnicode:Raw Town
Artist:Shuta Hasunuma
ArtistUnicode:蓮沼執太
Creator:dsco
Version:You
Source:
Tags:indie chamber pop Japanese メロディーズ melodies vinxis
BeatmapID:2323897
BeatmapSetID:1112314

[Difficulty]
HPDrainRate:5
CircleSize:4.3
OverallDifficulty:8.5
ApproachRate:8.9
SliderMultiplier:1.7
SliderTickRate:1

[Events]
//Background and Video events
0,0,"women-hand-holding-umbrella-walking-in-the-winter-rain-on-a-street-in-Shanghai-city.jpg",0,0
//Break Periods
2,120465,130538
//Storyboard Layer 0 (Background)
//Storyboard Layer 1 (Fail)
//Storyboard Layer 2 (Pass)
//Storyboard Layer 3 (Foreground)
//Storyboard Layer 4 (Overlay)
//Storyboard Sound Samples

[TimingPoints]
466,375,4,2,0,50,1,0

[Colours]
Combo1 : 204,238,238
Combo2 : 255,187,119
Combo3 : 153,187,187

[HitObjects]
133,272,465,5,2,3:0:0:0:
133,272,840,2,0,P|165:244|212:226,1,85,8|0,0:1|0:0,0:0:0:0:
287,230,1215,1,0,0:0:0:0:
129,174,1403,1,0,0:0:0:0:
247,300,1590,1,8,0:1:0:0:
247,300,1778,2,0,L|256:409,1,85,2|2,0:0|3:0,0:0:0:0:
345,249,2153,2,0,L|325:356,1,85,0|8,0:0|0:1,0:0:0:0:
452,225,2528,1,0,0:0:0:0:
272,169,2715,2,0,P|234:119|228:15,1,170,0|8,0:0|0:1,0:0:0:0:
228,14,3465,6,0,P|240:67|233:112,1,85,2|0,3:0|0:0,0:0:0:0:
237,97,3840,2,0,P|211:148|180:176,1,85,8|0,0:1|0:0,0:0:0:0:
191,167,4215,1,2,0:0:0:0:
112,194,4402,1,0,0:0:0:0:
252,225,4590,1,8,0:1:0:0:
381,178,4778,2,0,P|366:145|370:80,1,85,2|2,0:0|3:0,0:0:0:0:
471,231,5153,2,0,P|465:189|476:148,1,85,0|8,0:0|0:1,0:0:0:0:
423,319,5528,2,0,P|356:292|243:293,1,170
173,323,6090,1,8,0:1:0:0:
62,172,6278,1,2,0:0:0:0:
148,205,6465,5,2,3:0:0:0:
148,205,6840,2,0,P|161:158|153:96,1,85,8|0,0:1|0:0,0:0:0:0:
99,57,7215,1,0,0:0:0:0:
168,116,7403,1,0,0:0:0:0:
107,50,7590,1,8,0:1:0:0:
195,31,7778,1,2,0:0:0:0:
327,156,7965,6,0,P|369:174|425:176,1,85,2|0,3:0|0:0,0:0:0:0:
464,246,8340,1,8,0:1:0:0:
511,124,8528,1,0,0:0:0:0:
407,177,8715,2,0,L|235:191,1,170,0|8,0:0|0:1,0:0:0:0:
237,190,9278,1,2,0:0:0:0:
102,269,9465,6,0,P|79:223|84:166,1,85,2|0,3:0|0:0,0:0:0:0:
77,190,9840,2,0,P|96:136|140:102,1,85,8|0,0:1|0:0,0:0:0:0:
114,116,10215,1,2,0:0:0:0:
94,41,10403,1,0,0:0:0:0:
234,88,10590,1,8,0:1:0:0:
210,164,10778,1,2,0:0:0:0:
294,262,10965,6,0,P|332:218|474:190,1,170,2|8,3:0|0:1,0:0:0:0:
511,220,11528,1,0,0:0:0:0:
376,0,11715,2,0,L|366:184,1,170,0|8,0:0|0:1,0:0:0:0:
418,231,12278,1,2,0:0:0:0:
265,299,12465,5,2,3:0:0:0:
265,299,12840,2,0,P|222:284|171:276,1,85,8|0,0:1|0:0,0:0:0:0:
346,328,13215,1,0,0:0:0:0:
277,209,13403,1,0,0:0:0:0:
401,234,13590,2,0,L|420:95,1,127.5,8|0,0:1|0:0,0:0:0:0:
418,107,13965,5,2,3:0:0:0:
512,290,14153,2,0,B|471:310|430:290|430:290|390:269|349:290,1,170
272,248,14715,2,0,L|257:343,1,85
174,298,15090,2,0,L|189:393,1,85,8|2,0:1|0:0,0:0:0:0:
15,236,15465,6,0,P|19:193|34:154,1,85,2|0,3:0|0:0,0:0:0:0:
34,154,15840,2,0,P|58:119|91:92,1,85,8|0,0:1|0:0,0:0:0:0:
90,92,16122,1,0,0:0:0:0:
90,92,16215,1,2,0:0:0:0:
136,14,16403,1,0,0:0:0:0:
251,89,16590,1,8,0:1:0:0:
265,0,16778,1,2,0:0:0:0:
173,87,16965,5,2,3:0:0:0:
355,136,17153,2,0,P|378:182|388:222,1,85,0|8,0:0|0:1,0:0:0:0:
212,384,17528,2,0,P|223:309|269:211,1,170
182,117,18090,1,8,0:1:0:0:
289,38,18278,1,2,0:0:0:0:
209,15,18465,5,2,3:0:0:0:
209,15,18840,2,0,P|217:65|218:123,1,85,8|0,0:1|0:0,0:0:0:0:
162,164,19215,1,0,0:0:0:0:
289,38,19403,1,0,0:0:0:0:
113,21,19590,2,0,L|30:39,1,85,8|2,0:1|0:0,0:0:0:0:
162,164,19965,6,0,P|179:117|177:76,1,85,2|0,3:0|0:0,0:0:0:0:
266,210,20340,2,0,P|304:177|329:91,1,127.5,8|0,0:1|0:0,0:0:0:0:
329,106,20715,1,0,0:0:0:0:
263,37,20903,1,0,0:0:0:0:
336,113,21090,2,0,L|432:119,1,85,8|2,0:1|0:0,0:0:0:0:
263,37,21465,6,0,P|210:28|167:31,1,85,2|0,3:0|0:0,0:0:0:0:
179,29,21840,2,0,P|137:37|98:55,1,85,8|0,0:1|0:0,0:0:0:0:
98,55,22215,1,2,0:0:0:0:
16,18,22403,2,0,L|-1:193,1,170,0|2,0:0|0:0,0:0:0:0:
86,316,22965,5,2,3:0:0:0:
11,209,23153,1,0,0:0:0:0:
140,196,23340,1,8,0:1:0:0:
74,294,23528,1,0,0:0:0:0:
212,102,23716,6,0,P|283:136|301:155,1,85,2|0,3:0|0:0,0:0:0:0:
293,147,23997,1,0,0:0:0:0:
293,147,24091,2,0,L|290:171,6,21.25,8|0|8|0|8|0|8,0:0|0:0|0:0|0:0|0:0|0:0|0:0,0:0:0:0:
289,184,24465,5,4,3:2:0:0:
289,184,24840,1,8,0:1:0:0:
424,82,25028,2,0,P|430:41|412:-15,1,85,0|2,0:0|0:0,0:0:0:0:
475,161,25403,2,0,P|500:128|513:70,1,85,0|8,0:0|0:1,0:0:0:0:
341,40,25778,1,2,0:0:0:0:
512,0,25965,1,2,3:0:0:0:
346,52,26153,2,0,L|232:38,1,85,0|8,0:0|0:1,0:0:0:0:
83,95,26528,2,0,P|123:89|145:77,1,42.5
176,30,26715,1,2,0:0:0:0:
170,15,26903,1,0,0:0:0:0:
164,0,27090,2,0,L|156:93,1,85,8|2,0:1|0:0,0:0:0:0:
146,254,27465,5,2,3:0:0:0:
146,254,27840,1,8,0:1:0:0:
282,322,28028,2,0,P|320:294|365:283,1,85,0|2,0:0|0:0,0:0:0:0:
437,301,28403,1,0,0:0:0:0:
342,178,28590,1,8,0:1:0:0:
370,384,28778,1,2,0:0:0:0:
448,300,28965,1,2,3:0:0:0:
271,323,29153,2,0,P|231:304|172:298,1,85,0|8,0:0|0:1,0:0:0:0:
25,239,29528,2,0,P|85:242|194:186,1,170
229,127,30090,1,8,0:1:0:0:
381,205,30278,1,2,0:0:0:0:
451,158,30465,5,4,3:2:0:0:
451,158,30840,2,0,P|475:117|480:52,1,85,8|0,0:1|0:0,0:0:0:0:
454,1,31215,1,2,0:0:0:0:
319,143,31403,2,0,P|360:119|397:65,1,85,0|8,0:0|0:1,0:0:0:0:
294,52,31778,1,2,0:0:0:0:
253,210,31965,1,2,3:0:0:0:
411,252,32153,1,0,0:0:0:0:
452,94,32340,1,8,0:1:0:0:
352,152,32528,2,0,P|329:135|298:123,1,42.5
228,119,32715,1,2,0:0:0:0:
213,124,32903,1,0,0:0:0:0:
199,132,33090,2,0,P|160:152|115:161,1,85,8|2,0:1|0:0,0:0:0:0:
39,138,33465,5,2,3:0:0:0:
39,138,33840,2,0,P|18:180|12:231,1,85,8|0,0:1|0:0,0:0:0:0:
110,202,34215,2,0,P|112:245|126:285,1,85,2|0,0:0|0:0,0:0:0:0:
287,305,34590,1,8,0:1:0:0:
203,324,34778,1,2,0:0:0:0:
253,163,34965,5,2,3:0:0:0:
337,182,35153,1,0,0:0:0:0:
387,59,35340,2,0,P|334:51|300:59,1,85,8|0,0:1|0:0,0:0:0:0:
438,311,35715,2,0,B|450:265|433:219|427:235|411:188|423:143,1,170,2|8,0:0|0:1,0:0:0:0:
422,144,36465,5,4,3:2:0:0:
424,146,36841,1,8,0:1:0:0:
267,189,37028,2,0,L|161:179,1,85,0|2,0:0|0:0,0:0:0:0:
352,82,37403,2,0,L|344:166,1,85,0|8,0:0|0:1,0:0:0:0:
383,302,37778,1,2,0:0:0:0:
267,189,37965,1,2,3:0:0:0:
424,146,38153,2,0,P|381:166|338:165,1,85,0|8,0:0|0:1,0:0:0:0:
191,213,38528,2,0,P|151:177|31:150,1,170
0,223,39090,1,8,0:1:0:0:
0,223,39465,6,0,P|17:184|20:133,1,85,2|0,3:0|0:0,0:0:0:0:
120,176,39840,2,0,P|115:133|93:88,1,85,8|0,0:1|0:0,0:0:0:0:
200,74,40215,1,2,0:0:0:0:
141,16,40402,1,0,0:0:0:0:
199,153,40590,1,8,0:1:0:0:
135,4,40778,1,2,0:0:0:0:
297,24,40965,2,0,L|416:9,1,85,2|0,3:0|0:0,0:0:0:0:
391,98,41340,2,0,L|306:108,1,85,8|0,0:1|0:0,0:0:0:0:
120,176,41715,2,0,B|87:162|51:170|63:176|27:184|-4:171,2,127.5,2|0|2,0:0|0:0|0:0,0:0:0:0:
151,254,42465,5,4,3:2:0:0:
151,254,42840,1,8,0:1:0:0:
169,106,43028,1,0,0:0:0:0:
317,124,43215,1,2,0:0:0:0:
299,272,43403,2,0,P|291:225|265:189,1,85,0|8,0:0|0:1,0:0:0:0:
222,311,43778,1,2,0:0:0:0:
379,177,43965,2,0,P|349:140|308:122,1,85,2|0,3:0|0:0,0:0:0:0:
193,166,44340,1,8,0:1:0:0:
299,272,44528,2,0,L|480:254,1,170
512,183,45090,1,8,0:1:0:0:
467,265,45278,1,2,0:0:0:0:
390,97,45465,5,2,3:0:0:0:
390,97,45840,2,0,P|341:115|294:117,1,85,8|0,0:1|0:0,0:0:0:0:
149,140,46215,2,0,P|191:145|230:160,1,85,2|0,0:0|0:0,0:0:0:0:
266,238,46590,1,8,0:1:0:0:
240,65,46778,1,2,0:0:0:0:
219,324,46965,2,0,L|43:343,1,170,2|8,3:0|0:1,0:0:0:0:
49,342,47528,1,0,0:0:0:0:
0,160,47715,2,0,P|30:212|35:260,1,85,2|0,0:0|0:0,0:0:0:0:
124,201,48090,2,0,P|123:261|104:305,1,85,8|2,0:1|0:0,0:0:0:0:
53,346,48465,5,2,3:0:0:0:
53,346,48840,2,0,P|92:352|144:384,1,85,8|0,0:1|0:0,0:0:0:0:
287,295,49215,1,0,0:0:0:0:
229,377,49403,1,0,0:0:0:0:
401,347,49590,1,8,0:1:0:0:
401,347,49778,2,0,L|408:252,1,85,2|2,0:0|3:0,0:0:0:0:
305,315,50153,2,0,L|298:220,1,85,0|8,0:0|0:1,0:0:0:0:
195,346,50528,2,0,L|202:262,1,85
161,155,50903,1,0,0:0:0:0:
226,54,51090,1,8,0:1:0:0:
226,54,51465,6,0,P|184:47|142:52,1,85,2|0,3:0|0:0,0:0:0:0:
142,52,51840,2,0,P|102:67|68:93,1,85,8|0,0:1|0:0,0:0:0:0:
68,92,52215,1,0,0:0:0:0:
0,154,52403,1,0,0:0:0:0:
115,239,52590,1,8,0:1:0:0:
25,351,52778,1,2,0:0:0:0:
182,378,52965,6,0,P|241:373|279:358,1,85,2|0,3:0|0:0,0:0:0:0:
134,256,53340,2,0,P|187:281|228:287,1,85,8|0,0:1|0:0,0:0:0:0:
304,241,53715,2,0,P|377:217|474:234,1,170,0|8,0:0|0:1,0:0:0:0:
495,306,54278,1,2,0:0:0:0:
486,83,54465,5,2,3:0:0:0:
486,83,54840,2,0,P|445:118|422:157,1,85,8|0,0:1|0:0,0:0:0:0:
325,73,55215,1,0,0:0:0:0:
406,141,55403,2,0,P|431:197|444:283,1,127.5
443,261,55778,1,2,0:0:0:0:
220,343,55965,6,0,L|123:328,1,85,2|0,3:0|0:0,0:0:0:0:
46,358,56340,1,8,0:1:0:0:
120,196,56528,1,0,0:0:0:0:
135,330,56715,2,0,P|94:298|75:253,2,85,0|0|8,0:0|0:0|0:1,0:0:0:0:
84,110,57465,6,0,P|49:134|27:170,1,85,2|0,3:0|0:0,0:0:0:0:
27,170,57840,2,0,P|9:208|8:250,1,85,8|0,0:1|0:0,0:0:0:0:
8,250,58215,2,0,P|36:317|151:368,1,170,0|8,0:0|0:1,0:0:0:0:
274,354,58778,1,2,0:0:0:0:
209,278,58965,5,2,3:0:0:0:
341,215,59153,1,0,0:0:0:0:
209,124,59340,1,8,0:1:0:0:
357,228,59528,2,0,P|409:237|451:231,1,85
225,291,59903,2,0,P|173:282|131:288,1,85,0|8,0:0|0:1,0:0:0:0:
0,335,60278,2,0,L|11:250,1,85,2|2,0:0|3:0,0:0:0:0:
11,251,60840,6,0,P|95:239|163:167,1,170,8|0,0:1|0:0,0:0:0:0:
244,206,61403,1,0,0:0:0:0:
215,45,61590,1,8,0:1:0:0:
313,70,61778,1,2,0:0:0:0:
461,30,61965,2,0,L|447:122,1,85,2|0,3:0|0:0,0:0:0:0:
448,114,62528,1,0,0:0:0:0:
313,70,62715,2,0,L|228:76,2,85,0|0|8,0:0|0:0|0:1,0:0:0:0:
313,70,63465,6,0,P|288:114|279:158,1,85,2|0,3:0|0:0,0:0:0:0:
280,147,63840,2,0,P|287:208|304:243,1,85,8|0,0:1|0:0,0:0:0:0:
296,229,64215,1,0,0:0:0:0:
354,289,64403,2,0,P|276:260|195:268,1,127.5
236,263,64778,2,0,L|147:272,1,85,2|2,0:0|3:0,0:0:0:0:
166,188,65153,2,0,L|77:197,1,85,0|8,0:0|0:1,0:0:0:0:
11,121,65528,1,0,0:0:0:0:
117,31,65716,2,0,P|101:72|96:137,2,85,0|0|8,0:0|0:0|0:1,0:0:0:0:
35,7,66278,1,2,0:0:0:0:
246,0,66465,5,2,3:0:0:0:
246,0,66840,2,0,P|273:42|278:92,1,85,8|0,0:1|0:0,0:0:0:0:
175,160,67215,2,0,P|187:119|184:77,1,85
91,113,67590,1,8,0:1:0:0:
259,207,67778,2,0,B|305:219|351:202|335:196|382:180|427:192,1,170,2|0,0:0|0:0,0:0:0:0:
489,249,68340,1,8,0:1:0:0:
463,116,68528,1,0,0:0:0:0:
451,324,68715,1,0,0:0:0:0:
492,241,68903,1,0,0:0:0:0:
447,335,69090,1,8,0:1:0:0:
447,335,69465,6,0,P|400:311|348:307,1,85,2|0,3:0|0:0,0:0:0:0:
368,306,69840,2,0,P|329:310|276:337,1,85,8|0,0:1|0:0,0:0:0:0:
287,328,70215,2,0,P|248:345|115:313,1,170,0|8,0:0|0:1,0:0:0:0:
126,322,70778,1,2,0:0:0:0:
236,384,70965,1,2,3:0:0:0:
188,215,71153,1,0,0:0:0:0:
130,326,71340,1,8,0:1:0:0:
296,275,71528,1,0,0:0:0:0:
465,227,71715,6,0,P|445:181|456:113,1,85,2|0,3:0|0:0,0:0:0:0:
452,154,71997,1,0,0:0:0:0:
452,154,72090,2,0,L|487:151,6,21.25,8|0|8|2|8|0|8,0:0|0:0|0:0|0:0|0:0|0:0|0:0,0:0:0:0:
379,97,72465,5,4,3:2:0:0:
379,97,72840,1,8,0:1:0:0:
258,178,73028,2,0,P|226:248|224:275,1,85,0|2,0:0|0:0,0:0:0:0:
351,208,73403,2,0,P|358:284|370:309,1,85,0|8,0:0|0:1,0:0:0:0:
442,235,73778,1,2,0:0:0:0:
338,190,73965,5,2,3:0:0:0:
277,352,74153,2,0,L|181:347,1,85,0|8,0:0|0:1,0:0:0:0:
0,313,74528,2,0,P|29:314|55:319,1,42.5
122,384,74715,1,2,0:0:0:0:
119,358,74903,1,0,0:0:0:0:
116,332,75090,2,0,L|125:231,1,85,8|2,0:1|0:0,0:0:0:0:
174,28,75465,5,2,3:0:0:0:
174,28,75840,2,0,P|218:47|246:82,1,85,8|0,0:1|0:0,0:0:0:0:
228,248,76215,2,0,P|222:200|238:158,1,85,2|0,0:0|0:0,0:0:0:0:
392,91,76590,2,0,P|353:119|309:126,1,85,8|2,0:1|0:0,0:0:0:0:
137,123,76965,5,2,3:0:0:0:
317,126,77153,2,0,P|386:172|421:271,1,170
398,341,77715,1,2,0:0:0:0:
503,228,77903,1,0,0:0:0:0:
329,269,78090,2,0,L|224:264,1,85,8|2,0:1|0:0,0:0:0:0:
172,294,78465,5,4,3:2:0:0:
172,294,78840,2,0,P|110:278|67:282,1,85,8|0,0:1|0:0,0:0:0:0:
24,360,79215,1,2,0:0:0:0:
244,264,79403,2,0,P|226:202|201:167,1,85,0|8,0:0|0:1,0:0:0:0:
132,153,79778,1,2,0:0:0:0:
294,134,79965,5,2,3:0:0:0:
313,296,80153,1,0,0:0:0:0:
151,315,80340,1,8,0:1:0:0:
374,222,80528,2,0,P|382:263|383:277,1,42.5
313,296,80715,1,2,0:0:0:0:
303,324,80903,1,0,0:0:0:0:
293,352,81090,2,0,L|285:256,1,85,8|2,0:1|0:0,0:0:0:0:
301,160,81465,5,2,3:0:0:0:
301,160,81840,2,0,P|312:103|310:66,1,85,8|0,0:1|0:0,0:0:0:0:
374,222,82215,2,0,P|412:178|428:145,1,85,2|0,0:0|0:0,0:0:0:0:
427,305,82590,1,8,0:1:0:0:
321,290,82778,1,2,0:0:0:0:
144,352,82965,5,2,3:0:0:0:
250,367,83153,1,0,0:0:0:0:
55,300,83340,2,0,P|57:223|65:187,1,85,8|0,0:1|0:0,0:0:0:0:
221,138,83715,2,0,P|225:180|204:310,1,170,2|8,0:0|0:1,0:0:0:0:
205,305,84465,5,4,3:2:0:0:
205,305,84840,1,8,0:1:0:0:
280,347,85028,2,0,P|343:353|400:345,1,85,0|2,0:0|0:0,0:0:0:0:
493,231,85403,2,0,P|450:229|408:235,1,85,0|8,0:0|0:1,0:0:0:0:
479,135,85778,1,2,0:0:0:0:
339,207,85965,5,2,3:0:0:0:
386,131,86153,2,0,P|365:85|333:56,1,85,0|8,0:0|0:1,0:0:0:0:
314,226,86528,2,0,P|330:265|446:317,1,170
493,368,87090,1,8,0:1:0:0:
493,368,87465,6,0,L|484:268,1,85,2|0,3:0|0:0,0:0:0:0:
381,268,87840,2,0,L|373:183,1,85,8|0,0:1|0:0,0:0:0:0:
359,54,88215,1,2,0:0:0:0:
455,81,88403,1,0,0:0:0:0:
298,128,88590,1,8,0:1:0:0:
202,155,88778,1,2,0:0:0:0:
107,128,88965,6,0,L|121:22,1,85,2|0,3:0|0:0,0:0:0:0:
230,241,89340,2,0,L|124:227,1,85,8|0,0:1|0:0,0:0:0:0:
294,163,89715,2,0,B|327:149|363:157|351:163|387:171|418:158,2,127.5,2|0|2,0:0|0:0|0:0,0:0:0:0:
117,239,90465,5,4,3:2:0:0:
117,239,90840,1,8,0:1:0:0:
95,87,91028,1,0,0:0:0:0:
247,66,91215,1,2,0:0:0:0:
268,217,91403,2,0,L|283:322,1,85,0|8,0:0|0:1,0:0:0:0:
355,371,91778,1,2,0:0:0:0:
355,371,91965,6,0,P|372:333|397:299,1,85,2|0,3:0|0:0,0:0:0:0:
218,366,92340,1,8,0:1:0:0:
218,366,92528,2,0,P|192:332|175:293,1,85,0|2,0:0|0:0,0:0:0:0:
86,228,92903,1,0,0:0:0:0:
168,166,93090,1,8,0:1:0:0:
71,207,93278,1,2,0:0:0:0:
160,272,93465,5,2,3:0:0:0:
160,272,93840,1,8,0:1:0:0:
253,264,94028,1,0,0:0:0:0:
346,257,94215,1,2,0:0:0:0:
439,247,94403,1,0,0:0:0:0:
346,234,94590,1,8,0:1:0:0:
253,220,94778,1,2,0:0:0:0:
162,198,94965,6,0,L|63:207,1,85,2|0,3:0|0:0,0:0:0:0:
86,286,95340,2,0,L|170:278,1,85,8|0,0:1|0:0,0:0:0:0:
240,231,95715,2,0,B|252:136|210:168|234:52,1,170,2|8,0:0|0:1,0:0:0:0:
231,63,96465,5,2,0:0:0:0:
315,76,96653,1,0,0:0:0:0:
399,89,96840,1,0,0:0:0:0:
483,102,97028,2,0,P|456:161|465:283,1,170,2|0,0:0|0:0,0:0:0:0:
511,331,97590,1,2,0:0:0:0:
483,102,97778,1,0,0:0:0:0:
483,102,99465,1,0,0:0:0:0:
402,130,99653,1,0,0:0:0:0:
402,130,99747,1,0,0:0:0:0:
402,130,99840,1,0,0:0:0:0:
317,113,100028,1,2,0:0:0:0:
252,56,100403,1,0,0:0:0:0:
308,120,100590,1,0,0:0:0:0:
326,204,100778,2,0,L|318:296,1,85,2|0,0:0|0:0,0:0:0:0:
235,270,101153,2,0,L|243:362,1,85,2|0,0:0|0:0,0:0:0:0:
161,327,101528,1,2,0:0:0:0:
161,327,102465,5,2,0:0:0:0:
77,309,102653,1,0,0:0:0:0:
95,225,102840,1,0,0:0:0:0:
179,243,103028,2,0,L|349:224,1,170,2|0,0:0|0:0,0:0:0:0:
431,242,103590,1,2,0:0:0:0:
179,243,103778,2,0,P|153:211|145:148,1,85
66,206,104153,2,0,P|59:165|84:106,1,85
179,243,104528,2,0,P|155:208|153:145,1,85,2|0,0:0|0:0,0:0:0:0:
188,94,104903,1,0,0:0:0:0:
188,94,105465,1,0,0:0:0:0:
179,243,106028,1,2,0:0:0:0:
149,166,106403,1,0,0:0:0:0:
188,94,106778,1,2,0:0:0:0:
188,94,108465,5,2,0:0:0:0:
269,69,108653,1,0,0:0:0:0:
189,104,108840,1,0,0:0:0:0:
105,75,109028,2,0,P|155:120|192:241,1,170,2|0,0:0|0:0,0:0:0:0:
179,297,109590,1,2,0:0:0:0:
105,75,109778,1,0,0:0:0:0:
105,75,111465,1,0,0:0:0:0:
75,154,111653,1,0,0:0:0:0:
75,154,111747,1,0,0:0:0:0:
75,154,111840,1,0,0:0:0:0:
159,141,112028,1,2,0:0:0:0:
227,190,112403,1,0,0:0:0:0:
311,177,112590,1,0,0:0:0:0:
395,164,112778,1,2,0:0:0:0:
444,96,113153,1,2,0:0:0:0:
376,47,113528,1,2,0:0:0:0:
376,47,114465,5,2,0:0:0:0:
356,129,114653,1,0,0:0:0:0:
418,188,114840,1,0,0:0:0:0:
438,106,115028,2,0,P|395:106|263:44,1,170,2|0,0:0|0:0,0:0:0:0:
198,85,115590,1,2,0:0:0:0:
438,106,115778,2,0,P|464:67|469:17,1,85
447,193,116153,2,0,P|489:172|518:131,1,85
438,106,116528,2,0,P|460:64|461:14,1,85,2|0,0:0|0:0,0:0:0:0:
383,0,116903,1,0,0:0:0:0:
383,0,117465,1,0,0:0:0:0:
438,106,118028,1,2,0:0:0:0:
462,27,118403,1,0,0:0:0:0:
383,0,118778,1,2,0:0:0:0:
172,149,131153,5,2,0:0:0:0:
107,256,131340,5,0,0:0:0:0:
189,69,131528,5,2,0:0:0:0:
188,263,131715,5,0,0:0:0:0:
270,43,131903,5,2,0:0:0:0:
266,239,132090,5,0,0:0:0:0:
333,98,132278,5,2,0:0:0:0:
315,178,132465,5,2,3:0:0:0:
315,178,132840,2,0,P|252:186|226:201,1,85,8|0,0:1|0:0,0:0:0:0:
88,165,133215,1,0,0:0:0:0:
296,286,133403,1,0,0:0:0:0:
233,195,133590,2,0,P|182:233|167:259,1,85,8|2,0:1|0:0,0:0:0:0:
296,286,133965,6,0,B|366:309|357:259|429:283,1,127.5,2|0,3:0|0:0,0:0:0:0:
419,280,134340,1,8,0:1:0:0:
464,206,134528,2,0,P|425:160|399:47,1,170
283,127,135090,1,8,0:1:0:0:
385,42,135278,1,2,0:0:0:0:
157,78,135465,6,0,P|162:138|158:171,1,85,2|0,3:0|0:0,0:0:0:0:
159,162,135840,2,0,P|133:216|113:243,1,85,8|0,0:1|0:0,0:0:0:0:
118,236,136215,2,0,P|205:231|306:276,1,170,2|8,0:0|0:1,0:0:0:0:
317,334,136778,1,2,0:0:0:0:
385,206,136965,5,2,3:0:0:0:
420,281,137153,1,0,0:0:0:0:
472,211,137340,1,8,0:1:0:0:
437,136,137528,1,0,0:0:0:0:
437,136,137715,2,0,P|380:124|317:119,1,85
196,92,138090,1,8,0:1:0:0:
227,194,138278,1,2,0:0:0:0:
128,286,138465,5,2,3:0:0:0:
128,286,138840,2,0,P|183:284|220:296,1,85,8|0,0:1|0:0,0:0:0:0:
326,301,139215,1,0,0:0:0:0:
262,205,139403,1,0,0:0:0:0:
326,301,139590,2,0,L|309:398,1,85,8|2,0:1|0:0,0:0:0:0:
413,202,139965,6,0,L|510:219,2,85,2|0|8,3:0|0:0|0:1,0:0:0:0:
364,139,140528,2,0,P|304:173|187:182,1,170
147,243,141090,2,0,P|198:262|235:300,1,85,8|2,0:1|0:0,0:0:0:0:
36,211,141465,6,0,P|55:160|93:123,1,85,2|0,3:0|0:0,0:0:0:0:
74,137,141840,2,0,P|115:102|167:89,1,85,8|0,0:1|0:0,0:0:0:0:
144,92,142215,2,0,P|156:165|156:278,1,170,2|8,0:0|0:1,0:0:0:0:
210,320,142778,1,2,0:0:0:0:
356,175,142965,6,0,L|365:71,1,85,2|0,3:0|0:0,0:0:0:0:
422,13,143340,1,8,0:1:0:0:
363,90,143528,2,0,P|296:110|220:126,1,127.5
239,122,143903,1,0,0:0:0:0:
57,78,144090,1,8,0:1:0:0:
171,41,144278,1,2,0:0:0:0:
35,87,144465,5,2,3:0:0:0:
35,87,144840,2,0,P|68:128|78:187,1,85,8|0,0:1|0:0,0:0:0:0:
167,198,145215,2,0,P|174:156|166:115,1,85
264,204,145590,2,0,P|251:244|224:277,1,85,8|2,0:1|0:0,0:0:0:0:
144,300,145965,1,2,3:0:0:0:
264,204,146153,2,0,L|437:188,1,170
410,293,146715,2,0,L|418:201,2,85,0|0|8,0:0|0:0|0:1,0:0:0:0:
486,333,147278,1,2,0:0:0:0:
451,133,147465,6,0,P|410:146|347:141,1,85,2|0,3:0|0:0,0:0:0:0:
368,145,147840,2,0,P|322:131|284:100,1,85,8|0,0:1|0:0,0:0:0:0:
293,109,148215,1,2,0:0:0:0:
335,247,148403,2,0,L|327:338,1,85,0|8,0:0|0:1,0:0:0:0:
208,112,148778,2,0,P|284:148|404:132,2,170,2|0|0,0:0|0:0|0:0,0:0:0:0:
157,44,149715,1,0,0:0:0:0:
76,67,149903,1,0,0:0:0:0:
120,242,150090,1,8,0:1:0:0:
143,160,150278,1,2,0:0:0:0:
259,224,150465,5,2,3:0:0:0:
259,224,150840,1,8,0:1:0:0:
506,168,151028,2,0,P|526:107|502:31,1,127.5
512,46,151403,1,0,0:0:0:0:
379,157,151590,2,0,L|395:253,1,85,8|2,0:1|0:0,0:0:0:0:
499,283,151965,1,2,3:0:0:0:
272,114,152153,2,0,P|232:150|127:168,1,127.5
162,170,152528,1,0,0:0:0:0:
292,376,152715,2,0,L|382:385,1,85
381,302,153090,2,0,L|470:287,1,85,8|2,0:1|0:0,0:0:0:0:
477,15,153465,6,0,P|443:50|430:93,1,85,2|0,3:0|0:0,0:0:0:0:
431,83,153840,2,0,P|435:132|461:174,1,85,8|0,0:1|0:0,0:0:0:0:
451,163,154215,2,0,B|407:143|359:151|374:160|325:168|282:148,1,170,2|8,0:0|0:1,0:0:0:0:
222,87,154778,1,2,0:0:0:0:
270,365,154965,1,2,3:0:0:0:
163,154,155153,2,0,P|130:136|66:135,1,85,0|8,0:0|0:1,0:0:0:0:
83,131,155528,1,0,0:0:0:0:
329,298,155715,1,2,3:0:0:0:
418,328,155902,1,0,0:0:0:0:
418,328,155997,1,0,0:0:0:0:
418,328,156091,2,0,L|457:323,6,21.25,8|0|8|0|10|0|8,0:0|0:0|0:0|0:0|0:0|0:0|0:0,0:0:0:0:
349,378,156465,5,4,3:2:0:0:
349,378,156840,1,8,0:1:0:0:
189,337,157028,2,0,L|286:340,1,85,0|2,0:0|0:0,0:0:0:0:
110,373,157403,2,0,L|25:375,1,85,0|8,0:0|0:1,0:0:0:0:
32,163,157778,1,2,0:0:0:0:
32,163,157965,2,0,P|70:232|73:269,2,85,2|0|8,3:0|0:0|0:1,0:0:0:0:
124,299,158528,2,0,P|149:264|157:247,1,42.5
218,223,158715,1,2,0:0:0:0:
228,193,158903,1,0,0:0:0:0:
238,163,159090,2,0,L|262:269,1,85,8|2,0:1|0:0,0:0:0:0:
112,44,159465,5,2,3:0:0:0:
112,44,159840,1,8,0:1:0:0:
266,84,160028,2,0,P|304:112|349:123,1,85,0|2,0:0|0:0,0:0:0:0:
199,190,160403,1,0,0:0:0:0:
104,67,160590,1,8,0:1:0:0:
132,273,160778,1,2,0:0:0:0:
218,170,160965,5,2,3:0:0:0:
322,254,161153,2,0,P|282:273|223:279,1,85,0|8,0:0|0:1,0:0:0:0:
35,217,161528,2,0,P|95:192|205:191,1,170
222,299,162090,1,8,0:1:0:0:
336,154,162278,1,2,0:0:0:0:
359,263,162465,5,4,3:2:0:0:
359,263,162840,2,0,L|354:354,1,85,8|0,0:1|0:0,0:0:0:0:
203,194,163215,1,2,0:0:0:0:
203,194,163403,2,0,L|198:285,1,85,0|8,0:0|0:1,0:0:0:0:
139,334,163778,1,2,0:0:0:0:
273,296,163965,1,2,3:0:0:0:
85,237,164153,1,0,0:0:0:0:
284,185,164340,1,8,0:1:0:0:
164,117,164528,2,0,P|158:89|162:53,1,42.5
91,38,164715,1,2,0:0:0:0:
55,26,164903,1,0,0:0:0:0:
19,14,165090,2,0,L|32:112,1,85,8|2,0:1|0:0,0:0:0:0:
67,253,165465,5,2,3:0:0:0:
67,253,165840,1,8,0:1:0:0:
178,212,166028,1,0,0:0:0:0:
219,324,166215,1,2,0:0:0:0:
107,365,166403,1,0,0:0:0:0:
281,221,166590,1,8,0:1:0:0:
393,262,166778,1,2,0:0:0:0:
504,217,166965,6,0,P|494:156|474:120,1,85,2|0,3:0|0:0,0:0:0:0:
374,268,167340,2,0,P|395:210|396:168,1,85,8|0,0:1|0:0,0:0:0:0:
335,30,167715,1,2,0:0:0:0:
335,30,167903,1,0,0:0:0:0:
354,115,168090,2,0,P|282:111|213:191,1,170,8|4,0:1|3:2,0:0:0:0:
216,176,168840,5,8,0:1:0:0:
135,293,169028,2,0,P|131:250|104:202,1,85,0|2,0:0|0:0,0:0:0:0:
23,359,169403,2,0,P|41:320|41:265,1,85,0|8,0:0|0:1,0:0:0:0:
5,205,169778,1,2,0:0:0:0:
145,128,169965,1,2,3:0:0:0:
287,201,170153,2,0,L|408:192,1,85,0|8,0:0|0:1,0:0:0:0:
448,143,170528,2,0,P|410:197|404:314,1,170
437,373,171090,2,0,P|411:341|356:322,1,85,8|2,0:1|0:0,0:0:0:0:
314,260,171465,6,0,L|219:279,1,85,2|0,3:0|0:0,0:0:0:0:
226,190,171840,2,0,L|129:183,1,85,8|0,0:1|0:0,0:0:0:0:
159,99,172215,1,2,0:0:0:0:
78,71,172402,1,0,0:0:0:0:
133,275,172590,1,8,0:1:0:0:
77,57,172778,1,2,0:0:0:0:
141,184,172965,6,0,L|226:190,1,85,2|0,3:0|0:0,0:0:0:0:
230,276,173340,2,0,L|314:260,1,85,8|0,0:1|0:0,0:0:0:0:
372,323,173715,2,0,B|405:309|441:317|429:323|465:331|496:318,2,127.5,2|0|2,0:0|0:0|0:0,0:0:0:0:
313,260,174465,5,4,3:2:0:0:
313,260,174840,1,8,0:1:0:0:
148,220,175028,1,0,0:0:0:0:
313,272,175215,2,0,L|409:259,1,85,2|0,0:0|0:0,0:0:0:0:
493,246,175590,1,8,0:1:0:0:
264,89,175778,1,2,0:0:0:0:
264,89,175965,2,0,P|277:152|226:251,1,170,2|8,3:0|0:1,0:0:0:0:
407,374,176528,2,0,P|365:301|376:218,1,170
433,157,177090,1,8,0:1:0:0:
403,80,177278,1,2,0:0:0:0:
437,168,177465,5,2,3:0:0:0:
437,168,177840,2,0,P|378:147|348:146,1,85,8|0,0:1|0:0,0:0:0:0:
230,247,178215,2,0,P|268:230|310:224,1,85,2|0,0:0|0:0,0:0:0:0:
413,332,178590,1,8,0:1:0:0:
332,309,178777,1,2,0:0:0:0:
101,364,178965,2,0,L|288:376,1,170,2|8,3:0|0:1,0:0:0:0:
310,224,179528,1,0,0:0:0:0:
92,302,179715,2,0,P|83:356|96:394,1,85,2|0,0:0|0:0,0:0:0:0:
43,218,180090,2,0,P|8:260|0:299,1,85,8|2,0:1|0:0,0:0:0:0:
42,120,180465,5,4,3:2:0:0:
42,120,180840,1,8,0:1:0:0:
173,71,181028,1,8,0:1:0:0:
67,118,181215,1,2,0:0:0:0:
148,73,181403,1,0,0:0:0:0:
217,134,181590,2,0,P|266:139|305:135,1,85,8|2,0:1|0:0,0:0:0:0:
351,231,181965,6,0,P|411:202|517:195,1,170,2|8,3:0|0:1,0:0:0:0:
338,44,182528,1,0,0:0:0:0:
338,44,182715,2,0,P|398:73|504:80,1,170,2|8,0:0|0:1,0:0:0:0:
351,231,183278,1,2,0:0:0:0:
351,231,183465,5,2,3:0:0:0:
351,231,183840,1,8,0:1:0:0:
227,245,184028,1,8,0:1:0:0:
242,370,184215,1,2,0:0:0:0:
366,355,184403,1,0,0:0:0:0:
366,355,184590,2,0,P|422:362|464:378,1,85,8|2,0:1|0:0,0:0:0:0:
252,270,184965,6,0,L|69:285,1,170,2|8,3:0|0:1,0:0:0:0:
246,139,185528,1,0,0:0:0:0:
246,139,185715,2,0,L|63:124,1,170,2|8,0:0|0:1,0:0:0:0:
252,270,186278,1,2,0:0:0:0:
252,270,186465,5,4,3:2:0:0:
252,270,186840,2,0,P|204:242|163:238,1,85,8|8,0:1|0:1,0:0:0:0:
316,144,187215,2,0,P|347:173|366:211,1,85,2|0,0:0|0:0,0:0:0:0:
317,55,187590,1,8,0:1:0:0:
226,47,187778,1,2,0:0:0:0:
317,55,187965,6,0,L|288:241,1,170,2|8,3:0|0:1,0:0:0:0:
135,60,188528,1,0,0:0:0:0:
135,60,188715,2,0,L|164:246,1,170,2|8,0:0|0:1,0:0:0:0:
317,55,189278,1,2,0:0:0:0:
317,55,189465,5,2,3:0:0:0:
317,55,189840,2,0,P|280:90|249:129,1,85,8|8,0:1|0:1,0:0:0:0:
174,8,190215,2,0,P|159:56|152:106,1,85,2|0,0:0|0:0,0:0:0:0:
44,124,190590,1,8,0:1:0:0:
127,210,190778,1,2,0:0:0:0:
59,288,190965,6,0,P|177:317|237:314,1,170,2|8,3:0|0:1,0:0:0:0:
59,96,191528,1,0,0:0:0:0:
59,96,191715,2,0,P|177:67|237:70,1,170,2|8,0:0|0:1,0:0:0:0:
282,15,192278,1,2,0:0:0:0:
365,122,192465,5,4,3:2:0:0:
365,122,192840,1,8,0:1:0:0:
377,294,193028,1,8,0:1:0:0:
285,214,193215,1,2,0:0:0:0:
457,202,193403,1,0,0:0:0:0:
275,224,193590,2,0,L|188:213,1,85,8|2,0:1|0:0,0:0:0:0:
45,261,193965,6,0,P|17:228|4:93,1,170,2|8,3:0|0:1,0:0:0:0:
133,292,194528,1,0,0:0:0:0:
133,292,194715,2,0,P|92:277|13:167,1,170,2|8,0:0|0:1,0:0:0:0:
65,27,195278,1,2,0:0:0:0:
65,27,195465,5,2,3:0:0:0:
65,27,195840,2,0,P|108:57|143:66,1,85,8|8,0:1|0:1,0:0:0:0:
292,0,196215,2,0,P|248:30|213:39,1,85,2|0,0:0|0:0,0:0:0:0:
134,151,196590,1,8,0:1:0:0:
160,233,196778,1,2,0:0:0:0:
53,264,196965,6,0,L|254:284,1,170,2|8,3:0|0:1,0:0:0:0:
335,369,197528,1,0,0:0:0:0:
335,369,197715,2,0,L|504:352,1,170,2|8,0:0|0:1,0:0:0:0:
412,323,198278,1,2,0:0:0:0:
508,359,198465,5,4,3:2:0:0:
508,359,198840,1,8,0:1:0:0:
467,192,199028,2,0,L|477:86,1,85,8|2,0:1|0:0,0:0:0:0:
431,26,199403,1,0,0:0:0:0:
232,72,199590,1,8,0:1:0:0:
149,52,199778,1,2,0:0:0:0:
277,177,199965,6,0,P|289:239|247:352,1,170,2|8,3:0|0:1,0:0:0:0:
121,159,200528,1,0,0:0:0:0:
121,159,200715,2,0,P|90:237|101:320,1,170,2|8,0:0|0:1,0:0:0:0:
277,177,201278,1,2,0:0:0:0:
277,177,201465,5,2,3:0:0:0:
277,177,201840,1,8,0:1:0:0:
291,251,202028,1,8,0:1:0:0:
217,265,202215,1,2,0:0:0:0:
202,191,202403,1,0,0:0:0:0:
380,311,202590,1,8,0:1:0:0:
500,133,202778,1,2,0:0:0:0:
322,13,202965,6,0,P|277:58|149:94,1,170,2|8,3:0|0:1,0:0:0:0:
229,185,203528,1,0,0:0:0:0:
229,185,203715,2,0,P|184:140|56:104,1,170,2|8,0:0|0:1,0:0:0:0:
136,13,204278,1,2,0:0:0:0:
65,114,204465,6,0,P|61:157|76:222,1,85,2|0,3:0|0:0,0:0:0:0:
22,262,204840,1,8,0:1:0:0:
231,280,205028,2,0,P|147:282|73:322,1,170
22,262,205590,1,8,0:1:0:0:
73,321,205778,6,0,P|133:297|168:190,1,170,2|0,0:0|0:0,0:0:0:0:
135,136,206340,1,8,0:1:0:0:
253,72,206528,2,0,P|295:70|337:73,1,85
166,49,206903,1,0,0:0:0:0:
82,64,207090,1,8,0:1:0:0:
82,64,207465,5,2,3:0:0:0:
174,56,207653,1,0,0:0:0:0:
174,56,207747,1,0,0:0:0:0:
174,56,207840,1,8,0:1:0:0:
238,145,208028,2,0,P|280:143|322:146,1,85,0|2,0:0|0:0,0:0:0:0:
410,69,208403,1,0,0:0:0:0:
337,163,208590,1,8,0:1:0:0:
462,245,208778,6,0,L|470:349,1,85,2|2,0:0|3:0,0:0:0:0:
260,255,209153,2,0,L|252:359,1,85,0|8,0:0|0:1,0:0:0:0:
147,145,209528,1,0,0:0:0:0:
147,145,209715,2,0,P|82:197|0:191,1,170,0|8,0:0|0:1,0:0:0:0:
0,190,210465,6,0,P|45:214|63:245,1,85,2|0,3:0|0:0,0:0:0:0:
31,315,210840,1,8,0:1:0:0:
93,362,211028,2,0,P|169:327|254:326,1,170
31,315,211590,1,8,0:1:0:0:
93,362,211778,6,0,P|137:318|159:213,1,170,2|0,0:0|0:0,0:0:0:0:
125,127,212340,1,8,0:1:0:0:
125,127,212528,2,0,P|90:84|60:75,1,85
10,149,212903,2,0,P|33:183|71:200,1,85,0|8,0:0|0:1,0:0:0:0:
71,200,213465,6,0,P|136:182|261:202,1,170,2|8,3:0|0:1,0:0:0:0:
298,123,214028,2,0,P|346:158|396:168,1,85,0|2,0:0|0:0,0:0:0:0:
421,242,214403,2,0,P|469:207|519:197,1,85,0|8,0:0|0:1,0:0:0:0:
340,243,214778,6,0,P|293:291|178:289,1,170,2|0,0:0|0:0,0:0:0:0:
122,326,215340,1,8,0:1:0:0:
122,326,215528,2,0,L|27:321,1,85
46,243,215903,2,0,L|130:247,1,85,0|8,0:0|0:1,0:0:0:0:
130,247,216465,5,2,3:0:0:0:
190,187,216653,1,0,0:0:0:0:
198,102,216840,1,8,0:1:0:0:
166,22,217028,2,0,P|100:28|-22:74,1,170
2,60,217590,1,8,0:1:0:0:
78,147,217778,2,0,P|157:175|241:185,1,170,2|0,0:0|0:0,0:0:0:0:
375,170,218340,1,8,0:1:0:0:
375,170,218528,2,0,P|375:103|362:-30,1,170
254,2,219090,1,8,0:1:0:0:
254,2,219465,5,2,3:0:0:0:
195,92,219653,1,0,0:0:0:0:
195,92,219747,1,0,0:0:0:0:
195,92,219840,1,8,0:1:0:0:
278,139,220028,2,0,P|263:219|238:327,1,170
174,368,220590,1,8,0:1:0:0:
271,384,220778,2,0,P|315:374|382:364,1,85,2|2,0:0|3:0,0:0:0:0:
164,282,221153,2,0,P|122:274|80:265,1,85,0|8,0:0|0:1,0:0:0:0:
32,191,221528,2,0,P|46:270|35:372,1,170
38,358,222090,1,8,0:1:0:0:
42,362,222465,6,0,P|91:368|144:371,2,85,2|0|8,3:0|0:0|0:1,0:0:0:0:
10,283,223028,2,0,P|29:207|90:100,1,170
59,50,223590,1,8,0:1:0:0:
147,145,223778,2,0,P|206:146|252:143,1,85,2|2,0:0|3:0,0:0:0:0:
269,309,224153,2,0,P|240:257|214:219,1,85,0|8,0:0|0:1,0:0:0:0:
351,121,224528,2,0,P|320:171|300:213,1,85
364,293,224903,1,0,0:0:0:0:
311,214,225090,1,8,0:1:0:0:
311,214,225465,6,0,P|377:221|492:201,1,170,2|8,3:0|0:1,0:0:0:0:
512,278,226028,2,0,P|459:311|432:342,1,85,0|2,0:0|0:0,0:0:0:0:
364,293,226403,2,0,P|334:348|326:388,1,85,0|8,0:0|0:1,0:0:0:0:
443,326,226778,2,0,P|445:258|406:75,1,255,2|8,0:0|0:1,0:0:0:0:
353,7,227528,2,0,L|243:-3,1,85
211,82,227903,1,0,0:0:0:0:
106,76,228090,1,8,0:1:0:0:
106,76,228465,6,0,P|60:157|41:245,1,170,2|8,3:0|0:1,0:0:0:0:
216,198,229028,2,0,P|179:218|148:246,1,85,2|0,0:0|0:0,0:0:0:0:
147,247,229403,2,0,P|126:283|113:323,1,85,2|8,0:0|0:1,0:0:0:0:
0,384,229778,6,0,L|2:357,1,21.25,6|0,0:0|0:0,0:0:0:0:
