osu file format v14

[General]
AudioFilename: audio.mp3
AudioLeadIn: 0
PreviewTime: 466
Countdown: 0
SampleSet: Soft
StackLeniency: 0.4
Mode: 0
LetterboxInBreaks: 0
WidescreenStoryboard: 1

[Editor]
Bookmarks: 465,12465,24465,48465,60465,72465,96465,131153,144465,156465,168465,180465,192465,204465,229965
DistanceSpacing: 1
BeatDivisor: 8
GridSize: 4
TimelineZoom: 1.7

[Metadata]
Title:Raw Town
TitleUnicode:Raw Town
Artist:Shuta Hasunuma
ArtistUnicode:蓮沼執太
Creator:dsco
Version:Hard
Source:
Tags:indie chamber pop Japanese メロディーズ melodies vinxis
BeatmapID:3950082
BeatmapSetID:1112314

[Difficulty]
HPDrainRate:4
CircleSize:3.7
OverallDifficulty:7
ApproachRate:8
SliderMultiplier:1.5
SliderTickRate:1

[Events]
//Background and Video events
0,0,"women-hand-holding-umbrella-walking-in-the-winter-rain-on-a-street-in-Shanghai-city.jpg",0,0
//Break Periods
2,120465,130403
//Storyboard Layer 0 (Background)
//Storyboard Layer 1 (Fail)
//Storyboard Layer 2 (Pass)
//Storyboard Layer 3 (Foreground)
//Storyboard Layer 4 (Overlay)
//Storyboard Sound Samples

[TimingPoints]
466,375,4,2,0,49,1,0

[Colours]
Combo1 : 204,238,238
Combo2 : 255,187,119
Combo3 : 153,187,187

[HitObjects]
0,53,465,5,2,3:0:0:0:
133,99,840,2,0,L|122:187,1,75,8|0,0:1|0:0,0:0:0:0:
214,66,1215,2,0,L|226:153,2,75,0|0|8,0:0|0:0|0:1,0:0:0:0:
303,100,1778,2,0,L|476:124,1,150,2|0,0:0|0:0,0:0:0:0:
370,216,2528,1,0,0:0:0:0:
429,265,2715,2,0,L|256:289,1,150,0|8,0:0|0:1,0:0:0:0:
163,348,3465,5,2,3:0:0:0:
163,348,3840,1,8,0:1:0:0:
163,348,4215,2,0,P|134:312|118:199,1,150,2|8,0:0|0:1,0:0:0:0:
49,152,4778,2,0,P|75:121|98:69,1,75,2|2,0:0|3:0,0:0:0:0:
172,143,5153,2,0,P|189:176|213:204,1,75,0|8,0:0|0:1,0:0:0:0:
288,244,5528,2,0,L|450:221,1,150
512,279,6090,1,8,0:1:0:0:
452,145,6278,1,2,0:0:0:0:
512,95,6465,5,2,3:0:0:0:
345,70,6840,2,0,L|261:76,1,75,8|0,0:1|0:0,0:0:0:0:
222,144,7215,1,0,0:0:0:0:
145,111,7403,1,0,0:0:0:0:
65,138,7590,2,0,P|30:162|-7:174,1,75,8|2,0:1|0:0,0:0:0:0:
84,247,7965,6,0,L|92:323,1,75,2|0,3:0|0:0,0:0:0:0:
214,218,8340,2,0,L|221:143,1,75,8|0,0:1|0:0,0:0:0:0:
344,257,8715,1,0,0:0:0:0:
151,99,9090,2,0,L|137:19,1,75,8|2,0:1|0:0,0:0:0:0:
85,157,9465,5,2,3:0:0:0:
85,157,9840,1,8,0:1:0:0:
85,157,10215,2,0,L|72:239,2,75,2|0|8,0:0|0:0|0:1,0:0:0:0:
161,205,10778,1,2,0:0:0:0:
261,142,10965,2,0,B|302:117|347:124|342:138|387:142|426:119,1,150,2|8,3:0|0:1,0:0:0:0:
370,49,11528,1,0,0:0:0:0:
316,212,11715,2,0,L|335:371,1,150,0|8,0:0|0:1,0:0:0:0:
235,262,12278,1,2,0:0:0:0:
261,142,12465,5,2,3:0:0:0:
173,370,12840,2,0,L|88:359,1,75,8|0,0:1|0:0,0:0:0:0:
199,253,13215,2,0,L|114:264,1,75
76,183,13590,2,0,P|70:126|89:46,1,112.5,8|0,0:1|0:0,0:0:0:0:
79,71,13965,5,2,3:0:0:0:
167,114,14153,2,0,P|191:70|288:42,1,150
373,73,14715,2,0,P|384:26|389:-30,2,75,0|0|8,0:0|0:0|0:1,0:0:0:0:
353,249,15465,5,2,3:0:0:0:
353,249,15840,1,8,0:1:0:0:
353,249,16215,2,0,L|337:151,1,75,2|0,0:0|0:0,0:0:0:0:
278,86,16590,1,8,0:1:0:0:
225,178,16778,1,2,0:0:0:0:
155,99,16965,5,2,3:0:0:0:
225,178,17153,2,0,P|241:226|227:345,1,150
235,324,17903,1,0,0:0:0:0:
125,318,18090,1,8,0:1:0:0:
123,198,18278,1,2,0:0:0:0:
30,258,18465,5,2,3:0:0:0:
279,249,18840,2,0,L|360:238,1,75,8|0,0:1|0:0,0:0:0:0:
438,176,19215,2,0,L|427:101,1,75
346,75,19590,1,8,0:1:0:0:
425,5,19778,1,2,0:0:0:0:
326,39,19965,6,0,P|269:24|221:28,1,75,2|0,3:0|0:0,0:0:0:0:
220,127,20340,2,0,P|280:150|342:159,1,112.5,8|0,0:1|0:0,0:0:0:0:
332,162,20715,2,0,P|334:213|326:255,1,75
402,294,21090,1,8,0:1:0:0:
90,324,21465,5,2,3:0:0:0:
90,324,21840,1,8,0:1:0:0:
90,324,22215,2,0,P|151:304|242:307,1,150,2|8,0:0|0:1,0:0:0:0:
311,250,22778,1,2,0:0:0:0:
338,331,22965,5,2,3:0:0:0:
406,247,23153,1,0,0:0:0:0:
340,162,23340,1,8,0:1:0:0:
237,192,23528,1,0,0:0:0:0:
311,250,23716,2,8,L|261:288,7,37.5,10|8|8|8|8|8|10|8,3:0|0:0|0:0|0:0|0:1|0:0|0:0|0:0,0:0:0:0:
261,306,24465,5,4,3:2:0:0:
66,358,24840,1,8,0:1:0:0:
13,298,25028,2,0,P|25:256|31:141,2,150,0|0|2,0:0|0:0|0:0,0:0:0:0:
108,240,25965,1,2,3:0:0:0:
182,273,26153,2,0,L|266:253,1,75,0|8,0:0|0:1,0:0:0:0:
385,317,26528,1,0,0:0:0:0:
428,245,26715,2,0,L|512:265,1,75,2|0,0:0|0:0,0:0:0:0:
393,173,27090,1,8,0:1:0:0:
298,334,27465,5,2,3:0:0:0:
238,97,27840,2,0,P|239:52|246:-3,1,75,8|0,0:1|0:0,0:0:0:0:
150,96,28215,2,0,P|151:51|158:-4,1,75,2|0,0:0|0:0,0:0:0:0:
71,135,28590,1,8,0:1:0:0:
26,200,28778,1,2,0:0:0:0:
179,286,28965,1,2,3:0:0:0:
119,352,29153,2,0,P|105:322|109:198,2,150
199,367,30090,1,8,0:1:0:0:
296,248,30278,1,2,0:0:0:0:
453,295,30465,5,4,3:2:0:0:
381,66,30840,2,0,P|371:114|355:145,1,75,8|0,0:1|0:0,0:0:0:0:
392,209,31215,1,2,0:0:0:0:
279,140,31403,2,0,L|123:125,1,150,0|2,0:0|0:0,0:0:0:0:
57,167,31965,2,0,P|62:214|53:252,1,75,2|0,3:0|0:0,0:0:0:0:
0,113,32340,1,8,0:1:0:0:
140,204,32528,1,0,0:0:0:0:
8,296,32715,2,0,L|-5:377,1,75,2|0,0:0|0:0,0:0:0:0:
64,246,33090,1,8,0:1:0:0:
223,341,33465,5,2,3:0:0:0:
413,285,33840,2,0,P|395:250|381:204,1,75,8|0,0:1|0:0,0:0:0:0:
330,372,34215,2,0,P|321:333|320:285,1,75,2|0,0:0|0:0,0:0:0:0:
223,341,34590,1,8,0:1:0:0:
244,256,34778,1,2,0:0:0:0:
162,283,34965,6,0,P|130:289|82:296,1,75,2|0,3:0|0:0,0:0:0:0:
242,165,35340,2,0,P|274:171|322:178,1,75,8|0,0:1|0:0,0:0:0:0:
153,83,35715,2,0,P|101:93|-8:103,1,150,2|8,0:0|0:1,0:0:0:0:
210,15,36465,5,4,3:2:0:0:
168,216,36840,1,8,0:1:0:0:
238,165,37028,2,0,P|221:113|215:70,1,75,0|2,0:0|0:0,0:0:0:0:
317,196,37403,2,0,P|305:259|299:353,1,150,0|2,0:0|0:0,0:0:0:0:
378,378,37965,2,0,L|456:365,1,75,2|0,3:0|0:0,0:0:0:0:
215,331,38340,2,0,L|141:343,1,75,8|0,0:1|0:0,0:0:0:0:
345,275,38903,1,0,0:0:0:0:
299,344,39090,1,8,0:1:0:0:
301,84,39465,5,2,3:0:0:0:
378,378,39840,1,8,0:1:0:0:
451,134,40215,1,2,0:0:0:0:
395,194,40403,2,0,P|410:246|413:283,1,75,0|8,0:0|0:1,0:0:0:0:
183,143,40778,2,0,B|272:122|238:166|354:136,1,150,2|0,0:0|0:0,0:0:0:0:
377,75,41340,2,0,L|390:-6,1,75,8|0,0:1|0:0,0:0:0:0:
224,218,41715,2,0,B|243:307|243:307|232:336,2,112.5,2|0|2,0:0|0:0|0:0,0:0:0:0:
139,211,42465,5,4,3:2:0:0:
313,249,42840,2,0,L|396:237,1,75,8|0,0:1|0:0,0:0:0:0:
459,279,43215,2,0,L|448:359,2,75,2|0|8,0:0|0:0|0:1,0:0:0:0:
510,213,43778,1,2,0:0:0:0:
450,105,43965,2,0,P|414:96|315:34,1,150,2|8,3:0|0:1,0:0:0:0:
245,139,44528,1,0,0:0:0:0:
183,83,44715,2,0,L|172:2,1,75,2|0,0:0|0:0,0:0:0:0:
86,19,45090,2,0,L|96:93,1,75,8|2,0:1|0:0,0:0:0:0:
28,145,45465,5,2,3:0:0:0:
132,288,45840,2,0,L|123:375,2,75,8|0|2,0:1|0:0|0:0,0:0:0:0:
201,235,46403,1,0,0:0:0:0:
304,293,46590,1,8,0:1:0:0:
424,258,46778,1,2,0:0:0:0:
398,334,46965,2,0,P|385:264|381:185,1,150,2|8,3:0|0:1,0:0:0:0:
299,65,47528,1,0,0:0:0:0:
299,65,47715,2,0,P|295:139|281:213,1,150,2|8,0:0|0:1,0:0:0:0:
152,69,48465,5,2,3:0:0:0:
96,303,48840,2,0,L|103:205,1,75,8|0,0:1|0:0,0:0:0:0:
202,205,49215,2,0,L|207:279,1,75
308,264,49590,1,8,0:1:0:0:
380,195,49778,1,2,0:0:0:0:
459,252,49965,6,0,P|463:302|452:355,1,75,2|0,3:0|0:0,0:0:0:0:
512,172,50340,2,0,P|516:122|505:69,1,75,8|0,0:1|0:0,0:0:0:0:
508,8,50715,1,0,0:0:0:0:
428,54,50903,1,0,0:0:0:0:
508,8,51090,1,8,0:1:0:0:
195,11,51465,5,2,3:0:0:0:
195,11,51840,1,8,0:1:0:0:
195,11,52215,2,0,P|219:74|219:162,1,150,0|8,0:0|0:1,0:0:0:0:
166,225,52778,1,2,0:0:0:0:
266,227,52965,6,0,P|303:202|356:192,1,75,2|0,3:0|0:0,0:0:0:0:
219,305,53340,2,0,P|182:280|129:270,1,75,8|0,0:1|0:0,0:0:0:0:
64,310,53715,1,0,0:0:0:0:
41,213,53903,1,0,0:0:0:0:
129,167,54090,1,8,0:1:0:0:
93,74,54278,1,2,0:0:0:0:
151,5,54465,5,2,3:0:0:0:
219,221,54840,2,0,L|304:200,1,75,8|0,0:1|0:0,0:0:0:0:
311,118,55215,1,0,0:0:0:0:
311,118,55403,2,0,L|396:139,1,75,0|8,0:0|0:1,0:0:0:0:
455,82,55778,1,2,0:0:0:0:
512,165,55965,6,0,P|513:212|499:271,1,75,2|0,3:0|0:0,0:0:0:0:
417,282,56340,2,0,P|418:235|404:176,1,75,8|0,0:1|0:0,0:0:0:0:
328,314,56715,1,0,0:0:0:0:
283,199,56903,1,0,0:0:0:0:
328,314,57090,1,8,0:1:0:0:
35,328,57465,5,2,3:0:0:0:
35,328,57840,1,8,0:1:0:0:
35,328,58215,2,0,P|116:299|211:307,1,150,0|8,0:0|0:1,0:0:0:0:
264,235,58778,1,2,0:0:0:0:
182,183,58965,6,0,P|179:125|186:86,1,75,2|0,3:0|0:0,0:0:0:0:
262,46,59340,1,8,0:1:0:0:
266,145,59528,2,0,P|339:159|413:151,1,150
435,59,60090,1,8,0:1:0:0:
512,132,60278,1,2,0:0:0:0:
468,231,60465,5,2,3:0:0:0:
281,331,60840,2,0,L|396:345,1,112.5,8|0,0:1|0:0,0:0:0:0:
392,344,61215,1,0,0:0:0:0:
406,167,61590,2,0,P|391:131|381:80,1,75,8|2,0:1|0:0,0:0:0:0:
291,95,61965,1,2,3:0:0:0:
260,13,62153,1,0,0:0:0:0:
164,140,62528,2,0,P|184:229|194:309,1,150
220,207,63090,1,8,0:1:0:0:
23,157,63465,5,2,3:0:0:0:
23,157,63840,1,8,0:1:0:0:
23,157,64215,1,0,0:0:0:0:
86,212,64403,2,0,P|85:258|83:302,1,75,0|8,0:0|0:1,0:0:0:0:
147,339,64778,1,2,0:0:0:0:
289,287,65153,2,0,L|449:310,2,150
242,218,66090,1,8,0:1:0:0:
296,136,66278,1,2,0:0:0:0:
256,27,66465,5,2,3:0:0:0:
97,103,66840,2,0,L|19:118,1,75,8|0,0:1|0:0,0:0:0:0:
0,196,67215,1,0,0:0:0:0:
74,225,67403,1,0,0:0:0:0:
137,173,67590,1,8,0:1:0:0:
70,237,67778,2,0,P|72:298|51:389,1,150,2|0,0:0|0:0,0:0:0:0:
149,347,68340,2,0,P|178:314|210:289,1,75,8|0,0:1|0:0,0:0:0:0:
354,357,68715,2,0,P|310:348|273:333,1,75
277,252,69090,1,8,0:1:0:0:
495,292,69465,5,2,3:0:0:0:
495,292,69840,1,8,0:1:0:0:
495,292,70215,2,0,L|411:299,1,75
354,357,70590,1,8,0:1:0:0:
386,228,70778,2,0,P|372:193|364:141,2,75,2|2|0,0:0|3:0|0:0,0:0:0:0:
420,298,71340,1,8,0:1:0:0:
270,224,71528,1,0,0:0:0:0:
116,253,71716,2,8,L|63:269,7,37.5,10|8|8|8|8|8|10|8,3:0|0:0|0:0|0:0|0:1|0:0|0:0|0:0,0:0:0:0:
131,248,72465,5,4,3:2:0:0:
421,270,72840,1,8,0:1:0:0:
340,227,73028,2,0,P|279:243|243:245,1,75,0|2,0:0|0:0,0:0:0:0:
243,159,73403,2,0,P|304:143|340:141,1,75,0|8,0:0|0:1,0:0:0:0:
376,74,73778,1,2,0:0:0:0:
439,137,73965,6,0,L|526:124,2,75,2|0|8,3:0|0:0|0:1,0:0:0:0:
352,64,74528,1,0,0:0:0:0:
331,150,74715,1,2,0:0:0:0:
378,234,74903,1,0,0:0:0:0:
425,318,75090,1,8,0:1:0:0:
202,305,75465,5,2,3:0:0:0:
235,86,75840,2,0,P|258:137|261:167,1,75,8|0,0:1|0:0,0:0:0:0:
176,186,76215,2,0,P|153:135|150:105,1,75,2|0,0:0|0:0,0:0:0:0:
86,60,76590,1,8,0:1:0:0:
21,124,76778,1,2,0:0:0:0:
85,187,76965,5,2,3:0:0:0:
12,251,77153,2,0,P|14:296|29:342,1,75,0|8,0:0|0:1,0:0:0:0:
116,350,77528,2,0,P|167:308|250:291,2,150,0|0|2,0:0|0:0|0:0,0:0:0:0:
23,357,78465,5,4,3:2:0:0:
340,384,78840,2,0,P|329:329|330:289,1,75,8|0,0:1|0:0,0:0:0:0:
307,220,79215,1,2,0:0:0:0:
307,220,79403,2,0,P|318:165|317:125,1,75,0|8,0:0|0:1,0:0:0:0:
385,77,79778,1,2,0:0:0:0:
294,48,79965,5,2,3:0:0:0:
226,111,80153,1,0,0:0:0:0:
127,96,80340,2,0,P|129:26|137:7,1,75,8|0,0:1|0:0,0:0:0:0:
20,0,80715,1,2,0:0:0:0:
28,106,80903,1,0,0:0:0:0:
33,211,81090,1,8,0:1:0:0:
331,222,81465,5,2,3:0:0:0:
116,256,81840,2,0,P|166:237|205:235,1,75,8|0,0:1|0:0,0:0:0:0:
172,145,82215,2,0,P|224:153|259:171,1,75,2|0,0:0|0:0,0:0:0:0:
324,125,82590,1,8,0:1:0:0:
416,156,82778,1,2,0:0:0:0:
501,86,82965,5,2,3:0:0:0:
501,86,83153,1,0,0:0:0:0:
509,189,83340,2,0,P|509:239|519:286,1,75,8|0,0:1|0:0,0:0:0:0:
423,281,83715,1,2,0:0:0:0:
442,376,83903,1,0,0:0:0:0:
331,375,84090,2,0,L|333:281,1,75,8|2,0:1|0:0,0:0:0:0:
398,180,84465,5,4,3:2:0:0:
96,270,84840,1,8,0:1:0:0:
157,199,85028,2,0,P|201:215|246:216,1,75,0|2,0:0|0:0,0:0:0:0:
251,128,85403,2,0,P|207:112|162:111,1,75,0|8,0:0|0:1,0:0:0:0:
139,31,85778,1,2,0:0:0:0:
76,94,85965,6,0,L|-11:81,2,75,2|0|8,3:0|0:0|0:1,0:0:0:0:
67,180,86528,2,0,P|31:221|18:322,1,150
89,370,87090,1,8,0:1:0:0:
387,328,87465,6,0,L|232:312,1,150,2|8,3:0|0:1,0:0:0:0:
181,384,88028,1,0,0:0:0:0:
97,344,88215,2,0,P|100:290|108:243,1,75,2|0,0:0|0:0,0:0:0:0:
16,199,88590,2,0,P|13:253|5:300,1,75,8|2,0:1|0:0,0:0:0:0:
111,179,88965,5,2,3:0:0:0:
192,231,89153,1,0,0:0:0:0:
272,181,89340,2,0,P|323:172|374:167,1,75,8|0,0:1|0:0,0:0:0:0:
346,72,89715,2,0,P|271:83|212:79,2,112.5,2|0|2,0:0|0:0|0:0,0:0:0:0:
405,7,90465,5,4,3:2:0:0:
459,227,90840,2,0,P|464:164|457:119,1,75,8|0,0:1|0:0,0:0:0:0:
372,151,91215,2,0,P|367:214|374:259,1,75,2|0,0:0|0:0,0:0:0:0:
298,279,91590,1,8,0:1:0:0:
230,213,91778,1,2,0:0:0:0:
141,235,91965,6,0,P|131:295|130:392,1,150,2|8,3:0|0:1,0:0:0:0:
16,372,92528,1,0,0:0:0:0:
40,268,92715,2,0,L|25:183,1,75,2|0,0:0|0:0,0:0:0:0:
48,115,93090,2,0,L|33:30,1,75,8|2,0:1|0:0,0:0:0:0:
111,6,93465,5,2,3:0:0:0:
141,235,93840,2,0,P|206:202|241:200,1,75,8|0,0:1|0:0,0:0:0:0:
293,244,94215,2,0,P|328:255|359:277,1,75,2|0,0:0|0:0,0:0:0:0:
422,210,94590,2,0,P|487:177|522:175,1,75,8|2,0:1|0:0,0:0:0:0:
469,88,94965,6,0,P|412:120|318:123,1,150,2|8,3:0|0:1,0:0:0:0:
257,71,95528,1,0,0:0:0:0:
328,125,95715,2,0,P|271:157|177:160,1,150,2|8,0:0|0:1,0:0:0:0:
187,162,96465,6,0,L|82:150,2,75,2|0|0,0:0|0:0|0:0,0:0:0:0:
223,235,97028,1,2,0:0:0:0:
223,235,97403,2,0,L|328:223,1,75,0|2,0:0|0:0,0:0:0:0:
191,318,97778,1,0,0:0:0:0:
191,318,99465,6,0,P|201:280|199:228,1,75
199,236,99747,1,0,0:0:0:0:
193,227,99840,1,0,0:0:0:0:
236,145,100028,2,0,L|397:131,1,150,2|0,0:0|0:0,0:0:0:0:
354,55,100590,1,0,0:0:0:0:
310,174,100778,2,0,L|284:321,1,150
193,227,101528,1,2,0:0:0:0:
193,227,102465,6,0,P|188:181|177:134,2,75,2|0|0,0:0|0:0|0:0,0:0:0:0:
118,273,103028,1,2,0:0:0:0:
118,273,103403,2,0,P|113:319|102:366,1,75,0|2,0:0|0:0,0:0:0:0:
45,222,103778,1,0,0:0:0:0:
265,272,104153,1,0,0:0:0:0:
377,206,104528,1,2,0:0:0:0:
490,245,104903,1,0,0:0:0:0:
490,245,105465,6,0,L|469:63,1,150
448,173,106028,1,2,0:0:0:0:
448,173,106403,1,0,0:0:0:0:
448,173,106778,1,2,0:0:0:0:
448,173,108465,6,0,P|488:161|531:155,2,75,2|0|0,0:0|0:0|0:0,0:0:0:0:
390,236,109028,1,2,0:0:0:0:
390,236,109403,2,0,P|353:229|317:218,1,75,0|2,0:0|0:0,0:0:0:0:
259,155,109778,1,0,0:0:0:0:
259,155,111465,6,0,P|242:112|238:58,1,75
236,74,111747,1,0,0:0:0:0:
237,61,111840,1,0,0:0:0:0:
166,13,112028,2,0,P|157:52|96:149,1,150,2|0,0:0|0:0,0:0:0:0:
33,92,112590,1,0,0:0:0:0:
119,227,112778,2,0,P|78:276|4:320,1,150
93,374,113528,1,2,0:0:0:0:
93,374,114465,6,0,L|102:282,2,75,2|0|0,0:0|0:0|0:0,0:0:0:0:
182,339,115028,1,2,0:0:0:0:
182,339,115403,2,0,L|173:247,1,75,0|2,0:0|0:0,0:0:0:0:
263,297,115778,1,0,0:0:0:0:
108,212,116153,1,0,0:0:0:0:
223,133,116528,1,2,0:0:0:0:
175,53,116903,1,0,0:0:0:0:
175,53,117465,6,0,L|17:39,1,150
96,78,118028,1,2,0:0:0:0:
96,78,118403,1,0,0:0:0:0:
96,78,118778,1,2,0:0:0:0:
6,189,131153,5,2,0:0:0:0:
94,245,131340,5,0,0:0:0:0:
168,185,131528,5,2,0:0:0:0:
244,232,131715,5,0,0:0:0:0:
316,178,131903,5,2,0:0:0:0:
386,209,132090,5,0,0:0:0:0:
427,173,132278,5,2,0:0:0:0:
469,189,132465,5,2,3:0:0:0:
277,254,132840,2,0,L|286:328,1,75,8|0,0:1|0:0,0:0:0:0:
196,221,133215,2,0,L|185:295,1,75
98,177,133590,2,0,L|107:251,1,75,8|2,0:1|0:0,0:0:0:0:
15,212,133965,6,0,P|12:137|42:41,1,150,2|8,3:0|0:1,0:0:0:0:
140,15,134528,2,0,P|143:90|113:186,1,150
221,178,135090,2,0,L|314:160,1,75,8|2,0:1|0:0,0:0:0:0:
416,172,135465,5,2,3:0:0:0:
416,172,135840,1,8,0:1:0:0:
416,172,136215,2,0,P|387:136|371:23,1,150,2|8,0:0|0:1,0:0:0:0:
266,19,136778,1,2,0:0:0:0:
266,19,136965,2,0,P|275:67|276:106,1,75,2|0,3:0|0:0,0:0:0:0:
185,79,137340,2,0,P|194:127|195:166,1,75,8|0,0:1|0:0,0:0:0:0:
134,220,137715,2,0,L|39:221,1,75
0,285,138090,1,8,0:1:0:0:
93,327,138278,1,2,0:0:0:0:
191,294,138465,5,2,3:0:0:0:
387,239,138840,2,0,L|461:233,1,75,8|0,0:1|0:0,0:0:0:0:
389,144,139215,2,0,L|463:149,1,75
390,52,139590,2,0,L|464:46,1,75,8|2,0:1|0:0,0:0:0:0:
293,15,139965,6,0,L|301:91,1,75,2|0,3:0|0:0,0:0:0:0:
214,141,140340,1,8,0:1:0:0:
291,207,140528,2,0,P|271:271|282:367,1,150
165,384,141090,2,0,L|151:304,1,75,8|2,0:1|0:0,0:0:0:0:
74,213,141465,5,2,3:0:0:0:
74,213,141840,1,8,0:1:0:0:
74,213,142215,2,0,L|-8:200,2,75,2|0|8,0:0|0:0|0:1,0:0:0:0:
163,166,142778,1,2,0:0:0:0:
242,236,142965,2,0,P|251:298|241:338,1,75,2|0,3:0|0:0,0:0:0:0:
321,363,143340,1,8,0:1:0:0:
321,363,143528,2,0,P|238:344|148:346,1,150
156,255,144090,1,8,0:1:0:0:
142,167,144278,1,2,0:0:0:0:
69,222,144465,5,2,3:0:0:0:
261,213,144840,2,0,L|340:206,1,75,8|0,0:1|0:0,0:0:0:0:
384,282,145215,2,0,L|462:295,1,75
507,227,145590,2,0,P|493:178|498:135,1,75,8|2,0:1|0:0,0:0:0:0:
444,88,145965,1,2,3:0:0:0:
366,58,146153,2,0,P|324:73|236:93,1,112.5
249,93,146528,2,0,P|211:85|155:79,2,75
302,167,147090,1,8,0:1:0:0:
273,276,147278,1,2,0:0:0:0:
216,205,147465,5,2,3:0:0:0:
216,205,147840,1,8,0:1:0:0:
216,205,148215,2,0,L|54:221,1,150,2|8,0:0|0:1,0:0:0:0:
9,276,148778,2,0,P|30:235|32:117,1,150,2|0,0:0|0:0,0:0:0:0:
119,66,149340,1,8,0:1:0:0:
217,107,149528,2,0,P|259:85|311:75,1,75
362,120,149903,1,0,0:0:0:0:
444,89,150090,1,8,0:1:0:0:
512,147,150278,1,2,0:0:0:0:
482,228,150465,5,2,3:0:0:0:
423,6,150840,1,8,0:1:0:0:
344,37,151028,2,0,L|196:22,1,112.5
226,32,151403,2,0,L|236:110,1,75,0|8,0:0|0:1,0:0:0:0:
162,153,151778,1,2,0:0:0:0:
142,311,151965,1,2,3:0:0:0:
100,226,152153,2,0,P|114:183|130:70,1,150
241,189,152715,2,0,P|285:179|336:172,1,75
381,224,153090,2,0,P|425:214|476:207,1,75,8|2,0:1|0:0,0:0:0:0:
445,295,153465,5,2,3:0:0:0:
384,60,153840,1,8,0:1:0:0:
309,109,154028,1,0,0:0:0:0:
236,65,154215,2,0,P|201:54|153:31,1,75,2|0,0:0|0:0,0:0:0:0:
90,81,154590,1,8,0:1:0:0:
175,186,154778,1,2,0:0:0:0:
80,309,154965,2,0,P|42:321|-5:327,2,75,2|0|8,3:0|0:0|0:1,0:0:0:0:
172,280,155528,1,0,0:0:0:0:
249,332,155715,2,0,L|329:322,1,75,2|0,3:0|0:0,0:0:0:0:
338,322,155997,1,0,0:0:0:0:
352,320,156090,2,0,L|356:282,3,37.5,8|8|10|8,0:0|0:0|0:0|0:0,0:0:0:0:
358,272,156465,5,4,3:2:0:0:
266,27,156840,1,8,0:1:0:0:
241,113,157028,2,0,P|244:160|256:193,1,75,0|2,0:0|0:0,0:0:0:0:
338,168,157403,2,0,P|335:121|323:88,1,75,0|8,0:0|0:1,0:0:0:0:
266,27,157778,5,2,0:0:0:0:
160,9,157965,2,0,L|74:13,2,75,2|0|8,3:0|0:0|0:1,0:0:0:0:
151,102,158528,1,0,0:0:0:0:
37,98,158715,5,2,0:0:0:0:
64,195,158903,1,0,0:0:0:0:
91,292,159090,1,8,0:1:0:0:
326,360,159465,6,0,P|275:351|229:354,1,75,2|0,3:0|0:0,0:0:0:0:
265,256,159840,2,0,P|316:265|362:262,1,75,8|0,0:1|0:0,0:0:0:0:
421,207,160215,1,2,0:0:0:0:
500,261,160403,1,0,0:0:0:0:
508,160,160590,2,0,L|486:73,1,75,8|2,0:1|0:0,0:0:0:0:
512,0,160965,5,2,3:0:0:0:
417,42,161153,2,0,P|375:27|330:27,1,75,0|8,0:0|0:1,0:0:0:0:
247,75,161528,2,0,P|185:98|97:96,2,150,0|0|2,0:0|0:0|0:0,0:0:0:0:
344,43,162465,5,4,3:2:0:0:
75,115,162840,2,0,P|85:161|88:188,1,75,8|0,0:1|0:0,0:0:0:0:
190,257,163215,1,2,0:0:0:0:
190,257,163403,2,0,P|180:211|177:184,1,75,0|8,0:0|0:1,0:0:0:0:
248,113,163778,1,2,0:0:0:0:
340,162,163965,6,0,L|428:146,2,75,2|0|8,3:0|0:0|0:1,0:0:0:0:
263,212,164528,1,0,0:0:0:0:
360,251,164715,5,2,0:0:0:0:
283,299,164903,1,0,0:0:0:0:
206,347,165090,1,8,0:1:0:0:
5,176,165465,5,2,3:0:0:0:
85,363,165840,2,0,P|110:303|111:268,1,75,8|0,0:1|0:0,0:0:0:0:
117,124,166215,2,0,P|92:184|91:219,1,75,2|0,0:0|0:0,0:0:0:0:
186,236,166590,1,8,0:1:0:0:
282,191,166778,1,2,0:0:0:0:
381,250,166965,5,2,3:0:0:0:
381,250,167153,1,0,0:0:0:0:
451,192,167340,2,0,P|441:143|446:92,1,75,8|0,0:1|0:0,0:0:0:0:
360,11,167715,1,2,0:0:0:0:
346,117,167903,1,0,0:0:0:0:
242,100,168090,2,0,L|256:12,1,75,8|2,0:1|0:0,0:0:0:0:
177,0,168466,5,2,3:0:0:0:
71,109,168840,1,8,0:1:0:0:
158,92,169028,2,0,P|123:80|-1:42,1,150
100,31,169590,1,8,0:1:0:0:
71,109,169778,2,0,L|45:183,2,75,2|2|0,0:0|3:0|0:0,0:0:0:0:
15,46,170340,1,8,0:1:0:0:
119,219,170528,2,0,P|193:197|282:173,1,150
350,160,171090,1,8,0:1:0:0:
434,0,171465,6,0,P|426:25|412:77,1,75,2|0,3:0|0:0,0:0:0:0:
464,142,171840,2,0,P|456:167|442:219,1,75,8|0,0:1|0:0,0:0:0:0:
475,297,172215,1,2,0:0:0:0:
405,350,172403,1,0,0:0:0:0:
357,233,172590,2,0,P|341:192|325:151,1,75,8|2,0:1|0:0,0:0:0:0:
322,313,172965,6,0,P|253:327|223:334,1,75,2|0,3:0|0:0,0:0:0:0:
181,133,173340,2,0,P|217:125|254:117,1,75,8|0,0:1|0:0,0:0:0:0:
175,282,173715,2,0,P|158:329|134:389,2,112.5,2|0|2,0:0|0:0|0:0,0:0:0:0:
128,207,174465,5,4,3:2:0:0:
361,159,174840,2,0,P|375:135|394:89,1,75,8|0,0:1|0:0,0:0:0:0:
285,194,175215,2,0,P|248:204|212:211,2,75,2|0|8,0:0|0:0|0:1,0:0:0:0:
359,245,175778,1,2,0:0:0:0:
143,157,175965,2,0,L|164:0,1,150,2|8,3:0|0:1,0:0:0:0:
80,0,176528,2,0,L|60:148,1,150
28,68,177090,1,8,0:1:0:0:
187,85,177278,1,2,0:0:0:0:
276,95,177465,5,2,3:0:0:0:
109,230,177840,2,0,P|119:265|123:303,1,75,8|0,0:1|0:0,0:0:0:0:
205,237,178215,2,0,P|215:272|219:310,1,75,2|0,0:0|0:0,0:0:0:0:
300,245,178590,2,0,P|310:280|314:318,1,75,8|2,0:1|0:0,0:0:0:0:
366,180,178965,2,0,P|413:167|513:135,1,150,2|8,3:0|0:1,0:0:0:0:
394,264,179528,1,0,0:0:0:0:
278,160,179715,2,0,P|262:88|247:12,1,150,2|8,0:0|0:1,0:0:0:0:
44,310,180465,5,4,3:2:0:0:
44,310,180840,2,0,L|131:300,1,75,8|8,0:1|0:1,0:0:0:0:
195,248,181215,1,2,0:0:0:0:
277,294,181403,1,0,0:0:0:0:
348,228,181590,2,0,L|356:147,1,75,8|2,0:1|0:0,0:0:0:0:
392,73,181965,6,0,P|337:113|225:103,1,150,2|8,3:0|0:1,0:0:0:0:
128,155,182528,1,0,0:0:0:0:
128,155,182715,2,0,P|183:195|295:185,1,150,2|8,0:0|0:1,0:0:0:0:
42,48,183465,5,2,3:0:0:0:
42,48,183840,2,0,L|32:130,1,75,8|8,0:1|0:1,0:0:0:0:
0,210,184215,1,2,0:0:0:0:
88,253,184403,1,0,0:0:0:0:
45,348,184590,2,0,L|127:358,1,75,8|2,0:1|0:0,0:0:0:0:
218,381,184965,6,0,P|240:336|208:217,1,150,2|8,3:0|0:1,0:0:0:0:
339,183,185528,1,0,0:0:0:0:
339,183,185715,2,0,P|321:254|327:282,1,75,2|0,0:0|0:0,0:0:0:0:
367,335,186090,2,0,P|438:353|466:347,1,75,8|2,0:1|0:0,0:0:0:0:
512,293,186465,5,4,3:2:0:0:
512,293,186840,2,0,L|499:218,1,75,8|8,0:1|0:1,0:0:0:0:
434,139,187215,1,2,0:0:0:0:
504,58,187403,1,0,0:0:0:0:
395,37,187590,2,0,L|311:49,1,75,8|2,0:1|0:0,0:0:0:0:
242,122,187965,6,0,P|162:86|70:79,1,150,2|8,3:0|0:1,0:0:0:0:
68,184,188528,1,0,0:0:0:0:
68,184,188715,2,0,P|148:220|240:227,1,150,2|8,0:0|0:1,0:0:0:0:
507,190,189465,5,2,3:0:0:0:
507,190,189840,2,0,L|422:204,1,75,8|8,0:1|0:1,0:0:0:0:
351,151,190215,1,2,0:0:0:0:
287,226,190403,1,0,0:0:0:0:
368,283,190590,2,0,L|348:374,1,75,8|2,0:1|0:0,0:0:0:0:
266,366,190965,6,0,P|201:335|122:330,1,150,2|8,3:0|0:1,0:0:0:0:
17,357,191528,1,0,0:0:0:0:
124,329,191715,2,0,P|141:267|137:234,1,75,2|0,0:0|0:0,0:0:0:0:
82,153,192090,2,0,P|65:215|69:248,1,75,8|2,0:1|0:0,0:0:0:0:
183,179,192465,5,4,3:2:0:0:
38,36,192840,1,8,0:1:0:0:
38,36,193028,1,8,0:1:0:0:
38,36,193215,1,2,0:0:0:0:
38,36,193403,1,0,0:0:0:0:
38,36,193590,1,8,0:1:0:0:
38,36,193778,1,2,0:0:0:0:
38,36,193965,2,0,P|36:134|40:194,1,150,2|8,3:0|0:1,0:0:0:0:
128,212,194528,1,0,0:0:0:0:
217,183,194715,2,0,P|217:116|215:91,1,75,2|0,0:0|0:0,0:0:0:0:
126,47,195090,2,0,P|126:114|128:139,1,75,8|2,0:1|0:0,0:0:0:0:
307,150,195465,5,2,3:0:0:0:
38,36,195840,1,8,0:1:0:0:
38,36,196028,1,8,0:1:0:0:
38,36,196215,1,2,0:0:0:0:
38,36,196403,1,0,0:0:0:0:
38,36,196590,1,8,0:1:0:0:
38,36,196778,1,2,0:0:0:0:
38,36,196965,2,0,P|24:116|-2:192,1,150,2|8,3:0|0:1,0:0:0:0:
77,234,197528,1,0,0:0:0:0:
174,164,197715,2,0,P|108:152|83:149,1,75,2|0,0:0|0:0,0:0:0:0:
62,323,198090,2,0,P|127:334|152:337,1,75,8|2,0:1|0:0,0:0:0:0:
163,253,198465,5,4,3:2:0:0:
38,36,198840,1,8,0:1:0:0:
38,36,199028,1,8,0:1:0:0:
38,36,199215,1,2,0:0:0:0:
38,36,199403,1,0,0:0:0:0:
38,36,199590,1,8,0:1:0:0:
38,36,199778,1,2,0:0:0:0:
38,36,199965,2,0,P|109:35|196:23,1,150,2|8,3:0|0:1,0:0:0:0:
114,72,200528,1,0,0:0:0:0:
42,128,200715,2,0,P|35:178|31:213,1,75,2|0,0:0|0:0,0:0:0:0:
161,148,201090,2,0,P|154:198|150:233,1,75,8|2,0:1|0:0,0:0:0:0:
80,276,201465,5,2,3:0:0:0:
38,36,201840,1,8,0:1:0:0:
38,36,202028,1,8,0:1:0:0:
38,36,202215,1,2,0:0:0:0:
38,36,202403,1,0,0:0:0:0:
38,36,202590,1,8,0:1:0:0:
38,36,202778,1,2,0:0:0:0:
38,36,202965,2,0,P|36:134|40:194,1,150,2|8,3:0|0:1,0:0:0:0:
129,153,203528,1,0,0:0:0:0:
73,269,203715,2,0,P|74:306|73:343,1,75,2|0,0:0|0:0,0:0:0:0:
238,362,204090,2,0,P|238:295|236:270,1,75,8|2,0:1|0:0,0:0:0:0:
256,192,204465,5,2,3:0:0:0:
160,231,204653,1,0,0:0:0:0:
89,153,204840,1,8,0:1:0:0:
89,153,205028,2,0,P|115:97|129:4,1,150
198,142,205590,1,8,0:1:0:0:
198,142,205778,2,0,P|224:86|238:-7,1,150,2|0,0:0|0:0,0:0:0:0:
340,1,206340,1,8,0:1:0:0:
340,1,206528,2,0,L|327:77,2,75
438,7,207090,1,8,0:1:0:0:
438,7,207465,5,2,3:0:0:0:
452,106,207653,2,0,L|509:116,2,37.5,0|0|8,0:0|0:0|0:1,0:0:0:0:
356,138,208028,2,0,P|289:129|190:142,1,150
304,35,208590,1,8,0:1:0:0:
304,35,208778,2,0,P|237:26|138:39,2,150,2|0|0,0:0|0:0|0:0,0:0:0:0:
407,18,209715,2,0,L|505:10,2,75,0|0|8,0:0|0:0|0:1,0:0:0:0:
407,18,210465,6,0,P|408:55|405:92,1,75,2|0,3:0|0:0,0:0:0:0:
327,143,210840,1,8,0:1:0:0:
245,38,211028,2,0,P|246:75|223:204,1,150
141,227,211590,1,8,0:1:0:0:
53,120,211778,2,0,P|54:157|31:286,1,150,2|0,0:0|0:0,0:0:0:0:
228,186,212528,2,0,P|226:148|250:20,1,150
244,38,213465,6,0,P|157:59|95:60,1,150,2|8,3:0|0:1,0:0:0:0:
41,144,214028,2,0,P|89:152|141:152,1,75,0|2,0:0|0:0,0:0:0:0:
188,235,214403,1,0,0:0:0:0:
188,235,214778,2,0,P|130:253|96:360,1,150,2|0,0:0|0:0,0:0:0:0:
176,363,215340,1,8,0:1:0:0:
262,333,215528,2,0,L|340:348,2,75
176,363,216090,1,8,0:1:0:0:
176,363,216465,6,0,P|166:290|159:263,1,75,2|0,3:0|0:0,0:0:0:0:
186,205,216840,1,8,0:1:0:0:
325,265,217028,2,0,P|335:192|357:114,1,150
273,88,217590,1,8,0:1:0:0:
186,205,217778,6,0,P|176:132|154:54,1,150,2|0,0:0|0:0,0:0:0:0:
63,24,218340,1,8,0:1:0:0:
63,24,218715,2,0,L|52:106,1,75
32,198,219090,1,8,0:1:0:0:
32,198,219465,5,2,3:0:0:0:
121,259,219653,2,0,L|115:299,2,37.5,0|0|8,0:0|0:0|0:1,0:0:0:0:
217,201,220028,2,0,P|272:194|375:205,1,150
456,147,220590,1,8,0:1:0:0:
432,250,220778,5,2,0:0:0:0:
251,300,221153,1,0,0:0:0:0:
73,351,221528,1,0,0:0:0:0:
73,351,221715,2,0,L|92:266,2,75,0|0|8,0:0|0:0|0:1,0:0:0:0:
73,351,222465,6,0,P|132:364|163:365,1,75,2|0,3:0|0:0,0:0:0:0:
283,379,222840,1,8,0:1:0:0:
204,287,223028,2,0,P|263:274|356:274,1,150
444,368,223590,1,8,0:1:0:0:
501,259,223778,6,0,P|463:262|428:273,1,75,2|2,0:0|3:0,0:0:0:0:
378,181,224153,2,0,P|387:146|390:104,1,75,0|8,0:0|0:1,0:0:0:0:
299,47,224528,2,0,P|257:47|221:39,1,75
176,125,224903,2,0,P|189:162|190:200,1,75,0|8,0:0|0:1,0:0:0:0:
125,272,225278,1,2,0:0:0:0:
46,216,225466,6,0,P|38:168|60:63,1,150,2|8,3:0|0:1,0:0:0:0:
139,15,226028,2,0,P|151:79|148:103,1,75,0|2,0:0|0:0,0:0:0:0:
214,206,226403,1,0,0:0:0:0:
214,206,226778,6,0,P|238:151|323:106,1,150,2|0,0:0|0:0,0:0:0:0:
405,146,227340,1,8,0:1:0:0:
405,146,227528,2,0,L|396:303,1,150
467,369,228090,1,8,0:1:0:0:
467,369,228465,6,0,P|385:336|320:337,1,150,2|8,3:0|0:1,0:0:0:0:
253,271,229028,2,0,P|206:294|184:311,1,75,2|0,0:0|0:0,0:0:0:0:
117,246,229403,2,0,P|87:289|77:315,1,75,2|8,0:0|0:1,0:0:0:0:
0,384,229778,5,6,0:0:0:0:
