osu file format v14

[General]
AudioFilename: .mp3
AudioLeadIn: 0
PreviewTime: -1
Countdown: 0
SampleSet: Soft
StackLeniency: 0.7
Mode: 1
LetterboxInBreaks: 0
WidescreenStoryboard: 1

[Editor]
DistanceSpacing: 0.5
BeatDivisor: 4
GridSize: 16
TimelineZoom: 2.979999

[Metadata]
Title:Kyouchou
TitleUnicode:恐鳥
Artist:Shujinkou
ArtistUnicode:主人公
Creator:Nyan
Version:2014 Firetruck
Source:Toy Musical 2
Tags:tarolabo Kowatori Moa ラストバトル Last Battle TM2 BMS PMS technical breakcore IDM electronic instrumental TWC2017
BeatmapID:1255679
BeatmapSetID:593543

[Difficulty]
HPDrainRate:7
CircleSize:7
OverallDifficulty:5
ApproachRate:10
SliderMultiplier:1.4
SliderTickRate:1

[Events]
//Background and Video events
0,0,"dragon-1024x768.jpg",0,130
//Break Periods
//Storyboard Layer 0 (Background)
//Storyboard Layer 1 (Fail)
//Storyboard Layer 2 (Pass)
//Storyboard Layer 3 (Foreground)
//Storyboard Layer 4 (Overlay)
//Storyboard Sound Samples

[TimingPoints]
2000,375,4,2,0,54,1,0
2000,-100,4,2,0,54,0,0
38937,6.000600060006,4,2,0,5,1,0
38937,-1,4,2,0,5,0,0
39125,375,4,2,0,5,1,0
39187,-200,4,2,0,54,0,1
39250,-166.666666666667,4,2,0,54,0,0
39312,-142.857142857143,4,2,0,54,0,1
39375,-125,4,2,0,54,0,0
39437,-111.111111111111,4,2,0,54,0,1
39500,-100,4,2,0,54,0,0
39562,-90.9090909090909,4,2,0,54,0,1
39625,-83.3333333333333,4,2,0,54,0,0
39687,-76.9230769230769,4,2,0,54,0,1
39750,-100,4,2,0,54,0,0
41000,-76.9230769230769,4,2,0,0,0,1
41093,-105.263157894737,4,2,0,0,0,1
41187,-80,4,2,0,0,0,1
41281,-92.5925925925926,4,2,0,0,0,1
41375,-131.578947368421,4,2,0,0,0,1
41515,-113.636363636364,4,2,0,0,0,1
41656,-86.2068965517241,4,2,0,0,0,1
41750,-103.092783505155,4,2,0,0,0,0
42125,-151.515151515152,4,2,0,0,0,0
42187,-131.578947368421,4,2,0,0,0,0
42250,-116.279069767442,4,2,0,0,0,0
42312,-104.166666666667,4,2,0,0,0,0
42375,-94.3396226415094,4,2,0,0,0,0
42437,-86.2068965517241,4,2,0,0,0,0
42500,-117.647058823529,4,2,0,0,0,1
42640,-79.3650793650794,4,2,0,0,0,1
42781,-129.87012987013,4,2,0,0,0,1
42875,-142.857142857143,4,2,0,0,0,1
42968,-94.3396226415094,4,2,0,0,0,1
43062,-74.0740740740741,4,2,0,0,0,1
43156,-78.7401574803149,4,2,0,0,0,0
43250,-131.578947368421,4,2,0,0,0,0
43312,-116.279069767442,4,2,0,0,0,0
43375,-104.166666666667,4,2,0,0,0,0
43437,-94.3396226415094,4,2,0,0,0,0
43500,-86.2068965517241,4,2,0,0,0,0
43562,-79.3650793650794,4,2,0,0,0,0
43625,-73.5294117647059,4,2,0,0,0,0
43765,-83.3333333333333,4,2,0,0,0,1
43859,-105.263157894737,4,2,0,0,0,0
44000,-68.9655172413793,4,2,0,0,0,1
44187,-83.3333333333333,4,2,0,0,0,0
44562,-100,4,2,0,0,0,0
44590,-117.647058823529,4,2,0,0,0,1
44703,-80,4,2,0,0,0,1
44843,-66.6666666666667,4,2,0,0,0,1
44937,-100,4,2,0,0,0,1
45031,-125,4,2,0,0,0,0
45125,-33,4,2,0,100,0,0
45312,-166.666666666667,4,2,0,0,0,0
45500,-133.333333333333,4,2,0,0,0,0
45687,-111.111111111111,4,2,0,0,0,0
45875,-83.3333333333333,4,2,0,0,0,1
46000,-66.6666666666667,4,2,0,0,0,1
46125,-105.263157894737,4,2,0,0,0,0
46250,-33,4,2,0,100,0,0
46343,-117.647058823529,4,2,0,0,0,1
46437,-86.9565217391304,4,2,0,0,0,0
46625,-50,4,2,0,0,0,0
46687,-52.6315789473684,4,2,0,0,0,0
46750,-55.5555555555556,4,2,0,0,0,0
46812,-58.8235294117647,4,2,0,0,0,0
46875,-62.5,4,2,0,0,0,0
46937,-66.6666666666667,4,2,0,0,0,0
47000,-71.4285714285714,4,2,0,0,0,1
47093,-105.263157894737,4,2,0,0,0,1
47187,-83.3333333333333,4,2,0,0,0,1
47281,-92.5925925925926,4,2,0,0,0,1
47375,-131.578947368421,4,2,0,0,0,1
47515,-113.636363636364,4,2,0,0,0,1
47656,-86.2068965517241,4,2,0,0,0,1
47750,-103.092783505155,4,2,0,0,0,0
48125,-151.515151515152,4,2,0,0,0,0
48187,-131.578947368421,4,2,0,0,0,0
48250,-116.279069767442,4,2,0,0,0,0
48312,-104.166666666667,4,2,0,0,0,0
48375,-94.3396226415094,4,2,0,0,0,0
48437,-86.2068965517241,4,2,0,0,0,0
48500,-117.647058823529,4,2,0,0,0,1
48640,-79.3650793650794,4,2,0,0,0,1
48781,-129.87012987013,4,2,0,0,0,1
48875,-142.857142857143,4,2,0,0,0,1
48968,-94.3396226415094,4,2,0,0,0,1
49062,-74.0740740740741,4,2,0,0,0,1
49156,-78.7401574803149,4,2,0,0,0,0
49250,-131.578947368421,4,2,0,0,0,0
49312,-116.279069767442,4,2,0,0,0,0
49375,-104.166666666667,4,2,0,0,0,0
49437,-94.3396226415094,4,2,0,0,0,0
49500,-86.2068965517241,4,2,0,0,0,0
49562,-79.3650793650794,4,2,0,0,0,0
49625,-73.5294117647059,4,2,0,0,0,0
49765,-83.3333333333333,4,2,0,0,0,1
49859,-105.263157894737,4,2,0,0,0,0
50000,-68.9655172413793,4,2,0,0,0,1
50187,-83.3333333333333,4,2,0,0,0,0
50562,-100,4,2,0,0,0,0
50590,-117.647058823529,4,2,0,0,0,1
50703,-80,4,2,0,0,0,1
50843,-66.6666666666667,4,2,0,0,0,1
50937,-100,4,2,0,0,0,1
51031,-125,4,2,0,0,0,0
51125,-33,4,2,0,100,0,0
51312,-166.666666666667,4,2,0,0,0,0
51500,-133.333333333333,4,2,0,0,0,0
51687,-111.111111111111,4,2,0,0,0,0
51875,-83.3333333333333,4,2,0,0,0,1
52000,-66.6666666666667,4,2,0,0,0,1
52125,-105.263157894737,4,2,0,0,0,0
52250,-33,4,2,0,100,0,0
52343,-117.647058823529,4,2,0,0,0,1
52437,-86.9565217391304,4,2,0,0,0,0
52625,-100,4,2,0,0,0,0
52687,-90.9090909090909,4,2,0,0,0,0
52750,-83.3333333333333,4,2,0,0,0,0
52812,-76.9230769230769,4,2,0,0,0,0
52875,-72.463768115942,4,2,0,0,0,0
52937,-68.9655172413793,4,2,0,0,0,0
53000,-66.6666666666667,4,2,0,100,0,1
65000,-76.9230769230769,4,2,0,100,0,0
70250,6.000600060006,4,2,0,100,1,0
70250,-1,4,2,0,100,0,0
71000,375,4,2,0,100,1,0
71000,-76.9230769230769,4,2,0,100,0,0
73250,6.000600060006,4,2,0,100,1,0
73250,-1,4,2,0,100,0,0
73625,375,4,2,0,100,1,0
73625,-76.9230769230769,4,2,0,100,0,0
74750,6.000600060006,4,2,0,100,1,0
74750,-1,4,2,0,100,0,0
75125,375,4,2,0,100,1,0
75125,-76.9230769230769,4,2,0,100,0,0
75500,6.000600060006,4,2,0,100,1,0
75500,-1,4,2,0,100,0,0
75875,375,4,2,0,100,1,0
75875,-76.9230769230769,4,2,0,100,0,0
77000,-100,4,2,0,100,0,1
89000,-83.3333333333333,4,2,0,100,0,1
101000,-100,4,2,0,100,0,0
102593,-50,4,2,0,100,0,0
102968,-100,4,2,0,100,0,0
103062,-50,4,2,0,100,0,0
103250,-100,4,2,0,100,0,0
105593,-50,4,2,0,100,0,0
106156,-100,4,2,0,100,0,0
108593,-50,4,2,0,100,0,0
108968,-100,4,2,0,100,0,0
109062,-50,4,2,0,100,0,0
109250,-100,4,2,0,100,0,0
111593,-50,4,2,0,100,0,0
112156,-100,4,2,0,100,0,0
113000,-83.3333333333333,4,2,0,100,0,1
125000,-200,4,2,0,0,0,0
131000,-133.333333333333,4,2,0,48,0,0
135593,-50,4,2,0,48,0,0
136062,-133.333333333333,4,2,0,48,0,0

[HitObjects]
256,192,2000,5,2,0:0:0:0:
256,192,2062,1,2,0:0:0:0:
256,192,2125,1,2,0:0:0:0:
256,192,2186,1,2,0:0:0:0:
256,192,2562,1,6,0:0:0:0:
256,192,3875,1,2,0:0:0:0:
256,192,4062,1,0,0:0:0:0:
256,192,4250,1,2,0:0:0:0:
256,192,4312,1,2,0:0:0:0:
256,192,4375,1,2,0:0:0:0:
256,192,4437,1,0,0:0:0:0:
256,192,4625,1,2,0:0:0:0:
256,192,4812,1,0,0:0:0:0:
256,192,5000,1,6,0:0:0:0:
256,192,5187,1,0,0:0:0:0:
256,192,5281,1,0,0:0:0:0:
256,192,5375,1,0,0:0:0:0:
256,192,5562,1,6,0:0:0:0:
256,192,5750,1,0,0:0:0:0:
256,192,5937,1,2,0:0:0:0:
256,192,6031,1,0,0:0:0:0:
256,192,6125,1,0,0:0:0:0:
256,192,6312,1,0,0:0:0:0:
256,192,6500,1,0,0:0:0:0:
256,192,6687,1,6,0:0:0:0:
256,192,6875,1,0,0:0:0:0:
256,192,7062,1,6,0:0:0:0:
256,192,7250,1,0,0:0:0:0:
256,192,7437,1,0,0:0:0:0:
256,192,7531,1,0,0:0:0:0:
256,192,7625,1,2,0:0:0:0:
256,192,7718,1,2,0:0:0:0:
256,192,7812,1,2,0:0:0:0:
256,192,8000,1,6,0:0:0:0:
256,192,8187,1,0,0:0:0:0:
256,192,8281,1,0,0:0:0:0:
256,192,8375,1,0,0:0:0:0:
256,192,8562,1,2,0:0:0:0:
256,192,8750,1,0,0:0:0:0:
256,192,8937,1,2,0:0:0:0:
256,192,9031,1,0,0:0:0:0:
256,192,9125,1,0,0:0:0:0:
256,192,9218,1,2,0:0:0:0:
256,192,9312,1,0,0:0:0:0:
256,192,9500,1,0,0:0:0:0:
256,192,9687,1,6,0:0:0:0:
256,192,9875,1,0,0:0:0:0:
256,192,10062,1,2,0:0:0:0:
256,192,10250,1,0,0:0:0:0:
256,192,10343,1,0,0:0:0:0:
256,192,10437,1,0,0:0:0:0:
256,192,10625,1,2,0:0:0:0:
256,192,10718,1,2,0:0:0:0:
256,192,10812,1,2,0:0:0:0:
256,192,11000,1,6,0:0:0:0:
256,192,11187,1,0,0:0:0:0:
256,192,11281,1,0,0:0:0:0:
256,192,11375,1,0,0:0:0:0:
256,192,11562,1,6,0:0:0:0:
256,192,11750,1,0,0:0:0:0:
256,192,11937,1,2,0:0:0:0:
256,192,12031,1,0,0:0:0:0:
256,192,12125,1,0,0:0:0:0:
256,192,12312,1,0,0:0:0:0:
256,192,12500,1,0,0:0:0:0:
256,192,12687,1,6,0:0:0:0:
256,192,12875,1,0,0:0:0:0:
256,192,13062,1,6,0:0:0:0:
256,192,13250,1,0,0:0:0:0:
256,192,13437,1,0,0:0:0:0:
256,192,13500,1,0,0:0:0:0:
256,192,13562,1,0,0:0:0:0:
256,192,13625,1,2,0:0:0:0:
256,192,13718,1,2,0:0:0:0:
256,192,13812,1,2,0:0:0:0:
256,192,14000,1,2,0:0:0:0:
256,192,14062,1,2,0:0:0:0:
256,192,14125,1,2,0:0:0:0:
256,192,14187,1,0,0:0:0:0:
256,192,14562,1,0,0:0:0:0:
256,192,14625,1,0,0:0:0:0:
256,192,14687,1,0,0:0:0:0:
256,192,14750,1,2,0:0:0:0:
256,192,14812,1,2,0:0:0:0:
256,192,14875,1,2,0:0:0:0:
256,192,14937,1,2,0:0:0:0:
256,192,15000,1,2,0:0:0:0:
256,192,15062,1,2,0:0:0:0:
256,192,15125,1,2,0:0:0:0:
256,192,15781,1,2,0:0:0:0:
256,192,15875,1,2,0:0:0:0:
256,192,16062,1,0,0:0:0:0:
256,192,16125,1,0,0:0:0:0:
256,192,16187,1,0,0:0:0:0:
256,192,16250,1,2,0:0:0:0:
256,192,16437,1,0,0:0:0:0:
256,192,16500,1,0,0:0:0:0:
256,192,16562,1,0,0:0:0:0:
256,192,16625,1,2,0:0:0:0:
256,192,16812,1,0,0:0:0:0:
256,192,17000,1,6,0:0:0:0:
256,192,17187,1,0,0:0:0:0:
256,192,17281,1,0,0:0:0:0:
256,192,17375,1,0,0:0:0:0:
256,192,17562,1,6,0:0:0:0:
256,192,17750,1,0,0:0:0:0:
256,192,17937,1,2,0:0:0:0:
256,192,18031,1,0,0:0:0:0:
256,192,18125,1,0,0:0:0:0:
256,192,18312,1,0,0:0:0:0:
256,192,18500,1,0,0:0:0:0:
256,192,18687,1,6,0:0:0:0:
256,192,18875,1,0,0:0:0:0:
256,192,19062,1,6,0:0:0:0:
256,192,19250,1,0,0:0:0:0:
256,192,19437,1,0,0:0:0:0:
256,192,19625,1,2,0:0:0:0:
256,192,19718,1,2,0:0:0:0:
256,192,19812,1,2,0:0:0:0:
256,192,20000,1,6,0:0:0:0:
256,192,20187,1,0,0:0:0:0:
256,192,20281,1,0,0:0:0:0:
256,192,20375,1,0,0:0:0:0:
256,192,20562,1,2,0:0:0:0:
256,192,20750,1,0,0:0:0:0:
256,192,20937,1,2,0:0:0:0:
256,192,21031,1,0,0:0:0:0:
256,192,21125,1,0,0:0:0:0:
256,192,21312,1,0,0:0:0:0:
256,192,21500,1,0,0:0:0:0:
256,192,21687,1,6,0:0:0:0:
256,192,21875,1,0,0:0:0:0:
256,192,22062,1,6,0:0:0:0:
256,192,22250,1,0,0:0:0:0:
256,192,22437,1,0,0:0:0:0:
256,192,22531,1,0,0:0:0:0:
256,192,22625,1,2,0:0:0:0:
256,192,22718,1,2,0:0:0:0:
256,192,22812,1,2,0:0:0:0:
256,192,23000,1,6,0:0:0:0:
256,192,23187,1,0,0:0:0:0:
256,192,23281,1,0,0:0:0:0:
256,192,23375,1,0,0:0:0:0:
256,192,23562,1,6,0:0:0:0:
256,192,23750,1,0,0:0:0:0:
256,192,23937,1,2,0:0:0:0:
256,192,24031,1,0,0:0:0:0:
256,192,24125,1,0,0:0:0:0:
256,192,24312,1,0,0:0:0:0:
256,192,24500,1,0,0:0:0:0:
256,192,24687,1,6,0:0:0:0:
256,192,24875,1,0,0:0:0:0:
256,192,25062,1,6,0:0:0:0:
256,192,25250,1,0,0:0:0:0:
256,192,25437,1,0,0:0:0:0:
256,192,25531,1,0,0:0:0:0:
256,192,25625,1,2,0:0:0:0:
256,192,25718,1,2,0:0:0:0:
256,192,25812,1,2,0:0:0:0:
256,192,26000,1,2,0:0:0:0:
256,192,26062,1,2,0:0:0:0:
256,192,26125,1,2,0:0:0:0:
256,192,26187,1,0,0:0:0:0:
256,192,26562,1,0,0:0:0:0:
256,192,26625,1,0,0:0:0:0:
256,192,26687,1,0,0:0:0:0:
256,192,26750,1,2,0:0:0:0:
256,192,26812,1,2,0:0:0:0:
256,192,26875,1,2,0:0:0:0:
256,192,26937,1,2,0:0:0:0:
256,192,27000,1,2,0:0:0:0:
256,192,27062,1,2,0:0:0:0:
256,192,27125,1,2,0:0:0:0:
256,192,27781,1,2,0:0:0:0:
256,192,27875,1,2,0:0:0:0:
256,192,28062,1,0,0:0:0:0:
256,192,28125,1,0,0:0:0:0:
256,192,28187,1,0,0:0:0:0:
256,192,28250,1,2,0:0:0:0:
256,192,28312,1,2,0:0:0:0:
256,192,28375,1,2,0:0:0:0:
256,192,28437,1,0,0:0:0:0:
256,192,28625,1,2,0:0:0:0:
256,192,28812,1,4,0:0:0:0:
256,192,29000,1,0,0:0:0:0:
256,192,29093,1,0,0:0:0:0:
256,192,29187,1,2,0:0:0:0:
256,192,29375,1,0,0:0:0:0:
256,192,29468,1,2,0:0:0:0:
256,192,29562,1,0,0:0:0:0:
256,192,29656,1,0,0:0:0:0:
256,192,29750,1,2,0:0:0:0:
256,192,29812,1,2,0:0:0:0:
256,192,29875,1,2,0:0:0:0:
256,192,29937,1,2,0:0:0:0:
256,192,30000,1,2,0:0:0:0:
256,192,30062,1,2,0:0:0:0:
256,192,30125,1,2,0:0:0:0:
256,192,30312,1,0,0:0:0:0:
256,192,30406,1,0,0:0:0:0:
256,192,30500,1,0,0:0:0:0:
256,192,30593,1,2,0:0:0:0:
256,192,30687,1,0,0:0:0:0:
256,192,30781,1,2,0:0:0:0:
256,192,30875,1,2,0:0:0:0:
256,192,31125,1,2,0:0:0:0:
256,192,31187,1,2,0:0:0:0:
256,192,31250,1,2,0:0:0:0:
256,192,31312,1,2,0:0:0:0:
256,192,31375,1,2,0:0:0:0:
256,192,31437,1,0,0:0:0:0:
256,192,31625,1,2,0:0:0:0:
256,192,31812,1,0,0:0:0:0:
256,192,32000,1,6,0:0:0:0:
256,192,32187,1,0,0:0:0:0:
256,192,32281,1,0,0:0:0:0:
256,192,32375,1,0,0:0:0:0:
256,192,32562,1,2,0:0:0:0:
256,192,32750,1,0,0:0:0:0:
256,192,32937,1,2,0:0:0:0:
256,192,33031,1,0,0:0:0:0:
256,192,33125,1,0,0:0:0:0:
256,192,33218,1,2,0:0:0:0:
256,192,33312,1,0,0:0:0:0:
256,192,33500,1,0,0:0:0:0:
256,192,33687,1,6,0:0:0:0:
256,192,33875,1,0,0:0:0:0:
256,192,34062,1,6,0:0:0:0:
256,192,34250,1,0,0:0:0:0:
256,192,34437,1,0,0:0:0:0:
256,192,34500,1,0,0:0:0:0:
256,192,34562,1,0,0:0:0:0:
256,192,34625,1,2,0:0:0:0:
256,192,34718,1,2,0:0:0:0:
256,192,34812,1,0,0:0:0:0:
256,192,35000,1,0,0:0:0:0:
256,192,35093,1,0,0:0:0:0:
256,192,35187,1,2,0:0:0:0:
256,192,35375,1,0,0:0:0:0:
256,192,35468,1,2,0:0:0:0:
256,192,35562,1,0,0:0:0:0:
256,192,35656,1,0,0:0:0:0:
256,192,35750,1,2,0:0:0:0:
256,192,35812,1,2,0:0:0:0:
256,192,35875,1,2,0:0:0:0:
256,192,35937,1,2,0:0:0:0:
256,192,36000,1,2,0:0:0:0:
256,192,36062,1,2,0:0:0:0:
256,192,36125,1,2,0:0:0:0:
256,192,36312,1,0,0:0:0:0:
256,192,36406,1,0,0:0:0:0:
256,192,36500,1,0,0:0:0:0:
256,192,36593,1,2,0:0:0:0:
256,192,36687,1,0,0:0:0:0:
256,192,36781,1,2,0:0:0:0:
256,192,36875,1,0,0:0:0:0:
256,192,36968,1,2,0:0:0:0:
256,192,37125,1,2,0:0:0:0:
256,192,37187,1,2,0:0:0:0:
256,192,37250,1,2,0:0:0:0:
256,192,37312,1,2,0:0:0:0:
256,192,37375,1,2,0:0:0:0:
256,192,37437,1,0,0:0:0:0:
256,192,37531,1,2,0:0:0:0:
256,192,37625,1,2,0:0:0:0:
256,192,37812,1,4,0:0:0:0:
256,192,38000,1,6,0:0:0:0:
256,192,38187,1,0,0:0:0:0:
256,192,38281,1,0,0:0:0:0:
256,192,38375,1,0,0:0:0:0:
256,192,38562,1,2,0:0:0:0:
256,192,38750,1,0,0:0:0:0:
0,0,38937,2,4,B|512:0|512:0|512:16|512:16|0:16|0:16|0:32|512:32|512:48,31,1540,0|0|0|0|0|0|0|0|0|0|0|0|0|0|0|0|0|0|0|0|0|0|0|0|0|0|0|0|0|0|0|0,0:0|0:0|0:0|0:0|0:0|0:0|0:0|0:0|0:0|0:0|0:0|0:0|0:0|0:0|0:0|0:0|0:0|0:0|0:0|0:0|0:0|0:0|0:0|0:0|0:0|0:0|0:0|0:0|0:0|0:0|0:0|0:0,0:0:0:0:
256,192,39187,1,0,0:0:0:0:
256,192,39250,1,0,0:0:0:0:
256,192,39312,1,0,0:0:0:0:
256,192,39375,1,0,0:0:0:0:
256,192,39437,1,0,0:0:0:0:
256,192,39500,1,0,0:0:0:0:
256,192,39562,1,0,0:0:0:0:
256,192,39625,1,0,0:0:0:0:
256,192,39687,1,2,0:0:0:0:
256,192,39875,1,2,0:0:0:0:
256,192,40062,1,4,0:0:0:0:
256,192,40250,1,2,0:0:0:0:
256,192,40437,1,4,0:0:0:0:
256,192,40625,1,2,0:0:0:0:
256,192,40812,1,4,0:0:0:0:
128,256,41000,1,0,0:0:0:0:
128,256,41093,1,0,0:0:0:0:
128,256,41187,1,2,0:0:0:0:
128,256,41281,1,2,0:0:0:0:
128,256,41375,1,0,0:0:0:0:
128,256,41515,1,0,0:0:0:0:
128,256,41656,1,2,0:0:0:0:
128,256,41750,1,0,0:0:0:0:
128,256,42125,1,0,0:0:0:0:
128,256,42187,1,0,0:0:0:0:
128,256,42250,1,0,0:0:0:0:
128,256,42312,1,2,0:0:0:0:
128,256,42375,1,2,0:0:0:0:
128,256,42437,1,2,0:0:0:0:
128,256,42500,1,0,0:0:0:0:
128,256,42640,1,0,0:0:0:0:
128,256,42781,1,0,0:0:0:0:
128,256,42875,1,2,0:0:0:0:
128,256,42968,1,2,0:0:0:0:
128,256,43062,1,0,0:0:0:0:
128,256,43156,1,0,0:0:0:0:
128,256,43250,1,0,0:0:0:0:
128,256,43312,1,0,0:0:0:0:
128,256,43375,1,0,0:0:0:0:
128,256,43437,1,2,0:0:0:0:
128,256,43500,1,2,0:0:0:0:
128,256,43562,1,2,0:0:0:0:
128,256,43765,1,2,0:0:0:0:
128,256,43859,1,0,0:0:0:0:
128,256,44000,1,4,0:0:0:0:
128,256,44187,2,0,L|176:176,1,70
128,128,44593,1,2,0:0:0:0:
128,128,44718,1,0,0:0:0:0:
128,128,44843,1,2,0:0:0:0:
128,128,44937,1,0,0:0:0:0:
128,128,45031,1,0,0:0:0:0:
128,128,45125,1,6,0:0:0:0:
128,128,45312,1,0,0:0:0:0:
128,128,45500,1,0,0:0:0:0:
128,128,45687,1,0,0:0:0:0:
128,128,45875,1,2,0:0:0:0:
128,128,46000,1,0,0:0:0:0:
128,128,46125,1,2,0:0:0:0:
128,128,46250,1,6,0:0:0:0:
128,128,46343,1,0,0:0:0:0:
128,128,46437,1,0,0:0:0:0:
128,128,46625,1,0,0:0:0:0:
128,128,46687,1,0,0:0:0:0:
128,128,46750,1,0,0:0:0:0:
128,128,46812,1,2,0:0:0:0:
128,128,46875,1,2,0:0:0:0:
128,128,46937,1,2,0:0:0:0:
128,256,47000,1,0,0:0:0:0:
128,256,47093,1,0,0:0:0:0:
128,256,47187,1,2,0:0:0:0:
128,256,47281,1,2,0:0:0:0:
128,256,47375,1,0,0:0:0:0:
128,256,47515,1,0,0:0:0:0:
128,256,47656,1,2,0:0:0:0:
128,256,47750,1,0,0:0:0:0:
128,256,48125,1,0,0:0:0:0:
128,256,48187,1,0,0:0:0:0:
128,256,48250,1,0,0:0:0:0:
128,256,48312,1,2,0:0:0:0:
128,256,48375,1,2,0:0:0:0:
128,256,48437,1,2,0:0:0:0:
128,256,48500,1,0,0:0:0:0:
128,256,48640,1,0,0:0:0:0:
128,256,48781,1,0,0:0:0:0:
128,256,48875,1,2,0:0:0:0:
128,256,48968,1,2,0:0:0:0:
128,256,49062,1,0,0:0:0:0:
128,256,49156,1,0,0:0:0:0:
128,256,49250,1,0,0:0:0:0:
128,256,49312,1,0,0:0:0:0:
128,256,49375,1,0,0:0:0:0:
128,256,49437,1,2,0:0:0:0:
128,256,49500,1,2,0:0:0:0:
128,256,49562,1,2,0:0:0:0:
128,256,49765,1,2,0:0:0:0:
128,256,49859,1,0,0:0:0:0:
128,256,50000,1,4,0:0:0:0:
128,256,50187,2,0,L|176:176,1,70
128,128,50593,1,2,0:0:0:0:
128,128,50718,1,0,0:0:0:0:
128,128,50843,1,2,0:0:0:0:
128,128,50937,1,0,0:0:0:0:
128,128,51031,1,0,0:0:0:0:
128,128,51125,1,6,0:0:0:0:
128,128,51312,1,0,0:0:0:0:
128,128,51500,1,0,0:0:0:0:
128,128,51687,1,0,0:0:0:0:
128,128,51875,1,2,0:0:0:0:
128,128,52000,1,0,0:0:0:0:
128,128,52125,1,2,0:0:0:0:
128,128,52250,1,6,0:0:0:0:
128,128,52343,1,0,0:0:0:0:
128,128,52437,1,0,0:0:0:0:
128,128,52625,1,0,0:0:0:0:
128,128,52687,1,0,0:0:0:0:
128,128,52750,1,0,0:0:0:0:
128,128,52812,1,2,0:0:0:0:
128,128,52875,1,2,0:0:0:0:
128,128,52937,1,2,0:0:0:0:
128,128,53000,1,4,0:0:0:0:
128,128,53187,1,0,0:0:0:0:
128,128,53281,1,0,0:0:0:0:
128,128,53375,1,2,0:0:0:0:
128,128,53562,1,0,0:0:0:0:
128,128,53656,1,2,0:0:0:0:
128,128,53750,1,0,0:0:0:0:
128,128,53843,1,0,0:0:0:0:
128,128,53937,1,2,0:0:0:0:
128,128,54125,1,0,0:0:0:0:
128,128,54218,1,2,0:0:0:0:
128,128,54312,1,0,0:0:0:0:
128,128,54406,1,0,0:0:0:0:
128,128,54500,1,0,0:0:0:0:
128,128,54687,1,0,0:0:0:0:
128,128,54875,1,2,0:0:0:0:
128,128,54937,1,2,0:0:0:0:
128,128,55000,1,2,0:0:0:0:
128,128,55062,1,2,0:0:0:0:
128,128,55125,1,2,0:0:0:0:
128,128,55187,1,2,0:0:0:0:
128,128,55250,1,0,0:0:0:0:
128,128,55343,1,2,0:0:0:0:
128,128,55437,1,0,0:0:0:0:
128,128,55625,1,2,0:0:0:0:
128,128,55718,1,2,0:0:0:0:
128,128,55812,1,0,0:0:0:0:
128,128,55906,1,2,0:0:0:0:
128,128,56000,1,4,0:0:0:0:
128,128,56187,1,0,0:0:0:0:
128,128,56281,1,0,0:0:0:0:
128,128,56375,1,2,0:0:0:0:
128,128,56562,1,0,0:0:0:0:
128,128,56656,1,2,0:0:0:0:
128,128,56750,1,0,0:0:0:0:
128,128,56843,1,0,0:0:0:0:
128,128,56937,1,2,0:0:0:0:
128,128,57125,1,0,0:0:0:0:
128,128,57218,1,2,0:0:0:0:
128,128,57312,1,0,0:0:0:0:
128,128,57500,1,4,0:0:0:0:
128,128,57687,1,4,0:0:0:0:
128,128,57875,1,2,0:0:0:0:
128,128,57937,1,2,0:0:0:0:
128,128,58000,1,2,0:0:0:0:
128,128,58062,1,2,0:0:0:0:
128,128,58125,1,2,0:0:0:0:
128,128,58187,1,2,0:0:0:0:
128,128,58250,1,0,0:0:0:0:
128,128,58343,1,2,0:0:0:0:
128,128,58437,1,0,0:0:0:0:
128,128,58625,1,2,0:0:0:0:
128,128,58718,1,2,0:0:0:0:
128,128,58812,1,0,0:0:0:0:
128,128,58906,1,2,0:0:0:0:
128,128,59000,1,4,0:0:0:0:
128,128,59187,1,0,0:0:0:0:
128,128,59281,1,0,0:0:0:0:
128,128,59375,1,2,0:0:0:0:
128,128,59562,1,0,0:0:0:0:
128,128,59656,1,2,0:0:0:0:
128,128,59750,1,0,0:0:0:0:
128,128,59843,1,0,0:0:0:0:
128,128,59937,1,2,0:0:0:0:
128,128,60125,1,0,0:0:0:0:
128,128,60218,1,2,0:0:0:0:
128,128,60312,1,0,0:0:0:0:
128,128,60406,1,0,0:0:0:0:
128,128,60500,1,4,0:0:0:0:
128,128,60687,1,4,0:0:0:0:
128,128,60875,1,2,0:0:0:0:
128,128,61062,1,0,0:0:0:0:
128,128,61250,1,0,0:0:0:0:
128,128,61437,1,0,0:0:0:0:
128,128,61500,1,2,0:0:0:0:
128,128,61562,1,0,0:0:0:0:
128,128,61625,1,2,0:0:0:0:
128,128,61687,1,2,0:0:0:0:
128,128,61750,1,0,0:0:0:0:
128,128,61812,1,0,0:0:0:0:
128,128,61875,1,0,0:0:0:0:
128,128,61937,1,2,0:0:0:0:
128,128,62000,1,0,0:0:0:0:
128,128,62187,1,0,0:0:0:0:
128,128,62281,1,0,0:0:0:0:
128,128,62375,1,2,0:0:0:0:
128,128,62562,1,0,0:0:0:0:
128,128,62656,1,2,0:0:0:0:
128,128,62750,1,0,0:0:0:0:
128,128,62843,1,0,0:0:0:0:
128,128,62937,1,2,0:0:0:0:
128,128,63125,1,0,0:0:0:0:
128,128,63218,1,2,0:0:0:0:
128,128,63312,1,0,0:0:0:0:
128,128,63500,1,4,0:0:0:0:
128,128,63687,1,4,0:0:0:0:
128,128,63875,1,2,0:0:0:0:
128,128,63937,1,2,0:0:0:0:
128,128,64000,1,2,0:0:0:0:
128,128,64062,1,2,0:0:0:0:
128,128,64125,1,2,0:0:0:0:
128,128,64187,1,2,0:0:0:0:
128,128,64250,1,0,0:0:0:0:
128,128,64343,1,2,0:0:0:0:
128,128,64437,1,0,0:0:0:0:
128,128,64625,1,2,0:0:0:0:
128,128,64718,1,2,0:0:0:0:
128,128,64812,1,0,0:0:0:0:
128,128,64906,1,2,0:0:0:0:
128,128,65000,1,0,0:0:0:0:
128,128,65062,1,0,0:0:0:0:
128,128,65125,1,0,0:0:0:0:
128,128,65187,1,2,0:0:0:0:
128,128,65281,1,2,0:0:0:0:
128,128,65375,1,0,0:0:0:0:
128,128,65468,1,2,0:0:0:0:
128,128,65562,1,0,0:0:0:0:
128,128,65625,1,0,0:0:0:0:
128,128,65687,1,0,0:0:0:0:
128,128,65750,1,2,0:0:0:0:
128,128,65812,1,2,0:0:0:0:
128,128,65875,1,2,0:0:0:0:
128,128,65937,1,2,0:0:0:0:
128,128,66031,1,2,0:0:0:0:
128,128,66125,1,0,0:0:0:0:
128,128,66218,1,2,0:0:0:0:
128,128,66312,1,0,0:0:0:0:
256,192,66500,1,0,0:0:0:0:
256,192,66593,1,0,0:0:0:0:
256,192,66687,1,2,0:0:0:0:
256,192,66781,1,2,0:0:0:0:
256,192,66875,1,0,0:0:0:0:
256,192,66968,1,0,0:0:0:0:
256,192,67062,1,0,0:0:0:0:
256,192,67125,1,2,0:0:0:0:
256,192,67187,1,2,0:0:0:0:
256,192,67250,1,0,0:0:0:0:
256,192,67343,1,2,0:0:0:0:
256,192,67437,1,0,0:0:0:0:
256,192,67531,1,2,0:0:0:0:
256,192,67625,1,2,0:0:0:0:
256,192,67718,1,0,0:0:0:0:
256,192,67812,1,0,0:0:0:0:
256,192,67906,1,2,0:0:0:0:
128,192,68000,1,2,0:0:0:0:
128,192,68093,1,0,0:0:0:0:
128,192,68187,1,0,0:0:0:0:
128,192,68281,1,2,0:0:0:0:
128,192,68375,1,0,0:0:0:0:
128,192,68468,1,0,0:0:0:0:
128,192,68562,1,2,0:0:0:0:
128,192,68656,1,0,0:0:0:0:
128,192,68750,1,0,0:0:0:0:
128,192,68812,1,2,0:0:0:0:
128,192,68875,1,2,0:0:0:0:
128,192,68937,1,0,0:0:0:0:
128,192,69031,1,2,0:0:0:0:
128,192,69125,1,0,0:0:0:0:
128,192,69218,2,0,B|144:192|144:192,1,17.5
144,192,69312,1,2,0:0:0:0:
144,192,69375,1,0,0:0:0:0:
144,192,69437,1,0,0:0:0:0:
144,192,69500,1,2,0:0:0:0:
144,192,69593,1,0,0:0:0:0:
144,192,69687,1,0,0:0:0:0:
144,192,69781,1,2,0:0:0:0:
144,192,69875,1,0,0:0:0:0:
144,192,69968,1,0,0:0:0:0:
144,192,70062,1,2,0:0:0:0:
144,192,70156,1,0,0:0:0:0:
128,192,70250,2,0,B|528:0|-64:320,248,545.999975006105,0|0|0|0|0|0|0|0|0|0|0|0|0|0|0|0|0|0|0|0|0|0|0|0|0|0|0|0|0|0|0|0|0|0|0|0|0|0|0|0|0|0|0|0|0|0|0|0|0|0|0|0|0|0|0|0|0|0|0|0|0|0|0|0|0|0|0|0|0|0|0|0|0|0|0|0|0|0|0|0|0|0|0|0|0|0|0|0|0|0|0|0|0|0|0|0|0|0|0|0|0|0|0|0|0|0|0|0|0|0|0|0|0|0|0|0|0|0|0|0|0|0|0|0|0|0|0|0|0|0|0|0|0|0|0|0|0|0|0|0|0|0|0|0|0|0|0|0|0|0|0|0|0|0|0|0|0|0|0|0|0|0|0|0|0|0|0|0|0|0|0|0|0|0|0|0|0|0|0|0|0|0|0|0|0|0|0|0|0|0|0|0|0|0|0|0|0|0|0|0|0|0|0|0|0|0|0|0|0|0|0|0|0|0|0|0|0|0|0|0|0|0|0|0|0|0|0|0|0|0|0|0|0|0|0|0|0|0|0|0|0|0|0|0|0|0|0|0|0,0:0|0:0|0:0|0:0|0:0|0:0|0:0|0:0|0:0|0:0|0:0|0:0|0:0|0:0|0:0|0:0|0:0|0:0|0:0|0:0|0:0|0:0|0:0|0:0|0:0|0:0|0:0|0:0|0:0|0:0|0:0|0:0|0:0|0:0|0:0|0:0|0:0|0:0|0:0|0:0|0:0|0:0|0:0|0:0|0:0|0:0|0:0|0:0|0:0|0:0|0:0|0:0|0:0|0:0|0:0|0:0|0:0|0:0|0:0|0:0|0:0|0:0|0:0|0:0|0:0|0:0|0:0|0:0|0:0|0:0|0:0|0:0|0:0|0:0|0:0|0:0|0:0|0:0|0:0|0:0|0:0|0:0|0:0|0:0|0:0|0:0|0:0|0:0|0:0|0:0|0:0|0:0|0:0|0:0|0:0|0:0|0:0|0:0|0:0|0:0|0:0|0:0|0:0|0:0|0:0|0:0|0:0|0:0|0:0|0:0|0:0|0:0|0:0|0:0|0:0|0:0|0:0|0:0|0:0|0:0|0:0|0:0|0:0|0:0|0:0|0:0|0:0|0:0|0:0|0:0|0:0|0:0|0:0|0:0|0:0|0:0|0:0|0:0|0:0|0:0|0:0|0:0|0:0|0:0|0:0|0:0|0:0|0:0|0:0|0:0|0:0|0:0|0:0|0:0|0:0|0:0|0:0|0:0|0:0|0:0|0:0|0:0|0:0|0:0|0:0|0:0|0:0|0:0|0:0|0:0|0:0|0:0|0:0|0:0|0:0|0:0|0:0|0:0|0:0|0:0|0:0|0:0|0:0|0:0|0:0|0:0|0:0|0:0|0:0|0:0|0:0|0:0|0:0|0:0|0:0|0:0|0:0|0:0|0:0|0:0|0:0|0:0|0:0|0:0|0:0|0:0|0:0|0:0|0:0|0:0|0:0|0:0|0:0|0:0|0:0|0:0|0:0|0:0|0:0|0:0|0:0|0:0|0:0|0:0|0:0|0:0|0:0|0:0|0:0|0:0|0:0|0:0|0:0|0:0|0:0|0:0|0:0|0:0|0:0|0:0|0:0|0:0|0:0|0:0|0:0|0:0|0:0|0:0|0:0,0:0:0:0:
128,192,71000,1,6,0:0:0:0:
128,192,71187,1,0,0:0:0:0:
128,192,71281,1,0,0:0:0:0:
128,192,71375,1,0,0:0:0:0:
128,192,71468,1,2,0:0:0:0:
128,192,71562,1,0,0:0:0:0:
128,192,71750,1,0,0:0:0:0:
128,192,71937,1,0,0:0:0:0:
128,192,72125,1,6,0:0:0:0:
128,192,72312,1,0,0:0:0:0:
128,192,72406,1,0,0:0:0:0:
128,192,72500,1,0,0:0:0:0:
128,192,72593,1,2,0:0:0:0:
128,192,72687,1,4,0:0:0:0:
128,192,72875,1,2,0:0:0:0:
128,192,73062,1,4,0:0:0:0:
128,192,73250,2,0,B|528:0|-64:320,86,545.999975006105,0|0|0|0|0|0|0|0|0|0|0|0|0|0|0|0|0|0|0|0|0|0|0|0|0|0|0|0|0|0|0|0|0|0|0|0|0|0|0|0|0|0|0|0|0|0|0|0|0|0|0|0|0|0|0|0|0|0|0|0|0|0|0|0|0|0|0|0|0|0|0|0|0|0|0|0|0|0|0|0|0|0|0|0|0|0|0,0:0|0:0|0:0|0:0|0:0|0:0|0:0|0:0|0:0|0:0|0:0|0:0|0:0|0:0|0:0|0:0|0:0|0:0|0:0|0:0|0:0|0:0|0:0|0:0|0:0|0:0|0:0|0:0|0:0|0:0|0:0|0:0|0:0|0:0|0:0|0:0|0:0|0:0|0:0|0:0|0:0|0:0|0:0|0:0|0:0|0:0|0:0|0:0|0:0|0:0|0:0|0:0|0:0|0:0|0:0|0:0|0:0|0:0|0:0|0:0|0:0|0:0|0:0|0:0|0:0|0:0|0:0|0:0|0:0|0:0|0:0|0:0|0:0|0:0|0:0|0:0|0:0|0:0|0:0|0:0|0:0|0:0|0:0|0:0|0:0|0:0|0:0,0:0:0:0:
192,192,73625,1,2,0:0:0:0:
192,192,73718,1,2,0:0:0:0:
192,192,73812,1,2,0:0:0:0:
192,192,74000,1,6,0:0:0:0:
192,192,74187,1,0,0:0:0:0:
192,192,74281,1,2,0:0:0:0:
192,192,74375,1,0,0:0:0:0:
192,192,74468,1,0,0:0:0:0:
192,192,74562,1,0,0:0:0:0:
128,192,74750,2,0,B|528:0|-64:320,82,545.999975006105,0|0|0|0|0|0|0|0|0|0|0|0|0|0|0|0|0|0|0|0|0|0|0|0|0|0|0|0|0|0|0|0|0|0|0|0|0|0|0|0|0|0|0|0|0|0|0|0|0|0|0|0|0|0|0|0|0|0|0|0|0|0|0|0|0|0|0|0|0|0|0|0|0|0|0|0|0|0|0|0|0|0|0,0:0|0:0|0:0|0:0|0:0|0:0|0:0|0:0|0:0|0:0|0:0|0:0|0:0|0:0|0:0|0:0|0:0|0:0|0:0|0:0|0:0|0:0|0:0|0:0|0:0|0:0|0:0|0:0|0:0|0:0|0:0|0:0|0:0|0:0|0:0|0:0|0:0|0:0|0:0|0:0|0:0|0:0|0:0|0:0|0:0|0:0|0:0|0:0|0:0|0:0|0:0|0:0|0:0|0:0|0:0|0:0|0:0|0:0|0:0|0:0|0:0|0:0|0:0|0:0|0:0|0:0|0:0|0:0|0:0|0:0|0:0|0:0|0:0|0:0|0:0|0:0|0:0|0:0|0:0|0:0|0:0|0:0|0:0,0:0:0:0:
192,192,75125,1,0,0:0:0:0:
192,192,75312,1,0,0:0:0:0:
128,192,75500,2,0,B|528:0|-64:320,44,545.999975006105,0|0|0|0|0|0|0|0|0|0|0|0|0|0|0|0|0|0|0|0|0|0|0|0|0|0|0|0|0|0|0|0|0|0|0|0|0|0|0|0|0|0|0|0|0,0:0|0:0|0:0|0:0|0:0|0:0|0:0|0:0|0:0|0:0|0:0|0:0|0:0|0:0|0:0|0:0|0:0|0:0|0:0|0:0|0:0|0:0|0:0|0:0|0:0|0:0|0:0|0:0|0:0|0:0|0:0|0:0|0:0|0:0|0:0|0:0|0:0|0:0|0:0|0:0|0:0|0:0|0:0|0:0|0:0,0:0:0:0:
128,192,75687,2,4,B|528:0|-64:320,42,545.999975006105,0|0|0|0|0|0|0|0|0|0|0|0|0|0|0|0|0|0|0|0|0|0|0|0|0|0|0|0|0|0|0|0|0|0|0|0|0|0|0|0|0|0|0,0:0|0:0|0:0|0:0|0:0|0:0|0:0|0:0|0:0|0:0|0:0|0:0|0:0|0:0|0:0|0:0|0:0|0:0|0:0|0:0|0:0|0:0|0:0|0:0|0:0|0:0|0:0|0:0|0:0|0:0|0:0|0:0|0:0|0:0|0:0|0:0|0:0|0:0|0:0|0:0|0:0|0:0|0:0,0:0:0:0:
256,144,75875,1,0,0:0:0:0:
256,144,75968,1,2,0:0:0:0:
256,144,76062,1,0,0:0:0:0:
256,144,76156,1,2,0:0:0:0:
192,192,76250,1,0,0:0:0:0:
192,192,77000,1,0,0:0:0:0:
192,192,77062,1,0,0:0:0:0:
192,192,77125,1,0,0:0:0:0:
192,192,77187,1,2,0:0:0:0:
192,192,77281,1,0,0:0:0:0:
192,192,77375,1,0,0:0:0:0:
192,192,77437,1,0,0:0:0:0:
192,192,77500,1,2,0:0:0:0:
192,192,77562,1,2,0:0:0:0:
192,192,77656,1,0,0:0:0:0:
192,192,77750,1,0,0:0:0:0:
192,192,77812,1,2,0:0:0:0:
192,192,77875,1,2,0:0:0:0:
192,192,77937,1,2,0:0:0:0:
192,192,78031,1,0,0:0:0:0:
192,192,78125,1,0,0:0:0:0:
192,192,78187,1,2,0:0:0:0:
192,192,78250,1,2,0:0:0:0:
192,192,78312,1,2,0:0:0:0:
192,192,78375,1,0,0:0:0:0:
192,192,78437,1,0,0:0:0:0:
192,192,78500,1,2,0:0:0:0:
192,192,78687,1,2,0:0:0:0:
192,192,78750,1,0,0:0:0:0:
192,192,78812,1,0,0:0:0:0:
192,192,78875,1,2,0:0:0:0:
192,192,79062,1,2,0:0:0:0:
192,192,79125,1,0,0:0:0:0:
192,192,79187,1,0,0:0:0:0:
192,192,79250,1,2,0:0:0:0:
192,192,79343,1,0,0:0:0:0:
192,192,79437,1,2,0:0:0:0:
192,192,79500,1,0,0:0:0:0:
192,192,79562,1,0,0:0:0:0:
192,192,79625,1,2,0:0:0:0:
192,192,80000,1,0,0:0:0:0:
192,192,80062,1,0,0:0:0:0:
192,192,80125,1,2,0:0:0:0:
192,192,80187,1,2,0:0:0:0:
192,192,80281,1,0,0:0:0:0:
192,192,80375,1,0,0:0:0:0:
192,192,80437,1,2,0:0:0:0:
192,192,80500,1,2,0:0:0:0:
192,192,80562,1,2,0:0:0:0:
192,192,80656,1,0,0:0:0:0:
192,192,80750,1,2,0:0:0:0:
192,192,80812,1,0,0:0:0:0:
192,192,80875,1,0,0:0:0:0:
192,192,80937,1,2,0:0:0:0:
192,192,81000,1,0,0:0:0:0:
192,192,81062,1,0,0:0:0:0:
192,192,81125,1,2,0:0:0:0:
192,192,81187,1,2,0:0:0:0:
192,192,81250,1,2,0:0:0:0:
192,192,81312,1,0,0:0:0:0:
192,192,81375,1,0,0:0:0:0:
192,192,81437,1,0,0:0:0:0:
192,192,81500,1,0,0:0:0:0:
192,192,81593,1,2,0:0:0:0:
192,192,81687,1,0,0:0:0:0:
192,192,81750,1,0,0:0:0:0:
192,192,81812,1,0,0:0:0:0:
192,192,81875,1,2,0:0:0:0:
192,192,81968,1,2,0:0:0:0:
192,192,82250,1,2,0:0:0:0:
192,192,82273,1,2,0:0:0:0:
192,192,82343,1,2,0:0:0:0:
192,192,82367,1,2,0:0:0:0:
192,192,82437,1,2,0:0:0:0:
192,192,82460,1,2,0:0:0:0:
192,192,82530,1,2,0:0:0:0:
192,192,82554,1,2,0:0:0:0:
192,192,82625,1,0,0:0:0:0:
192,192,82648,1,0,0:0:0:0:
192,192,82718,1,0,0:0:0:0:
192,192,82742,1,0,0:0:0:0:
192,192,82812,1,0,0:0:0:0:
192,192,82835,1,0,0:0:0:0:
192,192,82905,1,0,0:0:0:0:
192,192,82929,1,0,0:0:0:0:
192,192,83000,1,0,0:0:0:0:
192,192,83062,1,0,0:0:0:0:
192,192,83125,1,0,0:0:0:0:
192,192,83187,1,2,0:0:0:0:
192,192,83281,1,0,0:0:0:0:
192,192,83375,1,0,0:0:0:0:
192,192,83437,1,0,0:0:0:0:
192,192,83500,1,2,0:0:0:0:
192,192,83562,1,2,0:0:0:0:
192,192,83656,1,0,0:0:0:0:
192,192,83750,1,0,0:0:0:0:
192,192,83812,1,2,0:0:0:0:
192,192,83875,1,2,0:0:0:0:
192,192,83937,1,2,0:0:0:0:
192,192,84031,1,0,0:0:0:0:
192,192,84125,1,0,0:0:0:0:
192,192,84187,1,2,0:0:0:0:
192,192,84250,1,2,0:0:0:0:
192,192,84312,1,2,0:0:0:0:
192,192,84375,1,0,0:0:0:0:
192,192,84437,1,0,0:0:0:0:
192,192,84500,1,2,0:0:0:0:
192,192,84687,1,2,0:0:0:0:
192,192,84750,1,0,0:0:0:0:
192,192,84812,1,0,0:0:0:0:
192,192,84875,1,2,0:0:0:0:
192,192,85062,1,2,0:0:0:0:
192,192,85125,1,0,0:0:0:0:
192,192,85187,1,0,0:0:0:0:
192,192,85250,1,2,0:0:0:0:
192,192,85343,1,0,0:0:0:0:
192,192,85437,1,2,0:0:0:0:
192,192,85500,1,2,0:0:0:0:
192,192,85562,1,0,0:0:0:0:
192,192,85625,1,2,0:0:0:0:
192,192,86000,1,0,0:0:0:0:
192,192,86062,1,0,0:0:0:0:
192,192,86125,1,2,0:0:0:0:
192,192,86187,1,2,0:0:0:0:
192,192,86281,1,0,0:0:0:0:
192,192,86375,1,0,0:0:0:0:
192,192,86437,1,2,0:0:0:0:
192,192,86500,1,2,0:0:0:0:
192,192,86562,1,2,0:0:0:0:
192,192,86656,1,0,0:0:0:0:
192,192,86750,1,2,0:0:0:0:
192,192,86812,1,0,0:0:0:0:
192,192,86875,1,0,0:0:0:0:
192,192,86937,1,2,0:0:0:0:
192,192,87000,1,0,0:0:0:0:
192,192,87062,1,0,0:0:0:0:
192,192,87125,1,2,0:0:0:0:
192,192,87187,1,2,0:0:0:0:
192,192,87250,1,2,0:0:0:0:
192,192,87312,1,0,0:0:0:0:
192,192,87375,1,0,0:0:0:0:
192,192,87437,1,0,0:0:0:0:
192,192,87500,1,0,0:0:0:0:
192,192,87593,1,0,0:0:0:0:
192,192,87687,1,0,0:0:0:0:
192,192,87744,1,0,0:0:0:0:
192,192,87806,1,0,0:0:0:0:
192,192,87875,1,2,0:0:0:0:
192,192,87968,1,2,0:0:0:0:
192,192,88250,1,2,0:0:0:0:
192,192,88273,1,2,0:0:0:0:
192,192,88343,1,2,0:0:0:0:
192,192,88367,1,2,0:0:0:0:
192,192,88437,1,2,0:0:0:0:
192,192,88460,1,2,0:0:0:0:
192,192,88531,1,2,0:0:0:0:
192,192,88554,1,2,0:0:0:0:
192,192,88718,1,2,0:0:0:0:
192,192,88742,1,2,0:0:0:0:
192,192,88906,1,2,0:0:0:0:
192,192,88929,1,2,0:0:0:0:
192,192,89000,1,0,0:0:0:0:
192,192,89093,1,0,0:0:0:0:
192,192,89140,1,0,0:0:0:0:
192,192,89187,1,2,0:0:0:0:
192,192,89281,1,0,0:0:0:0:
192,192,89375,1,2,0:0:0:0:
192,192,89468,1,0,0:0:0:0:
192,192,89515,1,2,0:0:0:0:
192,192,89562,1,2,0:0:0:0:
192,192,89656,1,0,0:0:0:0:
192,192,89750,1,0,0:0:0:0:
192,192,89843,1,0,0:0:0:0:
192,192,89890,1,0,0:0:0:0:
192,192,89937,1,2,0:0:0:0:
192,192,90000,1,2,0:0:0:0:
192,192,90062,1,2,0:0:0:0:
192,192,90125,1,2,0:0:0:0:
192,192,90218,1,0,0:0:0:0:
192,192,90312,1,2,0:0:0:0:
192,192,90375,1,0,0:0:0:0:
192,192,90437,1,0,0:0:0:0:
192,192,90500,1,2,0:0:0:0:
192,192,90687,1,2,0:0:0:0:
192,192,90750,1,2,0:0:0:0:
192,192,90812,1,0,0:0:0:0:
192,192,90875,1,2,0:0:0:0:
192,192,91062,1,2,0:0:0:0:
192,192,91156,1,0,0:0:0:0:
192,192,91203,1,0,0:0:0:0:
192,192,91250,1,2,0:0:0:0:
192,192,91343,1,0,0:0:0:0:
192,192,91437,1,2,0:0:0:0:
192,192,91500,1,2,0:0:0:0:
192,192,91562,1,0,0:0:0:0:
192,192,91625,1,2,0:0:0:0:
192,192,91812,1,0,0:0:0:0:
192,192,91906,1,0,0:0:0:0:
192,192,92000,1,0,0:0:0:0:
192,192,92062,1,0,0:0:0:0:
192,192,92125,1,0,0:0:0:0:
192,192,92187,1,2,0:0:0:0:
192,192,92281,1,0,0:0:0:0:
192,192,92375,1,0,0:0:0:0:
192,192,92437,1,0,0:0:0:0:
192,192,92500,1,2,0:0:0:0:
192,192,92562,1,2,0:0:0:0:
192,192,92656,1,0,0:0:0:0:
192,192,92750,1,2,0:0:0:0:
192,192,92812,1,0,0:0:0:0:
192,192,92875,1,0,0:0:0:0:
192,192,92937,1,2,0:0:0:0:
192,192,93000,1,0,0:0:0:0:
192,192,93062,1,0,0:0:0:0:
192,192,93125,1,2,0:0:0:0:
192,192,93187,1,2,0:0:0:0:
192,192,93250,1,2,0:0:0:0:
192,192,93312,1,0,0:0:0:0:
192,192,93375,1,0,0:0:0:0:
192,192,93437,1,0,0:0:0:0:
192,192,93500,1,0,0:0:0:0:
192,192,93593,1,0,0:0:0:0:
192,192,93687,1,0,0:0:0:0:
192,192,93781,1,0,0:0:0:0:
192,192,93828,1,0,0:0:0:0:
192,192,93875,1,2,0:0:0:0:
192,192,93968,1,2,0:0:0:0:
192,192,94250,1,2,0:0:0:0:
192,192,94273,1,2,0:0:0:0:
192,192,94343,1,2,0:0:0:0:
192,192,94367,1,2,0:0:0:0:
192,192,94437,1,2,0:0:0:0:
192,192,94460,1,2,0:0:0:0:
192,192,94530,1,2,0:0:0:0:
192,192,94554,1,2,0:0:0:0:
192,192,94625,1,0,0:0:0:0:
192,192,94648,1,0,0:0:0:0:
192,192,94718,1,0,0:0:0:0:
192,192,94742,1,0,0:0:0:0:
192,192,94812,1,0,0:0:0:0:
192,192,94835,1,0,0:0:0:0:
192,192,94905,1,0,0:0:0:0:
192,192,94929,1,0,0:0:0:0:
192,192,95000,1,0,0:0:0:0:
192,192,95093,1,0,0:0:0:0:
192,192,95140,1,0,0:0:0:0:
192,192,95187,1,2,0:0:0:0:
192,192,95281,1,0,0:0:0:0:
192,192,95375,1,2,0:0:0:0:
192,192,95468,1,0,0:0:0:0:
192,192,95515,1,2,0:0:0:0:
192,192,95562,1,2,0:0:0:0:
192,192,95656,1,0,0:0:0:0:
192,192,95750,1,0,0:0:0:0:
192,192,95843,1,0,0:0:0:0:
192,192,95937,1,2,0:0:0:0:
192,192,96000,1,2,0:0:0:0:
192,192,96062,1,2,0:0:0:0:
192,192,96125,1,2,0:0:0:0:
192,192,96218,1,0,0:0:0:0:
192,192,96312,1,2,0:0:0:0:
192,192,96375,1,0,0:0:0:0:
192,192,96437,1,0,0:0:0:0:
192,192,96500,1,2,0:0:0:0:
192,192,96687,1,2,0:0:0:0:
192,192,96734,1,2,0:0:0:0:
192,192,96781,1,0,0:0:0:0:
192,192,96828,1,0,0:0:0:0:
192,192,96875,1,2,0:0:0:0:
192,192,97062,1,0,0:0:0:0:
192,192,97125,1,0,0:0:0:0:
192,192,97187,1,0,0:0:0:0:
192,192,97250,1,2,0:0:0:0:
192,192,97343,1,0,0:0:0:0:
192,192,97437,1,2,0:0:0:0:
192,192,97500,1,2,0:0:0:0:
192,192,97562,1,0,0:0:0:0:
192,192,97625,1,2,0:0:0:0:
192,192,97812,1,0,0:0:0:0:
192,192,97906,1,0,0:0:0:0:
192,192,98000,1,0,0:0:0:0:
192,192,98093,1,0,0:0:0:0:
192,192,98140,1,0,0:0:0:0:
192,192,98187,1,2,0:0:0:0:
192,192,98281,1,0,0:0:0:0:
192,192,98375,1,2,0:0:0:0:
192,192,98468,1,0,0:0:0:0:
192,192,98515,1,2,0:0:0:0:
192,192,98562,1,2,0:0:0:0:
192,192,98656,1,0,0:0:0:0:
192,192,98750,1,0,0:0:0:0:
192,192,98796,1,0,0:0:0:0:
192,192,98843,1,0,0:0:0:0:
192,192,98890,1,0,0:0:0:0:
192,192,98937,1,2,0:0:0:0:
192,192,99031,1,0,0:0:0:0:
192,192,99078,1,0,0:0:0:0:
192,192,99125,1,2,0:0:0:0:
192,192,99187,1,2,0:0:0:0:
192,192,99250,1,2,0:0:0:0:
192,192,99312,1,0,0:0:0:0:
192,192,99375,1,0,0:0:0:0:
192,192,99437,1,0,0:0:0:0:
192,192,99500,1,0,0:0:0:0:
192,192,99593,1,0,0:0:0:0:
192,192,99640,1,0,0:0:0:0:
192,192,99687,1,0,0:0:0:0:
192,192,99781,1,0,0:0:0:0:
192,192,99828,1,0,0:0:0:0:
192,192,99875,1,2,0:0:0:0:
192,192,99968,1,2,0:0:0:0:
192,192,100250,1,2,0:0:0:0:
192,192,100273,1,2,0:0:0:0:
192,192,100343,1,2,0:0:0:0:
192,192,100367,1,2,0:0:0:0:
192,192,100437,1,2,0:0:0:0:
192,192,100460,1,2,0:0:0:0:
192,192,100531,1,2,0:0:0:0:
192,192,100554,1,2,0:0:0:0:
192,192,100718,1,2,0:0:0:0:
192,192,100742,1,2,0:0:0:0:
192,192,100906,1,2,0:0:0:0:
192,192,100929,1,2,0:0:0:0:
192,192,101000,1,0,0:0:0:0:
192,192,101187,1,2,0:0:0:0:
192,192,101281,1,0,0:0:0:0:
192,192,101375,1,2,0:0:0:0:
192,192,101562,1,0,0:0:0:0:
192,192,101750,1,0,0:0:0:0:
192,192,101937,1,2,0:0:0:0:
192,192,102000,1,2,0:0:0:0:
192,192,102062,1,2,0:0:0:0:
192,192,102125,1,2,0:0:0:0:
192,192,102312,1,0,0:0:0:0:
192,192,102500,1,2,0:0:0:0:
192,192,102593,1,4,0:0:0:0:
192,192,102781,1,4,0:0:0:0:
192,192,102968,1,2,0:0:0:0:
192,192,103062,1,4,0:0:0:0:
192,192,103250,1,0,0:0:0:0:
192,192,103343,1,2,0:0:0:0:
192,192,103437,1,2,0:0:0:0:
192,192,103531,1,0,0:0:0:0:
192,192,103625,1,2,0:0:0:0:
192,192,103812,1,0,0:0:0:0:
192,192,103906,1,0,0:0:0:0:
192,192,104000,1,0,0:0:0:0:
192,192,104187,1,2,0:0:0:0:
192,192,104281,1,0,0:0:0:0:
192,192,104375,1,2,0:0:0:0:
192,192,104562,1,0,0:0:0:0:
192,192,104750,1,0,0:0:0:0:
192,192,104937,1,2,0:0:0:0:
192,192,105000,1,2,0:0:0:0:
192,192,105062,1,2,0:0:0:0:
192,192,105125,1,2,0:0:0:0:
192,192,105312,1,0,0:0:0:0:
192,192,105500,1,2,0:0:0:0:
192,192,105593,1,4,0:0:0:0:
192,192,105781,1,4,0:0:0:0:
192,192,105968,1,4,0:0:0:0:
192,192,106156,1,2,0:0:0:0:
192,192,106250,1,0,0:0:0:0:
192,192,106343,1,2,0:0:0:0:
192,192,106437,1,0,0:0:0:0:
192,192,106531,1,0,0:0:0:0:
192,192,106625,1,2,0:0:0:0:
192,192,106718,1,2,0:0:0:0:
192,192,106812,1,0,0:0:0:0:
192,192,106906,1,0,0:0:0:0:
192,192,107000,1,0,0:0:0:0:
192,192,107187,1,2,0:0:0:0:
192,192,107281,1,0,0:0:0:0:
192,192,107375,1,2,0:0:0:0:
192,192,107562,1,0,0:0:0:0:
192,192,107750,1,0,0:0:0:0:
192,192,107937,1,2,0:0:0:0:
192,192,108000,1,2,0:0:0:0:
192,192,108062,1,2,0:0:0:0:
192,192,108125,1,2,0:0:0:0:
192,192,108312,1,0,0:0:0:0:
192,192,108500,1,2,0:0:0:0:
192,192,108593,1,4,0:0:0:0:
192,192,108781,1,4,0:0:0:0:
192,192,108968,1,2,0:0:0:0:
192,192,109062,1,4,0:0:0:0:
192,192,109250,1,0,0:0:0:0:
192,192,109343,1,2,0:0:0:0:
192,192,109531,1,0,0:0:0:0:
192,192,109625,1,2,0:0:0:0:
192,192,109812,1,0,0:0:0:0:
192,192,109906,1,0,0:0:0:0:
192,192,110000,1,0,0:0:0:0:
192,192,110187,1,2,0:0:0:0:
192,192,110281,1,0,0:0:0:0:
192,192,110375,1,2,0:0:0:0:
192,192,110562,1,0,0:0:0:0:
192,192,110750,1,0,0:0:0:0:
192,192,110937,1,2,0:0:0:0:
192,192,111000,1,2,0:0:0:0:
192,192,111062,1,2,0:0:0:0:
192,192,111125,1,2,0:0:0:0:
192,192,111312,1,0,0:0:0:0:
192,192,111500,1,2,0:0:0:0:
192,192,111593,1,4,0:0:0:0:
192,192,111781,1,4,0:0:0:0:
192,192,111968,1,4,0:0:0:0:
192,192,112156,1,2,0:0:0:0:
192,192,112250,1,0,0:0:0:0:
192,192,112343,1,2,0:0:0:0:
192,192,112437,1,2,0:0:0:0:
192,192,112531,1,0,0:0:0:0:
192,192,112625,1,2,0:0:0:0:
192,192,112812,1,0,0:0:0:0:
192,192,113000,1,0,0:0:0:0:
192,192,113093,1,0,0:0:0:0:
192,192,113140,1,0,0:0:0:0:
192,192,113187,1,2,0:0:0:0:
192,192,113281,1,0,0:0:0:0:
192,192,113375,1,2,0:0:0:0:
192,192,113468,1,0,0:0:0:0:
192,192,113515,1,2,0:0:0:0:
192,192,113562,1,2,0:0:0:0:
192,192,113656,1,0,0:0:0:0:
192,192,113750,1,0,0:0:0:0:
192,192,113843,1,0,0:0:0:0:
192,192,113890,1,0,0:0:0:0:
192,192,113937,1,2,0:0:0:0:
192,192,114000,1,2,0:0:0:0:
192,192,114062,1,2,0:0:0:0:
192,192,114125,1,2,0:0:0:0:
192,192,114218,1,0,0:0:0:0:
192,192,114312,1,2,0:0:0:0:
192,192,114375,1,0,0:0:0:0:
192,192,114437,1,0,0:0:0:0:
192,192,114500,1,2,0:0:0:0:
192,192,114687,1,2,0:0:0:0:
192,192,114750,1,2,0:0:0:0:
192,192,114812,1,0,0:0:0:0:
192,192,114875,1,2,0:0:0:0:
192,192,115062,1,2,0:0:0:0:
192,192,115156,1,0,0:0:0:0:
192,192,115203,1,0,0:0:0:0:
192,192,115250,1,2,0:0:0:0:
192,192,115343,1,0,0:0:0:0:
192,192,115437,1,2,0:0:0:0:
192,192,115500,1,2,0:0:0:0:
192,192,115562,1,0,0:0:0:0:
192,192,115625,1,2,0:0:0:0:
192,192,115812,1,0,0:0:0:0:
192,192,115906,1,0,0:0:0:0:
192,192,116000,1,0,0:0:0:0:
192,192,116062,1,0,0:0:0:0:
192,192,116125,1,0,0:0:0:0:
192,192,116187,1,2,0:0:0:0:
192,192,116281,1,0,0:0:0:0:
192,192,116375,1,0,0:0:0:0:
192,192,116437,1,0,0:0:0:0:
192,192,116500,1,2,0:0:0:0:
192,192,116562,1,2,0:0:0:0:
192,192,116656,1,0,0:0:0:0:
192,192,116750,1,2,0:0:0:0:
192,192,116812,1,0,0:0:0:0:
192,192,116875,1,0,0:0:0:0:
192,192,116937,1,2,0:0:0:0:
192,192,117000,1,0,0:0:0:0:
192,192,117062,1,0,0:0:0:0:
192,192,117125,1,2,0:0:0:0:
192,192,117187,1,2,0:0:0:0:
192,192,117250,1,2,0:0:0:0:
192,192,117312,1,0,0:0:0:0:
192,192,117375,1,0,0:0:0:0:
192,192,117437,1,0,0:0:0:0:
192,192,117500,1,0,0:0:0:0:
192,192,117593,1,0,0:0:0:0:
192,192,117687,1,0,0:0:0:0:
192,192,117781,1,0,0:0:0:0:
192,192,117828,1,0,0:0:0:0:
192,192,117875,1,2,0:0:0:0:
192,192,117968,1,2,0:0:0:0:
192,192,118250,1,2,0:0:0:0:
192,192,118273,1,2,0:0:0:0:
192,192,118343,1,2,0:0:0:0:
192,192,118367,1,2,0:0:0:0:
192,192,118437,1,2,0:0:0:0:
192,192,118460,1,2,0:0:0:0:
192,192,118530,1,2,0:0:0:0:
192,192,118554,1,2,0:0:0:0:
192,192,118625,1,0,0:0:0:0:
192,192,118648,1,0,0:0:0:0:
192,192,118718,1,0,0:0:0:0:
192,192,118742,1,0,0:0:0:0:
192,192,118812,1,0,0:0:0:0:
192,192,118835,1,0,0:0:0:0:
192,192,118906,1,0,0:0:0:0:
192,192,118929,1,0,0:0:0:0:
192,192,119000,1,0,0:0:0:0:
192,192,119093,1,0,0:0:0:0:
192,192,119140,1,0,0:0:0:0:
192,192,119187,1,2,0:0:0:0:
192,192,119281,1,0,0:0:0:0:
192,192,119375,1,2,0:0:0:0:
192,192,119468,1,0,0:0:0:0:
192,192,119515,1,2,0:0:0:0:
192,192,119562,1,2,0:0:0:0:
192,192,119656,1,0,0:0:0:0:
192,192,119750,1,0,0:0:0:0:
192,192,119843,1,0,0:0:0:0:
192,192,119937,1,2,0:0:0:0:
192,192,120000,1,2,0:0:0:0:
192,192,120062,1,2,0:0:0:0:
192,192,120125,1,2,0:0:0:0:
192,192,120218,1,0,0:0:0:0:
192,192,120312,1,2,0:0:0:0:
192,192,120375,1,0,0:0:0:0:
192,192,120437,1,0,0:0:0:0:
192,192,120500,1,2,0:0:0:0:
192,192,120687,1,2,0:0:0:0:
192,192,120734,1,2,0:0:0:0:
192,192,120781,1,0,0:0:0:0:
192,192,120828,1,0,0:0:0:0:
192,192,120875,1,2,0:0:0:0:
192,192,121062,1,0,0:0:0:0:
192,192,121125,1,0,0:0:0:0:
192,192,121187,1,0,0:0:0:0:
192,192,121250,1,2,0:0:0:0:
192,192,121343,1,0,0:0:0:0:
192,192,121437,1,2,0:0:0:0:
192,192,121500,1,2,0:0:0:0:
192,192,121562,1,0,0:0:0:0:
192,192,121625,1,2,0:0:0:0:
192,192,121812,1,0,0:0:0:0:
192,192,121906,1,0,0:0:0:0:
192,192,122000,1,0,0:0:0:0:
192,192,122093,1,0,0:0:0:0:
192,192,122140,1,0,0:0:0:0:
192,192,122187,1,2,0:0:0:0:
192,192,122281,1,0,0:0:0:0:
192,192,122375,1,2,0:0:0:0:
192,192,122468,1,0,0:0:0:0:
192,192,122515,1,2,0:0:0:0:
192,192,122562,1,2,0:0:0:0:
192,192,122656,1,0,0:0:0:0:
192,192,122750,1,2,0:0:0:0:
192,192,122796,1,0,0:0:0:0:
192,192,122843,1,0,0:0:0:0:
192,192,122890,1,0,0:0:0:0:
192,192,122937,1,2,0:0:0:0:
192,192,123031,1,0,0:0:0:0:
192,192,123078,1,0,0:0:0:0:
192,192,123125,1,2,0:0:0:0:
192,192,123187,1,2,0:0:0:0:
192,192,123250,1,2,0:0:0:0:
192,192,123312,1,0,0:0:0:0:
192,192,123375,1,0,0:0:0:0:
192,192,123437,1,0,0:0:0:0:
192,192,123500,1,0,0:0:0:0:
192,192,123593,1,0,0:0:0:0:
192,192,123640,1,0,0:0:0:0:
192,192,123687,1,0,0:0:0:0:
192,192,123781,1,0,0:0:0:0:
192,192,123828,1,0,0:0:0:0:
192,192,123875,1,2,0:0:0:0:
192,192,123968,1,2,0:0:0:0:
192,192,124250,1,2,0:0:0:0:
192,192,124273,1,2,0:0:0:0:
192,192,124343,1,2,0:0:0:0:
192,192,124367,1,2,0:0:0:0:
192,192,124437,1,2,0:0:0:0:
192,192,124460,1,2,0:0:0:0:
192,192,124531,1,2,0:0:0:0:
192,192,124554,1,2,0:0:0:0:
192,192,124718,1,2,0:0:0:0:
192,192,124742,1,2,0:0:0:0:
192,192,124906,1,2,0:0:0:0:
192,192,124929,1,2,0:0:0:0:
192,192,125000,1,2,0:0:0:0:
192,192,126500,1,0,0:0:0:0:
192,192,127250,1,0,0:0:0:0:
192,192,128000,1,2,0:0:0:0:
192,192,128750,1,0,0:0:0:0:
192,192,129125,1,2,0:0:0:0:
192,192,129500,1,2,0:0:0:0:
192,192,130250,1,2,0:0:0:0:
192,192,131000,1,0,0:0:0:0:
192,192,131093,1,0,0:0:0:0:
192,192,131187,1,2,0:0:0:0:
192,192,131281,1,0,0:0:0:0:
192,192,131375,1,0,0:0:0:0:
192,192,131468,1,2,0:0:0:0:
192,192,131562,1,0,0:0:0:0:
192,192,131750,1,2,0:0:0:0:
192,192,131812,1,2,0:0:0:0:
192,192,131875,1,2,0:0:0:0:
192,192,131937,1,2,0:0:0:0:
192,192,132000,1,2,0:0:0:0:
192,192,132062,1,2,0:0:0:0:
192,192,132125,1,0,0:0:0:0:
192,192,132312,1,2,0:0:0:0:
192,192,132375,1,2,0:0:0:0:
192,192,132437,1,2,0:0:0:0:
192,192,132500,1,0,0:0:0:0:
192,192,132593,1,6,0:0:0:0:
192,192,132781,1,6,0:0:0:0:
192,192,133157,1,2,0:0:0:0:
192,192,133219,1,2,0:0:0:0:
192,192,133282,1,2,0:0:0:0:
192,192,133344,1,2,0:0:0:0:
192,192,133407,1,2,0:0:0:0:
192,192,133469,1,2,0:0:0:0:
192,192,133532,1,0,0:0:0:0:
192,192,133625,1,2,0:0:0:0:
192,192,133812,1,0,0:0:0:0:
192,192,133906,1,2,0:0:0:0:
192,192,134000,1,0,0:0:0:0:
192,192,134093,1,0,0:0:0:0:
192,192,134187,1,2,0:0:0:0:
192,192,134281,1,0,0:0:0:0:
192,192,134375,1,0,0:0:0:0:
192,192,134468,1,2,0:0:0:0:
192,192,134562,1,0,0:0:0:0:
192,192,134750,1,2,0:0:0:0:
192,192,134812,1,2,0:0:0:0:
192,192,134875,1,2,0:0:0:0:
192,192,134937,1,2,0:0:0:0:
192,192,135000,1,2,0:0:0:0:
192,192,135062,1,2,0:0:0:0:
192,192,135125,1,0,0:0:0:0:
192,192,135312,1,2,0:0:0:0:
192,192,135375,1,2,0:0:0:0:
192,192,135437,1,2,0:0:0:0:
192,192,135500,1,2,0:0:0:0:
192,192,135593,1,4,0:0:0:0:
192,192,135781,1,4,0:0:0:0:
192,192,135968,1,4,0:0:0:0:
192,192,136062,1,2,0:0:0:0:
192,192,136437,1,6,0:0:0:0:
192,192,136625,1,2,0:0:0:0:
192,192,136812,1,6,0:0:0:0:
