osu file format v14

[General]
AudioFilename: audio.mp3
AudioLeadIn: 0
PreviewTime: 177898
Countdown: 0
SampleSet: Soft
StackLeniency: 0.2
Mode: 0
LetterboxInBreaks: 0
WidescreenStoryboard: 1

[Editor]
Bookmarks: 18518,28845,38951,49056,64213,74318,84423,94530,102109,112214,127371,132423,142530,152635,167793,177898,188003,193055,203161,213267,217056,223371,233476,263793,284003,294107,303354,311037,322864,332969,343074,353179,363285,368337,388548
DistanceSpacing: 0.1
BeatDivisor: 4
GridSize: 32
TimelineZoom: 3.499999

[Metadata]
Title:Dr. Vinklestein Says
TitleUnicode:Dr. Vinklestein Says
Artist:Shpongle
ArtistUnicode:Shpongle
Creator:piroshki
Version:Entheogen
Source:
Tags:english instrumental electronic edm psychedelic midtempo carnival of peculiarities simon posford hallucinogen raja ram ep
BeatmapID:3580348
BeatmapSetID:1750091

[Difficulty]
HPDrainRate:4
CircleSize:4.2
OverallDifficulty:9
ApproachRate:9.3
SliderMultiplier:1.6
SliderTickRate:1

[Events]
//Background and Video events
0,0,"96701304_p0.jpg",0,0
//Break Periods
2,74519,81344
2,224203,227870
2,294307,302800
//Storyboard Layer 0 (Background)
//Storyboard Layer 1 (Fail)
//Storyboard Layer 2 (Pass)
//Storyboard Layer 3 (Foreground)
//Storyboard Layer 4 (Overlay)
//Storyboard Sound Samples

[TimingPoints]
18519,731.707317073171,4,2,1,20,1,0
18519,-111.111111111111,4,2,1,20,0,0
18884,600,4,2,1,20,1,0
19184,666.666666666667,4,2,1,20,1,0
19184,-83.3333333333333,4,2,1,20,0,0
19517,535.714285714286,4,2,1,20,1,0
19784,545.454545454546,4,2,1,20,1,0
19784,-111.111111111111,4,2,1,20,0,0
20056,545.454545454546,4,2,1,20,1,0
20328,472.44094488189,4,2,1,20,1,0
20328,-83.3333333333333,4,2,1,20,0,0
20564,508.474576271187,4,2,1,20,1,0
20818,530.973451327434,4,2,1,30,1,0
20818,-111.111111111111,4,2,1,30,0,0
21083,517.241379310345,4,2,1,30,1,0
21341,526.315789473685,4,2,1,30,1,0
21341,-83.3333333333333,4,2,1,30,0,0
21604,521.739130434783,4,2,1,30,1,0
21864,517.241379310345,4,2,1,30,1,0
21864,-111.111111111111,4,2,1,30,0,0
22122,491.803278688525,4,2,1,30,1,0
22367,468.75,4,2,1,30,1,0
22367,-83.3333333333333,4,2,1,30,0,0
22601,483.870967741935,4,2,1,30,1,0
22842,434.782608695652,4,2,1,30,1,0
22842,-100,4,2,1,30,0,0
23059,468.75,4,2,1,5,1,0
23293,422.535211267606,4,2,1,30,1,0
23293,-76.9230769230769,4,2,1,30,0,0
23504,447.761194029851,4,2,1,30,1,0
23727,410.958904109589,4,2,1,30,1,0
23727,-100,4,2,1,30,0,0
23932,434.782608695652,4,2,1,5,1,0
24149,400,4,2,1,30,1,0
24149,-76.9230769230769,4,2,1,30,0,0
24349,416.666666666667,4,2,1,30,1,0
24557,379.746835443038,4,2,1,35,1,0
24557,-90.9090909090909,4,2,1,35,0,0
24746,370.37037037037,4,2,1,5,1,0
24931,370.37037037037,4,2,1,35,1,0
24931,-83.3333333333333,4,2,1,35,0,0
25301,-100,4,2,1,35,0,0
25486,-100,4,2,1,5,0,0
25671,-83.3333333333333,4,2,1,35,0,0
26042,-100,4,2,1,35,0,0
26227,-100,4,2,1,5,0,0
26412,348.837209302326,4,2,1,35,1,0
26412,-76.9230769230769,4,2,1,35,0,0
26760,-90.9090909090909,4,2,1,35,0,0
26934,-90.9090909090909,4,2,1,5,0,0
27109,-76.9230769230769,4,2,1,35,0,0
27458,-90.9090909090909,4,2,1,35,0,0
27632,-90.9090909090909,4,2,1,5,0,0
27807,-76.9230769230769,4,2,1,35,0,0
28156,416.666666666667,4,2,1,35,1,0
28156,-76.9230769230769,4,2,1,35,0,0
28364,307.692307692308,4,2,1,40,1,0
28517,329.67032967033,4,2,1,40,1,0
28846,315.789473684211,4,2,1,55,1,0
28846,-71.4285714285714,4,2,1,55,0,0
29397,-71.4285714285714,4,2,1,5,0,0
29477,-71.4285714285714,4,2,1,55,0,0
31924,-71.4285714285714,4,2,1,5,0,0
32003,-71.4285714285714,4,2,1,55,0,0
34450,-71.4285714285714,4,2,1,5,0,0
34530,-71.4285714285714,4,2,1,55,0,0
36976,-71.4285714285714,4,2,1,5,0,0
37056,-71.4285714285714,4,2,1,55,0,0
38951,-66.6666666666667,4,2,1,60,0,0
40056,-83.3333333333333,4,2,1,60,0,0
41477,-71.4285714285714,4,2,1,60,0,0
42582,-83.3333333333333,4,2,1,60,0,0
44003,-66.6666666666667,4,2,1,60,0,0
45109,-83.3333333333333,4,2,1,60,0,0
46530,-71.4285714285714,4,2,1,60,0,0
47793,-83.3333333333333,4,2,1,60,0,0
49214,-76.9230769230769,4,2,1,60,0,0
64214,-76.9230769230769,4,2,1,68,0,0
64846,-71.4285714285714,4,2,1,68,0,0
65082,-71.4285714285714,4,2,1,5,0,0
65161,-62.5,4,2,1,68,0,0
65397,-62.5,4,2,1,5,0,0
65477,-71.4285714285714,4,2,1,68,0,0
67056,-76.9230769230769,4,2,1,68,0,0
67372,-71.4285714285714,4,2,1,68,0,0
67608,-71.4285714285714,4,2,1,5,0,0
67687,-62.5,4,2,1,68,0,0
67924,-62.5,4,2,1,5,0,0
68003,-71.4285714285714,4,2,1,68,0,0
69582,-76.9230769230769,4,2,1,68,0,0
69898,-71.4285714285714,4,2,1,68,0,0
70134,-71.4285714285714,4,2,1,5,0,0
70213,-62.5,4,2,1,68,0,0
70450,-62.5,4,2,1,5,0,0
70529,-71.4285714285714,4,2,1,68,0,0
72109,-76.9230769230769,4,2,1,68,0,0
73688,-66.6666666666667,4,2,1,68,0,0
74161,-100,4,2,1,68,0,0
74319,-100,4,2,1,52,0,0
83477,-100,4,2,1,56,0,0
84424,-100,4,2,1,60,0,0
84898,-90.9090909090909,4,2,1,60,0,0
93345,-90.9090909090909,4,2,1,5,0,0
93424,-90.9090909090909,4,2,1,60,0,0
94530,-83.3333333333333,4,2,1,60,0,0
98555,-83.3333333333333,4,2,1,5,0,0
98635,-83.3333333333333,4,2,1,60,0,0
102109,-83.3333333333333,4,2,1,64,0,0
102267,-66.6666666666667,4,2,1,64,0,0
112214,-66.6666666666667,4,2,1,68,0,0
112688,-55.5555555555556,4,2,1,68,0,0
114740,-66.6666666666667,4,2,1,68,0,0
116239,-66.6666666666667,4,2,1,5,0,0
116319,-66.6666666666667,4,2,1,68,0,0
122319,-71.4285714285714,4,2,1,68,0,0
127372,-71.4285714285714,4,2,1,55,0,0
128951,-71.4285714285714,4,2,1,40,0,0
129109,-100,4,2,1,40,0,0
132424,-62.5,4,2,1,68,0,0
142530,-71.4285714285714,4,2,1,60,0,0
155161,-43.4782608695652,4,2,1,60,0,0
155319,-52.6315789473684,4,2,1,60,0,0
155477,-66.6666666666667,4,2,1,60,0,0
155635,-90.9090909090909,4,2,1,60,0,0
155793,-43.4782608695652,4,2,1,60,0,0
155951,-52.6315789473684,4,2,1,60,0,0
156109,-66.6666666666667,4,2,1,60,0,0
156267,-90.9090909090909,4,2,1,60,0,0
156424,-66.6666666666667,4,2,1,60,0,0
167793,-66.6666666666667,4,2,1,64,0,0
177898,-62.5,4,2,1,68,0,0
188003,-62.5,4,2,1,40,0,0
193056,-55.5555555555556,4,2,1,66,0,0
201267,-47.6190476190476,4,2,1,66,0,0
201898,-52.6315789473684,4,2,1,66,0,0
202688,-45.4545454545455,4,2,1,66,0,0
203161,-66.6666666666667,4,2,1,60,0,0
213267,-66.6666666666667,4,2,1,64,0,0
214056,-62.5,4,2,1,64,0,0
214688,-58.8235294117647,4,2,1,64,0,0
215319,-55.5555555555556,4,2,1,64,0,0
215793,-52.6315789473684,4,2,1,64,0,0
216109,-50,4,2,1,64,0,0
216424,-47.6190476190476,4,2,1,64,0,0
216740,-45.4545454545455,4,2,1,64,0,0
217056,-58.8235294117647,4,2,1,68,0,0
223372,-58.8235294117647,4,2,1,56,0,0
223688,-200,4,2,1,56,0,0
233477,-100,4,2,1,50,0,0
236160,-100,4,2,1,5,0,0
236319,-100,4,2,1,50,0,0
237424,-100,4,2,1,5,0,0
237582,-100,4,2,1,50,0,0
239713,-100,4,2,1,5,0,0
239793,-100,4,2,1,50,0,0
240660,-100,4,2,1,5,0,0
240740,-100,4,2,1,50,0,0
243818,-100,4,2,1,5,0,0
243898,-100,4,2,1,50,0,0
246345,-100,4,2,1,5,0,0
246424,-100,4,2,1,50,0,0
247529,-100,4,2,1,5,0,0
247688,-100,4,2,1,50,0,0
249424,-100,4,2,1,5,0,0
249582,-100,4,2,1,50,0,0
250687,-100,4,2,1,5,0,0
250846,-100,4,2,1,50,0,0
252660,-100,4,2,1,5,0,0
252740,-100,4,2,1,50,0,0
253924,-100,4,2,1,5,0,0
254003,-100,4,2,1,50,0,0
256371,-100,4,2,1,5,0,0
256530,-100,4,2,1,50,0,0
257003,-100,4,2,1,5,0,0
257162,-100,4,2,1,50,0,0
257793,-100,4,2,1,50,0,0
258346,-100,4,2,1,50,0,0
258977,-100,4,2,1,50,0,0
259609,-100,4,2,1,50,0,0
260240,-100,4,2,1,50,0,0
260872,-100,4,2,1,50,0,0
261503,-100,4,2,1,50,0,0
261898,-100,4,2,1,50,0,0
263793,-100,4,2,1,55,0,0
268450,-100,4,2,1,5,0,0
268530,-100,4,2,1,55,0,0
279187,-100,4,2,1,5,0,0
279267,-100,4,2,1,55,0,0
284003,-100,4,2,1,60,0,0
288976,-100,4,2,1,5,0,0
289056,-100,4,2,1,60,0,0
294107,631.578947368421,4,2,1,40,1,0
294738,555.555555555556,4,2,1,40,1,0
295293,779.220779220779,4,2,1,40,1,0
295682,631.578947368421,4,2,1,40,1,0
295997,600,4,2,1,40,1,0
296597,588.235294117647,4,2,1,40,1,0
297185,585.365853658537,4,2,1,40,1,0
297770,576.923076923077,4,2,1,40,1,0
298923,574.162679425837,4,2,1,40,1,0
300071,566.037735849057,4,2,1,40,1,0
301203,530.973451327434,4,2,1,40,1,0
302264,545.454545454546,4,2,1,40,1,0
303354,526.315789473684,4,2,1,45,1,0
303354,-83.3333333333333,4,2,1,45,0,0
304406,521.739130434783,4,2,1,45,1,0
304406,-83.3333333333333,4,2,1,45,0,0
305449,483.870967741935,4,2,1,45,1,0
305449,-83.3333333333333,4,2,1,45,0,0
307384,476.190476190476,4,2,1,45,1,0
307384,-83.3333333333333,4,2,1,45,0,0
308336,465.116279069767,4,2,1,45,1,0
308336,-83.3333333333333,4,2,1,45,0,0
309266,451.127819548872,4,2,1,45,1,0
309266,-83.3333333333333,4,2,1,45,0,0
310168,434.782608695652,4,2,1,45,1,0
310168,-83.3333333333333,4,2,1,45,0,0
311037,425.531914893617,4,2,1,50,1,0
311037,-76.9230769230769,4,2,1,50,0,0
312739,405.405405405405,4,2,1,50,1,0
312739,-76.9230769230769,4,2,1,50,0,0
314360,389.61038961039,4,2,1,50,1,0
314360,-76.9230769230769,4,2,1,50,0,0
315918,375,4,2,1,50,1,0
315918,-76.9230769230769,4,2,1,50,0,0
317418,359.281437125748,4,2,1,55,1,0
317418,-76.9230769230769,4,2,1,55,0,0
318855,344.827586206897,4,2,1,55,1,0
318855,-76.9230769230769,4,2,1,55,0,0
320234,333.333333333333,4,2,1,55,1,0
320234,-76.9230769230769,4,2,1,55,0,0
321567,324.324324324324,4,2,1,55,1,0
321567,-76.9230769230769,4,2,1,55,0,0
322864,315.789473684211,4,2,1,64,1,0
322864,-66.6666666666667,4,2,1,64,0,0
332969,-66.6666666666667,4,2,1,60,0,0
343074,-58.8235294117647,4,2,1,66,0,0
343942,-58.8235294117647,4,2,1,5,0,0
344021,-50,4,2,1,66,0,0
344257,-50,4,2,1,5,0,0
344337,-58.8235294117647,4,2,1,66,0,0
346232,-50,4,2,1,66,0,0
346468,-50,4,2,1,5,0,0
346548,-58.8235294117647,4,2,1,66,0,0
346784,-58.8235294117647,4,2,1,5,0,0
346864,-58.8235294117647,4,2,1,66,0,0
348994,-58.8235294117647,4,2,1,5,0,0
349074,-50,4,2,1,66,0,0
349310,-50,4,2,1,5,0,0
349390,-58.8235294117647,4,2,1,66,0,0
353179,-58.8235294117647,4,2,1,62,0,0
358232,-58.8235294117647,4,2,1,68,0,0
368337,-76.9230769230769,4,2,1,50,0,0
369600,-76.9230769230769,4,2,1,51,0,0
370864,-55.5555555555556,4,2,1,52,0,0
372127,-55.5555555555556,4,2,1,53,0,0
373390,-55.5555555555556,4,2,1,54,0,0
374653,-55.5555555555556,4,2,1,55,0,0
375916,-55.5555555555556,4,2,1,56,0,0
377179,-55.5555555555556,4,2,1,57,0,0
378442,-55.5555555555556,4,2,1,58,0,0
379706,-55.5555555555556,4,2,1,59,0,0
380969,-55.5555555555556,4,2,1,60,0,0
382232,-55.5555555555556,4,2,1,61,0,0
383495,-55.5555555555556,4,2,1,62,0,0
384758,-55.5555555555556,4,2,1,63,0,0
386021,-55.5555555555556,4,2,1,64,0,0
387285,-55.5555555555556,4,2,1,65,0,0
388548,-55.5555555555556,4,2,1,66,0,0
389811,-55.5555555555556,4,2,1,40,0,0
391074,-55.5555555555556,4,2,1,30,0,0
393600,-55.5555555555556,4,2,1,15,0,0
394232,-55.5555555555556,4,2,1,5,0,0

[Colours]
Combo1 : 205,160,162
Combo2 : 149,198,149
Combo3 : 135,185,211
Combo4 : 192,192,192

[HitObjects]
265,313,18519,6,0,L|258:384,1,71.9999978027344,2|0,0:0|0:0,0:0:0:0:
268,208,19184,2,0,L|258:303,1,95.9999970703126,2|0,0:0|0:0,0:0:0:0:
8,98,19784,6,0,P|31:71|65:56,1,71.9999978027344,2|0,0:0|0:0,0:0:0:0:
23,193,20328,2,0,P|1:151|11:105,1,95.9999970703126,2|0,0:0|0:0,0:0:0:0:
190,330,20818,6,0,P|154:322|119:316,1,71.9999978027344,2|0,0:0|0:0,0:0:0:0:
295,310,21341,2,0,L|199:323,1,95.9999970703126,2|0,0:0|0:0,0:0:0:0:
483,106,21864,6,0,L|471:177,1,71.9999978027344,2|0,0:0|0:0,0:0:0:0:
420,26,22367,2,0,P|457:56|477:99,1,95.9999970703126,2|0,0:0|0:0,0:0:0:0:
243,236,22842,6,0,L|164:220,1,80,2|0,0:0|2:0,0:0:0:0:
345,206,23293,2,0,P|295:215|251:243,1,103.999995239258,2|0,0:0|0:0,0:0:0:0:
497,384,23727,6,0,P|478:349|445:327,1,80,2|0,0:0|2:0,0:0:0:0:
445,327,24149,2,0,L|432:223,1,103.999995239258,2|0,0:0|0:0,0:0:0:0:
178,297,24557,6,0,L|167:384,1,88.000002685547,2|0,0:0|2:0,0:0:0:0:
174,384,24931,2,0,L|184:288,1,95.9999970703126,2|0,0:0|0:0,0:0:0:0:
113,60,25301,6,0,P|73:65|40:86,1,80,2|0,0:0|2:0,0:0:0:0:
36,103,25671,2,0,P|73:74|120:69,1,95.9999970703126,2|0,0:0|0:0,0:0:0:0:
184,288,26042,6,0,P|147:272|122:242,1,80,2|0,0:0|2:0,0:0:0:0:
247,134,26412,2,0,P|204:160|193:210,1,103.999995239258,2|0,0:0|0:0,0:0:0:0:
487,30,26760,6,0,L|400:13,1,88.000002685547,2|0,0:0|2:0,0:0:0:0:
478,103,27109,2,0,L|375:83,1,103.999995239258,2|0,0:0|0:0,0:0:0:0:
184,288,27458,6,0,L|270:271,1,88.000002685547,2|0,0:0|2:0,0:0:0:0:
193,361,27807,2,0,L|295:341,1,103.999995239258,2|0,0:0|0:0,0:0:0:0:
100,139,28156,6,0,P|54:161|29:206,1,103.999995239258,2|8,0:0|2:2,0:0:0:0:
33,212,28440,1,8,2:2:0:0:
38,218,28517,1,0,3:2:0:0:
185,73,28681,5,8,2:2:0:0:
188,57,28764,1,8,2:2:0:0:
193,41,28846,2,0,B|207:152,1,111.999996582031,4|2,3:2|3:2,0:0:0:0:
398,339,29161,6,0,B|332:330|332:330|307:352|307:352|240:343,1,167.999994873047,8|0,3:2|2:0,0:0:0:0:
234,349,29477,2,0,L|344:365,1,111.999996582031,0|2,3:2|3:2,0:0:0:0:
433,197,29793,1,8,3:2:0:0:
426,201,29951,1,2,2:2:0:0:
283,164,30109,6,0,B|263:216|263:216|297:260,1,111.999996582031,0|2,3:2|3:2,0:0:0:0:
503,234,30424,2,0,B|522:181|522:181|488:137,1,111.999996582031,8|2,3:2|2:2,0:0:0:0:
175,241,30740,2,0,P|284:222|396:205,1,223.999993164063,0|8,3:2|3:2,0:0:0:0:
488,137,31214,1,2,2:2:0:0:
318,344,31372,6,0,P|266:331|207:322,1,111.999996582031,0|2,3:2|3:2,0:0:0:0:
32,236,31688,2,0,P|44:311|121:309,1,167.999994873047,8|0,3:2|2:0,0:0:0:0:
127,218,32003,1,0,3:2:0:0:
119,214,32161,1,2,3:2:0:0:
320,350,32319,6,0,P|356:308|409:292,1,111.999996582031,8|2,3:2|2:2,0:0:0:0:
471,336,32635,1,0,3:2:0:0:
393,199,32793,6,0,P|420:201|450:212,1,55.9999982910157,10|0,3:2|0:0,0:0:0:0:
492,264,32951,2,0,P|455:222|402:206,1,111.999996582031,8|2,3:2|2:2,0:0:0:0:
241,70,33267,6,0,L|186:82,1,55.9999982910157,8|0,3:2|0:0,0:0:0:0:
186,82,33424,2,0,L|131:94,1,55.9999982910157,10|0,3:2|0:0,0:0:0:0:
79,16,33582,1,8,3:2:0:0:
88,17,33740,1,10,2:2:0:0:
293,155,33898,6,0,P|283:211|279:266,1,111.999996582031,4|2,3:2|3:2,0:0:0:0:
48,378,34214,2,0,P|-7:328|46:276,1,167.999994873047,8|0,3:2|2:0,0:0:0:0:
50,283,34530,2,0,P|99:309|154:318,1,111.999996582031,0|2,3:2|3:2,0:0:0:0:
318,383,34846,1,8,3:2:0:0:
327,377,35003,1,2,2:2:0:0:
164,128,35161,6,0,P|166:183|185:235,1,111.999996582031,0|2,3:2|3:2,0:0:0:0:
355,149,35477,2,0,P|307:178|272:221,1,111.999996582031,8|2,3:2|2:2,0:0:0:0:
432,324,35793,2,0,P|382:297|327:288,1,111.999996582031,0|2,3:2|3:2,0:0:0:0:
319,296,36030,1,2,2:2:0:0:
312,305,36109,1,10,3:2:0:0:
272,221,36267,1,2,2:2:0:0:
410,0,36424,6,0,B|454:37|454:37|436:88,1,111.999996582031,0|2,3:2|3:2,0:0:0:0:
254,117,36740,2,0,P|173:91|91:75,1,167.999994873047,8|0,3:2|2:0,0:0:0:0:
94,68,37056,2,0,P|149:77|203:91,1,111.999996582031,0|2,3:2|3:2,0:0:0:0:
319,29,37372,1,8,3:2:0:0:
327,33,37530,1,2,2:2:0:0:
338,328,37688,5,8,3:2:0:0:
386,114,37846,2,0,L|399:59,1,55.9999982910157,2|8,3:2|3:2,0:0:0:0:
376,119,38003,2,0,L|321:105,1,55.9999982910157,8|0,3:2|0:0,0:0:0:0:
385,128,38161,2,0,L|439:140,1,55.9999982910157,2|8,2:2|3:2,0:0:0:0:
469,321,38319,5,0,3:2:0:0:
424,327,38398,1,2,3:2:0:0:
379,332,38477,1,2,3:2:0:0:
334,337,38556,1,2,3:2:0:0:
301,367,38635,5,8,3:2:0:0:
256,361,38714,1,2,3:2:0:0:
211,356,38793,1,2,2:2:0:0:
166,351,38872,1,2,3:2:0:0:
147,310,38951,6,0,L|385:344,1,240.000009155274,4|8,3:2|3:2,0:0:0:0:
438,248,39424,1,2,2:2:0:0:
272,335,39582,2,0,L|153:317,1,120.000004577637,0|2,3:2|3:2,0:0:0:0:
117,236,39898,1,8,3:2:0:0:
331,226,40056,6,0,P|366:194|385:151,1,95.9999970703126,2|0,2:2|3:2,0:0:0:0:
475,159,40372,2,0,P|464:112|436:74,1,95.9999970703126,2|8,3:2|3:2,0:0:0:0:
83,121,40688,6,0,P|66:166|68:214,1,95.9999970703126,2|0,2:2|3:2,0:0:0:0:
153,182,41003,2,0,P|182:219|225:242,1,95.9999970703126,2|8,3:2|3:2,0:0:0:0:
274,79,41319,5,2,2:2:0:0:
265,72,41398,1,2,0:0:0:0:
258,64,41477,2,0,L|288:285,1,223.999993164063,0|8,3:2|3:2,0:0:0:0:
362,329,41951,1,2,2:2:0:0:
490,48,42109,6,0,L|475:159,1,111.999996582031,0|2,3:2|3:2,0:0:0:0:
404,183,42424,1,8,3:2:0:0:
226,0,42582,6,0,P|192:32|187:79,1,95.9999970703126,2|0,2:2|3:2,0:0:0:0:
110,83,42898,2,0,P|120:128|158:156,1,95.9999970703126,2|8,3:2|3:2,0:0:0:0:
359,62,43214,6,0,P|313:48|270:67,1,95.9999970703126,2|0,2:2|3:2,0:0:0:0:
367,208,43530,1,2,3:2:0:0:
373,205,43688,2,0,P|362:159|324:131,1,95.9999970703126,8|10,3:2|2:2,0:0:0:0:
265,320,44003,6,0,P|148:293|28:280,1,240.000009155274,4|8,3:2|3:2,0:0:0:0:
0,209,44477,1,2,2:2:0:0:
411,369,44635,6,0,P|299:324|184:292,1,240.000009155274,0|8,3:2|3:2,0:0:0:0:
10,131,45109,2,0,P|52:150|76:191,1,95.9999970703126,2|0,2:2|3:2,0:0:0:0:
147,22,45424,2,0,P|141:68|109:103,1,95.9999970703126,2|8,3:2|3:2,0:0:0:0:
72,295,45740,6,0,P|104:260|150:250,1,95.9999970703126,2|0,2:2|3:2,0:0:0:0:
247,286,46056,2,0,P|223:244|229:197,1,95.9999970703126,2|10,3:2|3:2,0:0:0:0:
280,0,46372,5,2,2:2:0:0:
287,4,46451,1,2,3:2:0:0:
293,8,46530,2,0,L|317:230,1,223.999993164063,0|8,3:2|3:2,0:0:0:0:
247,286,47003,1,2,2:2:0:0:
486,384,47161,6,0,L|510:162,1,223.999993164063,0|8,3:2|3:2,0:0:0:0:
500,154,47556,1,2,0:0:0:0:
490,147,47635,1,2,2:2:0:0:
419,342,47793,6,0,L|324:326,1,95.9999970703126,0|2,3:2|3:2,0:0:0:0:
234,130,48109,2,0,L|139:146,1,95.9999970703126,8|2,3:2|2:2,0:0:0:0:
0,364,48424,5,0,3:2:0:0:
35,274,48582,1,2,3:2:0:0:
26,306,48661,1,2,3:2:0:0:
34,336,48740,1,8,3:2:0:0:
236,248,48898,5,2,2:2:0:0:
216,219,48977,1,2,3:2:0:0:
186,207,49056,1,4,3:2:0:0:
234,130,49214,6,0,L|242:233,1,103.999995239258,2|8,3:2|3:2,0:0:0:0:
187,362,49530,2,0,P|150:325|101:309,1,103.999995239258,2|0,2:2|3:2,0:0:0:0:
320,350,49846,2,0,P|351:309|398:287,1,103.999995239258,2|8,3:2|3:2,0:0:0:0:
335,89,50161,6,0,P|231:101|127:106,1,207.999990478516,2|2,2:2|3:2,0:0:0:0:
90,182,50635,1,8,3:2:0:0:
383,152,50793,5,2,2:2:0:0:
434,217,50951,1,0,3:2:0:0:
397,287,51109,1,2,3:2:0:0:
150,307,51267,5,8,3:2:0:0:
151,227,51425,1,2,2:2:0:0:
227,195,51582,2,0,L|241:298,1,103.999995239258,0|2,3:2|3:2,0:0:0:0:
252,372,51898,1,8,3:2:0:0:
302,164,52056,6,0,P|269:124|220:111,1,103.999995239258,2|0,2:2|3:2,0:0:0:0:
231,34,52372,2,0,P|180:41|144:78,1,103.999995239258,2|8,3:2|3:2,0:0:0:0:
179,365,52688,2,0,L|154:155,1,207.999990478516,2|2,2:2|3:2,0:0:0:0:
186,373,53161,2,0,L|173:269,1,103.999995239258,8|2,3:2|2:2,0:0:0:0:
328,77,53477,5,0,3:2:0:0:
440,133,53635,1,2,3:2:0:0:
379,248,53793,1,8,3:2:0:0:
267,190,53951,1,2,2:2:0:0:
307,364,54109,6,0,P|407:337|510:318,1,207.999990478516,4|8,3:2|3:2,0:0:0:0:
379,248,54582,2,0,P|364:194|354:146,1,103.999995239258,2|0,2:2|3:2,0:0:0:0:
207,335,54898,2,0,P|261:349|307:364,1,103.999995239258,2|8,3:2|3:2,0:0:0:0:
216,141,55214,6,0,P|114:157|10:168,1,207.999990478516,2|2,2:2|3:2,0:0:0:0:
17,64,55688,1,10,3:2:0:0:
24,69,55767,1,2,3:2:0:0:
33,73,55846,1,2,3:2:0:0:
114,232,56003,6,0,L|101:335,1,103.999995239258,0|2,3:2|3:2,0:0:0:0:
156,384,56319,1,8,3:2:0:0:
282,171,56477,1,2,2:2:0:0:
291,175,56556,1,2,0:0:0:0:
300,178,56635,2,0,L|326:384,1,207.999990478516,4|8,3:2|3:2,0:0:0:0:
386,147,57109,6,0,P|357:104|309:87,1,103.999995239258,2|0,2:2|3:2,0:0:0:0:
209,215,57424,2,0,P|260:211|299:178,1,103.999995239258,2|8,3:2|3:2,0:0:0:0:
239,27,57740,2,0,P|216:73|225:123,1,103.999995239258,2|0,2:2|3:2,0:0:0:0:
309,87,58056,1,2,3:2:0:0:
152,157,58214,6,0,P|103:139|52:127,1,103.999995239258,8|2,3:2|2:2,0:0:0:0:
25,54,58530,1,0,3:2:0:0:
106,300,58688,1,2,3:2:0:0:
141,61,58846,1,8,3:2:0:0:
195,258,59003,6,0,P|187:309|184:361,1,103.999995239258,2|0,2:2|3:2,0:0:0:0:
38,378,59319,2,0,P|23:321|10:277,1,103.999995239258,2|8,3:2|3:2,0:0:0:0:
262,186,59635,6,0,P|240:232|196:258,1,103.999995239258,2|0,2:2|3:2,0:0:0:0:
56,136,59951,2,0,P|106:130|151:156,1,103.999995239258,2|8,3:2|3:2,0:0:0:0:
159,155,60188,1,2,3:2:0:0:
168,153,60267,6,0,P|172:103|142:62,1,103.999995239258,2|0,2:2|3:2,0:0:0:0:
195,258,60582,2,0,P|148:279|128:325,1,103.999995239258,2|8,3:2|3:2,0:0:0:0:
275,184,60898,6,0,P|316:213|367:207,1,103.999995239258,2|0,2:2|3:2,0:0:0:0:
377,285,61214,2,0,P|423:263|443:217,1,103.999995239258,2|8,3:2|3:2,0:0:0:0:
314,35,61530,6,0,P|325:87|332:137,1,103.999995239258,2|0,2:2|3:2,0:0:0:0:
339,136,61846,2,0,P|331:84|320:33,1,103.999995239258,2|8,3:2|3:2,0:0:0:0:
506,281,62161,6,0,P|494:333|487:383,1,103.999995239258,2|0,2:2|3:2,0:0:0:0:
482,380,62477,2,0,P|489:328|500:277,1,103.999995239258,2|8,3:2|3:2,0:0:0:0:
443,217,62793,1,2,2:2:0:0:
333,356,62951,6,0,P|226:338|125:324,1,207.999990478516,4|8,3:2|3:2,0:0:0:0:
127,324,63424,2,0,L|114:273,1,51.999997619629,10|0,2:2|0:0,0:0:0:0:
192,41,63582,5,4,3:2:0:0:
188,61,63661,1,8,3:2:0:0:
186,83,63740,1,2,3:2:0:0:
183,104,63819,1,8,3:2:0:0:
205,133,63898,5,8,3:2:0:0:
199,174,63977,1,8,3:2:0:0:
194,215,64056,1,2,2:2:0:0:
189,256,64135,1,8,3:2:0:0:
159,276,64214,5,4,3:2:0:0:
94,166,64372,5,2,3:2:0:0:
107,160,64451,1,2,0:0:0:0:
121,154,64530,2,0,L|113:205,1,51.999997619629,8|0,3:2|0:0,0:0:0:0:
93,384,64688,2,0,L|100:332,1,51.999997619629,2|0,2:2|0:0,0:0:0:0:
319,58,64846,6,0,B|374:86|374:86|358:191,1,167.999994873047,0|0,3:2|2:0,0:0:0:0:
324,52,65161,2,0,B|382:82|382:82|364:207,1,192,8|0,3:2|2:0,0:0:0:0:
364,207,65477,2,0,L|310:223,1,55.9999982910157,0|0,3:2|0:0,0:0:0:0:
251,167,65635,1,2,3:2:0:0:
404,372,65793,6,0,L|420:261,1,111.999996582031,8|2,3:2|2:2,0:0:0:0:
229,254,66109,2,0,L|317:323,1,111.999996582031,0|2,3:2|3:2,0:0:0:0:
500,234,66424,5,8,3:2:0:0:
177,317,66582,1,2,2:2:0:0:
149,245,66740,1,0,3:2:0:0:
385,41,66898,5,2,3:2:0:0:
382,51,66977,1,2,0:0:0:0:
379,61,67056,2,0,L|327:51,1,51.999997619629,8|0,3:2|0:0,0:0:0:0:
365,130,67214,2,0,L|313:120,1,51.999997619629,2|0,2:2|0:0,0:0:0:0:
66,290,67372,6,0,B|42:208|42:208|113:159,1,167.999994873047,0|0,3:2|2:0,0:0:0:0:
110,150,67688,2,0,B|32:205|32:205|59:298,1,192,8|0,3:2|2:0,0:0:0:0:
58,297,68003,2,0,L|114:307,1,55.9999982910157,0|0,3:2|0:0,0:0:0:0:
185,269,68161,1,2,3:2:0:0:
133,42,68319,6,0,L|116:152,1,111.999996582031,8|2,3:2|2:2,0:0:0:0:
327,127,68635,2,0,P|269:120|216:110,1,111.999996582031,0|2,3:2|3:2,0:0:0:0:
114,307,68951,5,10,3:2:0:0:
158,300,69030,1,2,0:0:0:0:
202,293,69109,1,2,2:2:0:0:
246,286,69188,1,2,0:0:0:0:
287,280,69267,1,6,3:2:0:0:
335,384,69424,5,2,3:2:0:0:
346,382,69503,1,2,0:0:0:0:
356,380,69582,2,0,L|363:328,1,51.999997619629,8|0,3:2|0:0,0:0:0:0:
386,179,69740,2,0,L|378:230,1,51.999997619629,2|0,2:2|0:0,0:0:0:0:
96,357,69898,6,0,B|74:212|74:212|49:202,1,167.999994873047,0|0,3:2|2:0,0:0:0:0:
105,363,70214,2,0,B|85:206|85:206|53:193,1,192,8|0,3:2|2:0,0:0:0:0:
54,194,70530,2,0,L|101:164,1,55.9999982910157,0|0,3:2|0:0,0:0:0:0:
121,47,70688,1,2,3:2:0:0:
250,263,70846,6,0,P|211:223|158:212,1,111.999996582031,8|2,3:2|2:2,0:0:0:0:
111,52,71161,2,0,L|100:163,1,111.999996582031,0|2,3:2|3:2,0:0:0:0:
160,321,71477,5,8,3:2:0:0:
234,87,71635,1,2,2:2:0:0:
190,28,71793,1,0,3:2:0:0:
197,201,71951,5,2,3:2:0:0:
203,210,72030,1,2,0:0:0:0:
208,218,72109,2,0,L|258:232,1,51.999997619629,8|0,3:2|0:0,0:0:0:0:
433,280,72267,2,0,L|382:265,1,51.999997619629,2|0,2:2|0:0,0:0:0:0:
269,19,72424,5,0,3:2:0:0:
307,296,72582,1,2,3:2:0:0:
258,232,72740,5,8,3:2:0:0:
464,131,72898,1,2,2:2:0:0:
451,203,73056,5,0,3:2:0:0:
408,81,73214,1,2,3:2:0:0:
427,9,73372,5,8,3:2:0:0:
480,58,73530,1,2,2:2:0:0:
232,306,73688,6,0,P|174:288|115:276,1,120.000004577637,4|2,3:2|3:2,0:0:0:0:
12,124,74003,1,12,3:2:0:0:
23,127,74082,1,2,0:0:0:0:
35,132,74161,1,2,2:2:0:0:
353,25,74319,1,6,2:2:0:0:
256,192,81898,12,0,83161,0:0:0:0:
248,334,83635,6,0,L|253:294,1,40,8|0,3:2|0:0,0:0:0:0:
243,374,83793,2,0,L|248:334,1,40,8|0,3:2|0:0,0:0:0:0:
204,154,83951,5,8,3:2:0:0:
175,187,84030,1,8,3:2:0:0:
181,230,84109,1,8,3:2:0:0:
324,117,84267,5,8,3:2:0:0:
353,84,84346,1,8,3:2:0:0:
347,41,84425,1,4,3:2:0:0:
272,61,84582,1,2,3:2:0:0:
267,60,84740,1,8,3:2:0:0:
334,192,84898,6,0,P|290:193|250:210,1,88.000002685547,2|0,2:2|3:2,0:0:0:0:
408,334,85214,2,0,P|384:297|348:272,1,88.000002685547,2|8,3:2|3:2,0:0:0:0:
408,216,85530,1,2,2:2:0:0:
78,289,85688,5,0,3:2:0:0:
170,318,85846,2,0,P|128:309|83:301,1,88.000002685547,2|8,3:2|3:2,0:0:0:0:
0,118,86161,6,0,L|14:204,1,88.000002685547,2|0,2:2|3:2,0:0:0:0:
252,146,86477,2,0,L|266:59,1,88.000002685547,2|8,3:2|3:2,0:0:0:0:
170,318,86793,5,2,2:2:0:0:
172,330,86872,1,2,0:0:0:0:
175,342,86951,1,0,3:2:0:0:
305,284,87109,2,0,P|262:273|219:265,1,88.000002685547,2|8,3:2|3:2,0:0:0:0:
15,43,87424,6,0,P|53:62|79:97,1,88.000002685547,2|0,2:2|3:2,0:0:0:0:
154,67,87740,2,0,P|156:110|138:150,1,88.000002685547,2|8,3:2|3:2,0:0:0:0:
47,302,88056,2,0,P|132:280|218:264,1,176.000005371094,2|2,2:2|3:2,0:0:0:0:
301,58,88530,5,8,3:2:0:0:
309,61,88688,1,2,2:2:0:0:
361,271,88846,5,0,3:2:0:0:
382,22,89003,1,2,3:2:0:0:
377,100,89161,6,0,L|429:108,1,44.0000013427735,12|0,3:2|0:0,0:0:0:0:
469,296,89319,1,2,2:2:0:0:
464,308,89398,1,2,0:0:0:0:
461,318,89477,2,0,P|376:302|287:290,1,176.000005371094,4|8,3:2|3:2,0:0:0:0:
95,155,89951,6,0,P|55:172|31:208,1,88.000002685547,2|0,2:2|3:2,0:0:0:0:
189,258,90267,2,0,P|153:232|110:230,1,88.000002685547,2|8,3:2|3:2,0:0:0:0:
51,286,90582,1,2,2:2:0:0:
294,60,90740,5,0,3:2:0:0:
269,151,90898,2,0,L|281:63,1,88.000002685547,2|8,3:2|3:2,0:0:0:0:
251,297,91214,2,0,L|239:385,1,88.000002685547,2|0,2:2|3:2,0:0:0:0:
396,216,91530,2,0,L|308:228,1,88.000002685547,2|8,3:2|3:2,0:0:0:0:
217,3,91846,5,2,2:2:0:0:
224,5,91924,1,2,0:0:0:0:
231,7,92003,1,0,3:2:0:0:
294,60,92161,2,0,L|282:148,1,88.000002685547,2|8,3:2|3:2,0:0:0:0:
112,383,92477,6,0,P|141:351|183:334,1,88.000002685547,2|0,2:2|3:2,0:0:0:0:
176,253,92793,2,0,P|218:262|253:290,1,88.000002685547,2|8,3:2|3:2,0:0:0:0:
421,369,93109,6,0,L|289:385,1,132.00000402832,2|0,2:2|2:0,0:0:0:0:
290,384,93424,2,0,L|250:365,1,44.0000013427735,10|0,3:2|0:0,0:0:0:0:
191,156,93582,1,8,3:2:0:0:
198,160,93740,1,2,2:2:0:0:
252,289,93898,5,0,3:2:0:0:
258,241,93977,1,2,3:2:0:0:
264,193,94056,1,2,3:2:0:0:
270,145,94135,1,2,3:2:0:0:
275,96,94214,1,8,3:2:0:0:
125,180,94372,5,2,2:2:0:0:
114,187,94451,1,2,3:2:0:0:
105,192,94530,2,0,P|147:214|175:252,1,95.9999970703126,4|2,3:2|3:2,0:0:0:0:
36,114,94846,2,0,P|70:80|115:65,1,95.9999970703126,8|2,3:2|2:2,0:0:0:0:
203,24,95161,1,2,3:2:0:0:
211,26,95240,1,2,3:2:0:0:
219,29,95319,1,2,3:2:0:0:
340,172,95477,6,0,L|386:159,1,47.9999985351563,8|0,3:2|0:0,0:0:0:0:
386,159,95635,2,0,L|397:112,1,47.9999985351563,2|0,2:2|0:0,0:0:0:0:
235,100,95793,2,0,L|245:147,1,47.9999985351563,0|0,3:2|0:0,0:0:0:0:
486,303,95951,5,2,3:2:0:0:
491,295,96030,1,2,0:0:0:0:
496,287,96109,2,0,P|402:264|307:249,1,191.999994140625,8|0,3:2|3:2,0:0:0:0:
319,163,96582,1,2,3:2:0:0:
226,384,96740,6,0,L|216:337,1,47.9999985351563,8|0,3:2|0:0,0:0:0:0:
216,337,96898,2,0,L|206:290,1,47.9999985351563,2|0,2:2|0:0,0:0:0:0:
113,153,97056,6,0,P|68:171|22:185,1,95.9999970703126,0|2,3:2|3:2,0:0:0:0:
0,260,97372,1,8,3:2:0:0:
216,200,97530,5,2,2:2:0:0:
183,130,97688,2,0,L|196:81,1,47.9999985351563,0|0,3:2|0:0,0:0:0:0:
195,83,97846,2,0,L|243:69,1,47.9999985351563,2|0,3:2|0:0,0:0:0:0:
319,163,98003,5,8,3:2:0:0:
69,92,98161,1,2,2:2:0:0:
298,267,98319,6,0,P|366:244|437:232,1,143.999995605469,0|0,3:2|2:0,0:0:0:0:
437,232,98635,2,0,L|467:141,1,95.9999970703126,8|2,3:2|2:2,0:0:0:0:
240,11,98951,1,2,3:2:0:0:
243,24,99030,1,2,0:0:0:0:
246,37,99109,1,2,3:2:0:0:
331,67,99267,2,0,L|318:162,1,95.9999970703126,8|2,3:2|2:2,0:0:0:0:
216,337,99582,6,0,P|185:300|142:280,1,95.9999970703126,0|2,3:2|3:2,0:0:0:0:
156,196,99898,2,0,P|109:204|70:231,1,95.9999970703126,8|2,3:2|2:2,0:0:0:0:
401,245,100214,6,0,P|441:271|466:312,1,95.9999970703126,0|2,3:2|3:2,0:0:0:0:
291,353,100530,2,0,P|333:330|381:330,1,95.9999970703126,8|2,3:2|2:2,0:0:0:0:
287,27,100846,6,0,L|276:122,1,95.9999970703126,0|2,3:2|3:2,0:0:0:0:
272,220,101161,2,0,L|284:124,1,95.9999970703126,8|2,3:2|2:2,0:0:0:0:
30,21,101477,6,0,B|73:31|73:31|91:79,1,95.9999970703126,0|10,3:2|3:2,0:0:0:0:
86,93,101714,1,8,3:2:0:0:
82,104,101793,1,8,3:2:0:0:
159,242,101951,5,2,2:2:0:0:
153,264,102030,1,10,3:2:0:0:
147,287,102109,1,4,3:2:0:0:
18,244,102267,2,0,P|82:232|137:219,1,120.000004577637,2|8,3:2|3:2,0:0:0:0:
358,27,102582,6,0,P|412:47|433:101,1,120.000004577637,2|0,2:2|3:2,0:0:0:0:
444,101,102898,2,0,P|423:155|369:176,1,120.000004577637,2|8,3:2|3:2,0:0:0:0:
199,0,103214,6,0,P|217:56|224:116,1,120.000004577637,2|0,2:2|3:2,0:0:0:0:
0,159,103530,2,0,P|58:145|117:134,1,120.000004577637,2|8,3:2|3:2,0:0:0:0:
184,200,103846,1,2,2:2:0:0:
383,384,104003,6,0,P|377:320|370:263,1,120.000004577637,0|2,3:2|3:2,0:0:0:0:
484,247,104319,2,0,P|490:308|497:368,1,120.000004577637,8|2,3:2|2:2,0:0:0:0:
488,375,104556,1,2,0:0:0:0:
480,384,104635,1,2,3:2:0:0:
221,99,104793,6,0,P|163:99|130:147,1,120.000004577637,2|8,3:2|3:2,0:0:0:0:
260,195,105109,2,0,P|259:137|211:104,1,120.000004577637,2|0,2:2|3:2,0:0:0:0:
156,316,105424,6,0,P|97:329|42:353,1,120.000004577637,2|8,3:2|3:2,0:0:0:0:
179,218,105740,2,0,P|220:261|268:296,1,120.000004577637,2|0,2:2|3:2,0:0:0:0:
83,248,106056,2,0,P|100:190|106:131,1,120.000004577637,2|8,3:2|3:2,0:0:0:0:
69,62,106372,1,2,2:2:0:0:
268,296,106530,6,0,L|399:273,1,120.000004577637,4|2,3:2|3:2,0:0:0:0:
449,60,106846,5,14,3:2:0:0:
469,70,106924,1,2,0:0:0:0:
485,78,107003,1,2,2:2:0:0:
346,326,107161,5,4,3:2:0:0:
265,303,107319,1,2,3:2:0:0:
184,278,107477,1,8,3:2:0:0:
150,146,107635,5,2,2:2:0:0:
213,191,107793,1,2,3:2:0:0:
215,202,107872,1,2,0:0:0:0:
218,213,107951,1,2,3:2:0:0:
109,259,108109,2,0,B|65:286|65:286|78:353,1,120.000004577637,8|2,3:2|2:2,0:0:0:0:
149,384,108424,1,0,3:2:0:0:
216,109,108582,5,2,3:2:0:0:
297,90,108740,1,8,3:2:0:0:
379,71,108898,1,2,2:2:0:0:
461,164,109056,5,4,3:2:0:0:
297,90,109214,1,2,3:2:0:0:
272,168,109372,5,8,3:2:0:0:
492,48,109530,1,2,2:2:0:0:
373,269,109688,6,0,P|256:240|138:215,1,240.000009155274,4|8,3:1|3:2,0:0:0:0:
102,141,110161,1,2,2:2:0:0:
294,325,110319,2,0,P|235:310|177:298,1,120.000004577637,4|2,3:2|3:2,0:0:0:0:
163,96,110635,1,8,3:2:0:0:
173,102,110793,1,2,2:2:0:0:
390,370,110951,6,0,B|415:197|415:197|350:166,1,240.000009155274,4|8,3:1|3:2,0:0:0:0:
332,50,111424,1,2,2:2:0:0:
494,236,111582,6,0,L|475:354,1,120.000004577637,4|2,3:2|3:2,0:0:0:0:
469,356,111819,1,8,3:2:0:0:
463,358,111898,1,8,3:2:0:0:
291,82,112056,5,2,2:2:0:0:
290,32,112135,1,8,3:2:0:0:
325,0,112214,1,4,3:2:0:0:
367,65,112372,1,2,3:2:0:0:
361,64,112530,1,8,3:2:0:0:
199,293,112688,6,0,P|177:264|145:247,1,71.9999978027344,2|0,2:2|0:0,0:0:0:0:
126,158,112846,1,0,3:2:0:0:
207,366,113003,6,0,P|214:331|207:296,1,71.9999978027344,2|0,3:2|0:0,0:0:0:0:
278,228,113161,1,8,3:2:0:0:
118,331,113319,6,0,P|81:324|46:319,1,71.9999978027344,2|0,2:2|0:0,0:0:0:0:
19,238,113477,1,0,3:2:0:0:
278,228,113635,6,0,P|314:235|349:239,1,71.9999978027344,2|0,3:2|0:0,0:0:0:0:
380,329,113793,1,8,3:2:0:0:
151,231,113951,6,0,L|134:87,1,143.999995605469,2|0,2:2|3:2,0:0:0:0:
187,30,114267,1,2,3:2:0:0:
256,53,114424,1,8,3:2:0:0:
349,239,114582,6,0,L|423:223,1,71.9999978027344,2|0,2:2|0:0,0:0:0:0:
480,116,114740,2,0,P|463:231|449:354,1,240.000009155274,0|8,3:2|3:2,0:0:0:0:
344,113,115214,6,0,P|370:61|427:55,1,120.000004577637,2|0,2:2|3:2,0:0:0:0:
349,239,115530,2,0,P|291:241|257:195,1,120.000004577637,2|8,3:2|3:2,0:0:0:0:
15,288,115846,6,0,P|72:305|128:328,1,120.000004577637,2|0,2:2|3:2,0:0:0:0:
136,324,116082,2,0,P|108:311|80:301,1,60.0000022888184,0|0,0:0|2:0,0:0:0:0:
64,223,116319,1,8,3:2:0:0:
216,361,116477,6,0,L|234:117,1,240.000009155274,2|2,2:2|3:2,0:0:0:0:
315,51,116951,1,10,3:2:0:0:
325,56,117030,1,2,0:0:0:0:
336,63,117109,1,10,2:2:0:0:
320,270,117267,1,4,3:2:0:0:
346,187,117424,5,2,3:2:0:0:
382,204,117503,1,2,0:0:0:0:
403,241,117582,1,10,3:2:0:0:
406,282,117661,1,2,0:0:0:0:
387,320,117740,1,2,2:2:0:0:
188,273,117898,5,2,3:2:0:0:
195,282,117977,1,2,0:0:0:0:
202,291,118056,2,0,L|320:270,1,120.000004577637,2|8,3:2|3:2,0:0:0:0:
346,187,118372,1,2,2:2:0:0:
241,381,118530,6,0,P|183:360|125:349,1,120.000004577637,0|2,3:2|3:2,0:0:0:0:
106,263,118767,1,2,0:0:0:0:
99,257,118846,2,0,P|45:237|45:181,1,120.000004577637,8|2,3:2|2:2,0:0:0:0:
45,181,119082,6,0,P|134:191|222:207,1,180.000006866455,0|2,0:0|3:2,0:0:0:0:
288,325,119477,1,10,3:2:0:0:
297,323,119635,1,2,2:2:0:0:
335,72,119793,6,0,P|278:88|246:137,1,120.000004577637,0|2,3:2|3:2,0:0:0:0:
435,202,120109,2,0,P|392:161|333:158,1,120.000004577637,8|2,3:2|2:2,0:0:0:0:
118,305,120424,6,0,L|0:286,1,120.000004577637,0|2,3:2|3:2,0:0:0:0:
1,294,120740,2,0,L|119:312,1,120.000004577637,8|2,3:2|2:2,0:0:0:0:
360,234,121056,5,0,3:2:0:0:
154,384,121214,1,2,3:2:0:0:
32,197,121372,5,8,3:2:0:0:
199,319,121530,1,2,2:2:0:0:
296,154,121688,5,0,3:2:0:0:
153,258,121846,2,0,L|86:243,1,60.0000022888184,2|2,3:2|3:2,0:0:0:0:
83,108,122003,5,8,3:2:0:0:
195,195,122161,2,0,L|136:181,1,60.0000022888184,2|2,2:2|3:2,0:0:0:0:
57,384,122319,6,0,P|168:374|280:367,1,223.999993164063,4|8,3:2|3:2,0:0:0:0:
316,296,122793,1,2,2:2:0:0:
175,85,122951,6,0,P|186:139|195:195,1,111.999996582031,0|2,3:2|3:2,0:0:0:0:
340,70,123267,2,0,P|286:52|234:32,1,111.999996582031,8|2,3:2|2:2,0:0:0:0:
316,296,123582,6,0,L|370:282,1,55.9999982910157,0|0,3:2|0:0,0:0:0:0:
404,201,123740,1,2,3:2:0:0:
309,372,123898,2,0,L|417:344,1,111.999996582031,8|2,3:2|2:2,0:0:0:0:
268,206,124214,6,0,P|224:238|215:292,1,111.999996582031,0|2,3:2|3:2,0:0:0:0:
224,299,124451,1,8,3:2:0:0:
233,305,124530,1,8,3:2:0:0:
175,85,124688,5,2,2:2:0:0:
164,80,124767,1,8,3:2:0:0:
153,74,124846,2,0,P|97:83|42:90,1,111.999996582031,0|2,3:2|3:2,0:0:0:0:
1,162,125161,1,8,3:2:0:0:
181,357,125319,2,0,P|236:347|291:340,1,111.999996582031,2|0,2:2|3:2,0:0:0:0:
466,146,125635,5,2,3:2:0:0:
396,110,125793,1,8,3:2:0:0:
332,155,125951,1,2,2:2:0:0:
420,371,126109,5,0,3:2:0:0:
403,191,126267,1,2,3:2:0:0:
213,270,126424,5,8,3:2:0:0:
473,224,126582,1,2,2:2:0:0:
336,230,126740,6,0,P|327:286|323:342,1,111.999996582031,0|2,3:2|3:2,0:0:0:0:
111,358,127056,2,0,P|101:303|88:249,1,111.999996582031,8|10,3:2|2:2,0:0:0:0:
204,127,127372,5,4,3:2:0:0:
206,137,127451,1,2,2:0:0:0:
208,147,127530,1,2,2:0:0:0:
210,157,127609,1,2,2:0:0:0:
213,167,127688,1,2,2:0:0:0:
294,135,127846,1,2,2:0:0:0:
212,268,128003,5,2,2:0:0:0:
87,236,128161,1,0,2:0:0:0:
86,84,128319,5,2,2:0:0:0:
12,105,128477,1,0,2:0:0:0:
29,33,128635,5,2,2:0:0:0:
66,162,128793,1,0,2:0:0:0:
109,354,128951,5,2,2:0:0:0:
119,360,129030,1,2,0:0:0:0:
127,365,129109,2,0,P|104:331|72:309,1,80,2|2,0:0|0:0,0:0:0:0:
157,247,129346,5,2,2:0:0:0:
156,258,129425,1,2,0:0:0:0:
156,268,129504,2,0,P|173:231|176:192,1,80,2|2,0:0|0:0,0:0:0:0:
261,246,129740,5,2,2:0:0:0:
251,253,129819,1,2,0:0:0:0:
243,258,129898,2,0,P|283:255|318:238,1,80,2|2,0:0|0:0,0:0:0:0:
299,338,130135,5,2,2:0:0:0:
286,333,130214,1,2,0:0:0:0:
277,329,130293,2,0,P|300:363|332:385,1,80,2|2,0:0|0:0,0:0:0:0:
331,384,130530,2,0,L|380:370,1,40,2|0,0:0|0:0,0:0:0:0:
329,165,130688,5,2,2:0:0:0:
319,161,130767,1,2,2:0:0:0:
309,157,130845,1,2,2:0:0:0:
299,153,130924,1,2,2:0:0:0:
289,149,131003,1,2,2:0:0:0:
82,248,131161,5,2,2:0:0:0:
75,208,131240,1,2,2:0:0:0:
68,169,131319,1,2,2:0:0:0:
62,126,131398,1,2,2:0:0:0:
100,86,131477,5,2,2:0:0:0:
97,113,131556,1,2,2:0:0:0:
94,140,131635,1,2,2:0:0:0:
91,167,131714,1,2,2:0:0:0:
88,194,131793,1,2,2:0:0:0:
85,221,131872,1,2,2:0:0:0:
82,248,131951,5,2,3:2:0:0:
113,294,132030,1,2,3:2:0:0:
168,296,132109,1,8,3:2:0:0:
350,163,132267,5,2,2:2:0:0:
294,166,132346,1,2,3:2:0:0:
265,213,132424,2,0,B|277:340,1,128,4|2,3:2|3:2,0:0:0:0:
364,366,132740,1,8,3:2:0:0:
310,78,132898,6,0,P|248:89|207:137,1,128,2|0,2:2|3:2,0:0:0:0:
426,88,133214,2,0,P|395:32|337:8,1,128,2|8,3:2|3:2,0:0:0:0:
354,250,133530,6,0,P|421:262|477:284,1,128,2|0,2:2|3:2,0:0:0:0:
359,365,133846,2,0,P|324:314|350:258,1,128,2|8,3:2|3:2,0:0:0:0:
350,163,134161,1,2,2:2:0:0:
196,339,134319,6,0,P|133:353|72:372,1,128,4|2,3:2|3:2,0:0:0:0:
62,364,134556,1,2,3:2:0:0:
51,356,134635,1,12,3:2:0:0:
198,120,134793,5,2,2:2:0:0:
207,127,134872,1,2,3:2:0:0:
216,134,134951,2,0,L|201:284,1,128,4|2,3:2|3:2,0:0:0:0:
125,277,135267,1,8,3:2:0:0:
182,27,135424,6,0,P|124:49|103:108,1,128,2|0,2:2|3:2,0:0:0:0:
297,164,135740,2,0,P|306:102|266:55,1,128,2|8,3:2|3:2,0:0:0:0:
7,240,136056,6,0,P|69:254|125:284,1,128,2|0,2:2|3:2,0:0:0:0:
122,106,136372,2,0,P|68:141|8:162,1,128,2|8,3:2|3:2,0:0:0:0:
3,157,136609,1,2,0:0:0:0:
0,151,136688,1,2,2:2:0:0:
159,355,136846,6,0,L|177:229,1,128,4|2,3:2|3:2,0:0:0:0:
240,52,137161,1,12,3:2:0:0:
246,55,137240,1,2,3:2:0:0:
252,61,137319,2,0,P|222:74|198:94,1,64,10|0,2:2|0:0,0:0:0:0:
359,249,137477,6,0,P|320:198|261:176,1,128,4|2,3:2|3:2,0:0:0:0:
177,228,137793,1,8,3:2:0:0:
429,363,137951,6,0,L|449:236,1,128,2|0,2:2|3:2,0:0:0:0:
461,103,138267,2,0,L|440:229,1,128,2|8,3:2|3:2,0:0:0:0:
356,77,138582,6,0,P|387:22|445:0,1,128,2|0,2:2|3:2,0:0:0:0:
359,249,138898,2,0,P|296:249|246:210,1,128,2|8,3:2|3:2,0:0:0:0:
321,170,139214,1,2,2:2:0:0:
244,356,139372,6,0,P|180:366|119:384,1,128,0|2,3:2|3:2,0:0:0:0:
61,332,139688,1,10,3:2:0:0:
245,69,139846,5,2,2:2:0:0:
255,76,139924,1,2,0:0:0:0:
265,83,140003,2,0,L|246:209,1,128,4|2,3:2|3:2,0:0:0:0:
153,275,140319,1,8,3:2:0:0:
149,267,140477,1,2,2:2:0:0:
54,97,140635,6,0,L|180:115,1,128,4|2,3:2|3:2,0:0:0:0:
246,209,140951,1,8,3:2:0:0:
238,213,141109,1,2,2:2:0:0:
411,0,141267,5,0,3:2:0:0:
405,77,141424,2,0,L|341:68,1,64,10|0,3:2|0:0,0:0:0:0:
398,86,141582,2,0,L|380:212,1,128,8|2,3:2|2:2,0:0:0:0:
118,304,141898,5,0,3:2:0:0:
431,384,142056,1,2,3:2:0:0:
486,189,142214,5,8,3:2:0:0:
265,347,142372,1,2,2:2:0:0:
234,92,142530,5,4,3:2:0:0:
319,122,142688,1,2,3:2:0:0:
303,158,142767,1,2,0:0:0:0:
267,174,142846,1,8,3:2:0:0:
234,101,143003,1,2,2:2:0:0:
220,14,143161,5,2,3:2:0:0:
241,7,143240,1,2,0:0:0:0:
263,9,143319,1,2,3:2:0:0:
282,19,143398,1,2,0:0:0:0:
297,35,143477,1,10,3:2:0:0:
241,95,143635,1,2,2:2:0:0:
296,253,143793,5,2,3:2:0:0:
317,259,143872,1,2,0:0:0:0:
338,265,143951,1,2,3:2:0:0:
359,271,144030,1,2,0:0:0:0:
392,241,144109,6,0,L|336:249,1,55.9999982910157,8|0,3:2|0:0,0:0:0:0:
207,267,144267,2,0,L|151:275,1,55.9999982910157,2|0,2:2|0:0,0:0:0:0:
96,225,144424,1,0,3:2:0:0:
275,361,144582,5,2,3:2:0:0:
280,360,144661,1,0,0:0:0:0:
285,359,144740,1,8,3:2:0:0:
442,180,144898,5,2,2:2:0:0:
463,187,144977,1,2,0:0:0:0:
484,194,145056,1,2,3:2:0:0:
510,280,145214,1,2,3:2:0:0:
366,364,145372,5,8,3:2:0:0:
433,105,145530,1,2,2:2:0:0:
436,325,145688,5,2,3:2:0:0:
392,333,145767,1,2,0:0:0:0:
347,339,145846,1,2,3:2:0:0:
303,344,145924,1,2,0:0:0:0:
258,350,146003,1,10,3:2:0:0:
150,261,146161,5,2,2:2:0:0:
139,264,146240,1,2,0:0:0:0:
126,270,146319,2,0,L|139:340,1,55.9999982910157,0|0,3:2|0:0,0:0:0:0:
95,384,146477,1,2,3:2:0:0:
48,142,146635,1,8,3:2:0:0:
111,185,146793,1,2,2:2:0:0:
80,63,146951,1,2,3:2:0:0:
69,66,147030,1,2,0:0:0:0:
58,69,147109,1,2,3:2:0:0:
182,153,147267,6,0,L|291:129,1,111.999996582031,8|2,3:2|2:2,0:0:0:0:
296,119,147503,1,2,0:0:0:0:
301,109,147582,1,4,3:2:0:0:
477,251,147740,5,2,3:2:0:0:
460,221,147819,1,2,0:0:0:0:
428,210,147898,1,10,3:2:0:0:
405,286,148056,1,2,2:2:0:0:
397,371,148214,5,2,3:2:0:0:
431,371,148293,1,2,0:0:0:0:
457,349,148372,1,2,3:2:0:0:
402,291,148530,1,8,3:2:0:0:
458,60,148688,1,2,2:2:0:0:
512,110,148846,5,0,3:2:0:0:
269,208,149003,1,2,3:2:0:0:
239,141,149161,5,8,3:2:0:0:
512,260,149318,1,2,2:2:0:0:
210,375,149477,5,2,3:2:0:0:
213,352,149556,1,2,0:0:0:0:
216,329,149635,1,2,3:2:0:0:
317,146,149793,5,8,3:2:0:0:
269,208,149951,1,2,2:2:0:0:
258,210,150030,1,2,0:0:0:0:
246,211,150109,2,0,L|235:156,1,55.9999982910157,4|0,3:2|0:0,0:0:0:0:
310,28,150267,1,2,3:2:0:0:
287,278,150424,6,0,P|234:259|180:245,1,111.999996582031,8|2,3:2|2:2,0:0:0:0:
224,75,150740,2,0,P|276:93|330:107,1,111.999996582031,0|2,3:2|3:2,0:0:0:0:
369,183,151056,1,8,3:2:0:0:
512,7,151214,6,2,L|505:34,3,27.9999991455078,2|2|2|2,2:2|0:0|0:0|0:0,0:0:0:0:
503,8,151372,2,0,L|478:130,1,111.999996582031,0|2,3:2|3:2,0:0:0:0:
281,270,151688,6,0,P|226:254|171:245,1,111.999996582031,8|2,3:2|2:2,0:0:0:0:
136,178,152003,1,0,3:2:0:0:
258,357,152161,2,0,P|284:349|311:344,1,55.9999982910157,2|0,3:2|0:0,0:0:0:0:
360,279,152319,1,8,3:2:0:0:
182,337,152477,6,0,P|161:317|135:302,1,55.9999982910157,2|2,3:2|0:0,0:0:0:0:
59,337,152635,1,4,3:2:0:0:
55,346,152793,1,2,3:2:0:0:
136,178,152951,6,0,L|190:189,1,55.9999982910157,8|0,3:2|0:0,0:0:0:0:
0,151,153109,2,0,L|54:162,1,55.9999982910157,2|0,2:2|0:0,0:0:0:0:
259,306,153267,6,0,P|315:291|368:280,1,111.999996582031,0|2,3:2|3:2,0:0:0:0:
425,45,153582,2,0,L|415:100,1,55.9999982910157,8|0,3:2|0:0,0:0:0:0:
493,69,153740,2,0,L|483:124,1,55.9999982910157,2|0,2:2|0:0,0:0:0:0:
190,189,153898,6,0,L|175:79,1,111.999996582031,0|2,3:2|3:2,0:0:0:0:
417,329,154214,2,0,L|407:384,1,55.9999982910157,8|0,3:2|0:0,0:0:0:0:
486,244,154372,2,0,P|460:252|428:259,1,55.9999982910157,2|0,2:2|0:0,0:0:0:0:
144,313,154530,6,0,P|90:297|36:283,1,111.999996582031,0|2,3:2|3:2,0:0:0:0:
6,170,154846,1,8,3:2:0:0:
13,174,155003,1,2,2:2:0:0:
180,384,155161,6,0,P|214:350|223:306,1,92.0000017547608,4|0,3:2|0:0,0:0:0:0:
230,330,155319,2,0,P|228:292|206:261,1,75.9999979705811,2|0,3:2|0:0,0:0:0:0:
228,266,155477,2,0,P|206:245|178:235,1,60.0000022888184,8|0,3:2|0:0,0:0:0:0:
182,224,155635,2,0,P|160:226|139:233,1,44.0000013427735,2|0,2:2|0:0,0:0:0:0:
19,178,155793,6,0,P|3:132|15:89,1,92.0000017547608,0|0,3:2|0:0,0:0:0:0:
0,106,155951,2,0,P|18:73|51:55,1,75.9999979705811,2|0,3:2|0:0,0:0:0:0:
28,50,156109,2,0,P|56:42|86:45,1,60.0000022888184,8|0,3:2|0:0,0:0:0:0:
89,33,156267,2,0,P|107:44|122:60,1,44.0000013427735,2|0,2:2|0:0,0:0:0:0:
300,294,156424,6,0,L|418:274,1,120.000004577637,0|2,3:2|3:2,0:0:0:0:
487,85,156740,1,8,3:2:0:0:
478,83,156898,1,2,2:2:0:0:
341,367,157056,6,0,P|283:343|227:329,1,120.000004577637,0|2,3:2|3:2,0:0:0:0:
410,154,157372,2,0,L|418:273,1,120.000004577637,8|2,3:2|2:2,0:0:0:0:
83,384,157688,6,0,L|74:264,1,120.000004577637,4|2,3:2|3:2,0:0:0:0:
212,108,158003,1,8,3:2:0:0:
154,350,158161,1,2,2:2:0:0:
115,101,158319,6,0,B|105:42|105:42|163:26,1,120.000004577637,0|2,3:2|3:2,0:0:0:0:
240,249,158635,2,0,L|298:262,1,60.0000022888184,8|0,3:2|0:0,0:0:0:0:
241,241,158793,2,0,L|299:254,1,60.0000022888184,2|0,2:2|0:0,0:0:0:0:
328,77,158951,2,0,L|211:107,1,120.000004577637,0|2,3:2|3:2,0:0:0:0:
164,352,159267,5,8,3:2:0:0:
292,167,159424,1,2,2:2:0:0:
334,380,159582,2,0,L|328:260,1,120.000004577637,0|2,3:2|3:2,0:0:0:0:
309,12,159898,5,8,3:2:0:0:
311,19,160056,1,2,2:2:0:0:
247,242,160214,5,2,3:2:0:0:
218,263,160292,1,2,0:0:0:0:
213,299,160371,1,2,3:2:0:0:
255,365,160530,5,8,3:2:0:0:
263,362,160688,1,2,2:2:0:0:
404,214,160846,5,2,3:2:0:0:
400,178,160924,1,2,0:0:0:0:
371,156,161003,1,2,3:2:0:0:
293,159,161162,5,8,3:2:0:0:
292,167,161320,1,2,2:2:0:0:
72,119,161477,6,2,L|13:107,2,60.0000022888184,2|2|2,3:2|0:0|3:2,0:0:0:0:
150,137,161793,1,8,3:2:0:0:
157,133,161951,1,2,2:2:0:0:
70,240,162109,6,2,L|30:285,2,60.0000022888184,2|2|2,3:2|0:0|3:2,0:0:0:0:
157,133,162424,1,8,3:2:0:0:
150,129,162582,1,2,2:2:0:0:
283,306,162740,6,0,L|342:296,1,60.0000022888184,4|0,3:2|0:0,0:0:0:0:
217,309,162898,2,0,L|276:299,1,60.0000022888184,2|0,3:2|0:0,0:0:0:0:
396,189,163056,5,8,3:2:0:0:
406,193,163214,1,2,2:2:0:0:
149,358,163372,5,2,3:2:0:0:
129,307,163451,1,2,0:0:0:0:
156,259,163530,1,2,3:2:0:0:
283,306,163688,5,8,3:2:0:0:
282,316,163846,1,2,2:2:0:0:
148,136,164003,5,2,3:2:0:0:
190,101,164082,1,2,0:0:0:0:
244,112,164161,1,2,3:2:0:0:
238,247,164319,5,8,3:2:0:0:
229,249,164477,1,2,2:2:0:0:
358,66,164635,5,2,3:2:0:0:
404,95,164714,1,2,0:0:0:0:
410,149,164793,1,2,3:2:0:0:
280,185,164951,5,8,3:2:0:0:
275,177,165109,1,2,2:2:0:0:
504,384,165267,5,6,3:2:0:0:
480,335,165346,1,2,0:0:0:0:
429,317,165424,1,2,3:2:0:0:
425,310,165582,5,10,3:2:0:0:
370,317,165661,1,2,0:0:0:0:
336,359,165740,1,2,2:2:0:0:
339,366,165898,5,2,3:2:0:0:
286,384,165977,1,2,0:0:0:0:
237,360,166056,1,2,3:2:0:0:
230,358,166214,5,10,3:2:0:0:
206,309,166293,1,2,0:0:0:0:
228,259,166372,1,2,2:2:0:0:
347,155,166530,5,6,3:2:0:0:
391,97,166609,1,2,0:0:0:0:
356,33,166688,1,2,3:2:0:0:
361,28,166846,5,10,3:2:0:0:
282,15,166924,1,2,0:0:0:0:
234,69,167003,1,2,2:2:0:0:
241,74,167161,6,0,L|258:201,1,120.000004577637,4|2,3:2|3:2,0:0:0:0:
84,124,167477,5,8,3:2:0:0:
27,80,167556,1,8,3:2:0:0:
45,10,167635,1,10,3:2:0:0:
104,51,167714,1,8,3:2:0:0:
91,122,167793,1,4,3:2:0:0:
26,316,167951,6,0,L|35:378,1,60.0000022888184,2|0,3:2|0:0,0:0:0:0:
164,102,168109,5,8,3:2:0:0:
111,338,168267,1,2,2:2:0:0:
234,83,168424,5,0,3:2:0:0:
183,308,168582,1,2,3:2:0:0:
307,63,168740,5,8,3:2:0:0:
254,282,168898,1,2,2:2:0:0:
376,42,169056,5,0,3:2:0:0:
320,257,169214,1,2,3:2:0:0:
386,294,169372,5,8,3:2:0:0:
356,115,169530,1,2,2:2:0:0:
383,219,169688,5,0,3:2:0:0:
429,100,169846,1,2,3:2:0:0:
376,42,170003,1,8,3:2:0:0:
356,115,170161,1,2,2:2:0:0:
450,255,170319,5,0,3:2:0:0:
215,190,170477,1,2,3:2:0:0:
405,315,170635,5,8,3:2:0:0:
219,261,170793,1,2,2:2:0:0:
282,125,170951,5,0,3:2:0:0:
47,190,171109,1,2,3:2:0:0:
237,65,171267,5,8,3:2:0:0:
51,119,171425,1,2,2:2:0:0:
191,254,171582,5,0,3:2:0:0:
168,159,171740,1,2,3:2:0:0:
121,322,171898,1,8,3:2:0:0:
286,282,172056,1,2,2:2:0:0:
162,384,172214,6,0,P|107:361|48:344,1,120.000004577637,0|2,3:2|3:2,0:0:0:0:
0,103,172530,1,10,3:2:0:0:
11,100,172609,1,2,0:0:0:0:
22,97,172688,1,2,2:2:0:0:
33,94,172767,1,2,0:0:0:0:
65,56,172846,5,4,3:2:0:0:
320,161,173003,2,0,L|378:175,1,60.0000022888184,2|0,3:2|0:0,0:0:0:0:
405,57,173161,5,8,3:2:0:0:
352,293,173319,1,2,2:2:0:0:
333,87,173476,5,0,3:2:0:0:
282,312,173634,1,2,3:2:0:0:
262,113,173792,5,8,3:2:0:0:
209,332,173950,1,2,2:2:0:0:
196,138,174108,5,0,3:2:0:0:
140,353,174266,1,2,3:2:0:0:
87,303,174424,1,8,3:2:0:0:
103,232,174582,1,2,2:2:0:0:
157,282,174740,5,0,3:2:0:0:
142,88,174898,1,2,3:2:0:0:
254,187,175056,5,8,3:2:0:0:
67,96,175214,1,2,2:2:0:0:
34,247,175372,5,0,3:2:0:0:
196,138,175530,1,2,3:2:0:0:
157,282,175688,5,8,3:2:0:0:
53,178,175846,1,2,2:2:0:0:
69,374,176003,5,0,3:2:0:0:
282,312,176161,1,2,3:2:0:0:
271,119,176319,5,8,3:2:0:0:
209,332,176477,1,2,2:2:0:0:
263,380,176635,5,0,3:2:0:0:
227,261,176793,1,2,3:2:0:0:
463,194,176951,5,8,3:2:0:0:
435,287,177109,1,2,2:2:0:0:
202,78,177267,6,0,B|239:34|239:34|299:48,1,120.000004577637,0|2,3:2|3:2,0:0:0:0:
505,310,177582,1,10,3:2:0:0:
470,299,177661,1,2,0:0:0:0:
435,287,177740,1,2,2:2:0:0:
400,275,177819,1,2,0:0:0:0:
366,262,177898,6,0,L|374:325,1,64,4|0,3:2|0:0,0:0:0:0:
225,375,178056,1,2,3:2:0:0:
227,384,178214,1,8,3:2:0:0:
287,176,178372,6,0,P|350:165|412:153,1,128,2|0,2:2|3:2,0:0:0:0:
398,78,178688,2,0,P|334:88|272:100,1,128,2|8,3:2|3:2,0:0:0:0:
183,313,179003,6,0,P|148:303|117:298,1,64,2|0,2:2|0:0,0:0:0:0:
92,228,179161,1,0,3:2:0:0:
218,188,179319,6,0,P|191:213|172:237,1,64,2|0,3:2|0:0,0:0:0:0:
98,224,179477,1,8,3:2:0:0:
127,95,179635,6,0,P|135:130|147:159,1,64,2|0,2:2|0:0,0:0:0:0:
98,217,179793,1,0,3:2:0:0:
0,127,179951,6,0,P|35:137|66:142,1,64,2|0,3:2|0:0,0:0:0:0:
92,213,180109,1,8,3:2:0:0:
291,14,180267,6,0,P|272:130|253:267,1,256,2|2,2:2|3:2,0:0:0:0:
183,313,180740,1,8,3:2:0:0:
448,101,180898,6,0,P|384:108|345:157,1,128,2|0,2:2|3:2,0:0:0:0:
511,251,181214,2,0,P|481:195|422:175,1,128,2|8,3:2|3:2,0:0:0:0:
293,340,181530,6,0,P|264:351|234:366,1,64,2|0,2:2|0:0,0:0:0:0:
183,313,181688,1,0,3:2:0:0:
272,141,181846,2,0,L|251:287,1,128,2|8,3:2|3:2,0:0:0:0:
40,353,182161,6,0,L|10:98,1,256,2|2,2:2|3:2,0:0:0:0:
77,33,182635,1,8,3:2:0:0:
84,36,182793,1,2,2:2:0:0:
196,232,182951,6,0,P|228:223|264:218,1,64,4|0,3:2|0:0,0:0:0:0:
307,78,183109,1,2,3:2:0:0:
314,81,183267,1,8,3:2:0:0:
460,306,183424,6,0,P|469:242|480:179,1,128,2|0,2:2|3:2,0:0:0:0:
405,166,183740,2,0,P|395:229|384:292,1,128,2|8,3:2|3:2,0:0:0:0:
88,146,184056,6,0,L|150:157,1,64,2|0,2:2|0:0,0:0:0:0:
190,254,184214,1,0,3:2:0:0:
290,145,184372,6,0,L|278:207,1,64,2|0,3:2|0:0,0:0:0:0:
185,246,184530,1,8,3:2:0:0:
292,339,184688,6,0,L|223:326,1,64,2|0,2:2|0:0,0:0:0:0:
193,241,184846,1,0,3:2:0:0:
104,352,185003,6,0,L|115:289,1,64,2|0,3:2|0:0,0:0:0:0:
198,249,185161,1,8,3:2:0:0:
232,67,185319,1,2,2:2:0:0:
11,312,185477,5,6,3:2:0:0:
12,318,185556,1,2,0:0:0:0:
15,323,185635,1,2,3:2:0:0:
20,326,185714,1,2,0:0:0:0:
26,327,185793,1,10,3:2:0:0:
32,327,185872,1,2,0:0:0:0:
38,325,185951,1,2,2:2:0:0:
43,322,186030,1,2,0:0:0:0:
47,317,186109,1,2,3:2:0:0:
49,304,186188,1,2,0:0:0:0:
46,291,186267,1,2,3:2:0:0:
42,278,186346,1,2,0:0:0:0:
33,268,186424,1,10,3:2:0:0:
21,252,186503,1,2,0:0:0:0:
14,227,186582,1,2,2:2:0:0:
21,195,186661,1,2,0:0:0:0:
48,168,186740,5,6,3:2:0:0:
83,154,186819,1,2,0:0:0:0:
121,151,186898,1,2,3:2:0:0:
158,158,186977,1,2,0:0:0:0:
192,174,187056,1,10,3:2:0:0:
228,200,187135,1,2,0:0:0:0:
269,230,187214,1,2,2:2:0:0:
322,251,187293,1,2,0:0:0:0:
378,263,187372,1,6,3:2:0:0:
434,252,187451,1,2,0:0:0:0:
476,213,187530,1,2,3:2:0:0:
495,158,187609,1,2,0:0:0:0:
479,102,187688,1,14,3:2:0:0:
436,62,187767,1,2,0:0:0:0:
379,52,187846,1,2,2:2:0:0:
323,65,187924,1,2,0:0:0:0:
288,128,188003,5,4,3:2:0:0:
256,192,188161,12,0,192740,0:0:0:0:
8,25,193056,6,0,P|6:60|25:94,1,71.9999978027344,4|0,3:2|0:0,0:0:0:0:
109,70,193214,2,0,P|110:34|91:0,1,71.9999978027344,2|0,3:2|0:0,0:0:0:0:
2,175,193372,5,10,3:2:0:0:
10,187,193451,1,8,3:2:0:0:
19,192,193530,2,0,P|87:168|157:152,1,143.999995605469,2|0,2:2|3:2,0:0:0:0:
334,46,193846,5,10,3:2:0:0:
338,58,193924,1,8,3:2:0:0:
343,70,194003,2,0,P|309:83|283:107,1,71.9999978027344,8|0,3:2|0:0,0:0:0:0:
257,231,194161,2,0,P|224:168|156:152,1,143.999995605469,2|0,2:2|3:2,0:0:0:0:
0,280,194477,5,10,3:2:0:0:
9,289,194556,1,8,3:2:0:0:
13,302,194635,2,0,L|84:311,1,71.9999978027344,8|0,3:2|0:0,0:0:0:0:
176,235,194793,2,0,P|164:306|157:377,1,143.999995605469,2|0,2:2|3:2,0:0:0:0:
336,364,195109,5,10,3:2:0:0:
327,355,195188,1,8,3:2:0:0:
323,342,195267,2,0,L|252:333,1,71.9999978027344,8|0,3:2|0:0,0:0:0:0:
394,105,195424,6,0,P|460:127|484:192,1,143.999995605469,2|0,2:2|3:2,0:0:0:0:
314,89,195740,2,0,P|355:32|424:29,1,143.999995605469,2|8,3:2|3:2,0:0:0:0:
176,235,196056,6,0,P|109:207|38:194,1,143.999995605469,2|0,2:2|3:2,0:0:0:0:
60,104,196372,2,0,P|126:131|197:144,1,143.999995605469,2|8,3:2|3:2,0:0:0:0:
261,205,196688,2,0,P|266:239|276:275,1,71.9999978027344,2|0,2:2|0:0,0:0:0:0:
471,356,196846,5,2,3:2:0:0:
479,344,196924,1,2,0:0:0:0:
474,322,197003,1,2,3:2:0:0:
459,306,197082,1,2,0:0:0:0:
426,290,197161,1,10,3:2:0:0:
383,297,197240,1,2,0:0:0:0:
350,344,197319,1,2,2:2:0:0:
302,377,197398,1,2,0:0:0:0:
244,369,197477,1,2,3:2:0:0:
192,342,197556,1,2,0:0:0:0:
161,284,197635,1,2,3:2:0:0:
103,255,197714,1,2,0:0:0:0:
33,274,197793,6,0,L|19:346,1,71.9999978027344,8|0,3:2|0:0,0:0:0:0:
25,350,197951,2,0,L|38:279,1,71.9999978027344,2|0,2:2|0:0,0:0:0:0:
111,6,198109,6,0,P|85:29|69:61,1,71.9999978027344,4|0,3:2|0:0,0:0:0:0:
86,135,198267,2,0,P|76:65|119:9,1,143.999995605469,2|8,3:2|3:2,0:0:0:0:
227,221,198582,2,0,P|171:264|102:254,1,143.999995605469,2|0,2:2|3:2,0:0:0:0:
231,56,198898,2,0,P|296:82|322:147,1,143.999995605469,2|8,3:2|3:2,0:0:0:0:
380,321,199214,6,0,P|414:329|448:342,1,71.9999978027344,2|0,2:2|0:0,0:0:0:0:
510,280,199372,1,0,3:2:0:0:
346,246,199530,6,0,P|320:271|293:294,1,71.9999978027344,2|0,3:2|0:0,0:0:0:0:
316,379,199688,1,8,3:2:0:0:
427,254,199846,6,0,P|417:219|411:183,1,71.9999978027344,2|0,2:2|0:0,0:0:0:0:
327,161,200004,1,0,3:2:0:0:
316,379,200161,6,0,B|192:354|192:354|191:351|191:351|159:357|159:357|36:330,1,287.999991210938,2|2,3:2|2:2,0:0:0:0:
67,150,200635,6,0,B|35:110|35:110|31:113|31:113|6:80|6:80|7:81|7:81|88:61|88:61|91:58|91:58|168:40|168:40|154:108|154:108|156:112|156:112|138:205,1,431.999986816407,4|2,3:2|2:2,0:0:0:0:
375,278,201267,2,0,B|329:380|329:380|331:379|331:379|350:258|350:258|347:259|347:259|336:214|336:214|385:183|385:183|380:178|380:178|409:21,1,503.999984619141,4|2,3:2|2:2,0:0:0:0:
56,232,201898,6,0,P|116:276|150:343,1,151.999995941162,4|2,3:1|3:2,0:0:0:0:
147,350,202135,1,8,3:2:0:0:
141,356,202214,2,0,P|131:320|110:288,1,75.9999979705811,8|0,3:2|0:0,0:0:0:0:
293,141,202372,2,0,P|266:168|249:201,1,75.9999979705811,2|0,2:2|0:0,0:0:0:0:
18,124,202530,6,0,L|110:110,1,75.9999979705811,4|0,3:2|0:0,0:0:0:0:
229,27,202688,2,0,P|241:114|249:201,1,176.000005371094,2|8,3:2|3:2,0:0:0:0:
507,382,203003,5,2,2:2:0:0:
509,373,203082,1,2,0:0:0:0:
510,364,203161,6,0,P|466:326|407:323,1,120.000004577637,4|2,3:2|3:2,0:0:0:0:
411,240,203477,2,0,P|355:259|323:308,1,120.000004577637,8|2,3:2|2:2,0:0:0:0:
41,234,203793,6,0,P|99:247|158:260,1,120.000004577637,0|2,3:2|3:2,0:0:0:0:
142,338,204109,2,0,P|83:324|24:311,1,120.000004577637,8|2,3:2|2:2,0:0:0:0:
217,25,204424,6,0,P|242:40|262:63,1,60.0000022888184,0|0,3:2|0:0,0:0:0:0:
283,148,204582,1,2,3:2:0:0:
404,75,204740,6,0,P|374:76|345:86,1,60.0000022888184,8|0,3:2|0:0,0:0:0:0:
281,154,204898,1,2,2:2:0:0:
464,355,205056,6,0,P|469:241|370:185,1,240.000009155274,0|8,3:2|3:2,0:0:0:0:
364,188,205451,1,2,0:0:0:0:
359,191,205530,1,2,2:2:0:0:
142,338,205688,6,0,L|132:219,1,120.000004577637,0|2,3:2|3:2,0:0:0:0:
121,211,205924,1,2,0:0:0:0:
111,203,206003,1,10,3:2:0:0:
99,50,206161,1,2,2:2:0:0:
284,367,206319,6,0,P|317:321|373:292,1,120.000004577637,0|2,3:2|3:2,0:0:0:0:
131,218,206635,2,0,P|185:236|229:279,1,120.000004577637,8|2,3:2|2:2,0:0:0:0:
225,26,206951,2,0,P|224:83|196:138,1,120.000004577637,0|2,3:2|3:2,0:0:0:0:
436,56,207267,2,0,P|381:73|320:63,1,120.000004577637,8|2,3:2|2:2,0:0:0:0:
472,265,207582,2,0,P|438:218|428:157,1,120.000004577637,0|2,3:2|3:2,0:0:0:0:
229,279,207898,5,14,3:2:0:0:
246,275,207977,1,2,0:0:0:0:
263,272,208056,1,2,2:2:0:0:
280,270,208135,1,2,0:0:0:0:
298,267,208214,6,0,B|190:252|190:252|172:267|172:267|65:251,1,240.000009155274,4|8,3:2|3:2,0:0:0:0:
34,172,208688,1,2,2:2:0:0:
225,364,208846,2,0,P|283:350|342:345,1,120.000004577637,0|2,3:2|3:2,0:0:0:0:
351,336,209082,1,8,3:2:0:0:
359,327,209161,1,8,3:2:0:0:
298,267,209319,1,2,2:2:0:0:
501,104,209477,6,0,P|482:161|469:219,1,120.000004577637,0|2,3:2|3:2,0:0:0:0:
440,54,209793,2,0,P|421:111|408:169,1,120.000004577637,8|2,3:2|2:2,0:0:0:0:
209,288,210109,6,0,P|190:230|177:172,1,120.000004577637,0|2,3:2|3:2,0:0:0:0:
148,338,210425,2,0,P|129:280|116:222,1,120.000004577637,8|2,3:2|2:2,0:0:0:0:
1,12,210740,6,0,B|100:35|100:35|112:64|112:64|215:88,1,240.000009155274,0|8,3:2|3:2,0:0:0:0:
277,29,211214,1,2,2:2:0:0:
116,222,211372,2,0,P|56:231|0:249,1,120.000004577637,0|2,3:2|3:2,0:0:0:0:
303,106,211688,6,0,B|369:150|369:150|339:309,1,240.000009155274,8|2,3:2|3:2,0:0:0:0:
348,315,212082,1,2,0:0:0:0:
357,322,212161,1,2,3:2:0:0:
480,29,212319,6,0,L|361:48,1,120.000004577637,8|2,3:2|2:2,0:0:0:0:
279,194,212635,1,0,3:2:0:0:
203,178,212793,1,2,3:2:0:0:
171,5,212951,1,12,3:2:0:0:
95,21,213109,2,0,L|102:80,1,60.0000022888184,2|0,2:2|0:0,0:0:0:0:
115,254,213267,5,4,3:2:0:0:
126,258,213346,1,0,0:0:0:0:
134,262,213424,2,0,L|122:320,1,60.0000022888184,2|0,3:2|0:0,0:0:0:0:
99,384,213582,2,0,L|111:325,1,60.0000022888184,8|0,3:2|0:0,0:0:0:0:
226,246,213740,6,0,L|211:311,1,60.0000022888184,2|0,2:2|0:0,0:0:0:0:
185,383,213898,2,0,L|199:317,1,60.0000022888184,0|0,3:2|0:0,0:0:0:0:
0,165,214056,6,0,P|24:144|54:133,1,64,2|0,3:2|0:0,0:0:0:0:
60,122,214214,2,0,P|91:122|121:134,1,64,8|0,3:2|0:0,0:0:0:0:
237,241,214372,6,0,P|261:261|291:272,1,64,2|0,2:2|0:0,0:0:0:0:
297,284,214530,2,0,P|328:283|358:271,1,64,0|0,3:2|0:0,0:0:0:0:
493,107,214688,6,0,L|483:39,1,68.0000012969971,2|0,3:2|0:0,0:0:0:0:
425,138,214846,2,0,L|415:70,1,68.0000012969971,8|0,3:2|0:0,0:0:0:0:
297,195,215003,6,0,L|306:127,1,68.0000012969971,2|0,2:2|0:0,0:0:0:0:
229,164,215161,2,0,L|238:96,1,68.0000012969971,0|0,3:2|0:0,0:0:0:0:
83,264,215319,6,0,L|72:192,1,71.9999978027344,2|0,3:2|0:0,0:0:0:0:
152,317,215477,2,0,P|122:337|95:361,1,71.9999978027344,8|0,3:2|0:0,0:0:0:0:
163,228,215635,2,0,P|195:243|229:254,1,71.9999978027344,2|0,2:2|0:0,0:0:0:0:
456,384,215793,6,0,L|446:307,1,75.9999979705811,4|0,3:2|0:0,0:0:0:0:
443,226,215951,2,0,L|452:301,1,75.9999979705811,2|0,3:2|0:0,0:0:0:0:
356,359,216109,6,0,L|345:279,1,80,8|0,3:2|0:0,0:0:0:0:
342,191,216267,2,0,L|352:270,1,80,2|0,2:2|0:0,0:0:0:0:
250,329,216424,6,0,L|239:245,1,83.9999974365235,0|0,3:2|0:0,0:0:0:0:
235,150,216582,2,0,L|245:233,1,83.9999974365235,2|0,3:2|0:0,0:0:0:0:
141,299,216740,6,0,L|129:210,1,88.000002685547,8|0,3:2|0:0,0:0:0:0:
125,109,216898,2,0,L|136:197,1,88.000002685547,2|0,2:2|0:0,0:0:0:0:
371,56,217056,6,0,B|507:46|507:46|534:68|534:68|439:99|439:99|442:94|442:94|307:68|307:68|306:64|306:64|182:40,1,544.000010375977,0|0,3:2|3:2,0:0:0:0:
125,109,217846,1,2,3:2:0:0:
272,204,218003,2,0,P|334:179|402:174,1,136.000002593994,8|2,3:2|2:2,0:0:0:0:
440,98,218319,1,4,3:2:0:0:
494,352,218477,5,2,3:2:0:0:
452,317,218556,1,2,0:0:0:0:
402,294,218635,1,10,3:2:0:0:
349,280,218714,1,2,0:0:0:0:
294,283,218793,1,2,2:2:0:0:
247,293,218872,1,2,0:0:0:0:
210,311,218951,1,2,3:2:0:0:
183,331,219030,1,2,0:0:0:0:
157,353,219109,1,2,3:2:0:0:
138,362,219188,1,2,0:0:0:0:
124,363,219267,1,10,3:2:0:0:
110,359,219346,1,2,0:0:0:0:
106,353,219424,1,2,2:2:0:0:
108,346,219503,1,2,0:0:0:0:
112,341,219582,5,2,3:2:0:0:
118,341,219661,1,2,0:0:0:0:
124,343,219740,1,2,3:2:0:0:
130,346,219819,1,2,0:0:0:0:
136,348,219898,1,10,3:2:0:0:
149,348,219977,1,2,0:0:0:0:
168,343,220056,1,2,2:2:0:0:
184,331,220135,1,2,0:0:0:0:
199,308,220214,1,2,3:2:0:0:
208,268,220293,1,2,0:0:0:0:
199,227,220372,1,2,3:2:0:0:
172,195,220451,1,2,0:0:0:0:
136,175,220530,1,10,3:2:0:0:
104,148,220609,1,2,0:0:0:0:
89,109,220688,1,2,2:2:0:0:
97,69,220767,1,2,0:0:0:0:
123,47,220846,5,2,3:2:0:0:
186,25,220924,1,2,0:0:0:0:
253,33,221003,1,2,3:2:0:0:
316,58,221082,1,2,0:0:0:0:
364,104,221161,6,0,L|91:59,1,272.000005187988,8|0,3:2|3:2,0:0:0:0:
18,94,221635,1,2,3:2:0:0:
270,197,221793,2,0,L|135:174,1,136.000002593994,8|2,3:2|2:2,0:0:0:0:
77,292,222109,5,0,3:2:0:0:
28,13,222267,1,2,3:2:0:0:
96,59,222424,5,8,3:2:0:0:
14,341,222582,1,2,2:2:0:0:
86,375,222740,5,0,3:2:0:0:
71,212,222898,1,2,3:2:0:0:
5,264,223056,5,8,3:2:0:0:
146,327,223214,1,2,2:2:0:0:
493,122,223372,5,4,3:2:0:0:
427,139,223530,1,0,3:2:0:0:
361,156,223688,2,0,L|342:238,1,80,8|0,3:2|0:0,0:0:0:0:
256,192,228424,12,0,233161,0:0:0:0:
31,240,233477,5,0,3:2:0:0:
173,193,233793,5,2,3:2:0:0:
106,221,233951,1,2,3:2:0:0:
39,248,234109,1,2,3:2:0:0:
156,345,234424,5,2,3:2:0:0:
165,272,234582,1,2,3:2:0:0:
175,201,234740,1,2,3:2:0:0:
32,254,235056,5,2,3:2:0:0:
91,298,235214,1,2,3:2:0:0:
148,342,235372,1,2,3:2:0:0:
323,258,235688,5,2,3:2:0:0:
250,209,235846,1,2,3:2:0:0:
244,214,235924,1,2,0:0:0:0:
239,220,236003,2,0,L|252:317,1,80,2|0,3:2|2:0,0:0:0:0:
443,353,236319,5,2,3:2:0:0:
448,346,236477,1,2,3:2:0:0:
249,299,236635,5,2,3:2:0:0:
252,306,236793,1,0,0:0:0:0:
392,157,236951,5,2,3:2:0:0:
385,157,237109,1,2,3:2:0:0:
350,257,237267,6,0,L|359:336,1,80,2|0,3:2|2:0,0:0:0:0:
451,102,237582,2,0,B|368:120|368:120|364:118|364:118|284:136|284:136|272:222|272:222|171:241|171:241|165:243|165:243|51:264,1,480,2|2,3:2|3:2,0:0:0:0:
54,263,238846,6,0,P|77:295|88:333,1,80,2|2,3:2|3:2,0:0:0:0:
96,336,239082,1,2,0:0:0:0:
103,337,239161,1,2,3:2:0:0:
206,153,239477,6,0,P|146:143|87:133,1,120,2|0,3:2|2:0,0:0:0:0:
87,133,239793,2,0,L|79:80,2,53.3333333333333,2|2|2,3:2|0:0|0:0,0:0:0:0:
229,226,240109,5,2,3:2:0:0:
238,210,240214,1,2,0:0:0:0:
255,199,240319,1,2,0:0:0:0:
277,241,240424,6,0,L|258:359,1,120,2|0,3:2|2:0,0:0:0:0:
250,362,240740,2,0,L|262:282,1,80,2|2,3:2|3:2,0:0:0:0:
287,74,241056,5,2,3:2:0:0:
325,55,241161,1,2,0:0:0:0:
367,57,241267,1,2,0:0:0:0:
345,132,241372,5,2,3:2:0:0:
371,149,241477,1,2,0:0:0:0:
386,178,241583,1,2,0:0:0:0:
407,267,241688,6,0,P|414:187|429:108,1,160,2|2,3:2|3:2,0:0:0:0:
429,108,242319,5,2,3:2:0:0:
419,154,242424,1,2,0:0:0:0:
409,201,242530,1,2,0:0:0:0:
478,266,242635,5,2,3:2:0:0:
473,291,242740,1,2,0:0:0:0:
467,316,242846,1,2,0:0:0:0:
399,368,242951,6,0,P|349:336|291:325,1,120,2|0,3:2|3:2,0:0:0:0:
289,319,243267,1,2,3:2:0:0:
320,109,243424,1,2,3:2:0:0:
220,267,243582,6,0,P|170:298|141:349,1,120,2|0,3:2|2:0,0:0:0:0:
141,349,243898,2,0,L|126:190,1,160,2|2,3:2|3:2,0:0:0:0:
383,233,244530,5,2,3:2:0:0:
368,303,244688,1,2,3:2:0:0:
352,373,244846,1,2,3:2:0:0:
266,179,245161,5,2,3:2:0:0:
477,201,245319,1,2,3:2:0:0:
375,266,245477,5,2,3:2:0:0:
364,259,245556,1,2,0:0:0:0:
354,251,245635,2,0,L|361:330,1,80,10|10,2:2|3:2,0:0:0:0:
441,358,245951,5,10,3:2:0:0:
346,150,246109,2,0,P|308:104|250:95,1,120,2|0,3:2|2:0,0:0:0:0:
250,95,246424,6,0,L|212:107,1,40,2|0,3:2|0:0,0:0:0:0:
416,48,246740,2,0,L|377:60,1,40,2|0,3:2|0:0,0:0:0:0:
85,143,247056,2,0,L|46:155,1,40,2|0,3:2|0:0,0:0:0:0:
47,155,247372,6,0,L|32:233,1,80,2|0,3:2|2:0,0:0:0:0:
18,378,247688,2,0,L|45:220,1,160,2|2,3:2|3:2,0:0:0:0:
197,50,248161,6,0,B|239:60|239:60|250:96,1,80,0|2,0:0|3:2,0:0:0:0:
335,74,248477,2,0,L|311:150,1,80,2|2,3:2|3:2,0:0:0:0:
317,156,248714,1,2,0:0:0:0:
322,161,248793,1,2,0:0:0:0:
235,181,248951,6,0,P|193:166|157:163,1,80,2|2,3:2|3:2,0:0:0:0:
296,236,249267,2,0,P|261:262|241:294,1,80,2|0,3:2|2:0,0:0:0:0:
372,229,249582,2,0,P|377:272|395:305,1,80,2|2,3:2|3:2,0:0:0:0:
311,347,249898,6,0,L|152:322,1,160,2|2,3:2|3:2,0:0:0:0:
150,315,250293,1,2,0:0:0:0:
147,307,250372,1,2,3:2:0:0:
79,213,250530,2,0,P|39:221|2:234,1,80,2|0,3:2|2:0,0:0:0:0:
162,231,250846,2,0,P|153:191|141:154,1,80,2|2,3:2|3:2,0:0:0:0:
270,8,251161,6,0,L|257:61,1,40,2|0,3:2|0:0,0:0:0:0:
382,158,251477,5,2,3:2:0:0:
454,142,251635,1,2,3:2:0:0:
378,168,251793,2,0,L|324:156,1,40,2|0,3:2|0:0,0:0:0:0:
471,371,252109,6,0,L|486:292,1,80,2|2,3:2|3:2,0:0:0:0:
392,384,252424,2,0,L|369:266,1,120,2|0,3:2|2:0,0:0:0:0:
369,266,252740,2,0,L|278:251,1,80,2|2,3:2|3:2,0:0:0:0:
250,173,253056,1,2,3:2:0:0:
405,26,253214,5,0,3:2:0:0:
416,30,253293,1,8,0:2:0:0:
425,34,253372,2,0,P|431:73|420:111,1,80,2|2,3:2|3:2,0:0:0:0:
318,147,253688,2,0,P|258:132|200:124,1,120,2|0,3:2|2:0,0:0:0:0:
113,45,254003,6,0,B|36:16|36:16|37:18|37:18|2:86|2:86|48:148|48:148|53:145|53:145|68:260|68:260|66:264|66:264|80:380,1,480,2|2,3:2|3:2,0:0:0:0:
236,216,255188,1,8,2:2:0:0:
243,224,255267,2,0,L|231:303,1,80,2|2,3:2|3:2,0:0:0:0:
303,361,255582,2,0,L|324:202,1,160,2|2,3:2|3:2,0:0:0:0:
484,58,256056,5,2,3:2:0:0:
485,65,256135,1,2,0:0:0:0:
485,71,256214,2,0,P|454:95|415:101,1,80,2|0,3:2|2:0,0:0:0:0:
409,110,256530,2,0,P|372:95|347:64,1,80,2|2,3:2|3:2,0:0:0:0:
245,15,256846,6,0,P|205:10|169:26,1,80,2|0,3:2|2:0,0:0:0:0:
159,22,257162,2,0,P|135:54|131:93,1,80,2|2,3:2|3:2,0:0:0:0:
229,208,257477,6,0,P|265:224|292:253,1,80,2|0,3:2|2:0,0:0:0:0:
308,253,257793,2,0,P|312:292|300:330,1,80,2|2,3:2|3:2,0:0:0:0:
166,366,258109,6,0,L|87:352,1,80,2|0,3:2|2:0,0:0:0:0:
81,347,258346,1,2,0:0:0:0:
75,341,258424,2,0,L|87:379,1,40,2|0,3:2|0:0,0:0:0:0:
62,302,258582,2,0,L|74:340,1,40,2|0,3:2|0:0,0:0:0:0:
174,155,258740,6,0,P|209:172|228:207,1,80,2|0,3:2|2:0,0:0:0:0:
87,170,258977,1,2,0:0:0:0:
95,168,259056,1,2,3:2:0:0:
144,226,259293,1,2,2:2:0:0:
153,230,259372,6,0,L|166:308,1,80,2|0,3:2|2:0,0:0:0:0:
244,334,259609,1,2,0:0:0:0:
235,329,259688,1,2,3:2:0:0:
422,156,259924,1,2,2:2:0:0:
430,150,260003,6,0,P|414:113|380:94,1,80,2|0,3:2|2:0,0:0:0:0:
466,220,260240,1,2,0:0:0:0:
474,229,260319,1,2,3:2:0:0:
406,284,260556,1,2,2:2:0:0:
401,293,260635,6,0,P|434:313|473:308,1,80,2|0,3:2|2:0,0:0:0:0:
332,258,260872,1,2,0:0:0:0:
322,256,260951,1,2,3:2:0:0:
337,177,261188,1,2,0:0:0:0:
328,170,261267,6,0,L|249:187,1,80,2|0,3:2|2:0,0:0:0:0:
175,190,261503,1,2,0:0:0:0:
171,202,261582,2,0,L|92:219,1,80,2|0,3:2|2:0,0:0:0:0:
65,292,261819,5,0,3:2:0:0:
57,295,261898,2,0,P|22:270|9:232,1,80
223,22,262214,2,0,B|207:54|207:54|165:40,1,80,2|2,3:2|3:2,0:0:0:0:
141,116,262530,6,0,P|218:99|298:89,2,160,2|2|2,3:2|3:2|3:2,0:0:0:0:
53,228,263398,1,8,0:0:0:0:
56,239,263477,2,0,P|92:254|114:286,1,80,2|2,3:2|3:2,0:0:0:0:
265,366,263793,5,6,3:2:0:0:
266,360,263951,1,2,0:0:0:0:
503,298,264109,6,0,P|463:303|434:329,1,80,2|2,3:2|3:2,0:0:0:0:
429,239,264424,2,0,P|412:203|378:183,1,80,2|2,3:2|0:0,0:0:0:0:
361,107,264740,1,2,3:2:0:0:
370,105,264898,1,2,3:2:0:0:
351,255,265056,6,0,P|275:232|195:216,1,160,2|2,3:2|3:2,0:0:0:0:
158,146,265530,1,2,3:2:0:0:
278,71,265688,6,0,P|356:55|433:32,1,160,2|2,3:2|3:2,0:0:0:0:
496,155,266161,1,2,3:2:0:0:
119,210,266319,6,0,P|110:289|97:368,1,160,2|2,3:2|3:2,0:0:0:0:
97,368,266793,1,2,3:2:0:0:
36,212,266951,6,0,P|24:193|17:173,1,40,2|0,3:2|0:0,0:0:0:0:
62,113,267109,2,0,P|100:128|139:138,1,80,2|2,0:0|3:2,0:0:0:0:
193,191,267424,1,2,3:2:0:0:
316,4,267582,6,0,P|288:79|271:157,1,160,2|2,3:2|3:2,0:0:0:0:
192,199,268056,1,2,3:2:0:0:
346,341,268214,2,0,P|307:294|265:252,1,120,2|0,3:2|2:0,0:0:0:0:
265,252,268530,2,0,L|225:258,1,40,2|0,3:2|0:0,0:0:0:0:
0,24,268846,6,0,L|158:51,1,160,2|2,3:2|3:2,0:0:0:0:
187,125,269319,1,2,3:2:0:0:
339,263,269477,6,0,L|497:236,1,160,2|2,3:2|3:2,0:0:0:0:
512,157,269951,1,2,3:2:0:0:
345,373,270109,6,0,P|318:300|244:279,1,160,2|2,3:2|0:0,0:0:0:0:
209,208,270582,1,2,3:2:0:0:
435,104,270740,6,0,P|416:178|465:237,1,160,2|2,3:2|0:0,0:0:0:0:
512,157,271214,1,2,3:2:0:0:
337,320,271372,6,0,L|344:372,2,53.3333333333333,2|2|2,3:2|0:0|0:0,0:0:0:0:
403,288,271688,2,0,L|410:340,2,53.3333333333333,2|2|2,0:0|0:0|0:0,0:0:0:0:
292,212,272003,6,0,P|217:237|138:255,1,160,2|2,3:2|0:0,0:0:0:0:
102,358,272477,1,2,3:2:0:0:
9,131,272635,6,0,P|62:142|81:164,1,80,2|2,3:2|3:2,0:0:0:0:
141,98,272872,1,2,0:0:0:0:
138,106,272951,2,0,P|154:157|145:184,1,80,2|2,3:2|0:0,0:0:0:0:
29,323,273267,6,0,P|108:341|182:367,1,160,2|2,3:2|3:2,0:0:0:0:
240,316,273740,1,2,0:0:0:0:
511,204,273898,6,0,L|497:44,1,160,2|2,3:2|3:2,0:0:0:0:
425,11,274372,1,2,0:0:0:0:
303,272,274530,6,0,L|289:112,1,160,2|2,3:2|3:2,0:0:0:0:
374,179,275003,1,2,0:0:0:0:
182,367,275161,6,0,P|134:303|53:295,1,160,2|2,3:2|3:2,0:0:0:0:
0,338,275635,1,2,3:2:0:0:
15,36,275793,6,0,P|54:105|74:182,1,160,2|2,0:0|3:2,0:0:0:0:
164,198,276267,1,2,3:2:0:0:
161,209,276346,1,2,0:0:0:0:
159,220,276424,2,0,B|178:269|178:269|293:236,1,160,2|2,0:0|3:2,0:0:0:0:
437,297,277056,6,0,P|362:271|284:252,1,160,2|2,0:0|3:2,0:0:0:0:
247,178,277530,1,2,3:2:0:0:
450,82,277688,2,0,P|391:136|326:183,1,160,2|2,3:2|3:2,0:0:0:0:
179,302,278161,5,2,3:2:0:0:
170,299,278319,2,0,L|158:219,1,80,2|2,3:2|0:0,0:0:0:0:
332,296,278635,2,0,L|320:375,1,80,2|2,3:2|3:2,0:0:0:0:
58,218,278951,6,0,P|70:160|118:123,1,120,2|0,3:2|2:0,0:0:0:0:
130,52,279267,2,0,P|266:82|376:97,1,240,2|2,3:2|0:0,0:0:0:0:
497,100,279819,1,2,0:0:0:0:
490,95,279898,2,0,P|451:113|431:149,1,80,2|2,3:2|3:2,0:0:0:0:
291,179,280214,6,0,P|314:252|386:281,1,160,2|2,3:2|3:2,0:0:0:0:
510,166,280688,2,0,P|434:149|373:197,1,160,2|2,3:2|3:2,0:0:0:0:
455,237,281161,2,0,P|458:279|460:316,1,80,2|2,0:0|3:2,0:0:0:0:
143,384,281477,6,0,P|149:297|155:225,1,160,2|2,3:2|0:0,0:0:0:0:
244,183,281951,1,2,3:2:0:0:
243,192,282109,1,2,3:2:0:0:
67,17,282267,6,0,B|117:26|117:26|122:24|122:24|198:39|198:39|200:44|200:44|206:43|206:43|298:59,1,240,2|2,3:2|3:2,0:0:0:0:
353,2,282898,1,2,3:2:0:0:
153,101,283056,6,0,P|115:112|98:147,1,80,2|2,0:0|3:2,0:0:0:0:
234,208,283372,2,0,P|211:176|173:170,1,80,2|2,3:2|3:2,0:0:0:0:
152,317,283688,2,0,P|175:285|168:247,1,80,2|2,3:2|0:0,0:0:0:0:
63,266,284003,5,2,3:2:0:0:
336,324,284319,2,0,L|257:307,1,80,2|2,3:2|0:0,0:0:0:0:
234,208,284635,5,2,3:2:0:0:
506,32,284951,2,0,L|490:110,1,80,2|2,3:2|0:0,0:0:0:0:
177,170,285267,6,0,P|138:153|100:145,1,80,2|2,3:2|3:2,0:0:0:0:
249,140,285582,2,0,P|252:97|248:60,1,80,2|2,3:2|0:0,0:0:0:0:
260,273,285898,2,0,P|281:309|307:337,1,80,2|2,3:2|3:2,0:0:0:0:
184,254,286213,2,0,P|156:285|137:318,1,80,2|2,3:2|3:2,0:0:0:0:
445,234,286530,6,0,L|367:214,1,80,2|2,0:0|3:2,0:0:0:0:
367,214,286846,2,0,L|289:194,1,80,2|2,3:2|3:2,0:0:0:0:
179,32,287161,6,0,L|101:51,1,80,2|2,0:0|3:2,0:0:0:0:
101,52,287477,2,0,L|23:71,1,80,2|2,3:2|3:2,0:0:0:0:
0,151,287793,1,2,0:0:0:0:
257,314,288109,6,0,L|252:360,1,40,2|0,3:2|0:0,0:0:0:0:
267,235,288267,2,0,L|258:314,1,80,2|2,3:2|0:0,0:0:0:0:
322,375,288582,1,2,3:2:0:0:
332,194,288740,6,0,P|284:159|227:169,1,120,2|0,3:2|2:0,0:0:0:0:
169,67,289056,2,0,P|193:225|204:384,1,320,2|2,3:2|3:2,0:0:0:0:
204,384,290003,6,0,L|216:304,1,80,2|2,3:2|3:2,0:0:0:0:
482,283,290319,6,0,P|442:287|412:312,1,80,2|2,3:2|0:0,0:0:0:0:
357,366,290635,1,2,3:2:0:0:
278,237,290793,2,0,P|313:256|332:291,1,80,2|2,3:2|3:2,0:0:0:0:
357,373,291109,1,2,0:0:0:0:
407,145,291267,2,0,L|398:184,1,40,2|0,3:2|0:0,0:0:0:0:
118,0,291582,6,0,L|135:91,1,80,2|2,3:2|3:2,0:0:0:0:
217,100,291898,1,2,0:0:0:0:
215,108,292056,1,2,3:2:0:0:
68,214,292214,2,0,L|83:292,1,80,2|2,3:2|3:2,0:0:0:0:
149,235,292530,2,0,P|189:225|227:219,1,80,2|2,0:0|3:2,0:0:0:0:
284,384,292846,6,0,L|302:225,1,160,2|2,3:2|0:0,0:0:0:0:
378,194,293319,1,2,3:2:0:0:
129,34,293477,6,0,B|118:73|118:73|143:102,1,80,2|2,3:2|3:2,0:0:0:0:
218,86,293714,1,2,0:0:0:0:
226,86,293793,2,0,B|237:47|237:47|211:17,1,80,2|2,0:0|3:2,0:0:0:0:
47,90,294107,5,2,3:2:0:0:
252,366,303354,6,0,L|267:271,1,95.9999970703126,0|0,3:2|0:0,0:0:0:0:
84,144,303880,2,0,P|41:164|23:207,1,95.9999970703126,2|2,3:2|3:2,0:0:0:0:
31,212,304275,1,2,3:2:0:0:
37,218,304406,2,0,P|79:238|97:281,1,95.9999970703126,2|0,3:2|0:0,0:0:0:0:
170,259,304927,2,0,P|173:305|145:343,1,95.9999970703126,2|0,3:2|0:0,0:0:0:0:
0,53,305449,6,0,P|46:65|93:74,1,95.9999970703126,0|0,3:2|0:0,0:0:0:0:
161,132,305932,2,0,P|207:119|254:110,1,95.9999970703126,2|2,3:2|3:2,0:0:0:0:
261,101,306295,1,2,3:2:0:0:
268,93,306416,2,0,P|309:115|332:156,1,95.9999970703126,2|0,3:2|0:0,0:0:0:0:
195,51,306900,2,0,P|229:18|275:8,1,95.9999970703126,2|0,3:2|0:0,0:0:0:0:
423,142,307384,6,0,L|404:236,1,95.9999970703126,0|0,3:2|0:0,0:0:0:0:
250,376,307860,2,0,B|217:337|217:337|228:292,1,95.9999970703126,2|2,3:2|3:2,0:0:0:0:
237,291,308217,1,2,3:2:0:0:
246,289,308336,2,0,L|227:194,1,95.9999970703126,2|0,3:2|0:0,0:0:0:0:
409,369,308801,2,0,P|371:340|324:332,1,95.9999970703126,2|0,3:2|0:0,0:0:0:0:
144,157,309266,6,0,P|100:176|53:188,1,95.9999970703126,0|0,3:2|0:0,0:0:0:0:
37,292,309717,2,0,P|82:308|123:331,1,95.9999970703126,2|2,3:2|3:2,0:0:0:0:
126,340,310055,1,2,3:2:0:0:
129,349,310168,2,0,L|174:334,3,47.9999985351563,2|2|2|2,3:2|0:0|0:0|0:0,0:0:0:0:
244,312,310602,2,0,L|289:297,3,47.9999985351563,2|2|2|2,3:2|0:0|0:0|0:0,0:0:0:0:
330,201,311037,5,6,3:2:0:0:
338,205,311249,1,0,0:0:0:0:
488,384,311462,5,2,3:2:0:0:
471,363,311568,1,2,3:2:0:0:
447,350,311675,1,2,3:2:0:0:
421,345,311781,1,2,3:2:0:0:
396,353,311888,2,0,L|404:249,1,103.999995239258,2|0,3:2|0:0,0:0:0:0:
414,169,312313,2,0,L|422:65,1,103.999995239258,2|2,3:2|3:2,0:0:0:0:
289,297,312739,6,0,P|247:267|228:219,1,103.999995239258,2|0,3:2|0:0,0:0:0:0:
122,169,313144,1,2,3:2:0:0:
119,143,313245,1,2,3:2:0:0:
130,119,313347,1,2,3:2:0:0:
149,101,313448,1,2,3:2:0:0:
173,91,313549,2,0,P|160:146|153:193,1,103.999995239258,2|0,3:2|0:0,0:0:0:0:
19,57,313955,2,0,P|73:39|117:23,1,103.999995239258,2|2,3:2|3:2,0:0:0:0:
102,262,314360,6,0,L|0:242,1,103.999995239258,6|0,3:2|0:0,0:0:0:0:
182,338,314749,1,2,3:2:0:0:
207,319,314847,1,2,3:2:0:0:
234,304,314944,1,2,3:2:0:0:
225,274,315041,1,2,3:2:0:0:
211,245,315139,2,0,L|221:348,1,103.999995239258,2|0,3:2|0:0,0:0:0:0:
188,34,315528,2,0,L|198:137,1,103.999995239258,2|2,3:2|3:2,0:0:0:0:
388,268,315918,6,0,P|425:232|432:182,1,103.999995239258,2|0,3:2|0:0,0:0:0:0:
254,186,316293,2,0,P|298:210|349:202,1,103.999995239258,2|2,3:2|3:2,0:0:0:0:
452,20,316668,2,0,P|401:26|365:62,1,103.999995239258,2|0,3:2|0:0,0:0:0:0:
388,268,317043,1,2,3:2:0:0:
436,98,317230,1,2,3:2:0:0:
465,343,317418,6,0,P|413:348|364:365,1,103.999995239258,6|0,3:2|0:0,0:0:0:0:
316,302,317777,2,0,P|264:296|215:279,1,103.999995239258,2|2,3:2|3:2,0:0:0:0:
212,269,318046,1,2,3:2:0:0:
208,259,318136,1,2,3:2:0:0:
254,186,318316,1,0,0:0:0:0:
135,355,318495,2,0,P|126:303|109:254,1,103.999995239258,2|2,3:2|3:2,0:0:0:0:
7,125,318855,6,0,P|37:85|87:89,1,103.999995239258,2|0,3:2|0:0,0:0:0:0:
95,13,319199,2,0,P|144:20|166:65,1,103.999995239258,2|2,3:2|3:2,0:0:0:0:
52,212,319544,6,0,P|17:249|3:299,1,103.999995239258,2|0,3:2|0:0,0:0:0:0:
40,371,319889,1,2,3:2:0:0:
47,368,320061,1,2,3:2:0:0:
254,186,320234,6,0,L|234:83,1,103.999995239258,6|0,3:2|0:0,0:0:0:0:
293,22,320567,1,2,3:2:0:0:
300,26,320734,1,2,3:2:0:0:
336,248,320900,2,0,B|305:296|305:296|260:280,1,103.999995239258,2|0,3:2|0:0,0:0:0:0:
172,158,321234,1,2,3:2:0:0:
165,162,321400,1,2,3:2:0:0:
278,367,321567,6,0,P|322:345|375:333,1,103.999995239258,6|0,3:2|0:0,0:0:0:0:
364,127,321891,2,0,P|312:117|264:98,1,103.999995239258,2|2,3:2|3:2,0:0:0:0:
102,245,322215,5,2,3:2:0:0:
203,245,322377,1,10,3:2:0:0:
206,278,322458,1,10,3:2:0:0:
192,306,322539,1,10,3:2:0:0:
11,181,322702,5,10,3:2:0:0:
36,157,322783,1,10,3:2:0:0:
67,149,322864,2,0,L|79:91,1,60.0000022888184,4|0,3:2|0:0,0:0:0:0:
152,36,323021,1,2,3:2:0:0:
160,40,323179,1,8,3:2:0:0:
134,267,323337,6,0,P|78:288|26:318,1,120.000004577637,2|0,2:2|3:2,0:0:0:0:
79,90,323653,2,0,P|125:127|177:158,1,120.000004577637,2|8,3:2|3:2,0:0:0:0:
284,365,323969,6,0,P|298:338|318:315,1,60.0000022888184,2|0,2:2|0:0,0:0:0:0:
393,311,324127,1,0,3:2:0:0:
287,237,324285,6,0,P|316:235|346:241,1,60.0000022888184,2|0,3:2|0:0,0:0:0:0:
387,303,324443,1,8,3:2:0:0:
398,174,324600,6,0,P|414:198|423:227,1,60.0000022888184,2|0,2:2|0:0,0:0:0:0:
391,294,324758,1,0,3:2:0:0:
508,238,324916,6,0,P|494:264|474:287,1,60.0000022888184,2|0,3:2|0:0,0:0:0:0:
400,292,325074,1,8,3:2:0:0:
417,381,325232,6,0,L|405:322,1,60.0000022888184,2|0,2:2|0:0,0:0:0:0:
362,59,325390,1,4,3:2:0:0:
429,98,325548,2,0,B|390:143|390:143|330:130,1,120.000004577637,2|8,3:2|3:2,0:0:0:0:
83,217,325864,6,0,P|75:157|65:98,1,120.000004577637,2|0,2:2|3:2,0:0:0:0:
146,84,326179,2,0,P|153:143|163:202,1,120.000004577637,2|8,3:2|3:2,0:0:0:0:
98,356,326495,6,0,P|69:346|40:338,1,60.0000022888184,2|0,2:2|0:0,0:0:0:0:
15,263,326653,1,0,3:2:0:0:
189,325,326811,6,0,P|169:302|147:281,1,60.0000022888184,2|0,3:2|0:0,0:0:0:0:
163,202,326969,1,8,3:2:0:0:
283,343,327127,6,0,P|277:313|269:284,1,60.0000022888184,2|0,2:2|0:0,0:0:0:0:
322,224,327285,1,4,3:2:0:0:
448,322,327442,1,2,3:2:0:0:
437,324,327600,1,12,3:2:0:0:
432,337,327758,1,2,2:2:0:0:
506,18,327916,6,0,L|481:135,1,120.000004577637,4|2,3:2|3:2,0:0:0:0:
405,180,328232,1,8,3:2:0:0:
244,13,328390,6,0,P|188:25|165:78,1,120.000004577637,2|0,2:2|3:2,0:0:0:0:
159,65,328706,2,0,P|178:119|234:134,1,120.000004577637,2|8,3:2|3:2,0:0:0:0:
430,246,329021,6,0,P|455:231|485:224,1,60.0000022888184,2|0,2:2|0:0,0:0:0:0:
481,135,329179,1,0,3:2:0:0:
362,296,329337,6,0,P|384:316|399:341,1,60.0000022888184,2|0,3:2|0:0,0:0:0:0:
483,310,329495,1,8,3:2:0:0:
291,242,329653,6,0,P|278:269|258:291,1,60.0000022888184,2|0,2:2|0:0,0:0:0:0:
315,361,329811,1,4,3:2:0:0:
318,161,329969,6,0,P|288:157|260:145,1,60.0000022888184,2|0,3:2|0:0,0:0:0:0:
212,220,330127,1,8,3:2:0:0:
220,217,330285,1,2,2:2:0:0:
100,9,330442,5,4,3:1:0:0:
42,58,330600,2,0,L|53:118,1,60.0000022888184,2|0,3:2|0:0,0:0:0:0:
180,148,330758,1,8,3:2:0:0:
178,141,330916,1,2,2:2:0:0:
123,378,331074,6,0,B|72:343|72:343|15:355,1,120.000004577637,4|2,3:2|3:2,0:0:0:0:
142,217,331390,2,0,B|137:278|137:278|176:321,1,120.000004577637,8|2,3:2|2:2,0:0:0:0:
309,382,331706,6,0,L|327:138,1,240.000009155274,4|8,3:1|3:2,0:0:0:0:
339,9,332179,2,0,L|333:71,1,60.0000022888184,2|0,2:2|0:0,0:0:0:0:
467,182,332337,5,12,3:2:0:0:
420,169,332416,1,10,3:2:0:0:
373,156,332495,1,10,3:2:0:0:
326,142,332574,1,8,3:2:0:0:
281,159,332653,5,8,3:2:0:0:
234,146,332732,1,8,3:2:0:0:
187,133,332811,1,10,3:2:0:0:
140,119,332890,1,8,3:2:0:0:
114,70,332969,6,0,B|129:178|129:178|143:192|143:192|157:302,1,240.000009155274,4|8,3:2|3:2,0:0:0:0:
90,355,333442,1,2,2:2:0:0:
210,139,333600,2,0,L|228:258,1,120.000004577637,0|2,3:2|3:2,0:0:0:0:
310,287,333916,1,8,3:2:0:0:
468,65,334074,6,0,P|425:24|366:16,1,120.000004577637,2|0,2:2|3:2,0:0:0:0:
300,156,334390,2,0,P|335:109|392:92,1,120.000004577637,2|8,3:2|3:2,0:0:0:0:
512,325,334706,6,0,P|453:317|410:276,1,120.000004577637,2|0,2:2|3:2,0:0:0:0:
356,339,335021,2,0,P|333:284|347:227,1,120.000004577637,2|8,3:2|3:2,0:0:0:0:
487,0,335337,5,2,2:2:0:0:
497,5,335416,1,2,0:0:0:0:
507,10,335495,2,0,L|485:249,1,240.000009155274,0|8,3:2|3:2,0:0:0:0:
410,276,335969,1,2,2:2:0:0:
216,120,336127,6,0,B|169:168|169:168|201:343,1,240.000009155274,0|8,3:2|3:2,0:0:0:0:
106,15,336600,2,0,P|163:6|208:47,1,120.000004577637,2|0,2:2|3:2,0:0:0:0:
61,161,336916,2,0,P|81:107|140:88,1,120.000004577637,2|8,3:2|3:2,0:0:0:0:
365,214,337232,6,0,P|306:199|247:193,1,120.000004577637,2|0,2:2|3:2,0:0:0:0:
247,193,337548,2,0,P|305:207|364:213,1,120.000004577637,2|8,3:2|3:2,0:0:0:0:
437,150,337864,1,10,2:2:0:0:
403,366,338021,6,0,P|285:341|166:323,1,240.000009155274,4|8,3:2|3:2,0:0:0:0:
132,251,338495,1,2,2:2:0:0:
383,89,338653,6,0,B|385:59|397:40|397:40|465:55|486:131|486:131|459:135|435:149,1,240.000009155274,0|8,3:2|3:2,0:0:0:0:
359,163,339127,2,0,P|312:198|285:251,1,120.000004577637,2|0,2:2|3:2,0:0:0:0:
192,79,339442,2,0,P|246:102|306:99,1,120.000004577637,2|8,3:2|3:2,0:0:0:0:
149,369,339758,6,0,L|131:250,1,120.000004577637,2|0,2:2|3:2,0:0:0:0:
217,339,340074,2,0,L|199:220,1,120.000004577637,2|10,3:2|3:2,0:0:0:0:
204,216,340311,1,2,0:0:0:0:
208,212,340390,1,2,2:2:0:0:
80,6,340548,6,0,B|7:30|7:30|33:191,1,240.000009155274,4|8,3:2|3:2,0:0:0:0:
95,88,341021,1,2,2:2:0:0:
274,384,341179,2,0,L|306:141,1,240.000009155274,0|8,3:2|3:2,0:0:0:0:
317,142,341574,1,2,0:0:0:0:
328,139,341653,1,2,2:2:0:0:
428,366,341811,6,0,B|430:330|461:306|461:306|434:238|376:233|376:233|382:259|383:283,1,240.000009155274,4|8,3:2|3:2,0:0:0:0:
504,373,342285,1,2,2:2:0:0:
440,103,342442,6,0,P|386:129|327:138,1,120.000004577637,0|2,3:2|3:2,0:0:0:0:
323,143,342679,1,2,3:2:0:0:
320,148,342758,2,0,P|349:146|379:141,1,60.0000022888184,8|0,3:2|0:0,0:0:0:0:
448,106,342916,2,0,P|462:79|471:51,1,60.0000022888184,2|2,2:2|3:2,0:0:0:0:
204,98,343074,6,0,P|233:159|253:224,1,136.000002593994,4|2,3:2|3:2,0:0:0:0:
260,224,343311,1,0,0:0:0:0:
266,224,343390,1,8,3:2:0:0:
296,24,343548,1,2,2:2:0:0:
413,339,343706,6,0,B|392:285|341:270|341:270|309:317|251:312,1,204.000003890991,0|0,3:2|2:0,0:0:0:0:
104,277,344021,2,0,B|64:305|0:186|157:107|246:276|168:328,1,240,8|0,3:2|2:0,0:0:0:0:
192,265,344337,2,0,P|176:300|178:334,1,68.0000012969971,0|0,3:2|0:0,0:0:0:0:
232,384,344495,1,2,3:2:0:0:
264,134,344653,6,0,L|280:0,1,136.000002593994,8|2,3:2|2:2,0:0:0:0:
411,175,344969,2,0,P|347:194|312:251,1,136.000002593994,0|2,3:2|3:2,0:0:0:0:
493,130,345285,2,0,P|444:84|377:82,1,136.000002593994,8|2,3:2|2:2,0:0:0:0:
373,77,345521,1,2,0:0:0:0:
368,72,345600,1,2,3:2:0:0:
403,265,345758,5,2,3:2:0:0:
415,270,345837,1,2,0:0:0:0:
426,276,345916,2,0,L|419:343,1,68.0000012969971,8|0,3:2|0:0,0:0:0:0:
500,262,346074,2,0,L|493:329,1,68.0000012969971,2|0,2:2|0:0,0:0:0:0:
232,384,346232,6,0,B|218:293|126:258|126:258|110:288|78:304,1,240,0|0,3:2|2:0,0:0:0:0:
17,173,346548,2,0,B|24:99|24:99|47:226,1,204.000003890991,8|0,3:2|2:0,0:0:0:0:
54,227,346864,2,0,L|42:160,1,68.0000012969971,0|0,3:2|0:0,0:0:0:0:
93,101,347021,1,2,3:2:0:0:
137,360,347179,6,0,P|71:339|3:339,1,136.000002593994,8|2,3:2|2:2,0:0:0:0:
4,332,347416,1,2,0:0:0:0:
3,325,347495,1,2,3:2:0:0:
78,304,347653,1,2,3:2:0:0:
93,101,347811,6,0,L|159:115,1,68.0000012969971,8|0,3:2|0:0,0:0:0:0:
86,90,347969,2,0,L|71:156,1,68.0000012969971,2|0,2:2|0:0,0:0:0:0:
159,29,348127,1,4,3:2:0:0:
260,208,348285,5,2,3:2:0:0:
266,210,348364,1,2,0:0:0:0:
272,212,348442,2,0,L|262:143,1,68.0000012969971,8|0,3:2|0:0,0:0:0:0:
166,209,348600,2,0,L|175:276,1,68.0000012969971,2|0,2:2|0:0,0:0:0:0:
397,189,348758,6,0,B|394:217|406:239|406:239|376:240|347:210|347:210|344:161|381:137,1,204.000003890991,8|0,3:2|2:0,0:0:0:0:
464,129,349074,2,0,B|463:96|446:72|446:72|480:67|518:97|518:97|529:153|488:188,1,240,8|0,3:2|2:0,0:0:0:0:
488,188,349390,2,0,L|498:259,1,68.0000012969971,0|0,3:2|0:0,0:0:0:0:
484,362,349548,1,2,3:2:0:0:
363,62,349706,1,8,3:2:0:0:
371,66,349864,1,2,2:2:0:0:
272,347,350021,6,0,P|339:359|403:384,1,136.000002593994,0|2,3:2|3:2,0:0:0:0:
316,187,350337,2,0,P|252:211|185:223,1,136.000002593994,8|2,3:2|2:2,0:0:0:0:
183,229,350574,1,2,0:0:0:0:
180,235,350653,1,2,3:2:0:0:
61,350,350811,5,2,3:2:0:0:
50,341,350890,1,2,0:0:0:0:
39,332,350969,2,0,L|28:264,1,68.0000012969971,8|0,3:2|0:0,0:0:0:0:
13,193,351127,2,0,L|2:125,1,68.0000012969971,2|0,2:2|0:0,0:0:0:0:
189,2,351285,5,0,3:2:0:0:
135,296,351442,1,2,3:2:0:0:
194,343,351600,5,8,3:2:0:0:
161,146,351757,1,2,2:2:0:0:
178,72,351916,5,0,3:2:0:0:
231,126,352074,1,2,3:2:0:0:
250,51,352232,5,8,3:2:0:0:
215,238,352390,1,2,2:2:0:0:
420,91,352548,6,0,B|359:58|359:58|308:103,1,136.000002593994,4|2,3:2|3:2,0:0:0:0:
330,346,352864,2,0,B|391:379|391:379|441:333,1,136.000002593994,12|2,3:2|2:2,0:0:0:0:
388,219,353179,5,6,3:2:0:0:
384,224,353258,1,2,0:0:0:0:
380,229,353337,2,0,P|344:231|312:224,1,68.0000012969971,2|0,3:2|0:0,0:0:0:0:
274,292,353495,1,8,3:2:0:0:
131,49,353653,2,0,P|68:65|50:128,1,136.000002593994,2|0,2:2|3:2,0:0:0:0:
388,219,353969,6,0,P|391:154|337:117,1,136.000002593994,2|8,3:2|3:2,0:0:0:0:
385,135,354285,2,0,P|324:111|273:151,1,136.000002593994,2|0,2:2|3:2,0:0:0:0:
51,347,354600,6,0,P|56:279|29:218,1,136.000002593994,2|8,3:2|3:2,0:0:0:0:
238,299,354916,2,0,P|177:327|137:382,1,136.000002593994,2|0,2:2|3:2,0:0:0:0:
103,162,355232,2,0,P|158:200|225:207,1,136.000002593994,2|8,3:2|3:2,0:0:0:0:
294,243,355548,1,2,2:2:0:0:
456,0,355706,6,0,L|437:136,1,136.000002593994,4|2,3:2|3:2,0:0:0:0:
498,186,356021,1,8,3:2:0:0:
402,384,356179,6,0,L|420:249,1,136.000002593994,2|0,2:2|3:2,0:0:0:0:
497,194,356495,1,2,3:2:0:0:
496,201,356653,1,8,3:2:0:0:
256,124,356811,6,0,P|233:98|202:85,1,68.0000012969971,2|0,2:2|0:0,0:0:0:0:
167,18,356969,1,0,3:2:0:0:
310,175,357127,6,0,P|326:145|329:112,1,68.0000012969971,2|0,3:2|0:0,0:0:0:0:
383,57,357285,1,8,3:2:0:0:
282,244,357442,6,0,P|314:251|347:243,1,68.0000012969971,2|0,2:2|0:0,0:0:0:0:
416,277,357600,1,4,3:2:0:0:
208,234,357758,6,0,P|211:267|229:296,1,68.0000012969971,2|0,3:2|0:0,0:0:0:0:
218,372,357916,1,12,3:2:0:0:
211,368,358074,1,2,2:2:0:0:
186,159,358232,5,2,3:2:0:0:
175,150,358311,1,2,2:2:0:0:
162,144,358390,1,2,2:2:0:0:
148,142,358469,1,2,2:2:0:0:
134,143,358548,5,6,3:2:0:0:
102,98,358627,1,2,2:2:0:0:
48,90,358706,1,2,2:2:0:0:
15,133,358785,1,2,2:2:0:0:
35,183,358864,5,2,3:2:0:0:
41,181,358942,1,2,2:2:0:0:
47,178,359021,1,2,2:2:0:0:
53,175,359100,1,2,2:2:0:0:
59,172,359179,5,6,3:2:0:0:
54,226,359258,1,2,2:2:0:0:
47,280,359337,1,2,3:2:0:0:
41,334,359416,1,2,2:2:0:0:
84,366,359495,5,2,3:2:0:0:
93,356,359574,1,2,2:2:0:0:
105,350,359653,1,2,2:2:0:0:
118,347,359732,1,2,2:2:0:0:
140,312,359811,5,6,3:2:0:0:
184,295,359890,1,2,2:2:0:0:
230,305,359969,1,2,2:2:0:0:
266,336,360048,1,2,2:2:0:0:
309,317,360127,5,2,3:2:0:0:
314,304,360206,1,2,2:2:0:0:
319,291,360285,1,2,2:2:0:0:
323,278,360364,1,2,2:2:0:0:
359,260,360442,5,6,3:2:0:0:
349,234,360521,1,2,2:2:0:0:
342,207,360600,1,2,3:2:0:0:
341,179,360679,1,2,2:2:0:0:
347,152,360758,1,2,3:2:0:0:
359,127,360837,1,2,2:2:0:0:
377,106,360916,1,2,2:2:0:0:
399,90,360995,1,2,2:2:0:0:
424,79,361074,5,6,3:2:0:0:
408,138,361153,1,2,2:2:0:0:
358,174,361232,1,2,2:2:0:0:
296,172,361311,1,2,2:2:0:0:
242,141,361390,1,2,3:2:0:0:
207,90,361469,1,2,2:2:0:0:
154,57,361548,1,2,2:2:0:0:
93,49,361627,1,2,2:2:0:0:
43,84,361706,5,6,3:2:0:0:
32,137,361785,1,2,2:2:0:0:
52,172,361864,1,2,3:2:0:0:
82,186,361942,1,2,2:2:0:0:
115,182,362021,5,2,3:2:0:0:
136,165,362100,1,2,2:2:0:0:
156,161,362179,1,2,2:2:0:0:
174,169,362258,1,2,2:2:0:0:
186,185,362337,5,6,3:2:0:0:
187,205,362416,1,2,2:2:0:0:
177,215,362495,1,2,2:2:0:0:
166,223,362574,1,2,2:2:0:0:
159,235,362653,5,2,3:2:0:0:
159,248,362732,1,2,2:2:0:0:
162,253,362811,1,2,2:2:0:0:
167,257,362890,1,2,2:2:0:0:
174,262,362969,6,0,L|162:329,3,68.0000012969971,6|2|2|2,3:2|2:2|3:2|2:2,0:0:0:0:
224,375,363285,5,4,3:2:0:0:
321,152,363442,2,0,L|309:219,1,68.0000012969971,2|0,3:2|0:0,0:0:0:0:
47,365,363600,5,8,3:2:0:0:
394,253,363758,1,2,2:2:0:0:
93,288,363916,5,0,3:2:0:0:
414,184,364074,1,2,3:2:0:0:
137,218,364232,5,8,3:2:0:0:
436,117,364390,1,2,2:2:0:0:
181,146,364548,5,0,3:2:0:0:
454,47,364706,1,2,3:2:0:0:
507,96,364864,5,8,3:2:0:0:
208,79,365021,1,2,2:2:0:0:
343,347,365179,5,0,3:2:0:0:
310,221,365337,1,2,3:2:0:0:
265,297,365495,1,8,3:2:0:0:
391,264,365653,1,10,3:2:0:0:
392,257,365732,1,8,3:2:0:0:
393,250,365811,5,0,3:2:0:0:
137,218,365969,1,2,3:2:0:0:
374,179,366127,5,8,3:2:0:0:
176,154,366285,1,2,2:2:0:0:
5,362,366442,5,0,3:2:0:0:
261,330,366600,1,2,3:2:0:0:
24,291,366758,5,8,3:2:0:0:
222,266,366916,1,2,2:2:0:0:
77,344,367074,6,0,P|95:317|98:283,1,68.0000012969971,4|0,3:2|0:0,0:0:0:0:
53,223,367232,1,2,3:2:0:0:
399,183,367390,6,0,P|365:180|334:194,1,68.0000012969971,12|0,3:2|0:0,0:0:0:0:
305,264,367548,1,2,2:2:0:0:
101,0,367706,6,0,P|115:30|143:49,1,68.0000012969971,4|0,3:2|0:0,0:0:0:0:
218,40,367864,1,2,3:2:0:0:
399,183,368021,5,10,3:2:0:0:
412,179,368100,1,2,0:0:0:0:
425,175,368179,1,2,2:2:0:0:
438,171,368258,1,2,0:0:0:0:
453,167,368337,6,0,L|442:217,15,51.999997619629,6|2|2|2|10|2|2|2|2|2|2|2|10|2|2|2,3:2|0:0|3:2|0:0|3:2|0:0|2:2|0:0|3:2|0:0|3:2|0:0|3:2|0:0|2:2|0:0,0:0:0:0:
512,384,369600,5,2,3:2:0:0:
502,369,369679,1,2,0:0:0:0:
492,356,369758,1,2,3:2:0:0:
480,344,369837,1,2,0:0:0:0:
467,333,369916,1,10,3:2:0:0:
454,323,369995,1,2,0:0:0:0:
439,314,370074,1,2,2:2:0:0:
424,306,370153,1,2,0:0:0:0:
408,300,370232,1,2,3:2:0:0:
392,295,370311,1,2,0:0:0:0:
375,292,370390,1,2,3:2:0:0:
359,290,370469,1,2,0:0:0:0:
342,290,370548,1,10,3:2:0:0:
325,291,370627,1,2,0:0:0:0:
308,294,370706,1,2,2:2:0:0:
292,298,370785,1,2,0:0:0:0:
275,303,370864,6,0,P|241:294|213:272,1,71.9999978027344,2|2,3:2|0:0,0:0:0:0:
143,308,371021,2,0,P|134:273|139:237,1,71.9999978027344,2|2,3:2|0:0,0:0:0:0:
268,70,371179,6,0,P|276:104|271:140,1,71.9999978027344,10|2,3:2|0:0,0:0:0:0:
337,183,371336,2,0,P|311:208|278:221,1,71.9999978027344,2|2,2:2|0:0,0:0:0:0:
69,193,371495,6,0,P|94:167|127:154,1,71.9999978027344,2|2,3:2|0:0,0:0:0:0:
132,75,371652,2,0,P|166:84|194:106,1,71.9999978027344,2|2,3:2|0:0,0:0:0:0:
207,268,371811,6,0,P|174:282|149:307,3,71.9999978027344,10|2|2|2,3:2|0:0|2:2|0:0,0:0:0:0:
249,373,372127,5,2,3:2:0:0:
291,364,372206,1,2,0:0:0:0:
320,332,372285,1,2,3:2:0:0:
337,292,372364,1,2,0:0:0:0:
342,249,372442,1,10,3:2:0:0:
327,208,372521,1,2,0:0:0:0:
297,175,372600,1,2,2:2:0:0:
255,163,372679,1,2,0:0:0:0:
213,149,372758,1,2,3:2:0:0:
180,121,372837,1,2,0:0:0:0:
174,78,372916,1,2,3:2:0:0:
188,37,372995,1,2,0:0:0:0:
228,21,373074,6,0,P|263:28|295:45,1,71.9999978027344,10|2,3:2|0:0,0:0:0:0:
369,36,373232,2,0,P|388:66|399:101,1,71.9999978027344,2|2,2:2|0:0,0:0:0:0:
169,241,373390,5,2,3:2:0:0:
148,221,373468,1,2,0:0:0:0:
122,208,373547,1,2,3:2:0:0:
94,205,373626,1,2,0:0:0:0:
66,210,373705,1,10,3:2:0:0:
41,225,373784,1,2,0:0:0:0:
22,246,373863,1,2,2:2:0:0:
11,273,373942,1,2,0:0:0:0:
8,301,374021,1,2,3:2:0:0:
16,329,374100,1,2,0:0:0:0:
31,353,374179,1,2,3:2:0:0:
53,371,374258,1,2,0:0:0:0:
80,381,374337,1,10,3:2:0:0:
109,382,374416,1,2,0:0:0:0:
136,373,374495,1,2,2:2:0:0:
160,356,374574,1,2,0:0:0:0:
178,335,374653,6,0,P|212:341|247:352,3,71.9999978027344,2|2|2|2,3:2|0:0|3:2|0:0,0:0:0:0:
262,214,374969,2,0,P|273:246|281:283,3,71.9999978027344,10|2|2|2,3:2|0:0|2:2|0:0,0:0:0:0:
418,241,375285,2,0,P|395:267|367:292,3,71.9999978027344,2|2|2|2,3:2|0:0|3:2|0:0,0:0:0:0:
449,384,375601,2,0,P|415:378|379:366,3,71.9999978027344,10|2|2|2,3:2|0:0|2:2|0:0,0:0:0:0:
346,91,375916,5,2,3:2:0:0:
374,69,375995,1,2,0:0:0:0:
409,61,376074,1,2,3:2:0:0:
444,67,376153,1,2,0:0:0:0:
475,85,376232,5,10,3:2:0:0:
459,125,376311,1,2,0:0:0:0:
424,151,376390,1,2,2:2:0:0:
384,168,376469,1,2,0:0:0:0:
341,176,376548,1,2,3:2:0:0:
297,177,376627,1,2,0:0:0:0:
254,169,376706,1,2,3:2:0:0:
214,152,376785,1,2,0:0:0:0:
178,126,376864,1,10,3:2:0:0:
140,105,376942,1,2,0:0:0:0:
98,94,377021,1,2,2:2:0:0:
55,98,377100,1,2,0:0:0:0:
16,118,377179,6,0,P|46:137|78:152,3,71.9999978027344,2|2|2|2,3:2|0:0|3:2|0:0,0:0:0:0:
21,265,377495,2,0,P|53:248|82:227,3,71.9999978027344,10|2|2|2,3:2|0:0|2:2|0:0,0:0:0:0:
158,328,377811,2,0,P|160:292|156:256,3,71.9999978027344,2|2|2|2,3:2|0:0|3:2|0:0,0:0:0:0:
282,250,378127,2,0,P|251:230|219:215,3,71.9999978027344,10|2|2|2,3:2|0:0|2:2|0:0,0:0:0:0:
357,18,378442,5,6,3:2:0:0:
351,53,378521,1,2,0:0:0:0:
344,88,378600,1,2,3:2:0:0:
338,123,378679,1,2,0:0:0:0:
376,151,378758,5,10,3:2:0:0:
370,186,378837,1,2,0:0:0:0:
363,221,378916,1,2,2:2:0:0:
357,256,378995,1,2,0:0:0:0:
382,300,379074,6,0,P|403:272|436:259,1,71.9999978027344,2|2,3:2|0:0,0:0:0:0:
454,188,379232,2,0,P|486:203|505:233,1,71.9999978027344,2|2,3:2|0:0,0:0:0:0:
308,315,379390,6,0,P|277:296|241:297,1,71.9999978027344,10|2,3:2|0:0,0:0:0:0:
197,239,379548,2,0,P|173:265|167:300,1,71.9999978027344,2|2,2:2|0:0,0:0:0:0:
56,372,379706,5,2,3:2:0:0:
20,347,379785,1,2,0:0:0:0:
6,305,379864,1,2,3:2:0:0:
9,262,379942,1,2,0:0:0:0:
37,229,380021,1,10,3:2:0:0:
76,211,380100,1,2,0:0:0:0:
117,198,380179,1,2,2:2:0:0:
149,169,380258,1,2,0:0:0:0:
172,132,380337,1,2,3:2:0:0:
177,89,380416,1,2,0:0:0:0:
158,49,380495,1,2,3:2:0:0:
122,23,380574,1,2,0:0:0:0:
78,22,380653,2,0,P|101:48|117:81,1,71.9999978027344,10|2,3:2|0:0,0:0:0:0:
6,161,380811,2,0,P|17:126|37:97,1,71.9999978027344,2|2,2:2|0:0,0:0:0:0:
98,303,380969,5,2,3:2:0:0:
141,306,381048,1,2,0:0:0:0:
183,311,381127,1,2,3:2:0:0:
225,315,381206,1,2,0:0:0:0:
267,320,381285,1,10,3:2:0:0:
309,325,381364,1,2,0:0:0:0:
351,332,381442,1,2,2:2:0:0:
393,338,381521,1,2,0:0:0:0:
435,344,381600,6,0,B|449:306|449:306|420:273,3,71.9999978027344,2|2|2|2,3:2|0:0|3:2|0:0,0:0:0:0:
344,270,381916,2,0,B|330:308|330:308|358:340,3,71.9999978027344,10|2|2|2,3:2|0:0|2:2|0:0,0:0:0:0:
512,94,382232,5,2,3:2:0:0:
479,132,382311,1,2,0:0:0:0:
442,166,382390,1,2,3:2:0:0:
397,190,382469,1,2,0:0:0:0:
347,201,382548,1,10,3:2:0:0:
296,206,382627,1,2,0:0:0:0:
245,207,382706,1,2,2:2:0:0:
195,195,382785,1,2,0:0:0:0:
147,176,382864,1,2,3:2:0:0:
108,144,382942,1,2,0:0:0:0:
74,105,383021,1,2,3:2:0:0:
57,57,383100,1,2,0:0:0:0:
53,6,383179,6,2,L|46:77,1,71.9999978027344,10|2,3:2|0:0,0:0:0:0:
37,173,383337,2,2,L|30:244,1,71.9999978027344,2|2,2:2|0:0,0:0:0:0:
273,376,383495,5,6,3:2:0:0:
278,318,383574,1,2,0:0:0:0:
283,260,383653,1,2,3:2:0:0:
288,202,383732,1,2,0:0:0:0:
294,144,383811,5,10,3:2:0:0:
246,111,383890,1,2,0:0:0:0:
239,53,383969,1,2,2:2:0:0:
282,15,384048,1,2,0:0:0:0:
338,24,384127,1,2,3:2:0:0:
368,73,384206,1,2,0:0:0:0:
374,130,384285,1,2,3:2:0:0:
412,172,384364,1,2,0:0:0:0:
468,174,384442,1,10,3:2:0:0:
508,133,384521,1,2,0:0:0:0:
509,75,384600,1,2,2:2:0:0:
468,34,384679,1,2,0:0:0:0:
409,34,384758,6,0,P|377:48|353:74,1,71.9999978027344,2|2,3:2|0:0,0:0:0:0:
273,88,384916,2,0,P|269:123|280:157,1,71.9999978027344,2|2,3:2|0:0,0:0:0:0:
448,335,385074,6,0,P|424:308|391:293,1,71.9999978027344,10|2,3:2|0:0,0:0:0:0:
354,221,385232,2,0,P|319:228|289:249,1,71.9999978027344,2|2,2:2|0:0,0:0:0:0:
87,363,385390,6,0,B|49:372|49:372|16:349,3,71.9999978027344,2|2|2|2,3:2|0:0|3:2|0:0,0:0:0:0:
32,281,385706,2,0,B|69:272|69:272|97:291,3,71.9999978027344,10|2|2|2,3:2|0:0|2:2|0:0,0:0:0:0:
213,384,386021,5,2,3:2:0:0:
196,328,386100,1,2,0:0:0:0:
176,273,386179,1,2,3:2:0:0:
172,215,386258,1,2,0:0:0:0:
185,158,386337,1,10,3:2:0:0:
213,107,386416,1,2,0:0:0:0:
258,72,386495,1,2,2:2:0:0:
313,55,386574,1,2,0:0:0:0:
369,63,386653,1,2,3:2:0:0:
412,100,386732,1,2,0:0:0:0:
430,154,386811,1,2,3:2:0:0:
424,211,386890,1,2,0:0:0:0:
378,245,386969,1,10,3:2:0:0:
320,250,387048,1,2,0:0:0:0:
275,213,387127,1,2,2:2:0:0:
282,155,387206,1,2,0:0:0:0:
337,139,387285,6,0,L|327:210,1,71.9999978027344,2|2,3:2|0:0,0:0:0:0:
358,0,387442,2,0,L|348:71,1,71.9999978027344,2|2,3:2|0:0,0:0:0:0:
496,329,387600,6,0,P|474:300|443:282,1,71.9999978027344,10|2,3:2|0:0,0:0:0:0:
426,353,387758,2,0,P|390:357|359:375,1,71.9999978027344,2|2,2:2|0:0,0:0:0:0:
98,364,387916,5,2,3:2:0:0:
36,326,387995,1,2,0:0:0:0:
21,255,388074,1,2,3:2:0:0:
64,197,388153,1,2,0:0:0:0:
135,184,388232,1,10,3:2:0:0:
197,219,388311,1,2,0:0:0:0:
269,219,388390,1,2,2:2:0:0:
316,165,388469,1,2,0:0:0:0:
306,93,388548,5,6,3:2:0:0:
256,192,388627,12,0,394232,0:0:0:0:
