osu file format v14

[General]
AudioFilename: audio.mp3
AudioLeadIn: 0
PreviewTime: 91544
Countdown: 0
SampleSet: Soft
StackLeniency: 0.6
Mode: 0
LetterboxInBreaks: 0
WidescreenStoryboard: 1

[Editor]
Bookmarks: 4786,14434,24082,33730,48203,62675,81971,91620,101268,110916,120564
DistanceSpacing: 0.9
BeatDivisor: 4
GridSize: 32
TimelineZoom: 2.000001

[Metadata]
Title:neu
TitleUnicode:neu
Artist:Shounen Radio
ArtistUnicode:少年ラジオ
Creator:Realazy
Version:Normal
Source:jubeat saucer
Tags:Hailie Trynna LowComboFC lcfc Muya celerih NIENTE ニエンテ Jun Wakita wac 脇田潤 Yu Tokiwa 常盤ゆう Asaki あさき pop'n music 15 ADVENTURE ORIGINAL SOUNDTRACK -Cathy&Marron-
BeatmapID:1840435
BeatmapSetID:843008

[Difficulty]
HPDrainRate:3
CircleSize:3
OverallDifficulty:4
ApproachRate:6
SliderMultiplier:1.1
SliderTickRate:1

[Events]
//Background and Video events
0,0,"neu.jpg",0,0
//Break Periods
2,33628,47153
//Storyboard Layer 0 (Background)
//Storyboard Layer 1 (Fail)
//Storyboard Layer 2 (Pass)
//Storyboard Layer 3 (Foreground)
//Storyboard Sound Samples

[TimingPoints]
4786,301.507537688442,4,2,11,30,1,0
4786,-125,4,2,11,30,0,0
9610,-125,4,2,11,35,0,0
12926,-125,4,2,1,35,0,0
14434,-111.111111111111,4,2,1,50,0,0
16846,-111.111111111111,4,2,1,55,0,0
19258,-111.111111111111,4,2,1,60,0,0
21745,-111.111111111111,4,2,1,55,0,0
21821,-111.111111111111,4,2,1,50,0,0
21896,-111.111111111111,4,2,1,45,0,0
21971,-111.111111111111,4,2,1,40,0,0
22122,-111.111111111111,4,2,1,45,0,0
22273,-111.111111111111,4,2,1,50,0,0
22424,-111.111111111111,4,2,1,55,0,0
22574,-111.111111111111,4,2,1,60,0,0
22725,-111.111111111111,4,2,1,65,0,0
22876,-111.111111111111,4,2,1,45,0,0
23027,-111.111111111111,4,2,11,80,0,0
23479,-111.111111111111,4,2,1,40,0,0
23630,-111.111111111111,4,2,1,50,0,0
23780,-111.111111111111,4,2,1,60,0,0
23931,-111.111111111111,4,2,1,70,0,0
24082,-90.9090909090909,4,2,1,80,0,1
33730,301.507537688442,6,2,1,35,1,0
33730,-125,4,2,1,35,0,0
48203,-125,4,2,1,40,0,0
58755,-125,4,2,1,45,0,0
59057,-125,4,2,1,40,0,0
61318,-111.111111111111,4,2,1,40,0,0
62675,301.507537688442,4,2,2,60,1,0
62675,-100,4,2,2,60,0,0
63127,-100,4,2,2,63,0,0
63579,-100,4,2,2,66,0,0
64032,-100,4,2,2,69,0,0
64484,-100,4,2,2,80,0,0
65087,-100,4,2,2,63,0,0
65539,-100,4,2,2,66,0,0
65992,-100,4,2,2,69,0,0
66444,-100,4,2,2,72,0,0
66896,-100,4,2,2,83,0,0
67499,-100,4,2,2,66,0,0
67951,-100,4,2,2,69,0,0
68404,-100,4,2,2,72,0,0
68856,-100,4,2,2,75,0,0
69308,-100,4,2,2,86,0,0
69911,-100,4,2,2,69,0,0
70363,-100,4,2,2,72,0,0
70816,-100,4,2,2,75,0,0
71268,-100,4,2,2,78,0,0
71720,-100,4,2,2,89,0,0
72323,-100,4,2,2,78,0,0
72775,-100,4,2,2,75,0,0
73228,-100,4,2,2,72,0,0
73680,-100,4,2,2,69,0,0
74132,-100,4,2,2,60,0,0
74735,-100,4,2,2,75,0,0
75187,-100,4,2,2,72,0,0
75640,-100,4,2,2,69,0,0
76092,-100,4,2,2,66,0,0
76544,-100,4,2,2,60,0,0
77147,-100,4,2,2,72,0,0
77600,-100,4,2,2,69,0,0
78052,-100,4,2,2,66,0,0
78504,-100,4,2,2,63,0,0
78956,-100,4,2,2,60,0,0
79559,-100,4,2,2,69,0,0
80012,-100,4,2,2,66,0,0
80464,-100,4,2,2,63,0,0
80916,-100,4,2,2,60,0,0
81971,-95.2380952380952,4,2,1,60,0,0
86796,-95.2380952380952,4,2,1,70,0,0
91619,-86.9565217391304,4,2,1,80,0,1
101268,-86.9565217391304,4,2,3,85,0,1
110916,-86.9565217391304,4,2,3,90,0,1
120564,-83.3333333333333,4,2,3,60,0,0

[Colours]
Combo1 : 137,226,71
Combo2 : 244,228,166
Combo3 : 118,126,226
Combo4 : 221,176,85
Combo5 : 167,232,245
Combo6 : 169,173,188
Combo7 : 106,237,103
Combo8 : 128,168,170

[HitObjects]
0,230,4786,69,4,0:0:0:0:
129,111,5389,2,0,P|172:110|212:128,1,87.9999999999999,2|0,0:0|0:0,0:0:0:0:
263,200,5992,2,0,P|242:117|289:46,1,176,2|2,0:0|0:0,0:0:0:0:
366,3,6896,1,0,0:0:0:0:
438,52,7198,2,0,L|424:227,1,176,2|2,0:0|0:0,0:0:0:0:
422,315,8102,1,0,0:0:0:0:
494,365,8404,1,2,0:0:0:0:
494,365,9308,21,0,0:0:0:0:
422,315,9610,2,0,P|412:272|422:229,2,87.9999999999999,2|0|2,0:0|0:0|0:0,0:0:0:0:
353,369,10514,1,0,0:0:0:0:
278,321,10816,2,0,L|191:334,2,87.9999999999999,2|0|2,0:0|0:0|0:0,0:0:0:0:
344,263,11720,1,0,0:0:0:0:
310,180,12022,2,0,P|300:138|312:96,1,87.9999999999999,2|2,0:3|0:3,0:0:0:0:
234,55,12625,2,0,P|202:85|160:95,1,87.9999999999999,2|2,0:3|1:3,0:0:0:0:
116,89,13077,1,2,1:3:0:0:
49,145,13378,6,0,L|5:139,2,44,0|2|2,1:0|1:3|1:3,0:0:0:0:
85,170,13831,1,8,0:0:0:0:
42,246,14132,1,2,1:3:0:0:
111,316,14434,6,0,L|208:297,1,98.9999969787598,6|0,1:2|1:0,0:0:0:0:
272,372,15037,2,0,P|302:332|306:284,1,98.9999969787598,10|0,0:0|1:0,0:0:0:0:
270,190,15640,2,0,P|339:257|432:238,1,197.99999395752,2|10,1:2|0:0,0:0:0:0:
478,151,16544,1,0,1:0:0:0:
439,59,16846,22,0,P|345:39|277:106,1,197.99999395752,2|10,1:2|0:0,0:0:0:0:
134,242,18052,2,0,L|36:222,1,98.9999969787598,2|2,1:2|1:2,0:0:0:0:
48,320,18655,2,0,L|145:339,1,98.9999969787598,10|0,0:0|1:0,0:0:0:0:
235,298,19258,86,0,L|242:249,2,49.4999984893799,4|0|10,1:0|1:0|0:0,0:0:0:0:
303,369,19861,2,0,P|351:372|396:352,1,98.9999969787598,10|0,0:0|1:0,0:0:0:0:
463,278,20464,2,0,L|512:283,2,49.4999984893799,0|0|10,1:0|1:0|0:0,0:0:0:0:
401,200,21067,2,0,P|389:152|400:104,1,98.9999969787598,10|8,0:0|0:0,0:0:0:0:
327,36,21670,69,0,0:0:0:0:
327,36,21821,2,0,L|274:41,1,49.4999984893799,8|8,1:2|1:2,0:0:0:0:
201,104,22273,2,0,L|153:94,1,49.4999984893799,8|8,1:2|1:2,0:0:0:0:
120,124,22574,2,0,L|118:173,1,49.4999984893799,8|8,1:2|1:2,0:0:0:0:
208,216,23027,1,8,0:0:0:0:
208,216,24082,54,0,P|266:219|306:262,1,121.000003692627,4|10,1:2|0:0,0:0:0:0:
326,320,24534,1,0,1:0:0:0:
326,320,24685,1,2,1:2:0:0:
429,383,24987,1,10,0:0:0:0:
507,290,25288,22,0,L|498:168,1,121.000003692627,2|8,1:2|0:0,0:0:0:0:
491,109,25740,1,0,1:2:0:0:
491,109,25891,1,2,1:2:0:0:
398,186,26193,1,10,0:0:0:0:
301,113,26494,86,0,B|253:101|215:132|215:132|177:163|130:152,1,181.50000553894,2|0,1:2|1:0,0:0:0:0:
75,129,27097,1,10,0:0:0:0:
0,221,27399,1,2,1:2:0:0:
85,306,27700,2,0,P|131:269|191:268,1,121.000003692627,10|2,0:2|1:2,0:0:0:0:
296,328,28303,2,0,P|355:327|402:290,1,121.000003692627,10|10,0:0|0:0,0:0:0:0:
438,174,28906,22,0,P|393:99|306:95,1,181.50000553894,2|2,1:2|0:0,0:0:0:0:
255,128,29509,1,10,1:2:0:0:
169,42,29811,1,10,0:0:0:0:
77,120,30112,2,0,P|54:175|67:233,2,121.000003692627,10|10|2,0:2|0:0|1:2,0:0:0:0:
178,50,31017,1,10,0:0:0:0:
178,50,31167,1,2,0:0:0:0:
178,50,31318,1,10,0:2:0:0:
287,101,31620,86,0,L|346:91,2,60.5000018463135,10|2|10,0:0|1:2|0:0,0:0:0:0:
235,133,32072,1,0,0:0:0:0:
235,133,32223,2,0,L|176:123,1,60.5000018463135,10|2,0:0|1:2,0:0:0:0:
117,141,32524,2,0,P|91:194|102:253,1,121.000003692627,2|2,1:2|1:2,0:0:0:0:
189,336,33127,2,0,P|248:331|293:292,1,121.000003692627,10|10,1:2|1:2,0:0:0:0:
263,322,48203,38,0,L|88:300,1,176,2|2,0:0|0:0,0:0:0:0:
24,240,49107,1,2,0:0:0:0:
24,240,50012,22,0,L|39:140,2,88,2|2|2,0:0|0:0|0:0,0:0:0:0:
90,297,50916,2,0,L|105:397,2,88,2|2|2,0:0|0:0|0:0,0:0:0:0:
147,228,51821,86,0,P|231:219|290:280,1,176,2|2,0:0|0:0,0:0:0:0:
319,363,52725,1,2,0:0:0:0:
319,363,53630,21,0,0:0:0:0:
376,296,53931,2,0,L|380:195,2,88,2|2|2,0:0|0:0|0:0,0:0:0:0:
319,363,54836,1,0,0:0:0:0:
235,336,55137,1,2,0:0:0:0:
189,260,55439,86,0,B|199:200|199:200|180:144|180:144|190:89,1,176,2|2,0:0|0:0,0:0:0:0:
217,5,56343,1,2,0:0:0:0:
62,88,56946,2,0,L|48:175,1,88,2|2,0:0|0:0,0:0:0:0:
163,308,57851,2,0,L|155:220,2,88,2|2|2,0:0|0:0|0:0,0:0:0:0:
234,359,58755,2,0,L|277:350,1,44,2|0,0:1|0:0,0:0:0:0:
317,332,59057,22,0,P|353:278|345:214,1,132,2|0,0:0|0:0,0:0:0:0:
325,175,59660,1,2,0:0:0:0:
375,102,59961,1,2,0:0:0:0:
509,215,60564,1,2,0:0:0:0:
459,288,60866,1,2,0:0:0:0:
339,343,61318,101,0,1:0:0:0:
338,342,61469,2,0,P|306:306|259:294,1,98.9999969787599
216,319,61921,1,0,0:0:0:0:
216,319,62072,2,0,L|165:326,1,49.4999984893799,0|0,1:0|1:0,0:0:0:0:
130,292,62373,2,0,L|80:296,1,49.4999984893799,0|8,1:0|0:0,0:0:0:0:
30,271,62675,38,0,P|-1:198|39:130,1,165,6|6,1:2|1:2,0:0:0:0:
135,78,63429,1,0,1:0:0:0:
135,78,63580,2,0,L|299:89,1,165,6|6,1:2|1:2,0:0:0:0:
390,40,64333,1,0,1:0:0:0:
390,40,64484,2,0,L|444:47,1,55,6|8,1:2|0:0,0:0:0:0:
490,17,64785,1,6,1:2:0:0:
511,126,65087,22,0,L|501:235,1,110,6|0,1:2|1:0,0:0:0:0:
495,290,65539,1,6,1:2:0:0:
401,348,65841,1,0,1:0:0:0:
401,348,65992,2,0,L|236:333,1,165,6|6,1:2|1:2,0:0:0:0:
271,228,66745,1,0,1:0:0:0:
271,228,66896,2,0,L|216:223,1,55,6|8,1:2|0:0,0:0:0:0:
163,240,67198,1,6,1:2:0:0:
146,348,67499,86,0,P|91:354|43:326,1,110,6|0,1:2|1:0,0:0:0:0:
13,282,67951,1,6,1:2:0:0:
75,191,68253,1,0,1:0:0:0:
75,190,68404,2,0,P|113:120|92:42,1,165,6|6,1:2|1:2,0:0:0:0:
194,2,69157,1,0,1:0:0:0:
194,2,69308,2,0,L|267:13,1,55,6|8,1:2|0:0,0:0:0:0:
298,34,69610,1,6,1:2:0:0:
286,143,69911,22,0,P|339:147|383:116,1,110,6|0,1:2|1:0,0:0:0:0:
413,68,70363,1,6,1:2:0:0:
485,151,70665,1,0,1:0:0:0:
485,151,70816,2,0,P|480:232|423:289,1,165,6|6,1:2|1:2,0:0:0:0:
325,339,71569,1,0,1:0:0:0:
325,339,71720,1,6,1:2:0:0:
244,263,72022,1,6,1:2:0:0:
150,319,72323,86,0,P|96:325|49:296,1,110,6|0,1:2|1:0,0:0:0:0:
11,258,72775,1,6,1:2:0:0:
114,207,73077,1,0,1:0:0:0:
114,207,73228,2,0,P|130:129|89:59,1,165,6|6,1:2|1:2,0:0:0:0:
184,4,73981,1,0,1:0:0:0:
184,4,74132,1,6,1:2:0:0:
261,82,74434,1,8,0:0:0:0:
350,18,74735,22,0,P|371:69|364:123,1,110,6|0,1:2|1:0,0:0:0:0:
334,169,75188,1,6,1:2:0:0:
412,246,75489,1,0,1:0:0:0:
412,245,75640,2,0,P|337:275|264:241,1,165,6|6,1:2|1:2,0:0:0:0:
185,318,76394,1,0,1:0:0:0:
185,318,76544,1,6,1:2:0:0:
273,383,76846,1,8,0:0:0:0:
350,305,77147,86,0,L|464:324,1,110,6|0,1:2|1:0,0:0:0:0:
510,303,77600,1,6,1:2:0:0:
468,202,77901,1,0,1:0:0:0:
468,202,78052,2,0,L|305:174,1,165,6|6,1:2|1:2,0:0:0:0:
236,89,78806,1,0,1:0:0:0:
236,89,78956,1,6,1:2:0:0:
148,155,79258,1,2,1:2:0:0:
72,73,79559,22,0,P|43:118|38:172,1,110,6|0,1:2|1:0,0:0:0:0:
63,222,80012,1,6,1:2:0:0:
136,304,80313,1,0,1:0:0:0:
136,304,80464,2,0,L|299:280,1,165,6|10,1:2|0:0,0:0:0:0:
390,342,81218,1,0,1:0:0:0:
390,342,81368,2,0,P|427:303|481:296,1,110,10|0,0:0|1:0,0:0:0:0:
510,184,81971,22,0,L|499:68,1,115.49999647522,4|0,1:2|1:2,0:0:0:0:
399,11,82574,2,0,L|403:68,1,57.7499982376099,2|2,1:2|0:0,0:0:0:0:
369,115,82876,2,0,P|318:89|261:97,1,115.49999647522,2|2,1:2|1:2,0:0:0:0:
163,157,83479,1,0,1:2:0:0:
93,64,83780,2,0,L|99:6,2,57.7499982376099,0|0|8,1:0|1:0|0:0,0:0:0:0:
17,151,84383,22,0,L|27:266,1,115.49999647522,2|2,1:2|1:2,0:0:0:0:
110,347,84987,2,0,L|165:332,1,57.7499982376099,2|2,1:2|0:0,0:0:0:0:
210,295,85288,2,0,P|228:241|212:187,1,115.49999647522,2|2,1:2|1:2,0:0:0:0:
270,86,85891,1,10,0:0:0:0:
362,155,86193,2,0,L|358:212,1,57.7499982376099,2|0,1:2|0:0,0:0:0:0:
393,258,86494,2,0,L|389:315,1,57.7499982376099,8|0,0:0|1:0,0:0:0:0:
391,373,86796,86,0,P|441:347|496:359,2,115.49999647522,2|0|2,1:2|1:2|1:2,0:0:0:0:
304,296,87700,1,2,1:2:0:0:
381,210,88002,2,0,P|431:235|486:223,2,115.49999647522,2|0|0,1:2|1:0|1:0,0:0:0:0:
320,111,88906,1,0,1:0:0:0:
222,173,89208,6,0,L|108:154,1,115.49999647522,4|0,1:2|1:0,0:0:0:0:
68,112,89660,1,0,1:0:0:0:
68,112,89811,2,0,L|75:54,2,57.7499982376099,10|10|10,1:2|1:2|1:2,0:0:0:0:
16,137,90263,1,10,1:2:0:0:
16,137,90414,2,0,P|27:192|3:244,1,115.49999647522,0|8,1:0|0:0,0:0:0:0:
77,333,91017,2,0,B|122:344|158:315|158:315|194:285|238:296,1,173.24999471283,10|2,0:0|1:2,0:0:0:0:
296,323,91620,54,0,P|273:265|294:206,1,126.500002412796,4|10,1:2|0:0,0:0:0:0:
299,93,92223,2,0,P|248:129|186:124,1,126.500002412796,2|10,1:2|0:0,0:0:0:0:
138,94,92675,1,2,0:0:0:0:
138,94,92826,2,0,P|76:89|25:125,1,126.500002412796,2|8,1:2|0:0,0:0:0:0:
107,203,93429,22,0,P|113:265|81:319,1,126.500002412796,2|10,1:2|0:0,0:0:0:0:
111,368,93881,1,2,0:0:0:0:
111,368,94032,2,0,L|236:348,1,126.500002412796,2|8,1:2|0:0,0:0:0:0:
327,271,94635,2,0,L|389:281,2,63.250001206398,10|2|2,0:0|1:2|1:2,0:0:0:0:
239,188,95238,86,0,P|313:136|300:47,1,189.750003619194,10|2,0:2|1:2,0:0:0:0:
255,12,95841,2,0,L|129:26,1,126.500002412796,10|10,0:0|0:0,0:0:0:0:
28,79,96444,1,2,1:2:0:0:
97,168,96745,22,0,L|159:160,2,63.250001206398,10|2|10,0:0|0:0|1:2,0:0:0:0:
28,258,97348,1,10,0:0:0:0:
109,336,97650,2,0,P|201:340|261:270,1,189.750003619194,2|2,1:2|1:2,0:0:0:0:
271,213,98253,2,0,P|322:250|384:248,1,126.500002412796,2|10,1:2|0:0,0:0:0:0:
455,158,98856,1,10,0:2:0:0:
381,71,99157,86,0,L|386:7,2,63.250001206398,10|2|10,0:0|1:2|0:0,0:0:0:0:
288,137,99760,2,0,L|293:200,2,63.250001206398,10|2|2,0:0|1:2|1:2,0:0:0:0:
204,58,100363,2,0,P|172:53|141:57,1,63.250001206398,10|2,0:2|1:2,0:0:0:0:
94,90,100665,1,10,0:2:0:0:
149,189,100966,1,10,0:2:0:0:
69,270,101268,102,0,P|86:329|140:359,1,126.500002412796,6|2,1:2|1:2,0:0:0:0:
241,307,101871,1,10,0:0:0:0:
332,375,102172,1,2,1:2:0:0:
410,293,102474,2,0,P|434:235|419:175,1,126.500002412796,14|2,0:0|1:2,0:0:0:0:
329,105,103077,2,0,B|263:113|263:113|216:148|216:148|151:155,1,189.750003619194,10|2,0:0|0:0,0:0:0:0:
94,160,103680,1,14,0:0:0:0:
168,262,103981,6,0,P|169:325|137:378,2,126.500002412796,2|10|2,1:2|0:0|1:2,0:0:0:0:
282,252,104886,2,0,P|336:283|398:281,1,126.500002412796,14|2,0:0|1:2,0:0:0:0:
430,172,105489,2,0,P|375:141|313:142,1,126.500002412796,10|2,0:0|1:2,0:0:0:0:
225,68,106092,6,0,P|314:83|372:14,2,189.750003619194,14|2|2,0:0|1:2|1:2,0:0:0:0:
125,12,107298,1,14,0:0:0:0:
25,67,107600,1,2,1:2:0:0:
34,180,107901,1,10,0:0:0:0:
110,264,108203,6,0,P|109:295|101:325,2,63.250001206398,2|0|14,1:2|1:0|0:0,0:0:0:0:
164,163,108806,2,0,P|151:101|162:39,2,126.500002412796,2|10|2,1:2|0:0|1:2,0:0:0:0:
228,257,109710,1,14,0:0:0:0:
305,174,110012,1,0,1:2:0:0:
382,257,110313,1,14,0:0:0:0:
499,46,110916,70,0,P|449:83|387:78,1,126.500002412796,6|2,1:2|1:2,0:0:0:0:
285,27,111519,1,14,0:0:0:0:
204,108,111821,1,2,1:2:0:0:
301,163,112122,2,0,P|335:215|327:276,1,126.500002412796,14|2,0:0|1:2,0:0:0:0:
241,352,112725,2,0,B|193:363|153:330|153:330|113:298|63:310,1,189.750003619194,14|2,0:0|0:0,0:0:0:0:
10,331,113328,1,14,0:0:0:0:
0,215,113630,5,2,1:2:0:0:
96,154,113931,1,14,0:0:0:0:
10,78,114233,1,2,1:2:0:0:
107,19,114534,2,0,L|231:41,1,126.500002412796,14|2,0:0|1:2,0:0:0:0:
284,143,115137,2,0,L|408:165,1,126.500002412796,14|2,0:0|1:2,0:0:0:0:
465,263,115740,6,0,P|518:186|499:97,2,189.750003619194,14|2|2,0:0|0:0|1:2,0:0:0:0:
381,341,116946,1,14,0:0:0:0:
268,356,117248,1,2,1:2:0:0:
193,269,117549,1,14,0:0:0:0:
270,185,117851,6,0,P|302:186|332:196,2,63.250001206398,2|2|14,1:2|1:2|0:0,0:0:0:0:
194,99,118454,2,0,P|257:95|310:62,2,126.500002412796,6|14|14,1:2|0:2|0:0,0:0:0:0:
81,97,119358,1,14,0:0:0:0:
13,188,119660,1,14,0:2:0:0:
67,286,119961,2,0,P|188:292|256:191,1,253.000004825592,14|6,0:0|1:2,0:0:0:0:
