osu file format v14

[General]
AudioFilename: Shounen Radio - Neu (Long Version).mp3
AudioLeadIn: 0
PreviewTime: 203174
Countdown: 0
SampleSet: Soft
StackLeniency: 0.7
Mode: 2
LetterboxInBreaks: 1
WidescreenStoryboard: 1

[Editor]
DistanceSpacing: 1.2
BeatDivisor: 4
GridSize: 16
TimelineZoom: 1

[Metadata]
Title:neu (Long Version)
TitleUnicode:neu (Long Version)
Artist:Shounen Radio
ArtistUnicode:Shounen Radio
Creator:ExGon
Version:CLSWTB Extra
Source:Pop'n Music 15
Tags:Spectator Kim Jin Seok Jun Wakita wac CLSW Minato Yukina
BeatmapID:1408874
BeatmapSetID:665707

[Difficulty]
HPDrainRate:7
CircleSize:4
OverallDifficulty:5
ApproachRate:9
SliderMultiplier:2
SliderTickRate:2

[Events]
//Background and Video events
0,0,"bg.png",0,0
//Break Periods
2,33200,35126
2,106663,110835
2,222666,233590
2,272970,281806
2,302480,323181
2,342674,344588
//Storyboard Layer 0 (Background)
//Storyboard Layer 1 (Fail)
//Storyboard Layer 2 (Pass)
//Storyboard Layer 3 (Foreground)
//Storyboard Sound Samples

[TimingPoints]
10463,315.789473684211,4,2,0,30,1,0
12673,-100,4,2,0,5,0,0
12990,315.789473684211,4,2,0,30,1,0
14292,-200,4,2,0,5,0,0
14884,-200,4,2,0,30,0,0
15516,-200,4,2,0,30,0,0
15555,-200,4,2,0,5,0,0
16147,-100,4,2,0,30,0,0
18082,-100,4,2,0,5,0,0
18674,-100,4,2,0,30,0,0
18990,-200,4,2,0,30,0,0
28187,-200,4,2,0,5,0,0
28779,-200,4,2,0,30,0,0
32884,-200,4,2,0,20,0,0
36358,-200,4,2,0,15,0,0
36990,-200,4,2,0,10,0,0
37621,-200,4,2,0,5,0,0
38253,-200,4,2,0,30,0,0
53253,-200,4,2,0,30,0,0
53568,-200,4,2,0,20,0,0
58384,-200,4,2,0,30,0,0
58621,-200,4,2,0,20,0,0
63516,-200,4,2,0,30,0,0
64779,-100,4,2,0,30,0,0
64818,-100,4,2,0,5,0,0
65411,-200,4,2,0,30,0,0
81516,-200,4,2,0,30,0,0
82147,-200,4,2,0,35,0,0
82779,-200,4,2,0,40,0,0
83411,-200,4,2,0,5,0,0
83726,-200,4,2,0,45,0,0
85147,-200,4,1,1,30,0,0
85384,-200,4,1,1,35,0,0
85542,-200,4,1,1,40,0,0
85700,-200,4,1,1,45,0,0
85858,-200,4,1,1,50,0,0
86016,-200,4,1,1,55,0,0
86253,-133.333333333333,4,1,1,55,0,1
96279,-133.333333333333,4,1,1,55,0,0
96358,-133.333333333333,4,1,1,55,0,1
106463,-133.333333333333,4,2,1,55,0,0
111435,307.692307692308,4,1,0,30,1,0
114665,-100,4,1,0,35,0,0
114973,-100,4,1,0,40,0,0
115435,-100,4,1,0,45,0,0
115896,-100,4,1,0,50,0,0
116350,302.267002518892,4,1,1,55,1,0
121180,301.507537688442,4,1,1,55,1,0
124873,-100,4,1,1,70,0,0
126000,301.507537688442,4,1,1,50,1,1
135572,-83.3333333333333,4,1,1,50,0,0
135648,-83.3333333333333,4,1,1,50,0,1
145295,301.507537688442,3,2,1,50,1,0
145295,-133.333333333333,3,2,1,50,0,0
145445,-133.333333333333,3,2,1,30,0,0
173184,-100,3,1,1,40,0,0
174230,301.507537688442,4,1,1,50,1,0
192546,-100,4,2,0,30,0,0
193451,-133.333333333333,4,2,0,40,0,0
198199,-133.333333333333,4,1,0,30,0,0
198878,-133.333333333333,4,1,0,35,0,0
199481,-133.333333333333,4,1,0,40,0,0
200084,-133.333333333333,4,1,0,45,0,0
200687,-133.333333333333,4,1,0,50,0,0
203170,301.507537688442,4,1,0,50,1,0
203174,-100,4,1,1,50,0,1
212742,-100,4,1,1,50,0,0
212818,-83.3333333333333,4,1,1,50,0,1
222466,-83.3333333333333,4,1,1,50,0,0
234190,301.507537688442,4,2,1,30,1,0
234190,-200,4,2,1,30,0,0
235433,-200,4,2,1,5,0,0
235999,-200,4,2,1,30,0,0
236639,-200,4,2,1,5,0,0
237205,-200,4,2,1,30,0,0
239164,-200,4,2,1,40,0,0
248662,-200,4,1,1,30,0,0
249265,-200,4,1,1,20,0,0
249566,-200,4,1,1,25,0,0
249868,-200,4,1,1,30,0,0
250471,-200,4,1,1,40,0,0
251074,-200,4,2,1,30,0,0
253184,-200,4,2,1,5,0,0
253486,-200,4,2,1,40,0,0
267958,-200,4,1,1,25,0,0
269164,-200,4,1,1,30,0,0
269767,-200,4,1,1,35,0,0
270370,-200,4,2,1,30,0,0
271576,-200,4,1,1,20,0,0
272179,-200,4,1,1,25,0,0
272770,301.129234629862,4,2,0,50,1,0
282406,-100,4,1,0,50,0,0
292042,301.129234629862,4,1,0,50,1,0
292042,-100,4,2,0,20,0,0
293246,-100,4,2,0,18,0,0
294451,-100,4,2,0,16,0,0
295655,-100,4,2,0,14,0,0
296860,-100,4,2,0,12,0,0
298064,-100,4,2,0,10,0,0
299269,-100,4,2,0,8,0,0
300473,-100,4,2,0,6,0,0
301678,-100,4,2,0,5,0,0
323480,301.507537688442,4,2,1,20,1,0
323480,-200,4,2,1,20,0,0
332826,-200,4,2,1,30,0,0
343379,-200,4,2,1,20,0,0
343982,-200,4,2,1,10,0,0
344585,-200,4,2,1,5,0,0
345188,-200,4,2,1,30,0,0
345226,-200,4,2,1,5,0,0
345791,-200,4,2,1,30,0,0
346432,-200,4,2,1,5,0,0
346997,-200,4,2,1,30,0,0
347638,-200,4,2,1,5,0,0
348203,-200,4,2,1,30,0,0
348844,-200,4,2,1,5,0,0
349409,-200,4,2,1,30,0,0
350050,-200,4,2,1,5,0,0
350615,-200,4,2,1,30,0,0
351256,-200,4,2,1,5,0,0
351821,-200,4,2,1,30,0,0
352424,-133.333333333333,4,2,1,40,0,0
359510,-133.333333333333,4,1,1,30,0,0
360188,-133.333333333333,4,1,1,35,0,0
360791,-133.333333333333,4,1,1,40,0,0
361394,-133.333333333333,4,1,1,45,0,0
361997,-133.333333333333,4,1,1,50,0,0
365080,301.507537688442,4,1,1,50,1,1
374652,-100,4,1,1,50,0,0
374728,-100,4,1,1,50,0,1
384301,-100,4,1,1,50,0,0
384376,-83.3333333333333,4,1,1,50,0,1
393949,-83.3333333333333,4,1,1,50,0,0
394031,-83.3333333333333,4,1,1,50,0,1
403672,-100,4,1,0,50,0,0

[Colours]
Combo1 : 159,217,168
Combo2 : 225,157,220
Combo3 : 248,180,129
Combo4 : 172,136,225

[HitObjects]
256,192,10463,12,0,12674,0:0:0:0:
64,48,12989,5,0,0:0:0:0:
112,144,13305,1,0,0:0:0:0:
336,48,13621,1,2,0:0:0:0:
288,144,13937,1,0,0:0:0:0:
64,48,14253,5,0,0:0:0:0:
80,64,14292,1,0,0:0:0:0:
96,80,14332,1,0,0:0:0:0:
112,96,14371,1,0,0:0:0:0:
128,96,14411,1,0,0:0:0:0:
144,112,14450,1,0,0:0:0:0:
160,128,14489,1,0,0:0:0:0:
176,144,14529,1,0,0:0:0:0:
192,160,14568,1,0,0:0:0:0:
208,176,14608,1,0,0:0:0:0:
224,192,14647,1,0,0:0:0:0:
240,208,14687,1,0,0:0:0:0:
256,224,14726,1,0,0:0:0:0:
272,240,14766,1,0,0:0:0:0:
288,256,14805,1,0,0:0:0:0:
304,272,14845,1,0,0:0:0:0:
320,288,14884,5,2,0:0:0:0:
176,208,15200,1,0,0:0:0:0:
448,48,15516,5,0,0:0:0:0:
432,64,15555,1,0,0:0:0:0:
416,80,15595,1,0,0:0:0:0:
400,96,15634,1,0,0:0:0:0:
384,112,15674,1,0,0:0:0:0:
368,128,15713,1,0,0:0:0:0:
352,128,15752,1,0,0:0:0:0:
336,144,15792,1,0,0:0:0:0:
320,160,15831,1,0,0:0:0:0:
304,176,15871,1,0,0:0:0:0:
288,192,15910,1,0,0:0:0:0:
272,208,15950,1,0,0:0:0:0:
256,208,15989,1,0,0:0:0:0:
240,192,16029,1,0,0:0:0:0:
224,176,16068,1,0,0:0:0:0:
208,192,16108,1,0,0:0:0:0:
192,208,16147,5,2,0:0:0:0:
352,208,16463,1,0,0:0:0:0:
128,208,16779,1,2,0:0:0:0:
176,16,17095,1,0,0:0:0:0:
80,192,17411,1,2,0:0:0:0:
224,64,17726,1,0,0:0:0:0:
432,64,18042,6,0,B|432:96,15,25
432,144,18674,1,2,0:0:0:0:
256,64,18990,1,0,0:0:0:0:
192,256,19305,5,0,0:0:0:0:
320,112,19621,1,0,0:0:0:0:
144,208,19937,1,2,0:0:0:0:
368,160,20253,1,0,0:0:0:0:
128,176,20568,5,0,0:0:0:0:
384,176,20884,1,0,0:0:0:0:
256,336,21200,1,2,0:0:0:0:
256,128,21516,1,0,0:0:0:0:
256,336,21832,1,2,0:0:0:0:
192,48,23095,5,0,0:0:0:0:
96,160,23411,1,0,0:0:0:0:
304,160,23726,1,2,0:0:0:0:
208,272,24042,1,0,0:0:0:0:
416,272,24358,1,0,0:0:0:0:
336,336,24674,1,0,0:0:0:0:
256,240,24990,1,2,0:0:0:0:
256,48,25305,1,0,0:0:0:0:
448,80,25621,5,0,0:0:0:0:
448,288,25937,1,0,0:0:0:0:
64,288,26253,1,2,0:0:0:0:
64,96,26568,1,0,0:0:0:0:
400,112,26884,1,0,0:0:0:0:
400,320,27200,1,0,0:0:0:0:
112,320,27516,1,2,0:0:0:0:
112,112,27832,1,0,0:0:0:0:
352,112,28147,5,0,0:0:0:0:
320,112,28187,1,0,0:0:0:0:
288,112,28226,1,0,0:0:0:0:
256,112,28266,1,0,0:0:0:0:
224,112,28305,1,0,0:0:0:0:
192,112,28345,1,0,0:0:0:0:
160,112,28384,1,0,0:0:0:0:
128,112,28424,1,0,0:0:0:0:
96,112,28463,1,0,0:0:0:0:
64,112,28503,1,0,0:0:0:0:
64,112,28542,1,0,0:0:0:0:
64,112,28582,1,0,0:0:0:0:
64,112,28621,1,0,0:0:0:0:
64,112,28661,1,0,0:0:0:0:
64,112,28700,1,0,0:0:0:0:
64,112,28740,1,0,0:0:0:0:
64,144,28779,5,2,0:0:0:0:
64,352,29095,1,0,0:0:0:0:
64,144,29411,1,0,0:0:0:0:
128,176,30358,5,0,0:0:0:0:
256,160,30674,1,0,0:0:0:0:
448,32,31305,1,0,0:0:0:0:
64,32,31937,1,0,0:0:0:0:
256,192,35726,12,0,37937,0:0:0:0:
176,256,38253,5,0,0:0:0:0:
48,96,38568,1,0,0:0:0:0:
256,96,38884,1,2,0:0:0:0:
464,96,39200,1,0,0:0:0:0:
336,256,39516,1,0,0:0:0:0:
208,96,39832,1,0,0:0:0:0:
400,96,40147,1,2,0:0:0:0:
304,208,40463,1,0,0:0:0:0:
96,192,40779,5,0,0:0:0:0:
224,192,41095,1,0,0:0:0:0:
416,192,41411,1,2,0:0:0:0:
288,192,41726,1,0,0:0:0:0:
256,64,42042,1,0,0:0:0:0:
368,224,42358,1,0,0:0:0:0:
144,224,42674,1,2,0:0:0:0:
256,336,42990,1,0,0:0:0:0:
112,288,43305,5,2,0:0:0:0:
112,288,43463,1,0,0:0:0:0:
224,288,43621,1,2,0:0:0:0:
400,288,43937,1,0,0:0:0:0:
288,288,44095,1,2,0:0:0:0:
160,128,44411,1,2,0:0:0:0:
256,128,44568,5,0,0:0:0:0:
256,128,44726,1,0,0:0:0:0:
256,128,44884,1,2,0:0:0:0:
352,128,45200,1,0,0:0:0:0:
256,128,45358,1,2,0:0:0:0:
368,192,45674,1,2,0:0:0:0:
256,192,45832,5,0,0:0:0:0:
160,240,45990,1,0,0:0:0:0:
64,288,46147,1,2,0:0:0:0:
448,288,46463,1,0,0:0:0:0:
400,256,46621,1,2,0:0:0:0:
256,192,46937,1,2,0:0:0:0:
80,192,47095,5,0,0:0:0:0:
80,192,47253,1,0,0:0:0:0:
48,144,47411,1,2,0:0:0:0:
432,192,47726,1,2,0:0:0:0:
432,192,47884,1,0,0:0:0:0:
464,144,48042,1,2,0:0:0:0:
256,96,48358,5,0,0:0:0:0:
176,160,48516,1,0,0:0:0:0:
112,240,48674,1,2,0:0:0:0:
256,112,48990,1,0,0:0:0:0:
336,160,49147,1,0,0:0:0:0:
400,240,49305,1,2,0:0:0:0:
208,192,49621,1,0,0:0:0:0:
112,240,49779,1,0,0:0:0:0:
32,288,49937,1,2,0:0:0:0:
304,192,50253,1,0,0:0:0:0:
400,240,50411,1,0,0:0:0:0:
480,288,50568,1,2,0:0:0:0:
416,96,50884,5,0,0:0:0:0:
336,160,51042,1,0,0:0:0:0:
256,208,51200,1,2,0:0:0:0:
96,96,51516,1,0,0:0:0:0:
176,160,51674,1,0,0:0:0:0:
256,208,51832,1,2,0:0:0:0:
480,192,52147,1,0,0:0:0:0:
368,192,52305,1,0,0:0:0:0:
256,208,52463,1,2,0:0:0:0:
32,192,52779,1,0,0:0:0:0:
144,192,52937,1,0,0:0:0:0:
256,208,53095,1,2,0:0:0:0:
48,96,53411,5,0,0:0:0:0:
464,96,53726,1,0,0:0:0:0:
400,176,53884,1,0,0:0:0:0:
368,272,54042,1,0,0:0:0:0:
400,176,54200,1,0,0:0:0:0:
464,96,54358,1,0,0:0:0:0:
432,96,54674,5,0,0:0:0:0:
368,176,54832,1,0,0:0:0:0:
336,272,54990,1,0,0:0:0:0:
368,176,55148,1,0,0:0:0:0:
432,96,55306,1,0,0:0:0:0:
400,96,55621,5,0,0:0:0:0:
336,176,55779,1,0,0:0:0:0:
304,272,55937,1,0,0:0:0:0:
336,176,56095,1,0,0:0:0:0:
400,96,56253,1,0,0:0:0:0:
128,96,56568,5,0,0:0:0:0:
192,176,56726,1,0,0:0:0:0:
224,272,56884,1,0,0:0:0:0:
192,176,57042,1,0,0:0:0:0:
128,96,57200,1,0,0:0:0:0:
256,96,57516,5,0,0:0:0:0:
224,192,57674,1,0,0:0:0:0:
288,112,57832,1,0,0:0:0:0:
192,160,57990,1,0,0:0:0:0:
320,144,58147,1,0,0:0:0:0:
176,128,58305,1,0,0:0:0:0:
48,96,58463,5,0,0:0:0:0:
48,192,58621,1,0,0:0:0:0:
48,96,58779,5,0,0:0:0:0:
112,176,58937,1,0,0:0:0:0:
144,272,59095,1,0,0:0:0:0:
112,176,59253,1,0,0:0:0:0:
48,96,59411,1,0,0:0:0:0:
432,96,59568,5,0,0:0:0:0:
368,176,59726,1,0,0:0:0:0:
336,272,59884,1,0,0:0:0:0:
368,176,60042,1,0,0:0:0:0:
432,96,60200,1,0,0:0:0:0:
256,96,60357,1,0,0:0:0:0:
400,96,60515,5,0,0:0:0:0:
336,176,60673,1,0,0:0:0:0:
304,272,60831,1,0,0:0:0:0:
336,176,60989,1,0,0:0:0:0:
400,96,61147,1,0,0:0:0:0:
224,96,61305,1,0,0:0:0:0:
368,96,61463,5,0,0:0:0:0:
304,176,61621,1,0,0:0:0:0:
272,272,61779,1,0,0:0:0:0:
304,176,61937,1,0,0:0:0:0:
368,96,62095,1,0,0:0:0:0:
192,96,62252,1,0,0:0:0:0:
336,96,62410,5,0,0:0:0:0:
272,176,62568,1,0,0:0:0:0:
240,272,62726,1,0,0:0:0:0:
272,176,62884,1,0,0:0:0:0:
336,96,63042,1,0,0:0:0:0:
160,96,63200,1,0,0:0:0:0:
352,192,64147,5,2,0:0:0:0:
144,192,64463,1,2,0:0:0:0:
256,32,64779,2,0,B|256:64,15,25
256,80,65411,1,2,0:0:0:0:
96,112,65726,1,0,0:0:0:0:
176,288,66042,5,0,0:0:0:0:
48,144,66358,1,0,0:0:0:0:
256,144,66674,1,2,0:0:0:0:
464,144,66990,1,0,0:0:0:0:
256,144,67305,5,0,0:0:0:0:
256,144,67621,1,0,0:0:0:0:
192,336,67937,1,2,0:0:0:0:
128,144,68253,1,0,0:0:0:0:
48,192,68568,5,0,0:0:0:0:
48,192,68884,1,0,0:0:0:0:
176,32,69200,1,2,0:0:0:0:
176,32,69516,1,0,0:0:0:0:
128,224,69832,1,0,0:0:0:0:
128,224,70147,1,0,0:0:0:0:
288,112,70463,1,2,0:0:0:0:
288,112,70779,1,0,0:0:0:0:
496,112,71095,1,2,0:0:0:0:
128,256,71726,5,0,0:0:0:0:
336,256,72042,1,0,0:0:0:0:
416,80,72358,1,2,0:0:0:0:
128,80,72674,1,0,0:0:0:0:
448,144,72990,1,2,0:0:0:0:
64,144,73305,1,0,0:0:0:0:
256,192,74568,5,0,0:0:0:0:
464,192,74884,1,0,0:0:0:0:
256,192,75200,1,0,0:0:0:0:
256,192,75516,1,0,0:0:0:0:
48,192,75832,1,2,0:0:0:0:
176,32,76147,5,0,0:0:0:0:
272,208,76463,1,0,0:0:0:0:
96,304,76779,1,2,0:0:0:0:
0,128,77095,1,0,0:0:0:0:
208,128,77411,1,0,0:0:0:0:
400,48,77726,1,0,0:0:0:0:
464,240,78042,1,2,0:0:0:0:
272,320,78358,1,0,0:0:0:0:
176,144,78674,5,2,0:0:0:0:
96,80,78832,1,0,0:0:0:0:
16,144,78990,1,0,0:0:0:0:
256,144,79305,1,2,0:0:0:0:
176,208,79463,1,0,0:0:0:0:
96,144,79621,1,0,0:0:0:0:
336,144,79937,5,2,0:0:0:0:
256,208,80095,1,0,0:0:0:0:
176,144,80253,1,0,0:0:0:0:
416,144,80568,1,2,0:0:0:0:
336,208,80726,1,0,0:0:0:0:
256,144,80884,1,0,0:0:0:0:
256,192,81200,12,0,83411,0:0:0:0:
48,192,83726,5,0,0:0:0:0:
48,192,84042,1,0,0:0:0:0:
464,192,84358,1,0,0:0:0:0:
464,192,84674,1,0,0:0:0:0:
256,320,84990,1,0,0:0:0:0:
192,128,85305,5,0,0:0:0:0:
320,128,85463,1,0,0:0:0:0:
144,192,85621,1,0,0:0:0:0:
368,192,85779,1,0,0:0:0:0:
96,256,85937,1,0,0:0:0:0:
416,256,86095,1,0,0:0:0:0:
96,320,86253,5,0,0:0:0:0:
192,256,86411,1,0,0:0:0:0:
288,192,86568,1,0,0:0:0:0:
384,128,86726,1,0,0:0:0:0:
256,128,86884,1,0,0:0:0:0:
256,128,87200,1,0,0:0:0:0:
32,128,87516,5,0,0:0:0:0:
144,128,87674,1,0,0:0:0:0:
256,128,87832,1,0,0:0:0:0:
480,128,88147,1,0,0:0:0:0:
256,128,88305,1,0,0:0:0:0:
368,128,88463,1,0,0:0:0:0:
144,128,88621,1,0,0:0:0:0:
128,240,88779,5,0,0:0:0:0:
64,144,88937,1,0,0:0:0:0:
240,208,89095,1,0,0:0:0:0:
336,160,89253,1,0,0:0:0:0:
224,176,89411,1,0,0:0:0:0:
448,176,89726,1,0,0:0:0:0:
32,176,90042,5,0,0:0:0:0:
32,176,90200,1,0,0:0:0:0:
32,176,90358,1,0,0:0:0:0:
480,176,90674,1,0,0:0:0:0:
256,176,90832,1,0,0:0:0:0:
256,176,90990,1,0,0:0:0:0:
32,176,91147,1,0,0:0:0:0:
256,176,91305,5,0,0:0:0:0:
320,112,91463,1,0,0:0:0:0:
384,176,91621,1,0,0:0:0:0:
448,112,91779,1,0,0:0:0:0:
416,80,91937,1,0,0:0:0:0:
304,80,92095,1,0,0:0:0:0:
192,80,92253,1,0,0:0:0:0:
80,80,92411,1,0,0:0:0:0:
256,176,92568,5,0,0:0:0:0:
192,112,92726,1,0,0:0:0:0:
128,176,92884,1,0,0:0:0:0:
64,112,93042,1,0,0:0:0:0:
96,80,93200,1,0,0:0:0:0:
208,80,93358,1,0,0:0:0:0:
320,80,93516,1,0,0:0:0:0:
432,80,93674,1,0,0:0:0:0:
352,160,93832,5,0,0:0:0:0:
464,160,93990,1,0,0:0:0:0:
288,224,94147,1,0,0:0:0:0:
368,304,94305,1,0,0:0:0:0:
208,272,94463,1,0,0:0:0:0:
208,368,94621,1,0,0:0:0:0:
128,224,94779,1,0,0:0:0:0:
48,304,94937,1,0,0:0:0:0:
160,224,95095,5,0,0:0:0:0:
48,224,95253,1,0,0:0:0:0:
224,160,95410,1,0,0:0:0:0:
144,80,95568,1,0,0:0:0:0:
304,112,95726,1,0,0:0:0:0:
304,16,95884,1,0,0:0:0:0:
384,160,96042,1,0,0:0:0:0:
464,80,96200,1,0,0:0:0:0:
368,272,96358,5,0,0:0:0:0:
448,192,96516,1,0,0:0:0:0:
352,256,96674,1,0,0:0:0:0:
432,176,96832,1,0,0:0:0:0:
320,176,96990,1,0,0:0:0:0:
176,352,97305,1,0,0:0:0:0:
48,176,97621,5,0,0:0:0:0:
48,176,97779,1,0,0:0:0:0:
160,176,97937,1,0,0:0:0:0:
384,176,98253,1,0,0:0:0:0:
384,176,98411,1,0,0:0:0:0:
272,176,98568,1,0,0:0:0:0:
272,176,98726,1,0,0:0:0:0:
256,80,98884,5,0,0:0:0:0:
192,80,99042,1,0,0:0:0:0:
352,80,99200,1,0,0:0:0:0:
288,80,99358,1,0,0:0:0:0:
448,80,99516,1,0,0:0:0:0:
64,80,99832,1,0,0:0:0:0:
256,112,100147,5,0,0:0:0:0:
256,224,100305,1,0,0:0:0:0:
256,224,100463,1,0,0:0:0:0:
256,224,100621,1,0,0:0:0:0:
32,224,100779,1,0,0:0:0:0:
256,224,100937,1,0,0:0:0:0:
480,208,101095,1,0,0:0:0:0:
192,176,101411,5,0,0:0:0:0:
192,176,101568,1,0,0:0:0:0:
48,96,101726,1,0,0:0:0:0:
192,96,101884,1,0,0:0:0:0:
336,96,102042,1,0,0:0:0:0:
336,96,102200,1,0,0:0:0:0:
256,176,102358,1,0,0:0:0:0:
256,176,102516,1,0,0:0:0:0:
384,176,102674,5,0,0:0:0:0:
384,176,102831,1,0,0:0:0:0:
464,96,102989,1,0,0:0:0:0:
320,96,103147,1,0,0:0:0:0:
176,96,103305,1,0,0:0:0:0:
176,96,103463,1,0,0:0:0:0:
256,176,103621,1,0,0:0:0:0:
256,176,103779,1,0,0:0:0:0:
176,224,103937,5,0,0:0:0:0:
64,224,104095,1,0,0:0:0:0:
176,224,104253,1,0,0:0:0:0:
336,224,104411,1,0,0:0:0:0:
448,224,104568,1,0,0:0:0:0:
336,224,104726,1,0,0:0:0:0:
176,224,104884,5,0,0:0:0:0:
64,224,105042,1,0,0:0:0:0:
176,224,105200,1,0,0:0:0:0:
336,224,105358,1,0,0:0:0:0:
448,224,105516,1,0,0:0:0:0:
336,224,105674,1,0,0:0:0:0:
176,224,105832,5,0,0:0:0:0:
336,224,105990,1,0,0:0:0:0:
176,224,106147,1,0,0:0:0:0:
336,224,106305,1,0,0:0:0:0:
256,288,106463,5,0,0:0:0:0:
256,192,111435,12,0,114511,0:0:0:0:
256,192,114819,5,0,0:0:0:0:
256,192,114973,1,0,0:0:0:0:
48,192,115281,1,0,0:0:0:0:
176,192,115435,1,0,0:0:0:0:
304,192,115588,1,0,0:0:0:0:
432,192,115742,1,0,0:0:0:0:
320,144,115896,1,0,0:0:0:0:
208,96,116050,1,0,0:0:0:0:
96,48,116204,1,0,0:0:0:0:
32,144,116350,5,0,0:0:0:0:
32,144,116652,1,0,0:0:0:0:
480,144,116954,1,0,0:0:0:0:
480,144,117256,1,0,0:0:0:0:
32,144,117559,5,0,0:0:0:0:
32,144,117861,1,0,0:0:0:0:
480,144,118163,1,0,0:0:0:0:
480,144,118465,1,0,0:0:0:0:
256,64,118768,5,0,0:0:0:0:
80,224,119070,1,0,0:0:0:0:
256,64,119372,1,0,0:0:0:0:
432,224,119674,1,0,0:0:0:0:
224,96,119977,5,0,0:0:0:0:
32,240,120279,1,0,0:0:0:0:
288,240,120581,1,0,0:0:0:0:
480,64,120884,5,0,0:0:0:0:
256,64,121035,5,0,0:0:0:0:
32,80,121180,5,0,0:0:0:0:
160,64,121330,1,0,0:0:0:0:
112,176,121481,1,0,0:0:0:0:
240,160,121632,1,0,0:0:0:0:
272,224,121783,1,0,0:0:0:0:
400,192,121933,1,0,0:0:0:0:
352,320,122084,1,0,0:0:0:0:
480,288,122235,1,0,0:0:0:0:
480,80,122386,5,0,0:0:0:0:
352,64,122536,1,0,0:0:0:0:
400,176,122687,1,0,0:0:0:0:
272,160,122838,1,0,0:0:0:0:
240,224,122989,1,0,0:0:0:0:
112,192,123139,1,0,0:0:0:0:
160,320,123290,1,0,0:0:0:0:
32,288,123441,1,0,0:0:0:0:
256,352,123592,5,0,0:0:0:0:
304,256,123742,1,0,0:0:0:0:
368,352,123893,1,0,0:0:0:0:
432,256,124044,1,0,0:0:0:0:
480,352,124195,1,0,0:0:0:0:
352,352,124345,1,0,0:0:0:0:
160,352,124496,1,0,0:0:0:0:
32,352,124647,1,0,0:0:0:0:
256,352,124798,5,0,0:0:0:0:
256,352,124948,1,0,0:0:0:0:
96,160,126000,5,0,0:0:0:0:
64,112,126075,1,0,0:0:0:0:
32,64,126150,1,0,0:0:0:0:
160,64,126301,1,0,0:0:0:0:
288,64,126452,1,0,0:0:0:0:
256,112,126527,1,0,0:0:0:0:
224,160,126603,1,0,0:0:0:0:
352,160,126753,1,0,0:0:0:0:
480,160,126904,1,0,0:0:0:0:
448,112,126979,1,0,0:0:0:0:
416,64,127055,1,0,0:0:0:0:
416,224,127206,5,0,0:0:0:0:
448,272,127281,1,0,0:0:0:0:
480,320,127356,1,0,0:0:0:0:
352,320,127507,1,0,0:0:0:0:
224,320,127658,1,0,0:0:0:0:
256,272,127733,1,0,0:0:0:0:
288,224,127809,1,0,0:0:0:0:
160,224,127959,1,0,0:0:0:0:
32,224,128110,1,0,0:0:0:0:
64,272,128185,1,0,0:0:0:0:
96,320,128261,1,0,0:0:0:0:
80,112,128412,5,0,0:0:0:0:
192,112,128562,1,0,0:0:0:0:
224,160,128638,1,0,0:0:0:0:
256,112,128713,1,0,0:0:0:0:
368,112,128864,1,0,0:0:0:0:
480,112,129015,1,0,0:0:0:0:
432,144,129090,1,0,0:0:0:0:
384,176,129165,1,0,0:0:0:0:
256,192,129316,1,0,0:0:0:0:
256,192,129467,1,0,0:0:0:0:
128,192,129618,5,0,0:0:0:0:
80,160,129693,1,0,0:0:0:0:
48,272,129768,1,0,0:0:0:0:
80,160,129844,1,0,0:0:0:0:
128,192,129919,1,0,0:0:0:0:
256,192,130070,1,0,0:0:0:0:
384,192,130221,1,0,0:0:0:0:
432,160,130296,1,0,0:0:0:0:
464,272,130371,1,0,0:0:0:0:
432,160,130447,1,0,0:0:0:0:
384,192,130522,1,0,0:0:0:0:
256,192,130673,1,0,0:0:0:0:
208,80,130824,5,0,0:0:0:0:
128,176,130974,1,0,0:0:0:0:
160,128,131050,1,0,0:0:0:0:
192,80,131125,1,0,0:0:0:0:
64,80,131276,1,0,0:0:0:0:
112,112,131351,1,0,0:0:0:0:
160,144,131427,1,0,0:0:0:0:
16,176,131577,1,0,0:0:0:0:
80,176,131653,1,0,0:0:0:0:
144,176,131728,1,0,0:0:0:0:
256,160,131879,1,0,0:0:0:0:
304,80,132030,5,0,0:0:0:0:
384,176,132180,1,0,0:0:0:0:
352,128,132256,1,0,0:0:0:0:
320,80,132331,1,0,0:0:0:0:
448,80,132482,1,0,0:0:0:0:
400,112,132557,1,0,0:0:0:0:
352,144,132633,1,0,0:0:0:0:
496,176,132783,1,0,0:0:0:0:
432,176,132859,1,0,0:0:0:0:
368,176,132934,1,0,0:0:0:0:
256,160,133085,1,0,0:0:0:0:
112,176,133236,5,0,0:0:0:0:
96,224,133311,1,0,0:0:0:0:
80,272,133386,1,0,0:0:0:0:
64,320,133462,1,0,0:0:0:0:
336,176,133537,5,0,0:0:0:0:
352,224,133612,1,0,0:0:0:0:
368,272,133687,1,0,0:0:0:0:
384,320,133763,1,0,0:0:0:0:
176,176,133839,5,0,0:0:0:0:
160,224,133914,1,0,0:0:0:0:
144,272,133989,1,0,0:0:0:0:
128,320,134065,1,0,0:0:0:0:
400,176,134140,5,0,0:0:0:0:
416,224,134215,1,0,0:0:0:0:
432,272,134290,1,0,0:0:0:0:
448,320,134366,1,0,0:0:0:0:
48,176,134442,5,0,0:0:0:0:
32,224,134517,1,0,0:0:0:0:
16,272,134592,1,0,0:0:0:0:
0,320,134668,1,0,0:0:0:0:
464,176,134743,5,0,0:0:0:0:
480,224,134818,1,0,0:0:0:0:
496,272,134893,1,0,0:0:0:0:
512,320,134969,1,0,0:0:0:0:
256,320,135045,1,0,0:0:0:0:
256,208,135195,1,0,0:0:0:0:
256,336,135346,1,0,0:0:0:0:
256,208,135497,1,0,0:0:0:0:
32,160,135648,5,0,0:0:0:0:
80,112,135723,1,0,0:0:0:0:
32,160,135798,1,0,0:0:0:0:
80,112,135874,1,0,0:0:0:0:
64,176,135949,1,0,0:0:0:0:
208,176,136100,5,0,0:0:0:0:
256,128,136175,1,0,0:0:0:0:
208,176,136250,1,0,0:0:0:0:
256,128,136326,1,0,0:0:0:0:
240,192,136401,1,0,0:0:0:0:
368,256,136552,1,0,0:0:0:0:
480,176,136703,1,0,0:0:0:0:
336,176,136854,5,0,0:0:0:0:
288,128,136929,1,0,0:0:0:0:
336,176,137004,1,0,0:0:0:0:
288,128,137080,1,0,0:0:0:0:
304,192,137155,1,0,0:0:0:0:
160,192,137306,5,0,0:0:0:0:
112,144,137381,1,0,0:0:0:0:
160,192,137456,1,0,0:0:0:0:
112,144,137532,1,0,0:0:0:0:
128,208,137607,1,0,0:0:0:0:
256,128,137758,1,0,0:0:0:0:
256,128,137909,1,0,0:0:0:0:
128,64,138060,5,0,0:0:0:0:
128,64,138135,1,0,0:0:0:0:
128,64,138211,1,0,0:0:0:0:
272,64,138361,1,0,0:0:0:0:
272,64,138512,1,0,0:0:0:0:
128,80,138663,1,0,0:0:0:0:
128,80,138738,1,0,0:0:0:0:
128,80,138814,1,0,0:0:0:0:
416,128,138964,1,0,0:0:0:0:
416,128,139115,1,0,0:0:0:0:
128,208,139266,5,0,0:0:0:0:
96,272,139341,1,0,0:0:0:0:
64,208,139417,1,0,0:0:0:0:
32,272,139492,1,0,0:0:0:0:
0,208,139567,1,0,0:0:0:0:
32,272,139643,1,0,0:0:0:0:
64,208,139718,1,0,0:0:0:0:
384,208,139869,5,0,0:0:0:0:
416,272,139944,1,0,0:0:0:0:
448,208,140020,1,0,0:0:0:0:
480,272,140095,1,0,0:0:0:0:
512,208,140170,1,0,0:0:0:0:
480,272,140246,1,0,0:0:0:0:
448,208,140321,1,0,0:0:0:0:
256,208,140472,5,0,0:0:0:0:
256,208,140623,1,0,0:0:0:0:
112,176,140773,1,0,0:0:0:0:
80,112,140849,1,0,0:0:0:0:
48,256,140924,1,0,0:0:0:0:
32,192,141000,1,0,0:0:0:0:
48,128,141075,1,0,0:0:0:0:
80,112,141150,1,0,0:0:0:0:
112,176,141226,1,0,0:0:0:0:
160,240,141301,1,0,0:0:0:0:
224,288,141376,1,0,0:0:0:0:
384,272,141527,1,0,0:0:0:0:
256,208,141678,5,0,0:0:0:0:
256,208,141829,1,0,0:0:0:0:
400,176,141979,1,0,0:0:0:0:
432,112,142055,1,0,0:0:0:0:
464,256,142130,1,0,0:0:0:0:
480,192,142206,1,0,0:0:0:0:
464,128,142281,1,0,0:0:0:0:
432,112,142356,1,0,0:0:0:0:
400,176,142432,1,0,0:0:0:0:
352,240,142507,1,0,0:0:0:0:
288,288,142582,1,0,0:0:0:0:
128,272,142733,1,0,0:0:0:0:
96,128,142884,5,0,0:0:0:0:
96,192,142959,1,0,0:0:0:0:
128,128,143035,1,0,0:0:0:0:
128,192,143110,1,0,0:0:0:0:
192,160,143185,1,0,0:0:0:0:
416,128,143336,5,0,0:0:0:0:
416,192,143411,1,0,0:0:0:0:
384,128,143487,1,0,0:0:0:0:
384,192,143562,1,0,0:0:0:0:
320,160,143637,1,0,0:0:0:0:
64,272,143788,5,0,0:0:0:0:
64,336,143863,1,0,0:0:0:0:
128,272,143939,1,0,0:0:0:0:
128,336,144014,1,0,0:0:0:0:
192,336,144089,1,0,0:0:0:0:
448,272,144241,5,0,0:0:0:0:
448,336,144316,1,0,0:0:0:0:
384,272,144392,1,0,0:0:0:0:
384,336,144467,1,0,0:0:0:0:
320,336,144542,1,0,0:0:0:0:
256,224,144693,5,0,0:0:0:0:
240,160,144768,1,0,0:0:0:0:
272,176,144844,1,0,0:0:0:0:
240,160,144919,1,0,0:0:0:0:
272,176,144994,1,0,0:0:0:0:
112,128,145295,5,0,0:0:0:0:
176,288,145596,1,2,0:0:0:0:
352,288,145898,1,2,0:0:0:0:
400,112,146199,1,0,0:0:0:0:
336,272,146501,1,2,0:0:0:0:
160,272,146802,1,2,0:0:0:0:
48,128,147104,5,0,0:0:0:0:
96,304,147405,1,0,0:0:0:0:
144,128,147707,1,0,0:0:0:0:
368,128,148008,1,2,0:0:0:0:
416,304,148310,1,2,0:0:0:0:
464,128,148611,1,0,0:0:0:0:
256,208,148913,5,2,0:0:0:0:
64,208,149214,1,2,0:0:0:0:
448,208,149516,1,0,0:0:0:0:
64,208,149817,1,2,0:0:0:0:
128,32,150119,5,2,0:0:0:0:
256,32,150420,1,0,0:0:0:0:
384,32,150722,1,2,0:0:0:0:
432,192,151023,1,2,0:0:0:0:
256,192,151325,5,0,0:0:0:0:
80,192,151626,1,2,0:0:0:0:
144,32,151928,1,2,0:0:0:0:
256,176,152229,1,0,0:0:0:0:
368,32,152531,5,0,0:0:0:0:
144,32,152832,1,2,0:0:0:0:
368,32,153134,1,2,0:0:0:0:
256,160,153435,5,0,0:0:0:0:
480,160,153737,1,2,0:0:0:0:
480,160,154038,1,2,0:0:0:0:
256,224,154340,5,0,0:0:0:0:
256,224,154641,1,2,0:0:0:0:
80,224,154943,1,2,0:0:0:0:
256,224,155244,1,0,0:0:0:0:
432,224,155546,1,2,0:0:0:0:
256,224,155847,1,2,0:0:0:0:
208,128,156149,5,0,0:0:0:0:
112,128,156300,1,0,0:0:0:0:
208,128,156450,1,2,0:0:0:0:
256,320,156752,1,2,0:0:0:0:
304,128,157053,1,0,0:0:0:0:
400,128,157204,1,0,0:0:0:0:
304,128,157355,1,2,0:0:0:0:
256,320,157656,1,2,0:0:0:0:
96,256,157958,5,0,0:0:0:0:
256,256,158109,1,0,0:0:0:0:
416,256,158259,1,2,0:0:0:0:
256,176,158561,1,2,0:0:0:0:
480,32,158862,1,0,0:0:0:0:
256,32,159013,1,0,0:0:0:0:
32,32,159164,1,2,0:0:0:0:
256,32,159465,1,2,0:0:0:0:
112,80,159767,5,0,0:0:0:0:
480,80,160068,1,0,0:0:0:0:
96,144,160370,1,2,0:0:0:0:
464,144,160671,1,2,0:0:0:0:
80,208,160973,5,0,0:0:0:0:
448,208,161274,1,2,0:0:0:0:
48,48,161576,5,2,0:0:0:0:
48,176,161802,1,0,0:0:0:0:
128,176,161877,1,2,0:0:0:0:
128,176,162104,1,0,0:0:0:0:
208,176,162179,1,2,0:0:0:0:
208,176,162405,1,0,0:0:0:0:
288,176,162480,1,2,0:0:0:0:
288,176,162707,1,0,0:0:0:0:
368,176,162782,1,2,0:0:0:0:
368,176,163008,1,0,0:0:0:0:
448,176,163083,1,2,0:0:0:0:
368,64,163385,5,0,0:0:0:0:
144,64,163686,1,2,0:0:0:0:
448,64,163988,1,2,0:0:0:0:
64,64,164289,1,0,0:0:0:0:
448,64,164591,5,2,0:0:0:0:
304,176,164892,1,2,0:0:0:0:
464,256,165194,1,0,0:0:0:0:
320,144,165496,1,2,0:0:0:0:
416,192,165722,1,0,0:0:0:0:
416,192,165797,1,2,0:0:0:0:
144,192,166099,5,0,0:0:0:0:
320,192,166400,1,2,0:0:0:0:
144,192,166702,1,2,0:0:0:0:
64,352,167003,5,0,0:0:0:0:
192,304,167229,1,0,0:0:0:0:
192,304,167305,1,2,0:0:0:0:
144,208,167531,1,0,0:0:0:0:
144,208,167606,1,2,0:0:0:0:
448,352,167908,5,0,0:0:0:0:
320,304,168134,1,0,0:0:0:0:
320,304,168210,1,2,0:0:0:0:
416,208,168436,1,0,0:0:0:0:
416,208,168511,1,2,0:0:0:0:
240,176,168812,5,0,0:0:0:0:
144,80,169038,1,0,0:0:0:0:
144,80,169114,1,2,0:0:0:0:
48,176,169340,1,0,0:0:0:0:
48,176,169415,1,2,0:0:0:0:
272,176,169717,5,0,0:0:0:0:
368,80,169943,1,0,0:0:0:0:
368,80,170018,1,2,0:0:0:0:
464,176,170245,1,0,0:0:0:0:
464,176,170320,1,2,0:0:0:0:
256,272,170621,5,0,0:0:0:0:
352,144,170923,1,0,0:0:0:0:
160,144,171224,1,2,0:0:0:0:
464,144,171526,1,2,0:0:0:0:
48,144,171827,1,0,0:0:0:0:
464,144,172129,1,2,0:0:0:0:
48,144,172430,5,2,0:0:0:0:
256,144,172732,1,0,0:0:0:0:
256,144,172882,1,0,0:0:0:0:
256,144,173033,1,0,0:0:0:0:
416,336,173335,5,0,0:0:0:0:
512,304,173485,1,0,0:0:0:0:
288,304,173636,1,0,0:0:0:0:
384,288,173787,1,0,0:0:0:0:
160,288,173938,1,0,0:0:0:0:
256,272,174088,1,0,0:0:0:0:
32,272,174230,5,0,0:0:0:0:
80,240,174305,1,0,0:0:0:0:
112,192,174380,1,0,0:0:0:0:
256,192,174531,1,0,0:0:0:0:
400,192,174682,1,0,0:0:0:0:
448,160,174757,1,0,0:0:0:0:
480,112,174833,1,0,0:0:0:0:
320,112,174983,1,0,0:0:0:0:
480,112,175134,5,0,0:0:0:0:
416,112,175209,1,0,0:0:0:0:
352,112,175285,1,0,0:0:0:0:
256,112,175436,1,0,0:0:0:0:
32,112,175586,1,0,0:0:0:0:
96,112,175662,1,0,0:0:0:0:
160,112,175737,1,0,0:0:0:0:
256,112,175888,1,0,0:0:0:0:
144,160,176039,5,0,0:0:0:0:
144,160,176189,1,0,0:0:0:0:
368,160,176340,1,0,0:0:0:0:
368,160,176491,1,0,0:0:0:0:
480,272,176642,5,0,0:0:0:0:
432,240,176717,1,0,0:0:0:0:
400,192,176792,1,0,0:0:0:0:
256,192,176943,1,0,0:0:0:0:
112,192,177094,1,0,0:0:0:0:
64,160,177169,1,0,0:0:0:0:
32,112,177245,1,0,0:0:0:0:
192,112,177395,1,0,0:0:0:0:
32,112,177546,5,0,0:0:0:0:
96,112,177621,1,0,0:0:0:0:
160,112,177697,1,0,0:0:0:0:
256,112,177848,1,0,0:0:0:0:
480,112,177998,1,0,0:0:0:0:
416,112,178074,1,0,0:0:0:0:
352,112,178149,1,0,0:0:0:0:
256,112,178300,1,0,0:0:0:0:
368,160,178451,5,0,0:0:0:0:
368,160,178601,1,0,0:0:0:0:
144,160,178752,1,0,0:0:0:0:
144,160,178903,1,0,0:0:0:0:
112,272,179054,5,0,0:0:0:0:
80,224,179129,1,0,0:0:0:0:
48,176,179204,1,0,0:0:0:0:
192,176,179355,1,0,0:0:0:0:
336,176,179506,1,0,0:0:0:0:
304,224,179581,1,0,0:0:0:0:
272,272,179657,1,0,0:0:0:0:
416,272,179807,1,0,0:0:0:0:
272,272,179958,5,0,0:0:0:0:
240,224,180034,1,0,0:0:0:0:
208,176,180109,1,0,0:0:0:0:
352,176,180260,1,0,0:0:0:0:
496,176,180410,1,0,0:0:0:0:
464,224,180486,1,0,0:0:0:0:
432,272,180561,1,0,0:0:0:0:
288,272,180712,1,0,0:0:0:0:
144,272,180863,5,0,0:0:0:0:
64,192,181013,1,0,0:0:0:0:
368,272,181164,1,0,0:0:0:0:
448,192,181315,1,0,0:0:0:0:
400,272,181466,5,0,0:0:0:0:
432,224,181541,1,0,0:0:0:0:
464,176,181616,1,0,0:0:0:0:
320,176,181767,1,0,0:0:0:0:
176,176,181918,1,0,0:0:0:0:
208,224,181993,1,0,0:0:0:0:
240,272,182069,1,0,0:0:0:0:
96,272,182219,1,0,0:0:0:0:
240,272,182370,5,0,0:0:0:0:
272,224,182446,1,0,0:0:0:0:
304,176,182521,1,0,0:0:0:0:
160,176,182672,1,0,0:0:0:0:
16,176,182822,1,0,0:0:0:0:
48,224,182898,1,0,0:0:0:0:
80,272,182973,1,0,0:0:0:0:
224,272,183124,1,0,0:0:0:0:
368,272,183275,1,0,0:0:0:0:
448,192,183425,1,0,0:0:0:0:
144,272,183576,1,0,0:0:0:0:
64,192,183727,1,0,0:0:0:0:
48,80,183878,5,0,0:0:0:0:
48,112,183953,1,0,0:0:0:0:
48,144,184028,1,0,0:0:0:0:
192,144,184179,1,0,0:0:0:0:
464,80,184330,1,0,0:0:0:0:
464,112,184405,1,0,0:0:0:0:
464,144,184481,1,0,0:0:0:0:
320,144,184632,1,0,0:0:0:0:
48,80,184782,5,0,0:0:0:0:
48,96,184858,1,0,0:0:0:0:
48,112,184933,1,0,0:0:0:0:
192,144,185084,1,0,0:0:0:0:
464,80,185235,1,0,0:0:0:0:
464,96,185310,1,0,0:0:0:0:
464,112,185385,1,0,0:0:0:0:
320,144,185536,1,0,0:0:0:0:
96,352,185687,5,0,0:0:0:0:
112,240,185838,1,0,0:0:0:0:
288,240,185988,1,0,0:0:0:0:
304,352,186139,1,0,0:0:0:0:
464,80,186290,5,0,0:0:0:0:
464,112,186365,1,0,0:0:0:0:
464,144,186440,1,0,0:0:0:0:
320,144,186591,1,0,0:0:0:0:
48,80,186742,1,0,0:0:0:0:
48,112,186817,1,0,0:0:0:0:
48,144,186893,1,0,0:0:0:0:
192,144,187044,1,0,0:0:0:0:
464,80,187194,5,0,0:0:0:0:
464,96,187270,1,0,0:0:0:0:
464,112,187345,1,0,0:0:0:0:
320,144,187496,1,0,0:0:0:0:
48,80,187647,1,0,0:0:0:0:
48,96,187722,1,0,0:0:0:0:
48,112,187797,1,0,0:0:0:0:
192,144,187948,1,0,0:0:0:0:
416,352,188099,5,0,0:0:0:0:
400,240,188250,1,0,0:0:0:0:
224,240,188400,1,0,0:0:0:0:
208,352,188551,1,0,0:0:0:0:
32,352,188702,5,0,0:0:0:0:
96,352,188777,1,0,0:0:0:0:
160,352,188853,1,0,0:0:0:0:
32,352,189003,1,0,0:0:0:0:
352,352,189154,1,0,0:0:0:0:
416,352,189230,1,0,0:0:0:0:
480,352,189305,1,0,0:0:0:0:
352,352,189456,1,0,0:0:0:0:
192,304,189606,5,0,0:0:0:0:
176,256,189682,1,0,0:0:0:0:
128,224,189757,1,0,0:0:0:0:
256,224,189908,1,0,0:0:0:0:
320,304,190059,1,0,0:0:0:0:
352,256,190134,1,0,0:0:0:0:
400,224,190209,1,0,0:0:0:0:
256,224,190360,1,0,0:0:0:0:
128,224,190511,5,0,0:0:0:0:
128,224,190662,1,0,0:0:0:0:
400,224,190812,1,0,0:0:0:0:
400,224,190963,1,0,0:0:0:0:
352,112,191114,5,0,0:0:0:0:
384,160,191189,1,0,0:0:0:0:
352,112,191265,1,0,0:0:0:0:
256,48,191415,1,0,0:0:0:0:
144,112,191566,1,0,0:0:0:0:
96,160,191642,1,0,0:0:0:0:
144,192,191717,1,0,0:0:0:0:
256,48,191868,1,0,0:0:0:0:
384,112,192018,1,0,0:0:0:0:
448,160,192094,1,0,0:0:0:0:
384,192,192169,1,0,0:0:0:0:
256,48,192320,1,0,0:0:0:0:
112,112,192471,1,0,0:0:0:0:
256,192,192546,12,0,193224,0:0:0:0:
352,80,193526,5,0,0:0:0:0:
192,80,193827,1,0,0:0:0:0:
32,80,194129,1,0,0:0:0:0:
32,80,194431,1,0,0:0:0:0:
464,80,194732,1,0,0:0:0:0:
288,80,195034,1,0,0:0:0:0:
112,80,195335,1,0,0:0:0:0:
112,80,195637,1,0,0:0:0:0:
160,80,195938,5,0,0:0:0:0:
320,80,196239,1,0,0:0:0:0:
480,80,196541,1,0,0:0:0:0:
480,80,196843,1,0,0:0:0:0:
48,80,197144,1,0,0:0:0:0:
224,80,197446,1,0,0:0:0:0:
400,80,197747,1,0,0:0:0:0:
400,80,198049,1,0,0:0:0:0:
208,144,198350,5,0,0:0:0:0:
144,208,198501,1,0,0:0:0:0:
208,144,198652,1,0,0:0:0:0:
256,224,198802,1,0,0:0:0:0:
304,144,198953,1,0,0:0:0:0:
368,208,199104,1,0,0:0:0:0:
304,144,199255,1,0,0:0:0:0:
256,224,199405,1,0,0:0:0:0:
192,160,199556,5,0,0:0:0:0:
96,160,199707,1,0,0:0:0:0:
192,160,199858,1,0,0:0:0:0:
256,224,200008,1,0,0:0:0:0:
320,160,200159,1,0,0:0:0:0:
416,160,200310,1,0,0:0:0:0:
320,160,200461,1,0,0:0:0:0:
256,224,200611,1,0,0:0:0:0:
160,208,200762,5,0,0:0:0:0:
64,176,200913,1,0,0:0:0:0:
240,160,201064,1,0,0:0:0:0:
144,128,201214,1,0,0:0:0:0:
320,112,201365,1,0,0:0:0:0:
224,80,201516,1,0,0:0:0:0:
400,80,201667,1,0,0:0:0:0:
304,48,201817,1,0,0:0:0:0:
480,80,201968,5,0,0:0:0:0:
448,112,202044,1,0,0:0:0:0:
416,144,202119,1,0,0:0:0:0:
384,176,202194,1,0,0:0:0:0:
352,208,202270,1,0,0:0:0:0:
320,240,202345,1,0,0:0:0:0:
288,272,202420,1,0,0:0:0:0:
256,304,202496,1,0,0:0:0:0:
224,272,202571,1,0,0:0:0:0:
192,240,202647,1,0,0:0:0:0:
160,208,202722,1,0,0:0:0:0:
128,176,202797,1,0,0:0:0:0:
96,144,202873,1,0,0:0:0:0:
64,112,202948,1,0,0:0:0:0:
32,80,203023,1,0,0:0:0:0:
64,48,203099,1,0,0:0:0:0:
128,48,203170,5,0,0:0:0:0:
128,112,203245,1,0,0:0:0:0:
128,48,203320,1,0,0:0:0:0:
256,48,203471,1,0,0:0:0:0:
384,48,203622,1,0,0:0:0:0:
384,112,203697,1,0,0:0:0:0:
384,48,203773,1,0,0:0:0:0:
480,112,203923,1,0,0:0:0:0:
336,112,204074,1,0,0:0:0:0:
336,176,204149,1,0,0:0:0:0:
336,112,204225,1,0,0:0:0:0:
384,48,204376,5,0,0:0:0:0:
384,112,204451,1,0,0:0:0:0:
384,48,204526,1,0,0:0:0:0:
256,48,204677,1,0,0:0:0:0:
128,48,204828,1,0,0:0:0:0:
128,112,204903,1,0,0:0:0:0:
128,48,204979,1,0,0:0:0:0:
32,112,205129,1,0,0:0:0:0:
176,112,205280,1,0,0:0:0:0:
176,176,205355,1,0,0:0:0:0:
176,112,205431,1,0,0:0:0:0:
480,192,205582,5,0,0:0:0:0:
336,208,205732,1,0,0:0:0:0:
272,208,205808,1,0,0:0:0:0:
304,256,205883,1,0,0:0:0:0:
256,368,206034,1,0,0:0:0:0:
176,288,206185,1,0,0:0:0:0:
240,288,206260,1,0,0:0:0:0:
208,336,206335,1,0,0:0:0:0:
160,224,206486,1,0,0:0:0:0:
256,304,206637,1,0,0:0:0:0:
368,224,206788,5,0,0:0:0:0:
352,160,206863,1,0,0:0:0:0:
368,112,206938,1,0,0:0:0:0:
336,80,207014,1,0,0:0:0:0:
368,64,207089,1,0,0:0:0:0:
480,144,207240,1,0,0:0:0:0:
224,240,207391,5,0,0:0:0:0:
240,176,207466,1,0,0:0:0:0:
208,128,207541,1,0,0:0:0:0:
240,96,207617,1,0,0:0:0:0:
208,80,207692,1,0,0:0:0:0:
48,80,207843,1,0,0:0:0:0:
208,48,207994,5,0,0:0:0:0:
96,48,208144,1,0,0:0:0:0:
64,96,208220,1,0,0:0:0:0:
32,144,208295,1,0,0:0:0:0:
256,48,208446,1,0,0:0:0:0:
304,96,208521,1,0,0:0:0:0:
352,144,208597,1,0,0:0:0:0:
112,96,208747,1,0,0:0:0:0:
80,144,208823,1,0,0:0:0:0:
48,192,208898,1,0,0:0:0:0:
176,192,209049,1,0,0:0:0:0:
304,48,209200,5,0,0:0:0:0:
416,48,209350,1,0,0:0:0:0:
448,96,209426,1,0,0:0:0:0:
480,144,209501,1,0,0:0:0:0:
256,48,209652,1,0,0:0:0:0:
208,96,209727,1,0,0:0:0:0:
160,144,209803,1,0,0:0:0:0:
400,96,209953,1,0,0:0:0:0:
432,144,210029,1,0,0:0:0:0:
464,192,210104,1,0,0:0:0:0:
304,192,210255,1,0,0:0:0:0:
208,272,210406,5,0,0:0:0:0:
208,208,210481,1,0,0:0:0:0:
208,272,210556,1,0,0:0:0:0:
208,208,210632,1,0,0:0:0:0:
304,272,210707,5,0,0:0:0:0:
304,208,210782,1,0,0:0:0:0:
304,272,210857,1,0,0:0:0:0:
304,208,210933,1,0,0:0:0:0:
160,272,211009,5,0,0:0:0:0:
160,208,211084,1,0,0:0:0:0:
160,272,211159,1,0,0:0:0:0:
160,208,211235,1,0,0:0:0:0:
352,272,211310,5,0,0:0:0:0:
352,208,211385,1,0,0:0:0:0:
352,272,211460,1,0,0:0:0:0:
352,208,211536,1,0,0:0:0:0:
112,272,211612,5,0,0:0:0:0:
112,208,211687,1,0,0:0:0:0:
112,272,211762,1,0,0:0:0:0:
112,208,211838,1,0,0:0:0:0:
400,272,211913,5,0,0:0:0:0:
400,208,211988,1,0,0:0:0:0:
400,272,212063,1,0,0:0:0:0:
400,208,212139,1,0,0:0:0:0:
448,96,212215,1,0,0:0:0:0:
320,96,212365,1,0,0:0:0:0:
192,96,212516,1,0,0:0:0:0:
64,96,212667,1,0,0:0:0:0:
32,240,212818,5,0,0:0:0:0:
96,240,212893,1,0,0:0:0:0:
160,240,212968,1,0,0:0:0:0:
224,240,213044,1,0,0:0:0:0:
288,240,213119,1,0,0:0:0:0:
352,240,213195,1,0,0:0:0:0:
416,240,213270,1,0,0:0:0:0:
480,240,213345,1,0,0:0:0:0:
480,240,213421,1,0,0:0:0:0:
416,240,213496,1,0,0:0:0:0:
352,240,213571,1,0,0:0:0:0:
288,240,213647,1,0,0:0:0:0:
224,240,213722,1,0,0:0:0:0:
160,240,213797,1,0,0:0:0:0:
96,240,213873,1,0,0:0:0:0:
32,240,213948,1,0,0:0:0:0:
48,176,214024,5,0,0:0:0:0:
112,176,214099,1,0,0:0:0:0:
144,112,214175,1,0,0:0:0:0:
208,112,214250,1,0,0:0:0:0:
240,176,214325,1,0,0:0:0:0:
304,176,214401,1,0,0:0:0:0:
336,112,214476,1,0,0:0:0:0:
400,112,214551,1,0,0:0:0:0:
480,112,214627,1,0,0:0:0:0:
416,112,214702,1,0,0:0:0:0:
384,48,214778,1,0,0:0:0:0:
320,48,214853,1,0,0:0:0:0:
288,112,214928,1,0,0:0:0:0:
224,112,215004,1,0,0:0:0:0:
192,48,215079,1,0,0:0:0:0:
128,48,215154,1,0,0:0:0:0:
96,112,215230,5,0,0:0:0:0:
64,48,215305,1,0,0:0:0:0:
96,112,215381,1,0,0:0:0:0:
64,48,215456,1,0,0:0:0:0:
160,208,215531,1,0,0:0:0:0:
208,160,215607,1,0,0:0:0:0:
160,208,215682,1,0,0:0:0:0:
208,160,215757,1,0,0:0:0:0:
304,224,215833,1,0,0:0:0:0:
256,176,215909,1,0,0:0:0:0:
304,224,215984,1,0,0:0:0:0:
256,176,216059,1,0,0:0:0:0:
352,224,216134,1,0,0:0:0:0:
384,160,216210,1,0,0:0:0:0:
352,224,216285,1,0,0:0:0:0:
384,160,216360,1,0,0:0:0:0:
464,160,216436,5,0,0:0:0:0:
448,96,216511,1,0,0:0:0:0:
432,32,216587,1,0,0:0:0:0:
416,96,216662,1,0,0:0:0:0:
336,96,216737,1,0,0:0:0:0:
320,160,216813,1,0,0:0:0:0:
304,96,216888,1,0,0:0:0:0:
288,32,216963,1,0,0:0:0:0:
208,32,217039,1,0,0:0:0:0:
192,96,217114,1,0,0:0:0:0:
176,160,217190,1,0,0:0:0:0:
160,224,217265,1,0,0:0:0:0:
80,224,217340,1,0,0:0:0:0:
64,160,217416,1,0,0:0:0:0:
48,96,217491,1,0,0:0:0:0:
32,32,217566,1,0,0:0:0:0:
80,32,217642,5,0,0:0:0:0:
32,64,217717,1,0,0:0:0:0:
96,64,217793,1,0,0:0:0:0:
48,96,217868,1,0,0:0:0:0:
112,96,217943,1,0,0:0:0:0:
64,128,218019,1,0,0:0:0:0:
144,128,218094,1,0,0:0:0:0:
112,160,218170,1,0,0:0:0:0:
176,160,218245,1,0,0:0:0:0:
144,192,218320,1,0,0:0:0:0:
208,192,218396,1,0,0:0:0:0:
176,256,218471,1,0,0:0:0:0:
224,240,218546,1,0,0:0:0:0:
208,304,218622,1,0,0:0:0:0:
240,288,218697,1,0,0:0:0:0:
240,368,218773,1,0,0:0:0:0:
256,336,218848,5,0,0:0:0:0:
272,368,218923,1,0,0:0:0:0:
272,288,218999,1,0,0:0:0:0:
288,320,219074,1,0,0:0:0:0:
288,240,219149,1,0,0:0:0:0:
336,272,219225,1,0,0:0:0:0:
320,192,219300,1,0,0:0:0:0:
368,224,219376,1,0,0:0:0:0:
352,160,219451,1,0,0:0:0:0:
400,192,219526,1,0,0:0:0:0:
384,128,219602,1,0,0:0:0:0:
432,144,219677,1,0,0:0:0:0:
400,96,219752,1,0,0:0:0:0:
448,112,219828,1,0,0:0:0:0:
416,64,219903,1,0,0:0:0:0:
464,64,219979,1,0,0:0:0:0:
256,32,220054,5,0,0:0:0:0:
240,96,220129,1,0,0:0:0:0:
256,32,220205,1,0,0:0:0:0:
272,96,220280,1,0,0:0:0:0:
256,32,220355,1,0,0:0:0:0:
224,96,220431,1,0,0:0:0:0:
256,32,220506,1,0,0:0:0:0:
288,96,220582,1,0,0:0:0:0:
256,32,220657,1,0,0:0:0:0:
208,80,220732,1,0,0:0:0:0:
256,32,220808,1,0,0:0:0:0:
304,80,220883,1,0,0:0:0:0:
256,32,220958,1,0,0:0:0:0:
192,64,221034,1,0,0:0:0:0:
256,32,221109,1,0,0:0:0:0:
320,64,221185,1,0,0:0:0:0:
256,32,221260,5,0,0:0:0:0:
176,32,221335,1,0,0:0:0:0:
256,32,221411,1,0,0:0:0:0:
336,32,221486,1,0,0:0:0:0:
256,32,221561,1,0,0:0:0:0:
192,64,221637,1,0,0:0:0:0:
256,32,221712,1,0,0:0:0:0:
320,64,221788,1,0,0:0:0:0:
256,32,221863,1,0,0:0:0:0:
208,80,221938,1,0,0:0:0:0:
256,32,222014,1,0,0:0:0:0:
304,80,222089,1,0,0:0:0:0:
256,32,222164,1,0,0:0:0:0:
224,96,222240,1,0,0:0:0:0:
256,32,222315,1,0,0:0:0:0:
288,96,222391,1,0,0:0:0:0:
256,32,222466,5,0,0:0:0:0:
256,192,234190,5,0,0:0:0:0:
80,192,234491,1,0,0:0:0:0:
160,112,234793,1,0,0:0:0:0:
336,112,235094,1,0,0:0:0:0:
432,192,235396,6,0,B|432:176,16,12.5
256,192,236300,1,0,0:0:0:0:
80,192,236602,2,0,B|80:176,16,12.5
192,192,237506,1,0,0:0:0:0:
304,176,237808,5,0,0:0:0:0:
416,176,238109,1,0,0:0:0:0:
256,176,238411,1,0,0:0:0:0:
96,176,238712,1,0,0:0:0:0:
256,176,239014,1,0,0:0:0:0:
256,192,239164,12,0,243536,0:0:0:0:
192,176,243838,5,0,0:0:0:0:
128,64,244139,1,0,0:0:0:0:
320,176,244441,1,0,0:0:0:0:
384,64,244742,1,0,0:0:0:0:
192,176,245044,1,0,0:0:0:0:
128,64,245345,1,0,0:0:0:0:
320,176,245647,1,0,0:0:0:0:
384,64,245948,1,0,0:0:0:0:
432,176,246250,5,0,0:0:0:0:
352,256,246551,1,0,0:0:0:0:
160,256,246853,1,0,0:0:0:0:
80,176,247154,1,0,0:0:0:0:
192,128,247456,1,0,0:0:0:0:
320,128,247757,1,0,0:0:0:0:
432,176,248059,1,0,0:0:0:0:
352,256,248360,1,0,0:0:0:0:
208,256,248662,5,0,0:0:0:0:
128,256,248813,1,0,0:0:0:0:
304,256,248963,1,0,0:0:0:0:
384,256,249114,1,0,0:0:0:0:
304,256,249265,1,0,0:0:0:0:
384,256,249416,1,0,0:0:0:0:
208,256,249566,1,0,0:0:0:0:
128,256,249717,1,0,0:0:0:0:
48,256,249868,5,0,0:0:0:0:
128,160,250019,1,0,0:0:0:0:
464,256,250169,1,0,0:0:0:0:
384,160,250320,1,0,0:0:0:0:
464,256,250471,1,0,0:0:0:0:
384,160,250622,1,0,0:0:0:0:
48,256,250772,1,0,0:0:0:0:
128,160,250923,1,0,0:0:0:0:
464,160,251074,5,0,0:0:0:0:
256,288,251677,1,0,0:0:0:0:
48,176,252280,1,0,0:0:0:0:
256,192,252431,12,0,253184,0:0:0:0:
256,80,253486,5,0,0:0:0:0:
144,96,253787,1,0,0:0:0:0:
32,112,254089,1,0,0:0:0:0:
144,96,254391,1,0,0:0:0:0:
208,208,254692,1,0,0:0:0:0:
320,192,254994,1,0,0:0:0:0:
432,176,255295,1,0,0:0:0:0:
320,192,255597,1,0,0:0:0:0:
256,288,255898,5,0,0:0:0:0:
128,288,256200,1,0,0:0:0:0:
256,288,256501,1,0,0:0:0:0:
384,288,256803,1,0,0:0:0:0:
208,288,257104,1,0,0:0:0:0:
80,288,257406,1,0,0:0:0:0:
304,288,257707,1,0,0:0:0:0:
432,288,258009,1,0,0:0:0:0:
368,192,258310,5,0,0:0:0:0:
240,192,258612,1,0,0:0:0:0:
256,80,258913,1,0,0:0:0:0:
384,80,259215,1,0,0:0:0:0:
272,144,259516,1,0,0:0:0:0:
144,144,259818,1,0,0:0:0:0:
160,32,260119,1,0,0:0:0:0:
288,32,260421,1,0,0:0:0:0:
400,32,260722,5,0,0:0:0:0:
384,144,261024,1,0,0:0:0:0:
256,224,261325,1,0,0:0:0:0:
128,144,261627,1,0,0:0:0:0:
112,32,261928,1,0,0:0:0:0:
352,32,263134,5,0,0:0:0:0:
464,160,263436,1,0,0:0:0:0:
48,160,263737,1,0,0:0:0:0:
160,288,264039,1,0,0:0:0:0:
352,32,264340,1,0,0:0:0:0:
464,160,264642,1,0,0:0:0:0:
48,160,264943,1,0,0:0:0:0:
160,288,265245,1,0,0:0:0:0:
320,96,265546,5,0,0:0:0:0:
432,96,265848,1,0,0:0:0:0:
432,208,266149,1,0,0:0:0:0:
320,208,266451,1,0,0:0:0:0:
192,208,266752,1,0,0:0:0:0:
80,208,267054,1,0,0:0:0:0:
80,96,267355,1,0,0:0:0:0:
192,96,267657,1,0,0:0:0:0:
304,144,267958,5,0,0:0:0:0:
368,144,268109,1,0,0:0:0:0:
304,144,268260,1,0,0:0:0:0:
240,144,268411,1,0,0:0:0:0:
208,192,268561,1,0,0:0:0:0:
144,192,268712,1,0,0:0:0:0:
208,192,268863,1,0,0:0:0:0:
272,192,269014,1,0,0:0:0:0:
304,240,269164,5,0,0:0:0:0:
240,240,269315,1,0,0:0:0:0:
304,240,269466,1,0,0:0:0:0:
368,240,269617,1,0,0:0:0:0:
208,288,269767,1,0,0:0:0:0:
272,288,269918,1,0,0:0:0:0:
208,288,270069,1,0,0:0:0:0:
144,288,270220,1,0,0:0:0:0:
112,240,270370,5,0,0:0:0:0:
400,240,270973,1,0,0:0:0:0:
176,144,271576,1,0,0:0:0:0:
176,144,271727,1,0,0:0:0:0:
176,144,271878,1,0,0:0:0:0:
176,144,272029,1,0,0:0:0:0:
336,144,272179,1,0,0:0:0:0:
336,144,272330,1,0,0:0:0:0:
336,144,272481,1,0,0:0:0:0:
336,144,272632,1,0,0:0:0:0:
256,240,272770,5,0,0:0:0:0:
432,192,282406,5,0,0:0:0:0:
256,192,282707,1,0,0:0:0:0:
320,128,283008,1,0,0:0:0:0:
224,240,283309,1,0,0:0:0:0:
288,128,283610,1,0,0:0:0:0:
192,288,283911,1,0,0:0:0:0:
256,128,284212,1,0,0:0:0:0:
160,336,284514,1,0,0:0:0:0:
352,192,284815,5,0,0:0:0:0:
176,192,285116,1,0,0:0:0:0:
240,128,285417,1,0,0:0:0:0:
144,240,285718,1,0,0:0:0:0:
208,128,286019,1,0,0:0:0:0:
112,288,286320,1,0,0:0:0:0:
176,128,286621,1,0,0:0:0:0:
80,336,286923,1,0,0:0:0:0:
80,224,287073,1,0,0:0:0:0:
48,96,287224,5,0,0:0:0:0:
160,96,287374,1,0,0:0:0:0:
272,96,287525,1,0,0:0:0:0:
160,96,287675,1,0,0:0:0:0:
80,192,287826,1,0,0:0:0:0:
192,192,287977,1,0,0:0:0:0:
304,192,288127,1,0,0:0:0:0:
192,192,288278,1,0,0:0:0:0:
112,288,288428,5,0,0:0:0:0:
224,272,288579,1,0,0:0:0:0:
336,272,288729,1,0,0:0:0:0:
224,272,288880,1,0,0:0:0:0:
144,352,289030,1,0,0:0:0:0:
256,336,289181,1,0,0:0:0:0:
368,368,289332,1,0,0:0:0:0:
256,336,289482,1,0,0:0:0:0:
368,320,289633,5,0,0:0:0:0:
368,208,289783,1,0,0:0:0:0:
368,336,289934,1,0,0:0:0:0:
368,224,290084,1,0,0:0:0:0:
144,208,290235,1,0,0:0:0:0:
144,80,290386,1,0,0:0:0:0:
144,192,290536,1,0,0:0:0:0:
144,64,290687,1,0,0:0:0:0:
96,176,290837,5,0,0:0:0:0:
32,80,290988,1,0,0:0:0:0:
144,112,291138,1,0,0:0:0:0:
272,112,291289,1,0,0:0:0:0:
416,176,291440,5,0,0:0:0:0:
480,80,291591,1,0,0:0:0:0:
368,112,291741,1,0,0:0:0:0:
240,112,291892,1,0,0:0:0:0:
256,192,292042,12,0,300323,0:0:0:0:
320,176,300473,6,0,B|320:144,22,25
288,240,301452,1,0,0:0:0:0:
224,224,301527,1,0,0:0:0:0:
160,224,301602,1,0,0:0:0:0:
96,224,301678,1,0,0:0:0:0:
32,224,301753,1,0,0:0:0:0:
96,192,301828,1,0,0:0:0:0:
160,192,301903,1,0,0:0:0:0:
224,176,301979,1,0,0:0:0:0:
288,144,302054,1,0,0:0:0:0:
352,144,302129,1,0,0:0:0:0:
416,144,302205,1,0,0:0:0:0:
480,144,302280,1,0,0:0:0:0:
128,64,323781,5,0,0:0:0:0:
160,176,324083,1,0,0:0:0:0:
192,64,324384,1,0,0:0:0:0:
224,176,324686,1,0,0:0:0:0:
160,176,324987,1,0,0:0:0:0:
96,176,325289,1,0,0:0:0:0:
384,64,326193,5,0,0:0:0:0:
352,176,326495,1,0,0:0:0:0:
320,64,326796,1,0,0:0:0:0:
288,176,327098,1,0,0:0:0:0:
224,176,327399,1,0,0:0:0:0:
160,176,327701,1,0,0:0:0:0:
96,176,328002,1,0,0:0:0:0:
112,64,328304,5,0,0:0:0:0:
160,240,328756,1,0,0:0:0:0:
112,64,329208,1,0,0:0:0:0:
240,64,329510,1,0,0:0:0:0:
272,176,329811,1,0,0:0:0:0:
304,288,330113,1,0,0:0:0:0:
384,192,330414,5,0,0:0:0:0:
384,192,330565,1,0,0:0:0:0:
384,192,330716,1,0,0:0:0:0:
272,192,331017,1,0,0:0:0:0:
160,192,331319,1,0,0:0:0:0:
48,192,331620,1,0,0:0:0:0:
160,192,331922,1,0,0:0:0:0:
272,192,332223,1,0,0:0:0:0:
160,192,332525,1,0,0:0:0:0:
416,176,333128,5,0,0:0:0:0:
384,64,333429,1,0,0:0:0:0:
352,176,333731,1,0,0:0:0:0:
320,64,334032,1,0,0:0:0:0:
288,176,334334,1,0,0:0:0:0:
352,176,334635,1,0,0:0:0:0:
416,176,334937,1,0,0:0:0:0:
176,176,335540,5,0,0:0:0:0:
176,176,335841,1,0,0:0:0:0:
288,240,336143,1,0,0:0:0:0:
288,240,336444,1,0,0:0:0:0:
128,288,336746,1,0,0:0:0:0:
128,288,337047,1,0,0:0:0:0:
240,352,337349,1,0,0:0:0:0:
240,352,337650,1,0,0:0:0:0:
400,64,337952,5,0,0:0:0:0:
352,240,338404,1,0,0:0:0:0:
400,64,338856,1,0,0:0:0:0:
272,64,339158,1,0,0:0:0:0:
240,176,339459,1,0,0:0:0:0:
208,288,339761,1,0,0:0:0:0:
144,192,340062,5,0,0:0:0:0:
208,192,340213,1,0,0:0:0:0:
272,192,340364,1,0,0:0:0:0:
448,192,340665,1,0,0:0:0:0:
256,256,340967,1,0,0:0:0:0:
432,256,341268,1,0,0:0:0:0:
240,320,341570,5,0,0:0:0:0:
128,320,341871,1,0,0:0:0:0:
256,320,342173,1,0,0:0:0:0:
368,320,342474,1,0,0:0:0:0:
64,192,345188,5,0,0:0:0:0:
80,192,345226,1,0,0:0:0:0:
96,192,345263,1,0,0:0:0:0:
112,192,345301,1,0,0:0:0:0:
128,192,345339,1,0,0:0:0:0:
144,192,345376,1,0,0:0:0:0:
160,192,345414,1,0,0:0:0:0:
176,192,345452,1,0,0:0:0:0:
192,160,345490,5,0,0:0:0:0:
176,160,345527,1,0,0:0:0:0:
160,160,345565,1,0,0:0:0:0:
144,160,345603,1,0,0:0:0:0:
128,160,345640,1,0,0:0:0:0:
112,160,345678,1,0,0:0:0:0:
96,160,345716,1,0,0:0:0:0:
80,160,345753,1,0,0:0:0:0:
64,160,345791,1,0,0:0:0:0:
256,160,346093,1,0,0:0:0:0:
448,192,346394,5,0,0:0:0:0:
432,192,346432,1,0,0:0:0:0:
416,192,346469,1,0,0:0:0:0:
400,192,346507,1,0,0:0:0:0:
384,192,346545,1,0,0:0:0:0:
368,192,346582,1,0,0:0:0:0:
352,192,346620,1,0,0:0:0:0:
336,192,346658,1,0,0:0:0:0:
320,160,346696,5,0,0:0:0:0:
336,160,346733,1,0,0:0:0:0:
352,160,346771,1,0,0:0:0:0:
368,160,346809,1,0,0:0:0:0:
384,160,346846,1,0,0:0:0:0:
400,160,346884,1,0,0:0:0:0:
416,160,346922,1,0,0:0:0:0:
432,160,346959,1,0,0:0:0:0:
448,160,346997,1,0,0:0:0:0:
256,160,347299,1,0,0:0:0:0:
112,160,347600,5,0,0:0:0:0:
128,144,347638,1,0,0:0:0:0:
144,128,347675,1,0,0:0:0:0:
160,112,347713,1,0,0:0:0:0:
144,112,347751,1,0,0:0:0:0:
128,112,347789,1,0,0:0:0:0:
112,112,347826,1,0,0:0:0:0:
96,112,347864,1,0,0:0:0:0:
80,112,347902,5,0,0:0:0:0:
64,112,347939,1,0,0:0:0:0:
48,112,347977,1,0,0:0:0:0:
32,112,348015,1,0,0:0:0:0:
48,96,348052,1,0,0:0:0:0:
64,80,348090,1,0,0:0:0:0:
80,64,348128,1,0,0:0:0:0:
96,48,348165,1,0,0:0:0:0:
112,32,348203,1,0,0:0:0:0:
304,32,348505,1,0,0:0:0:0:
400,160,348806,5,0,0:0:0:0:
384,144,348844,1,0,0:0:0:0:
368,128,348881,1,0,0:0:0:0:
352,112,348919,1,0,0:0:0:0:
368,112,348957,1,0,0:0:0:0:
384,112,348995,1,0,0:0:0:0:
400,112,349032,1,0,0:0:0:0:
416,112,349070,1,0,0:0:0:0:
432,112,349108,5,0,0:0:0:0:
448,112,349145,1,0,0:0:0:0:
464,112,349183,1,0,0:0:0:0:
480,112,349221,1,0,0:0:0:0:
464,96,349258,1,0,0:0:0:0:
448,80,349296,1,0,0:0:0:0:
432,64,349334,1,0,0:0:0:0:
416,48,349371,1,0,0:0:0:0:
400,32,349409,1,0,0:0:0:0:
208,32,349711,1,0,0:0:0:0:
112,96,350012,6,0,B|112:112,16,12.5
32,176,350917,1,0,0:0:0:0:
400,96,351218,6,0,B|400:112,16,12.5
480,176,352123,1,0,0:0:0:0:
256,192,352424,12,0,354233,0:0:0:0:
160,112,354836,5,0,0:0:0:0:
256,112,355138,1,0,0:0:0:0:
352,112,355439,1,0,0:0:0:0:
256,112,355741,1,0,0:0:0:0:
400,192,356042,1,0,0:0:0:0:
256,192,356344,1,0,0:0:0:0:
112,192,356645,1,0,0:0:0:0:
256,192,356947,1,0,0:0:0:0:
96,128,357248,5,0,0:0:0:0:
192,288,357550,1,0,0:0:0:0:
32,192,357851,1,0,0:0:0:0:
256,224,358153,1,0,0:0:0:0:
416,128,358454,5,0,0:0:0:0:
320,288,358756,1,0,0:0:0:0:
480,192,359057,1,0,0:0:0:0:
256,224,359359,1,0,0:0:0:0:
160,224,359510,1,0,0:0:0:0:
64,128,359660,5,0,0:0:0:0:
160,128,359811,1,0,0:0:0:0:
64,128,359962,1,0,0:0:0:0:
160,128,360113,1,0,0:0:0:0:
448,128,360263,1,0,0:0:0:0:
352,128,360414,1,0,0:0:0:0:
448,128,360565,1,0,0:0:0:0:
352,128,360716,1,0,0:0:0:0:
64,128,360866,5,0,0:0:0:0:
160,128,361017,1,0,0:0:0:0:
64,128,361168,1,0,0:0:0:0:
160,128,361319,1,0,0:0:0:0:
448,128,361469,1,0,0:0:0:0:
352,128,361620,1,0,0:0:0:0:
448,128,361771,1,0,0:0:0:0:
352,128,361922,1,0,0:0:0:0:
64,208,362072,5,0,0:0:0:0:
112,288,362223,1,0,0:0:0:0:
160,208,362374,1,0,0:0:0:0:
208,288,362525,1,0,0:0:0:0:
256,208,362675,1,0,0:0:0:0:
304,288,362826,1,0,0:0:0:0:
352,208,362977,1,0,0:0:0:0:
400,288,363128,1,0,0:0:0:0:
480,208,363278,5,0,0:0:0:0:
496,160,363354,1,0,0:0:0:0:
432,160,363429,1,0,0:0:0:0:
416,128,363505,1,0,0:0:0:0:
352,128,363580,1,0,0:0:0:0:
368,80,363655,1,0,0:0:0:0:
304,80,363731,1,0,0:0:0:0:
288,48,363806,1,0,0:0:0:0:
224,48,363882,1,0,0:0:0:0:
240,96,363957,1,0,0:0:0:0:
176,96,364032,1,0,0:0:0:0:
192,144,364108,1,0,0:0:0:0:
128,144,364183,1,0,0:0:0:0:
144,192,364258,1,0,0:0:0:0:
80,192,364334,1,0,0:0:0:0:
96,144,364409,1,0,0:0:0:0:
32,144,364485,1,0,0:0:0:0:
416,160,365080,5,0,0:0:0:0:
448,112,365155,1,0,0:0:0:0:
480,64,365230,1,0,0:0:0:0:
352,64,365381,1,0,0:0:0:0:
224,64,365532,1,0,0:0:0:0:
256,112,365607,1,0,0:0:0:0:
288,160,365683,1,0,0:0:0:0:
160,160,365833,1,0,0:0:0:0:
32,160,365984,1,0,0:0:0:0:
64,112,366059,1,0,0:0:0:0:
96,64,366135,1,0,0:0:0:0:
96,224,366286,5,0,0:0:0:0:
64,272,366361,1,0,0:0:0:0:
32,320,366436,1,0,0:0:0:0:
160,320,366587,1,0,0:0:0:0:
288,320,366738,1,0,0:0:0:0:
256,272,366813,1,0,0:0:0:0:
224,224,366889,1,0,0:0:0:0:
352,224,367039,1,0,0:0:0:0:
480,224,367190,1,0,0:0:0:0:
448,272,367265,1,0,0:0:0:0:
416,320,367341,1,0,0:0:0:0:
432,112,367492,5,0,0:0:0:0:
320,112,367642,1,0,0:0:0:0:
288,160,367718,1,0,0:0:0:0:
256,112,367793,1,0,0:0:0:0:
144,112,367944,1,0,0:0:0:0:
32,112,368095,1,0,0:0:0:0:
80,144,368170,1,0,0:0:0:0:
128,176,368245,1,0,0:0:0:0:
256,192,368396,1,0,0:0:0:0:
256,192,368547,1,0,0:0:0:0:
384,192,368698,5,0,0:0:0:0:
432,160,368773,1,0,0:0:0:0:
464,272,368848,1,0,0:0:0:0:
432,160,368924,1,0,0:0:0:0:
384,192,368999,1,0,0:0:0:0:
256,192,369150,1,0,0:0:0:0:
128,192,369301,1,0,0:0:0:0:
80,160,369376,1,0,0:0:0:0:
48,272,369451,1,0,0:0:0:0:
80,160,369527,1,0,0:0:0:0:
128,192,369602,1,0,0:0:0:0:
256,192,369753,1,0,0:0:0:0:
304,80,369904,5,0,0:0:0:0:
384,176,370054,1,0,0:0:0:0:
352,128,370130,1,0,0:0:0:0:
320,80,370205,1,0,0:0:0:0:
448,80,370356,1,0,0:0:0:0:
400,112,370431,1,0,0:0:0:0:
352,144,370507,1,0,0:0:0:0:
496,176,370657,1,0,0:0:0:0:
432,176,370733,1,0,0:0:0:0:
368,176,370808,1,0,0:0:0:0:
256,160,370959,1,0,0:0:0:0:
208,80,371110,5,0,0:0:0:0:
128,176,371260,1,0,0:0:0:0:
160,128,371336,1,0,0:0:0:0:
192,80,371411,1,0,0:0:0:0:
64,80,371562,1,0,0:0:0:0:
112,112,371637,1,0,0:0:0:0:
160,144,371713,1,0,0:0:0:0:
16,176,371863,1,0,0:0:0:0:
80,176,371939,1,0,0:0:0:0:
144,176,372014,1,0,0:0:0:0:
256,160,372165,1,0,0:0:0:0:
400,176,372316,5,0,0:0:0:0:
416,224,372391,1,0,0:0:0:0:
432,272,372466,1,0,0:0:0:0:
448,320,372542,1,0,0:0:0:0:
176,176,372617,5,0,0:0:0:0:
160,224,372692,1,0,0:0:0:0:
144,288,372767,1,0,0:0:0:0:
128,320,372843,1,0,0:0:0:0:
336,176,372919,5,0,0:0:0:0:
352,224,372994,1,0,0:0:0:0:
368,272,373069,1,0,0:0:0:0:
384,320,373145,1,0,0:0:0:0:
112,176,373220,5,0,0:0:0:0:
96,224,373295,1,0,0:0:0:0:
80,272,373370,1,0,0:0:0:0:
64,320,373446,1,0,0:0:0:0:
464,176,373522,5,0,0:0:0:0:
480,224,373597,1,0,0:0:0:0:
496,272,373672,1,0,0:0:0:0:
512,320,373748,1,0,0:0:0:0:
48,176,373823,5,0,0:0:0:0:
32,224,373898,1,0,0:0:0:0:
16,272,373973,1,0,0:0:0:0:
0,320,374049,1,0,0:0:0:0:
256,320,374125,1,0,0:0:0:0:
256,208,374275,1,0,0:0:0:0:
256,336,374426,1,0,0:0:0:0:
256,208,374577,1,0,0:0:0:0:
480,128,374728,5,0,0:0:0:0:
416,128,374803,1,0,0:0:0:0:
352,128,374878,1,0,0:0:0:0:
288,128,374954,1,0,0:0:0:0:
224,128,375029,1,0,0:0:0:0:
160,128,375105,1,0,0:0:0:0:
96,128,375180,1,0,0:0:0:0:
32,128,375255,1,0,0:0:0:0:
64,80,375331,1,0,0:0:0:0:
192,80,375482,1,0,0:0:0:0:
320,80,375632,1,0,0:0:0:0:
448,80,375783,1,0,0:0:0:0:
480,192,375934,5,0,0:0:0:0:
432,240,376009,1,0,0:0:0:0:
368,192,376085,1,0,0:0:0:0:
320,240,376160,1,0,0:0:0:0:
256,192,376235,1,0,0:0:0:0:
208,240,376311,1,0,0:0:0:0:
144,192,376386,1,0,0:0:0:0:
96,240,376461,1,0,0:0:0:0:
32,192,376537,1,0,0:0:0:0:
256,272,376688,1,0,0:0:0:0:
256,272,376838,1,0,0:0:0:0:
480,272,376989,1,0,0:0:0:0:
464,160,377140,5,0,0:0:0:0:
400,160,377215,1,0,0:0:0:0:
336,160,377291,1,0,0:0:0:0:
272,160,377366,1,0,0:0:0:0:
304,112,377441,1,0,0:0:0:0:
240,112,377517,1,0,0:0:0:0:
176,112,377592,1,0,0:0:0:0:
112,112,377667,1,0,0:0:0:0:
48,112,377743,1,0,0:0:0:0:
48,112,377894,1,0,0:0:0:0:
464,112,378044,1,0,0:0:0:0:
464,112,378195,1,0,0:0:0:0:
480,224,378346,5,0,0:0:0:0:
416,224,378421,1,0,0:0:0:0:
352,224,378497,1,0,0:0:0:0:
288,224,378572,1,0,0:0:0:0:
224,224,378647,1,0,0:0:0:0:
160,224,378723,1,0,0:0:0:0:
96,224,378798,1,0,0:0:0:0:
32,224,378873,1,0,0:0:0:0:
64,272,378949,1,0,0:0:0:0:
192,272,379100,1,0,0:0:0:0:
320,272,379250,1,0,0:0:0:0:
448,272,379401,1,0,0:0:0:0:
400,160,379552,5,0,0:0:0:0:
400,96,379627,1,0,0:0:0:0:
400,160,379703,1,0,0:0:0:0:
400,96,379778,1,0,0:0:0:0:
112,160,379853,1,0,0:0:0:0:
112,96,379929,1,0,0:0:0:0:
112,160,380004,1,0,0:0:0:0:
112,96,380080,1,0,0:0:0:0:
176,96,380155,1,0,0:0:0:0:
336,96,380306,1,0,0:0:0:0:
176,96,380456,1,0,0:0:0:0:
336,96,380607,1,0,0:0:0:0:
448,32,380758,5,0,0:0:0:0:
432,64,380833,1,0,0:0:0:0:
416,32,380909,1,0,0:0:0:0:
400,64,380984,1,0,0:0:0:0:
64,32,381059,1,0,0:0:0:0:
80,64,381135,1,0,0:0:0:0:
96,32,381210,1,0,0:0:0:0:
112,64,381286,1,0,0:0:0:0:
128,128,381361,1,0,0:0:0:0:
64,176,381512,1,0,0:0:0:0:
400,128,381662,1,0,0:0:0:0:
464,176,381813,1,0,0:0:0:0:
320,224,381964,5,0,0:0:0:0:
256,224,382039,1,0,0:0:0:0:
192,224,382115,1,0,0:0:0:0:
256,224,382190,1,0,0:0:0:0:
304,176,382265,1,0,0:0:0:0:
256,224,382341,1,0,0:0:0:0:
208,176,382416,1,0,0:0:0:0:
256,224,382492,1,0,0:0:0:0:
304,176,382567,1,0,0:0:0:0:
208,176,382718,1,0,0:0:0:0:
336,128,382868,1,0,0:0:0:0:
192,128,383019,1,0,0:0:0:0:
48,192,383170,5,0,0:0:0:0:
112,208,383245,1,0,0:0:0:0:
80,160,383321,1,0,0:0:0:0:
144,176,383396,1,0,0:0:0:0:
112,128,383471,1,0,0:0:0:0:
176,144,383547,1,0,0:0:0:0:
144,96,383622,1,0,0:0:0:0:
208,112,383698,1,0,0:0:0:0:
176,64,383773,1,0,0:0:0:0:
240,80,383848,1,0,0:0:0:0:
208,32,383924,1,0,0:0:0:0:
272,32,383999,1,0,0:0:0:0:
240,80,384074,1,0,0:0:0:0:
304,80,384150,1,0,0:0:0:0:
272,32,384225,1,0,0:0:0:0:
336,32,384301,1,0,0:0:0:0:
368,32,384376,5,0,0:0:0:0:
416,80,384451,1,0,0:0:0:0:
448,144,384527,1,0,0:0:0:0:
464,208,384602,1,0,0:0:0:0:
448,272,384677,1,0,0:0:0:0:
416,336,384753,1,0,0:0:0:0:
368,288,384828,1,0,0:0:0:0:
304,256,384904,1,0,0:0:0:0:
144,352,384979,5,0,0:0:0:0:
96,304,385054,1,0,0:0:0:0:
64,240,385130,1,0,0:0:0:0:
48,176,385205,1,0,0:0:0:0:
64,112,385280,1,0,0:0:0:0:
96,48,385356,1,0,0:0:0:0:
144,96,385431,1,0,0:0:0:0:
208,128,385507,1,0,0:0:0:0:
336,80,385582,5,0,0:0:0:0:
400,112,385657,1,0,0:0:0:0:
432,176,385733,1,0,0:0:0:0:
448,240,385808,1,0,0:0:0:0:
432,176,385884,1,0,0:0:0:0:
400,112,385959,1,0,0:0:0:0:
336,80,386034,1,0,0:0:0:0:
272,64,386110,1,0,0:0:0:0:
176,320,386185,5,0,0:0:0:0:
112,288,386260,1,0,0:0:0:0:
80,224,386336,1,0,0:0:0:0:
64,160,386411,1,0,0:0:0:0:
80,224,386487,1,0,0:0:0:0:
112,288,386562,1,0,0:0:0:0:
176,320,386637,1,0,0:0:0:0:
240,336,386713,1,0,0:0:0:0:
256,256,386788,5,0,0:0:0:0:
208,208,386863,1,0,0:0:0:0:
160,160,386939,1,0,0:0:0:0:
144,96,387014,1,0,0:0:0:0:
128,32,387090,1,0,0:0:0:0:
80,96,387165,1,0,0:0:0:0:
64,160,387240,1,0,0:0:0:0:
16,208,387316,1,0,0:0:0:0:
256,256,387391,5,0,0:0:0:0:
304,208,387466,1,0,0:0:0:0:
352,160,387542,1,0,0:0:0:0:
368,96,387617,1,0,0:0:0:0:
384,32,387693,1,0,0:0:0:0:
432,96,387768,1,0,0:0:0:0:
448,160,387843,1,0,0:0:0:0:
496,208,387919,1,0,0:0:0:0:
448,272,387994,5,0,0:0:0:0:
448,272,388069,1,0,0:0:0:0:
448,272,388145,1,0,0:0:0:0:
448,272,388220,1,0,0:0:0:0:
256,256,388296,1,0,0:0:0:0:
256,256,388371,1,0,0:0:0:0:
256,256,388446,1,0,0:0:0:0:
256,256,388522,1,0,0:0:0:0:
64,272,388597,1,0,0:0:0:0:
64,272,388672,1,0,0:0:0:0:
64,272,388748,1,0,0:0:0:0:
64,272,388823,1,0,0:0:0:0:
256,256,388899,1,0,0:0:0:0:
256,256,388974,1,0,0:0:0:0:
256,256,389049,1,0,0:0:0:0:
256,256,389125,1,0,0:0:0:0:
48,128,389200,5,0,0:0:0:0:
48,128,389351,1,0,0:0:0:0:
192,128,389502,1,0,0:0:0:0:
224,64,389577,1,0,0:0:0:0:
256,128,389652,1,0,0:0:0:0:
288,64,389728,1,0,0:0:0:0:
320,128,389803,1,0,0:0:0:0:
352,64,389878,1,0,0:0:0:0:
384,128,389954,1,0,0:0:0:0:
288,224,390105,1,0,0:0:0:0:
144,192,390255,1,0,0:0:0:0:
48,128,390406,5,0,0:0:0:0:
192,128,390557,1,0,0:0:0:0:
336,176,390708,1,0,0:0:0:0:
400,176,390783,1,0,0:0:0:0:
416,240,390858,1,0,0:0:0:0:
352,240,390934,1,0,0:0:0:0:
368,304,391009,1,0,0:0:0:0:
432,304,391084,1,0,0:0:0:0:
448,368,391160,1,0,0:0:0:0:
320,320,391311,1,0,0:0:0:0:
192,272,391461,1,0,0:0:0:0:
256,144,391612,5,0,0:0:0:0:
112,144,391763,1,0,0:0:0:0:
256,144,391914,1,0,0:0:0:0:
272,208,391989,1,0,0:0:0:0:
240,272,392064,1,0,0:0:0:0:
288,320,392140,1,0,0:0:0:0:
224,320,392215,1,0,0:0:0:0:
272,352,392291,1,0,0:0:0:0:
240,352,392366,1,0,0:0:0:0:
256,144,392517,1,0,0:0:0:0:
400,144,392667,1,0,0:0:0:0:
480,32,392818,5,0,0:0:0:0:
336,32,392969,1,0,0:0:0:0:
192,32,393120,1,0,0:0:0:0:
192,32,393195,1,0,0:0:0:0:
192,32,393270,1,0,0:0:0:0:
32,32,393421,1,0,0:0:0:0:
176,32,393572,1,0,0:0:0:0:
320,32,393723,1,0,0:0:0:0:
320,32,393798,1,0,0:0:0:0:
320,32,393873,1,0,0:0:0:0:
480,96,394024,5,0,0:0:0:0:
416,112,394100,1,0,0:0:0:0:
352,112,394175,1,0,0:0:0:0:
288,112,394250,1,0,0:0:0:0:
224,96,394326,1,0,0:0:0:0:
336,192,394476,1,0,0:0:0:0:
32,96,394627,5,0,0:0:0:0:
96,112,394703,1,0,0:0:0:0:
160,112,394778,1,0,0:0:0:0:
224,128,394853,1,0,0:0:0:0:
288,160,394929,1,0,0:0:0:0:
176,192,395079,1,0,0:0:0:0:
160,224,395230,5,0,0:0:0:0:
224,256,395306,1,0,0:0:0:0:
288,288,395381,1,0,0:0:0:0:
352,320,395456,1,0,0:0:0:0:
416,352,395532,1,0,0:0:0:0:
336,192,395683,1,0,0:0:0:0:
480,176,395833,1,0,0:0:0:0:
416,144,395909,1,0,0:0:0:0:
352,112,395984,1,0,0:0:0:0:
288,80,396059,1,0,0:0:0:0:
224,48,396135,1,0,0:0:0:0:
288,192,396286,1,0,0:0:0:0:
160,128,396436,5,0,0:0:0:0:
160,128,396587,1,0,0:0:0:0:
448,128,396738,1,0,0:0:0:0:
496,80,396813,1,0,0:0:0:0:
448,128,396889,1,0,0:0:0:0:
400,80,396964,1,0,0:0:0:0:
448,128,397039,1,0,0:0:0:0:
400,80,397115,1,0,0:0:0:0:
352,128,397190,1,0,0:0:0:0:
400,80,397265,1,0,0:0:0:0:
352,128,397341,1,0,0:0:0:0:
208,160,397492,1,0,0:0:0:0:
352,128,397642,5,0,0:0:0:0:
352,128,397793,1,0,0:0:0:0:
64,128,397944,1,0,0:0:0:0:
16,80,398019,1,0,0:0:0:0:
64,128,398095,1,0,0:0:0:0:
112,80,398170,1,0,0:0:0:0:
64,128,398245,1,0,0:0:0:0:
112,80,398321,1,0,0:0:0:0:
160,128,398396,1,0,0:0:0:0:
112,80,398471,1,0,0:0:0:0:
160,128,398547,1,0,0:0:0:0:
128,304,398698,1,0,0:0:0:0:
192,176,398848,5,0,0:0:0:0:
320,176,398999,1,0,0:0:0:0:
48,224,399150,1,0,0:0:0:0:
64,288,399225,1,0,0:0:0:0:
80,352,399301,1,0,0:0:0:0:
432,352,399451,1,0,0:0:0:0:
448,288,399527,1,0,0:0:0:0:
464,224,399602,1,0,0:0:0:0:
432,160,399677,1,0,0:0:0:0:
384,112,399753,1,0,0:0:0:0:
256,176,399904,1,0,0:0:0:0:
320,176,400054,5,0,0:0:0:0:
192,176,400205,1,0,0:0:0:0:
464,224,400356,1,0,0:0:0:0:
448,288,400431,1,0,0:0:0:0:
432,352,400507,1,0,0:0:0:0:
80,352,400657,1,0,0:0:0:0:
64,288,400733,1,0,0:0:0:0:
48,224,400808,1,0,0:0:0:0:
80,160,400883,1,0,0:0:0:0:
128,112,400959,1,0,0:0:0:0:
256,176,401110,1,0,0:0:0:0:
192,48,401260,5,0,0:0:0:0:
320,96,401411,1,0,0:0:0:0:
352,256,401562,1,0,0:0:0:0:
224,288,401713,1,0,0:0:0:0:
112,368,401863,1,0,0:0:0:0:
400,368,402014,1,0,0:0:0:0:
112,368,402165,1,0,0:0:0:0:
400,368,402316,1,0,0:0:0:0:
112,368,402466,5,0,0:0:0:0:
96,304,402542,1,0,0:0:0:0:
80,240,402617,1,0,0:0:0:0:
64,176,402693,1,0,0:0:0:0:
128,176,402768,1,0,0:0:0:0:
144,112,402843,1,0,0:0:0:0:
160,48,402919,1,0,0:0:0:0:
336,48,403069,1,0,0:0:0:0:
352,112,403145,1,0,0:0:0:0:
368,176,403220,1,0,0:0:0:0:
480,272,403371,1,0,0:0:0:0:
256,272,403522,1,0,0:0:0:0:
32,272,403672,1,0,0:0:0:0:
