osu file format v14

[General]
AudioFilename: audio.mp3
AudioLeadIn: 0
PreviewTime: 0
Countdown: 0
SampleSet: Normal
StackLeniency: 0.7
Mode: 1
LetterboxInBreaks: 0
WidescreenStoryboard: 0

[Editor]
DistanceSpacing: 0.8
BeatDivisor: 4
GridSize: 32
TimelineZoom: 1

[Metadata]
Title:moon_child
TitleUnicode:moon_child
Artist:Shounen Radio
ArtistUnicode:少年ラジオ
Creator:agu
Version:ura_oni
Source:beatmania IIDX
Tags:
BeatmapID:1363005
BeatmapSetID:642936

[Difficulty]
HPDrainRate:8
CircleSize:5
OverallDifficulty:7
ApproachRate:5
SliderMultiplier:1.4
SliderTickRate:1

[Events]
//Background and Video events
0,0,"northern-lights-stars-wallpaper-3.jpg",0,0
//Break Periods
//Storyboard Layer 0 (Background)
//Storyboard Layer 1 (Fail)
//Storyboard Layer 2 (Pass)
//Storyboard Layer 3 (Foreground)
//Storyboard Sound Samples

[TimingPoints]
2434,410.958904109589,4,1,0,90,1,0
5721,400,4,1,0,90,1,0
8921,387.096774193548,4,1,0,90,1,0
15114,375,4,1,0,90,1,0
38739,375,4,1,0,90,1,0
53739,-83.3333333333333,4,1,0,90,0,1
64239,-83.3333333333333,4,1,0,90,0,0
65739,-71.4285714285714,4,1,0,90,0,1
76239,-50,4,1,0,90,0,1
77739,-100,4,1,0,90,0,0
95739,-100,4,1,0,90,0,1
110739,387.096774193548,4,1,0,90,1,0
120029,400,4,1,0,90,1,0
121629,410.958904109589,4,1,0,90,1,0
123272,461.538461538462,4,1,0,90,1,0

[HitObjects]
320,288,2434,5,0,0:0:0:0:
288,288,2844,1,8,0:0:0:0:
288,288,3050,1,0,0:0:0:0:
288,288,3255,1,8,0:0:0:0:
288,288,3461,1,0,0:0:0:0:
256,256,4077,1,0,0:0:0:0:
256,256,4283,1,0,0:0:0:0:
256,256,4488,1,8,0:0:0:0:
256,256,4694,1,0,0:0:0:0:
256,256,4899,1,8,0:0:0:0:
256,256,5105,1,0,0:0:0:0:
256,288,5721,1,0,0:0:0:0:
256,288,6121,1,8,0:0:0:0:
256,288,6321,1,0,0:0:0:0:
256,288,6521,1,8,0:0:0:0:
256,288,6721,1,0,0:0:0:0:
256,288,7321,1,0,0:0:0:0:
256,288,7521,1,0,0:0:0:0:
256,288,7721,1,8,0:0:0:0:
256,288,7921,1,0,0:0:0:0:
256,288,8021,1,0,0:0:0:0:
256,288,8121,1,8,0:0:0:0:
256,288,8321,1,0,0:0:0:0:
256,288,8521,1,8,0:0:0:0:
256,288,8721,1,8,0:0:0:0:
256,288,8921,1,0,0:0:0:0:
256,288,9501,1,8,0:0:0:0:
256,320,10082,1,8,0:0:0:0:
256,288,10469,1,0,0:0:0:0:
256,320,10856,1,8,0:0:0:0:
256,288,11437,1,8,0:0:0:0:
256,288,12017,1,0,0:0:0:0:
256,288,12598,1,8,0:0:0:0:
256,288,13179,1,8,0:0:0:0:
256,288,13566,1,0,0:0:0:0:
256,288,13953,1,8,0:0:0:0:
256,288,14340,1,8,0:0:0:0:
256,288,14727,1,8,0:0:0:0:
256,288,15114,1,0,0:0:0:0:
256,288,15301,1,8,0:0:0:0:
256,288,15489,1,0,0:0:0:0:
256,288,15676,1,8,0:0:0:0:
256,288,15864,1,0,0:0:0:0:
256,288,16051,1,8,0:0:0:0:
256,288,16239,1,0,0:0:0:0:
256,288,16426,1,8,0:0:0:0:
256,288,16614,1,0,0:0:0:0:
256,288,16801,1,8,0:0:0:0:
256,288,16989,1,0,0:0:0:0:
256,288,17176,1,8,0:0:0:0:
256,288,17364,1,0,0:0:0:0:
256,288,17551,1,8,0:0:0:0:
256,288,17739,1,0,0:0:0:0:
256,288,17926,1,8,0:0:0:0:
256,288,18114,1,0,0:0:0:0:
256,288,18301,1,8,0:0:0:0:
256,288,18489,1,0,0:0:0:0:
256,288,18676,1,8,0:0:0:0:
256,288,18864,1,0,0:0:0:0:
256,288,19051,1,8,0:0:0:0:
256,288,19239,1,0,0:0:0:0:
256,288,19426,1,8,0:0:0:0:
256,288,19614,1,0,0:0:0:0:
256,288,19801,1,8,0:0:0:0:
256,288,19989,1,0,0:0:0:0:
256,288,20176,1,8,0:0:0:0:
256,288,20364,1,0,0:0:0:0:
256,288,20551,1,8,0:0:0:0:
256,288,20739,1,0,0:0:0:0:
256,288,20926,1,8,0:0:0:0:
256,288,21114,1,0,0:0:0:0:
256,288,21301,1,8,0:0:0:0:
256,288,21395,1,8,0:0:0:0:
256,288,21489,1,0,0:0:0:0:
256,288,21676,1,8,0:0:0:0:
256,288,21864,1,0,0:0:0:0:
256,288,22051,1,8,0:0:0:0:
256,320,22145,1,8,0:0:0:0:
256,288,22239,1,0,0:0:0:0:
256,320,22426,1,0,0:0:0:0:
256,320,22614,1,0,0:0:0:0:
256,320,22801,1,8,0:0:0:0:
256,320,22989,1,0,0:0:0:0:
256,320,23176,1,8,0:0:0:0:
256,320,23270,1,8,0:0:0:0:
256,320,23364,1,0,0:0:0:0:
256,320,23551,1,0,0:0:0:0:
256,320,23739,1,8,0:0:0:0:
256,320,23926,1,8,0:0:0:0:
256,320,24020,1,8,0:0:0:0:
256,320,24114,1,0,0:0:0:0:
256,320,24301,1,8,0:0:0:0:
256,320,24489,1,0,0:0:0:0:
256,320,24676,1,8,0:0:0:0:
256,320,24770,1,8,0:0:0:0:
256,320,24864,1,0,0:0:0:0:
256,320,25051,1,8,0:0:0:0:
256,320,25239,1,0,0:0:0:0:
256,320,25426,1,8,0:0:0:0:
256,320,25520,1,8,0:0:0:0:
256,320,25614,1,0,0:0:0:0:
256,320,25707,1,0,0:0:0:0:
256,320,25801,1,8,0:0:0:0:
256,320,25895,1,0,0:0:0:0:
256,320,25989,1,8,0:0:0:0:
256,320,26176,1,0,0:0:0:0:
256,320,26364,1,8,0:0:0:0:
256,352,26457,1,8,0:0:0:0:
256,352,26551,1,0,0:0:0:0:
256,352,26739,1,8,0:0:0:0:
256,352,26926,1,8,0:0:0:0:
256,352,27020,1,8,0:0:0:0:
256,352,27114,1,0,0:0:0:0:
256,352,27207,1,0,0:0:0:0:
256,352,27301,1,8,0:0:0:0:
256,352,27395,1,0,0:0:0:0:
256,352,27489,1,8,0:0:0:0:
256,352,27582,1,0,0:0:0:0:
256,352,27676,1,8,0:0:0:0:
256,352,27770,1,8,0:0:0:0:
256,352,27864,1,0,0:0:0:0:
256,352,27957,1,0,0:0:0:0:
256,352,28051,1,8,0:0:0:0:
256,352,28145,1,0,0:0:0:0:
256,352,28239,1,8,0:0:0:0:
256,352,28332,1,8,0:0:0:0:
256,352,28426,1,0,0:0:0:0:
256,352,28520,1,0,0:0:0:0:
256,352,28614,1,8,0:0:0:0:
256,352,28707,1,8,0:0:0:0:
256,352,28801,1,0,0:0:0:0:
256,352,28895,1,0,0:0:0:0:
256,352,28989,1,8,0:0:0:0:
256,352,29082,1,0,0:0:0:0:
256,352,29176,1,8,0:0:0:0:
256,352,29270,1,8,0:0:0:0:
256,352,29364,1,0,0:0:0:0:
256,352,29457,1,0,0:0:0:0:
256,352,29551,1,8,0:0:0:0:
256,352,29645,1,0,0:0:0:0:
256,352,29739,1,8,0:0:0:0:
256,352,30114,1,0,0:0:0:0:
256,352,30207,1,0,0:0:0:0:
256,352,30301,1,8,0:0:0:0:
256,352,30395,1,0,0:0:0:0:
256,352,30489,1,8,0:0:0:0:
256,352,30582,1,0,0:0:0:0:
256,352,30676,1,8,0:0:0:0:
256,352,30770,1,8,0:0:0:0:
256,352,30864,1,0,0:0:0:0:
256,352,30957,1,0,0:0:0:0:
256,352,31051,1,8,0:0:0:0:
256,352,31145,1,0,0:0:0:0:
256,352,31239,1,8,0:0:0:0:
256,352,31332,1,8,0:0:0:0:
256,352,31426,1,0,0:0:0:0:
256,352,31520,1,0,0:0:0:0:
256,352,31614,1,8,0:0:0:0:
256,352,31707,1,8,0:0:0:0:
256,352,31801,1,0,0:0:0:0:
256,352,31895,1,0,0:0:0:0:
256,352,31989,1,8,0:0:0:0:
256,352,32082,1,0,0:0:0:0:
256,352,32176,1,8,0:0:0:0:
256,352,32270,1,8,0:0:0:0:
256,352,32364,1,0,0:0:0:0:
256,352,32457,1,0,0:0:0:0:
256,352,32551,1,8,0:0:0:0:
256,352,32645,1,0,0:0:0:0:
256,352,32739,1,8,0:0:0:0:
256,352,33114,1,0,0:0:0:0:
256,352,33207,1,0,0:0:0:0:
256,352,33301,1,8,0:0:0:0:
256,352,33395,1,0,0:0:0:0:
256,352,33489,1,8,0:0:0:0:
256,352,33582,1,0,0:0:0:0:
256,352,33676,1,8,0:0:0:0:
256,352,33770,1,8,0:0:0:0:
256,352,33864,1,0,0:0:0:0:
256,352,33957,1,0,0:0:0:0:
256,352,34051,1,8,0:0:0:0:
256,352,34145,1,0,0:0:0:0:
256,352,34239,1,8,0:0:0:0:
256,352,34332,1,8,0:0:0:0:
256,352,34426,1,0,0:0:0:0:
256,352,34520,1,0,0:0:0:0:
256,352,34614,1,8,0:0:0:0:
256,352,34707,1,8,0:0:0:0:
256,352,34801,1,0,0:0:0:0:
256,352,34895,1,0,0:0:0:0:
256,352,34989,1,8,0:0:0:0:
256,352,35082,1,0,0:0:0:0:
256,352,35176,1,8,0:0:0:0:
256,352,35270,1,8,0:0:0:0:
256,352,35364,1,0,0:0:0:0:
256,352,35457,1,0,0:0:0:0:
256,352,35551,1,8,0:0:0:0:
256,352,35645,1,0,0:0:0:0:
256,352,35739,1,8,0:0:0:0:
256,352,36114,1,0,0:0:0:0:
256,352,36207,1,0,0:0:0:0:
256,352,36301,1,8,0:0:0:0:
256,352,36395,1,0,0:0:0:0:
256,352,36489,1,8,0:0:0:0:
256,352,36582,1,0,0:0:0:0:
256,352,36676,1,8,0:0:0:0:
256,352,36770,1,8,0:0:0:0:
256,352,36864,1,0,0:0:0:0:
256,352,36957,1,0,0:0:0:0:
256,352,37051,1,8,0:0:0:0:
256,352,37145,1,0,0:0:0:0:
256,352,37239,1,8,0:0:0:0:
256,352,37332,1,8,0:0:0:0:
256,352,37426,1,0,0:0:0:0:
256,352,37520,1,0,0:0:0:0:
256,352,37614,1,8,0:0:0:0:
256,352,37707,1,8,0:0:0:0:
256,352,37801,1,0,0:0:0:0:
256,352,37895,1,0,0:0:0:0:
256,352,37989,1,8,0:0:0:0:
256,352,38082,1,0,0:0:0:0:
256,352,38176,1,8,0:0:0:0:
256,352,38270,1,8,0:0:0:0:
256,256,38364,1,0,0:0:0:0:
256,256,38551,1,0,0:0:0:0:
288,288,38739,1,8,0:0:0:0:
288,288,40239,1,0,0:0:0:0:
288,288,40426,1,0,0:0:0:0:
320,320,40614,1,8,0:0:0:0:
288,320,40707,1,8,0:0:0:0:
288,288,40801,1,0,0:0:0:0:
288,320,40989,1,0,0:0:0:0:
288,288,41176,1,0,0:0:0:0:
288,288,41364,1,8,0:0:0:0:
288,320,41457,1,0,0:0:0:0:
288,320,41551,1,8,0:0:0:0:
288,320,41645,1,8,0:0:0:0:
288,320,41739,1,0,0:0:0:0:
288,288,41926,1,0,0:0:0:0:
288,320,42114,1,8,0:0:0:0:
288,320,42207,1,0,0:0:0:0:
288,320,42301,1,8,0:0:0:0:
256,288,42395,1,8,0:0:0:0:
288,320,42489,1,0,0:0:0:0:
288,320,42676,1,0,0:0:0:0:
288,320,42770,1,0,0:0:0:0:
288,320,42864,1,8,0:0:0:0:
320,320,42957,1,0,0:0:0:0:
288,320,43051,1,8,0:0:0:0:
288,320,43145,1,8,0:0:0:0:
288,320,43239,1,0,0:0:0:0:
256,288,43426,1,0,0:0:0:0:
256,288,43614,1,8,0:0:0:0:
256,288,43707,1,8,0:0:0:0:
256,288,43801,1,0,0:0:0:0:
256,288,43895,1,0,0:0:0:0:
256,288,43989,1,8,0:0:0:0:
256,320,44176,1,0,0:0:0:0:
256,320,44270,1,0,0:0:0:0:
256,288,44364,1,8,0:0:0:0:
256,288,44457,1,0,0:0:0:0:
256,288,44551,1,8,0:0:0:0:
256,224,44739,1,0,0:0:0:0:
256,288,44926,1,0,0:0:0:0:
256,288,45020,1,0,0:0:0:0:
256,288,45114,1,8,0:0:0:0:
256,288,45301,1,8,0:0:0:0:
256,352,45395,1,0,0:0:0:0:
256,288,45489,1,8,0:0:0:0:
256,288,45582,1,8,0:0:0:0:
288,320,45676,1,0,0:0:0:0:
256,352,45770,1,0,0:0:0:0:
256,320,45864,1,8,0:0:0:0:
256,320,46051,1,0,0:0:0:0:
256,320,46145,1,0,0:0:0:0:
256,320,46239,1,8,0:0:0:0:
256,320,46426,1,0,0:0:0:0:
256,320,46614,1,8,0:0:0:0:
256,320,46707,1,8,0:0:0:0:
256,320,46801,1,0,0:0:0:0:
256,320,46895,1,0,0:0:0:0:
256,320,46989,1,8,0:0:0:0:
256,320,47176,1,0,0:0:0:0:
256,320,47270,1,0,0:0:0:0:
256,320,47364,1,8,0:0:0:0:
256,320,47457,1,0,0:0:0:0:
256,320,47551,1,8,0:0:0:0:
256,320,47645,1,8,0:0:0:0:
256,320,47739,1,0,0:0:0:0:
256,320,47926,1,0,0:0:0:0:
256,320,48020,1,0,0:0:0:0:
256,320,48114,1,8,0:0:0:0:
256,320,48301,1,8,0:0:0:0:
256,320,48395,1,8,0:0:0:0:
256,320,48489,1,0,0:0:0:0:
256,320,48582,1,0,0:0:0:0:
256,320,48676,1,8,0:0:0:0:
256,320,48770,1,0,0:0:0:0:
256,320,48864,1,8,0:0:0:0:
256,320,49051,1,0,0:0:0:0:
256,320,49239,1,8,0:0:0:0:
256,320,49332,1,8,0:0:0:0:
256,320,49426,1,0,0:0:0:0:
256,320,49520,1,0,0:0:0:0:
256,320,49614,1,8,0:0:0:0:
256,320,49801,1,8,0:0:0:0:
256,320,49989,1,0,0:0:0:0:
256,320,50082,1,0,0:0:0:0:
256,320,50176,1,8,0:0:0:0:
256,320,50270,1,0,0:0:0:0:
256,320,50364,1,8,0:0:0:0:
256,320,50551,1,8,0:0:0:0:
256,320,50739,1,0,0:0:0:0:
256,320,50926,1,8,0:0:0:0:
256,320,51020,1,0,0:0:0:0:
256,320,51114,1,8,0:0:0:0:
256,320,51301,1,0,0:0:0:0:
256,320,51489,1,8,0:0:0:0:
256,320,51582,1,8,0:0:0:0:
256,320,51676,1,0,0:0:0:0:
256,320,51770,1,0,0:0:0:0:
256,320,51864,1,8,0:0:0:0:
256,320,52051,1,0,0:0:0:0:
256,320,52239,1,8,0:0:0:0:
256,320,52332,1,0,0:0:0:0:
256,320,52426,1,8,0:0:0:0:
256,320,52520,1,8,0:0:0:0:
256,320,52614,1,0,0:0:0:0:
256,320,52801,1,0,0:0:0:0:
256,320,52895,1,0,0:0:0:0:
256,320,52989,1,8,0:0:0:0:
256,320,53082,1,8,0:0:0:0:
256,320,53176,1,0,0:0:0:0:
256,320,53270,1,0,0:0:0:0:
256,320,53364,1,8,0:0:0:0:
256,320,53457,1,0,0:0:0:0:
256,320,53551,1,0,0:0:0:0:
256,320,53645,1,8,0:0:0:0:
256,320,53739,1,0,0:0:0:0:
288,320,53926,1,0,0:0:0:0:
288,320,54020,1,0,0:0:0:0:
288,320,54114,1,8,0:0:0:0:
288,320,54301,1,0,0:0:0:0:
288,320,54395,1,8,0:0:0:0:
288,320,54489,1,0,0:0:0:0:
288,352,54676,1,0,0:0:0:0:
288,352,54770,1,0,0:0:0:0:
288,352,54864,1,8,0:0:0:0:
288,320,54957,1,8,0:0:0:0:
288,320,55051,1,0,0:0:0:0:
288,320,55145,1,8,0:0:0:0:
288,320,55239,1,0,0:0:0:0:
288,320,55426,1,0,0:0:0:0:
288,320,55520,1,0,0:0:0:0:
288,320,55614,1,8,0:0:0:0:
288,320,55801,1,0,0:0:0:0:
288,320,55895,1,8,0:0:0:0:
288,320,55989,1,0,0:0:0:0:
320,320,56176,1,0,0:0:0:0:
288,320,56270,1,0,0:0:0:0:
288,320,56364,1,8,0:0:0:0:
288,320,56457,1,8,0:0:0:0:
288,320,56551,1,0,0:0:0:0:
288,320,56645,1,8,0:0:0:0:
288,320,56739,1,0,0:0:0:0:
288,320,56926,1,0,0:0:0:0:
288,320,57020,1,0,0:0:0:0:
288,320,57114,1,8,0:0:0:0:
288,320,57301,1,0,0:0:0:0:
288,320,57395,1,8,0:0:0:0:
288,320,57489,1,0,0:0:0:0:
288,320,57676,1,0,0:0:0:0:
288,320,57770,1,0,0:0:0:0:
288,320,57864,1,8,0:0:0:0:
288,320,57957,1,8,0:0:0:0:
288,320,58051,1,0,0:0:0:0:
288,320,58145,1,8,0:0:0:0:
288,320,58239,1,0,0:0:0:0:
288,320,58426,1,0,0:0:0:0:
288,320,58614,1,8,0:0:0:0:
288,320,58801,1,8,0:0:0:0:
288,320,58895,1,8,0:0:0:0:
288,320,58989,1,0,0:0:0:0:
288,320,59176,1,0,0:0:0:0:
288,320,59364,1,8,0:0:0:0:
288,320,59551,1,8,0:0:0:0:
288,320,59645,1,8,0:0:0:0:
288,320,59739,1,0,0:0:0:0:
288,320,59926,1,0,0:0:0:0:
288,320,60114,1,8,0:0:0:0:
288,320,60207,1,8,0:0:0:0:
288,320,60301,1,0,0:0:0:0:
288,320,60395,1,0,0:0:0:0:
288,320,60489,1,8,0:0:0:0:
288,320,60676,1,8,0:0:0:0:
288,320,60739,1,0,0:0:0:0:
288,320,60801,1,0,0:0:0:0:
288,320,60864,1,8,0:0:0:0:
288,320,61051,1,0,0:0:0:0:
288,320,61239,1,8,0:0:0:0:
288,320,61426,1,0,0:0:0:0:
288,320,61614,1,8,0:0:0:0:
288,320,61707,1,8,0:0:0:0:
288,320,61801,1,0,0:0:0:0:
288,320,61895,1,8,0:0:0:0:
288,320,61989,1,0,0:0:0:0:
288,288,62176,1,0,0:0:0:0:
288,288,62239,1,0,0:0:0:0:
288,288,62301,1,0,0:0:0:0:
288,288,62364,1,8,0:0:0:0:
288,320,62551,1,8,0:0:0:0:
288,320,62739,1,0,0:0:0:0:
288,320,62832,1,0,0:0:0:0:
288,320,62926,1,8,0:0:0:0:
288,320,63020,1,0,0:0:0:0:
288,320,63114,1,8,0:0:0:0:
288,320,63207,1,8,0:0:0:0:
288,320,63301,1,0,0:0:0:0:
288,320,63395,1,8,0:0:0:0:
288,320,63489,1,0,0:0:0:0:
288,320,63582,1,0,0:0:0:0:
288,320,63676,1,8,0:0:0:0:
288,320,63770,1,0,0:0:0:0:
288,320,63864,1,8,0:0:0:0:
288,320,63957,1,8,0:0:0:0:
288,320,64051,1,0,0:0:0:0:
288,320,64145,1,8,0:0:0:0:
288,320,64239,1,0,0:0:0:0:
288,320,64426,1,0,0:0:0:0:
288,320,64520,1,0,0:0:0:0:
288,320,64614,1,8,0:0:0:0:
288,320,64801,1,0,0:0:0:0:
288,320,64895,1,8,0:0:0:0:
288,320,64989,1,0,0:0:0:0:
288,320,65176,1,8,0:0:0:0:
288,320,65364,1,0,0:0:0:0:
288,320,65457,1,0,0:0:0:0:
288,320,65551,1,0,0:0:0:0:
288,320,65645,1,0,0:0:0:0:
288,320,65739,1,8,0:0:0:0:
288,320,65926,1,0,0:0:0:0:
288,320,66020,1,0,0:0:0:0:
288,320,66114,1,0,0:0:0:0:
288,320,66301,1,8,0:0:0:0:
288,320,66489,1,0,0:0:0:0:
288,320,66582,1,0,0:0:0:0:
288,320,66676,1,0,0:0:0:0:
288,320,66864,1,8,0:0:0:0:
288,320,67051,1,0,0:0:0:0:
288,320,67145,1,0,0:0:0:0:
288,320,67239,1,8,0:0:0:0:
288,320,67426,1,0,0:0:0:0:
288,320,67614,1,8,0:0:0:0:
288,320,67801,1,8,0:0:0:0:
288,320,67895,1,8,0:0:0:0:
288,320,67989,1,0,0:0:0:0:
288,320,68082,1,0,0:0:0:0:
288,320,68176,1,0,0:0:0:0:
288,320,68270,1,0,0:0:0:0:
288,320,68364,1,8,0:0:0:0:
288,320,68551,1,0,0:0:0:0:
288,320,68645,1,0,0:0:0:0:
288,320,68739,1,8,0:0:0:0:
288,320,68832,1,0,0:0:0:0:
288,320,68926,1,8,0:0:0:0:
288,320,69020,1,8,0:0:0:0:
288,320,69114,1,0,0:0:0:0:
288,320,69301,1,8,0:0:0:0:
288,320,69489,1,8,0:0:0:0:
288,320,69582,1,8,0:0:0:0:
288,320,69676,1,0,0:0:0:0:
288,320,69864,1,8,0:0:0:0:
288,320,70051,1,0,0:0:0:0:
288,320,70145,1,0,0:0:0:0:
288,320,70239,1,8,0:0:0:0:
288,320,70426,1,0,0:0:0:0:
288,320,70614,1,8,0:0:0:0:
288,320,70801,1,0,0:0:0:0:
288,320,70989,1,0,0:0:0:0:
288,320,71176,1,8,0:0:0:0:
288,320,71270,1,8,0:0:0:0:
288,320,71364,1,0,0:0:0:0:
288,320,71551,1,8,0:0:0:0:
288,320,71739,1,0,0:0:0:0:
288,320,71832,1,8,0:0:0:0:
288,320,71926,1,8,0:0:0:0:
288,320,72020,1,8,0:0:0:0:
288,320,72114,1,0,0:0:0:0:
288,320,72301,1,8,0:0:0:0:
288,288,72676,1,0,0:0:0:0:
288,288,72864,1,8,0:0:0:0:
288,288,73051,1,0,0:0:0:0:
288,288,73239,1,8,0:0:0:0:
288,288,73332,1,8,0:0:0:0:
288,288,73426,1,0,0:0:0:0:
288,288,73520,1,0,0:0:0:0:
288,288,73614,1,8,0:0:0:0:
288,288,73801,1,0,0:0:0:0:
288,288,74176,1,0,0:0:0:0:
288,288,74364,1,8,0:0:0:0:
288,288,74551,1,8,0:0:0:0:
288,288,74739,1,0,0:0:0:0:
256,288,74864,1,0,0:0:0:0:
288,288,74989,1,0,0:0:0:0:
288,288,75114,1,8,0:0:0:0:
288,288,75239,1,8,0:0:0:0:
288,288,75364,1,8,0:0:0:0:
288,288,75489,1,0,0:0:0:0:
288,288,75614,1,0,0:0:0:0:
288,288,75739,1,0,0:0:0:0:
288,288,75864,1,8,0:0:0:0:
288,288,75989,1,8,0:0:0:0:
288,288,76114,1,8,0:0:0:0:
288,288,76239,1,4,0:0:0:0:
288,288,76614,1,6,0:0:0:0:
288,288,76989,1,4,0:0:0:0:
288,288,77364,1,6,0:0:0:0:
288,288,77739,1,0,0:0:0:0:
288,288,79239,1,0,0:0:0:0:
288,288,79614,1,0,0:0:0:0:
288,288,79989,1,8,0:0:0:0:
288,288,80082,1,8,0:0:0:0:
288,288,80176,1,0,0:0:0:0:
288,288,80270,1,0,0:0:0:0:
288,288,80364,1,8,0:0:0:0:
288,288,80457,1,8,0:0:0:0:
288,288,80551,1,8,0:0:0:0:
288,288,80645,1,8,0:0:0:0:
288,288,80739,1,0,0:0:0:0:
288,288,81114,1,0,0:0:0:0:
288,288,81207,1,0,0:0:0:0:
288,288,81301,1,8,0:0:0:0:
288,288,81395,1,8,0:0:0:0:
288,288,81489,1,0,0:0:0:0:
320,288,81676,1,0,0:0:0:0:
288,288,81864,1,8,0:0:0:0:
288,288,82051,1,8,0:0:0:0:
288,288,82239,1,0,0:0:0:0:
288,288,82426,1,0,0:0:0:0:
288,288,82614,1,8,0:0:0:0:
288,288,82707,1,8,0:0:0:0:
288,288,82801,1,8,0:0:0:0:
288,288,82895,1,8,0:0:0:0:
288,288,82989,1,0,0:0:0:0:
288,288,83176,1,8,0:0:0:0:
288,288,83364,1,0,0:0:0:0:
288,288,83457,1,0,0:0:0:0:
288,288,83551,1,8,0:0:0:0:
288,288,83645,1,0,0:0:0:0:
288,288,83739,1,8,0:0:0:0:
288,288,83926,1,8,0:0:0:0:
288,288,84114,1,0,0:0:0:0:
288,288,84207,1,0,0:0:0:0:
288,288,84301,1,8,0:0:0:0:
288,288,84395,1,8,0:0:0:0:
288,288,84489,1,0,0:0:0:0:
288,288,84676,1,8,0:0:0:0:
288,288,84864,1,0,0:0:0:0:
288,288,85051,1,8,0:0:0:0:
288,288,85239,1,0,0:0:0:0:
288,288,85426,1,0,0:0:0:0:
288,288,85614,1,8,0:0:0:0:
288,288,85707,1,8,0:0:0:0:
288,288,85801,1,0,0:0:0:0:
288,288,85895,1,0,0:0:0:0:
288,288,85989,1,0,0:0:0:0:
288,288,86176,1,0,0:0:0:0:
288,288,86364,1,0,0:0:0:0:
288,288,86551,1,8,0:0:0:0:
288,288,86645,1,8,0:0:0:0:
288,288,86739,1,0,0:0:0:0:
288,288,86926,1,0,0:0:0:0:
288,288,87020,1,0,0:0:0:0:
288,288,87114,1,8,0:0:0:0:
288,288,87207,1,0,0:0:0:0:
288,288,87301,1,8,0:0:0:0:
288,288,87395,1,8,0:0:0:0:
288,288,87489,1,0,0:0:0:0:
288,288,87676,1,0,0:0:0:0:
288,288,87864,1,8,0:0:0:0:
288,288,87957,1,0,0:0:0:0:
288,288,88051,1,8,0:0:0:0:
288,288,88145,1,8,0:0:0:0:
288,288,88239,1,0,0:0:0:0:
288,288,88426,1,0,0:0:0:0:
288,288,88614,1,8,0:0:0:0:
288,288,88707,1,8,0:0:0:0:
288,288,88801,1,0,0:0:0:0:
288,288,88895,1,0,0:0:0:0:
288,288,88989,1,8,0:0:0:0:
288,288,89176,1,0,0:0:0:0:
288,288,89270,1,0,0:0:0:0:
288,288,89364,1,8,0:0:0:0:
288,288,89551,1,0,0:0:0:0:
288,288,89739,1,8,0:0:0:0:
288,320,89832,1,0,0:0:0:0:
288,320,89926,1,8,0:0:0:0:
288,320,90114,1,8,0:0:0:0:
288,320,90207,1,8,0:0:0:0:
288,320,90301,1,8,0:0:0:0:
288,320,90395,1,8,0:0:0:0:
288,320,90489,1,0,0:0:0:0:
288,352,90676,1,0,0:0:0:0:
288,352,90770,1,0,0:0:0:0:
288,352,90864,1,8,0:0:0:0:
288,352,91051,1,0,0:0:0:0:
288,352,91239,1,8,0:0:0:0:
288,352,91426,1,0,0:0:0:0:
288,352,91520,1,0,0:0:0:0:
288,352,91614,1,8,0:0:0:0:
288,352,91707,1,8,0:0:0:0:
288,352,91801,1,0,0:0:0:0:
288,352,91989,1,8,0:0:0:0:
288,352,92176,1,0,0:0:0:0:
288,352,92270,1,0,0:0:0:0:
288,352,92364,1,8,0:0:0:0:
288,352,92457,1,8,0:0:0:0:
288,352,92551,1,0,0:0:0:0:
288,352,92645,1,8,0:0:0:0:
288,352,92739,1,0,0:0:0:0:
288,352,92832,1,8,0:0:0:0:
288,352,92926,1,0,0:0:0:0:
288,352,93020,1,0,0:0:0:0:
288,352,93114,1,8,0:0:0:0:
288,352,93207,1,0,0:0:0:0:
288,352,93301,1,8,0:0:0:0:
288,352,93395,1,8,0:0:0:0:
288,352,93489,1,0,0:0:0:0:
288,352,93582,1,0,0:0:0:0:
288,352,93676,1,8,0:0:0:0:
288,352,93770,1,0,0:0:0:0:
288,352,93864,1,8,0:0:0:0:
288,352,93957,1,8,0:0:0:0:
288,352,94051,1,0,0:0:0:0:
288,352,94145,1,8,0:0:0:0:
288,352,94239,1,0,0:0:0:0:
288,352,94332,1,0,0:0:0:0:
288,352,94426,1,8,0:0:0:0:
288,352,94520,1,0,0:0:0:0:
288,352,94614,1,8,0:0:0:0:
288,352,94707,1,8,0:0:0:0:
288,352,94801,1,0,0:0:0:0:
288,352,94895,1,8,0:0:0:0:
288,352,94989,1,0,0:0:0:0:
288,352,95082,1,0,0:0:0:0:
288,352,95176,1,0,0:0:0:0:
288,352,95364,1,8,0:0:0:0:
288,352,95457,1,8,0:0:0:0:
288,352,95551,1,0,0:0:0:0:
288,352,95645,1,8,0:0:0:0:
288,352,95739,1,0,0:0:0:0:
288,352,95832,1,0,0:0:0:0:
288,352,95926,1,0,0:0:0:0:
288,352,95989,1,0,0:0:0:0:
288,352,96051,1,0,0:0:0:0:
288,352,96114,1,8,0:0:0:0:
320,352,96207,1,8,0:0:0:0:
320,352,96301,1,0,0:0:0:0:
320,352,96395,1,8,0:0:0:0:
320,352,96489,1,0,0:0:0:0:
320,352,96582,1,0,0:0:0:0:
320,352,96676,1,8,0:0:0:0:
320,352,96770,1,8,0:0:0:0:
320,352,96864,1,0,0:0:0:0:
320,352,96957,1,0,0:0:0:0:
320,352,97051,1,8,0:0:0:0:
320,352,97145,1,8,0:0:0:0:
320,352,97239,1,0,0:0:0:0:
320,352,97332,1,0,0:0:0:0:
320,352,97426,1,8,0:0:0:0:
320,352,97520,1,0,0:0:0:0:
320,352,97614,1,8,0:0:0:0:
320,352,97707,1,8,0:0:0:0:
320,352,97801,1,0,0:0:0:0:
320,352,97895,1,8,0:0:0:0:
320,352,97989,1,0,0:0:0:0:
320,352,98082,1,0,0:0:0:0:
320,352,98176,1,8,0:0:0:0:
320,352,98270,1,8,0:0:0:0:
320,352,98364,1,0,0:0:0:0:
320,352,98551,1,8,0:0:0:0:
320,352,98645,1,8,0:0:0:0:
320,352,98739,1,0,0:0:0:0:
320,352,98832,1,0,0:0:0:0:
320,352,98926,1,8,0:0:0:0:
320,352,99020,1,0,0:0:0:0:
320,352,99114,1,8,0:0:0:0:
320,352,99207,1,8,0:0:0:0:
320,352,99301,1,0,0:0:0:0:
320,352,99395,1,0,0:0:0:0:
320,352,99489,1,8,0:0:0:0:
320,352,99582,1,0,0:0:0:0:
320,352,99676,1,8,0:0:0:0:
288,352,99739,1,0,0:0:0:0:
288,352,99801,1,0,0:0:0:0:
288,352,99864,1,8,0:0:0:0:
288,352,99957,1,8,0:0:0:0:
288,352,100051,1,0,0:0:0:0:
288,352,100145,1,0,0:0:0:0:
288,352,100239,1,8,0:0:0:0:
288,352,100332,1,8,0:0:0:0:
288,352,100426,1,0,0:0:0:0:
288,352,100520,1,0,0:0:0:0:
288,352,100614,1,8,0:0:0:0:
288,352,100707,1,0,0:0:0:0:
288,352,100801,1,8,0:0:0:0:
288,352,100895,1,8,0:0:0:0:
288,352,100989,1,0,0:0:0:0:
288,352,101082,1,0,0:0:0:0:
288,352,101176,1,8,0:0:0:0:
288,352,101270,1,0,0:0:0:0:
288,352,101364,1,8,0:0:0:0:
288,320,101457,1,8,0:0:0:0:
288,352,101551,1,0,0:0:0:0:
288,352,101645,1,8,0:0:0:0:
288,352,101739,1,0,0:0:0:0:
288,320,101832,1,0,0:0:0:0:
288,320,101926,1,8,0:0:0:0:
288,320,102020,1,0,0:0:0:0:
288,320,102114,1,8,0:0:0:0:
288,320,102207,1,8,0:0:0:0:
288,320,102301,1,0,0:0:0:0:
288,320,102395,1,8,0:0:0:0:
288,320,102489,1,0,0:0:0:0:
288,320,102582,1,0,0:0:0:0:
288,320,102676,1,8,0:0:0:0:
288,320,102770,1,0,0:0:0:0:
288,320,102864,1,8,0:0:0:0:
288,320,102957,1,8,0:0:0:0:
288,320,103051,1,0,0:0:0:0:
288,320,103145,1,8,0:0:0:0:
288,320,103239,1,0,0:0:0:0:
288,320,103426,1,0,0:0:0:0:
288,320,103614,1,8,0:0:0:0:
288,288,103707,1,0,0:0:0:0:
288,320,103801,1,8,0:0:0:0:
288,320,103864,1,8,0:0:0:0:
288,320,103926,1,8,0:0:0:0:
288,320,103989,1,0,0:0:0:0:
288,320,104082,1,0,0:0:0:0:
288,288,104176,1,0,0:0:0:0:
288,320,104270,1,0,0:0:0:0:
288,320,104364,1,8,0:0:0:0:
288,320,104457,1,0,0:0:0:0:
288,320,104551,1,8,0:0:0:0:
288,320,104645,1,8,0:0:0:0:
288,320,104739,1,0,0:0:0:0:
288,320,104926,1,0,0:0:0:0:
288,320,105020,1,0,0:0:0:0:
288,320,105114,1,8,0:0:0:0:
288,288,105301,1,0,0:0:0:0:
288,288,105395,1,8,0:0:0:0:
288,288,105489,1,0,0:0:0:0:
288,288,105676,1,0,0:0:0:0:
288,288,105770,1,0,0:0:0:0:
288,288,105864,1,8,0:0:0:0:
288,288,105957,1,8,0:0:0:0:
288,288,106051,1,0,0:0:0:0:
288,320,106114,1,8,0:0:0:0:
288,320,106176,1,8,0:0:0:0:
288,288,106239,1,0,0:0:0:0:
288,288,106332,1,8,0:0:0:0:
288,288,106426,1,0,0:0:0:0:
288,288,106520,1,0,0:0:0:0:
288,288,106614,1,8,0:0:0:0:
288,288,106707,1,0,0:0:0:0:
288,288,106801,1,8,0:0:0:0:
288,288,106895,1,8,0:0:0:0:
288,288,106989,1,0,0:0:0:0:
288,288,107082,1,0,0:0:0:0:
288,288,107176,1,8,0:0:0:0:
288,288,107270,1,0,0:0:0:0:
288,288,107364,1,8,0:0:0:0:
288,288,107457,1,8,0:0:0:0:
288,288,107551,1,0,0:0:0:0:
288,288,107645,1,8,0:0:0:0:
288,288,107739,1,0,0:0:0:0:
288,288,107832,1,0,0:0:0:0:
288,288,107926,1,8,0:0:0:0:
288,288,108020,1,0,0:0:0:0:
288,288,108114,1,8,0:0:0:0:
288,288,108207,1,0,0:0:0:0:
288,288,108301,1,0,0:0:0:0:
288,288,108395,1,8,0:0:0:0:
288,288,108489,1,0,0:0:0:0:
288,288,108582,1,0,0:0:0:0:
288,288,108676,1,8,0:0:0:0:
288,288,108770,1,0,0:0:0:0:
288,288,108864,1,8,0:0:0:0:
288,288,108957,1,8,0:0:0:0:
288,288,109051,1,0,0:0:0:0:
288,288,109145,1,8,0:0:0:0:
288,288,109239,1,0,0:0:0:0:
288,288,109332,1,0,0:0:0:0:
288,288,109426,1,8,0:0:0:0:
288,288,109520,1,8,0:0:0:0:
288,288,109614,1,0,0:0:0:0:
288,288,109707,1,8,0:0:0:0:
288,288,109801,1,0,0:0:0:0:
288,288,109895,1,0,0:0:0:0:
288,288,109989,1,8,0:0:0:0:
288,288,110176,1,8,0:0:0:0:
288,288,110364,1,8,0:0:0:0:
288,288,110551,1,8,0:0:0:0:
288,288,110739,1,0,0:0:0:0:
288,288,112287,1,0,0:0:0:0:
288,288,113835,1,0,0:0:0:0:
288,288,115384,1,0,0:0:0:0:
