osu file format v14

[General]
AudioFilename: audio.mp3
AudioLeadIn: 0
PreviewTime: 98725
Countdown: 0
SampleSet: Soft
StackLeniency: 0.2
Mode: 0
LetterboxInBreaks: 0
EpilepsyWarning: 1
WidescreenStoryboard: 0

[Editor]
Bookmarks: 15194,17819,80725,93569
DistanceSpacing: 1.5
BeatDivisor: 8
GridSize: 4
TimelineZoom: 2.7

[Metadata]
Title:moon_child
TitleUnicode:moon_child
Artist:Shounen Radio
ArtistUnicode:少年ラジオ
Creator:Low
Version:EXL
Source:beatmania IIDX
Tags:Jun Wakita 脇田潤 wac neu boy BEMANI KONAMI POST ROCK F-FLY kaeru 9th style
BeatmapID:1135629
BeatmapSetID:536225

[Difficulty]
HPDrainRate:5
CircleSize:6
OverallDifficulty:8.5
ApproachRate:9.4
SliderMultiplier:1.4
SliderTickRate:1

[Events]
//Background and Video events
Video,0,"moon_child.avi"
0,0,"BG.png",0,0
//Break Periods
//Storyboard Layer 0 (Background)
//Storyboard Layer 1 (Fail)
//Storyboard Layer 2 (Pass)
//Storyboard Layer 3 (Foreground)
//Storyboard Sound Samples

[TimingPoints]
2547,408.163265306122,4,2,2,50,1,0
5812,402.684563758389,4,2,2,50,1,0
7422,397.350993377483,4,2,2,50,1,0
9011,387.096774193548,4,2,1,25,1,0
9011,-200,4,2,1,25,0,0
12107,-200,4,2,1,5,0,0
12494,-200,4,2,1,15,0,0
12881,-200,4,2,1,25,0,0
13269,-200,4,2,1,35,0,0
13656,-200,4,2,1,45,0,0
14043,-200,4,2,1,55,0,0
14817,-200,4,2,1,25,0,0
15194,375,4,2,1,35,1,0
15194,-200,4,2,1,35,0,1
18194,-200,4,2,1,35,0,1
20069,-200,4,2,1,35,0,0
21194,-200,4,2,1,45,0,0
23772,-200,4,2,0,5,0,0
23819,-200,4,2,1,45,0,0
24147,-200,4,2,0,5,0,0
24194,-200,4,2,1,45,0,0
25694,-100,4,2,1,45,0,0
27194,-100,4,2,1,55,0,0
38444,-50,4,1,0,55,0,0
38467,-100,4,2,1,55,0,0
38772,-100,4,2,0,5,0,0
38819,375,4,1,0,20,1,0
38819,-200,4,1,0,20,0,0
38842,-200,4,2,1,20,0,0
39194,-200,4,2,1,5,0,0
39522,-200,4,2,0,5,0,0
40319,-100,4,2,0,35,0,0
53256,-100,4,2,0,45,0,0
53819,-100,4,2,1,65,0,1
65819,-100,4,1,1,65,0,0
71772,-100,4,2,1,5,0,0
71819,-100,4,1,1,50,0,0
74819,-100,4,2,1,50,0,0
76319,-50,4,2,1,50,0,0
77819,-50,4,2,1,35,0,0
79319,-200,4,2,1,35,0,0
80069,-100,4,1,1,35,0,0
80819,-100,4,2,1,35,0,0
86819,-100,4,2,0,45,0,0
95444,-100,4,1,1,60,0,0
95819,-50,4,1,1,60,0,0
97319,-50,4,2,1,70,0,0
98819,-50,4,2,1,70,0,1
110819,389.61038961039,4,2,0,50,1,0
111013,-100,4,2,0,5,0,0
112377,-100,4,2,0,40,0,0
113546,-200,4,2,0,40,0,0
113935,387.096774193548,4,2,0,40,1,0
113935,-200,4,2,0,40,0,0
117031,-200,4,1,0,10,0,0
117055,-200,4,2,0,5,0,0
118967,387.096774193548,4,2,0,40,1,0
120515,408.163265306122,4,2,0,40,1,0
122132,413.793103448276,4,2,0,20,1,0
123843,444.444444444444,4,2,0,20,1,0
124065,-100,4,2,0,10,0,0
124509,-100,4,2,0,7,0,0

[Colours]
Combo1 : 255,0,255
Combo2 : 0,0,255
Combo3 : 255,255,255
Combo4 : 193,193,255
Combo5 : 255,255,0
Combo6 : 255,0,0
Combo7 : 0,255,0

[HitObjects]
80,32,2547,5,0,0:0:0:0:
80,96,4179,1,0,0:0:0:0:
80,160,5812,1,0,0:0:0:0:
80,224,7422,1,0,0:0:0:0:
80,288,9011,6,0,L|128:288,1,35
132,352,9398,1,0,0:0:0:0:
152,344,9591,2,0,L|148:384,1,35
240,296,9978,1,0,0:0:0:0:
220,304,10171,2,0,L|224:264,1,35
276,212,10559,6,0,P|288:168|280:132,1,70
240,80,11140,1,0,0:0:0:0:
224,88,11333,1,0,0:0:0:0:
284,144,11527,2,0,P|316:148|360:132,1,70
256,192,12107,12,0,14817,0:0:0:0:
24,268,15194,70,0,B|52:212|64:136|64:136|132:192|132:192|184:120|184:120|196:208|248:292,1,490
408,120,18194,6,0,P|312:200|460:292,1,350
472,236,20256,5,0,0:0:0:0:
496,176,20444,2,0,L|492:144,3,17.5
488,136,20819,2,0,P|468:116|464:84,1,52.5
480,32,21194,69,2,0:0:0:0:
420,16,21381,1,0,0:0:0:0:
404,76,21569,1,2,0:0:0:0:
462,92,21756,1,0,0:0:0:0:
322,128,21944,2,0,L|283:134,2,35,2|0|2,0:0|0:0|0:0,0:0:0:0:
402,180,22506,1,0,0:0:0:0:
312,228,22694,6,0,L|319:268,1,35,2|0,0:0|0:0,0:0:0:0:
249,235,23069,2,0,L|256:275,1,35,2|0,0:0|0:0,0:0:0:0:
193,287,23444,2,0,B|175:264|175:264|181:225,1,61.25,2|0,0:0|0:0,0:0:0:0:
179,232,23819,2,0,B|197:209|197:209|191:170,1,61.25,2|0,0:0|0:0,0:0:0:0:
179,118,24194,5,2,0:0:0:0:
240,112,24381,1,0,0:0:0:0:
292,76,24569,1,2,0:0:0:0:
304,16,24756,1,0,0:0:0:0:
336,172,24944,1,2,0:0:0:0:
380,216,25131,1,0,0:0:0:0:
424,172,25319,1,2,0:0:0:0:
464,124,25506,1,0,0:0:0:0:
480,256,25694,70,0,P|484:292|472:340,1,70,2|2,0:0|0:0,0:0:0:0:
356,360,26069,1,10,0:0:0:0:
254,286,26256,2,0,P|217:282|253:298,1,105,2|10,0:0|0:0,0:0:0:0:
312,304,26631,1,2,0:0:0:0:
268,124,26819,1,10,0:0:0:0:
84,188,27006,1,10,0:0:0:0:
84,188,27100,1,10,0:0:0:0:
140,216,27194,6,0,L|184:212,1,35,2|0,0:0|0:0,0:0:0:0:
236,204,27381,2,0,L|280:200,1,35
336,192,27569,1,10,0:0:0:0:
372,140,27662,1,0,0:0:0:0:
356,80,27756,1,0,0:0:0:0:
300,56,27850,1,0,0:0:0:0:
236,60,27944,6,0,P|192:60|152:92,1,70,2|0,0:0|0:0,0:0:0:0:
116,188,28319,1,10,0:0:0:0:
16,108,28506,1,2,0:0:0:0:
16,108,28881,2,0,P|4:144|32:172,1,70,2|10,0:0|0:0,0:0:0:0:
21,167,29444,21,2,0:0:0:0:
40,176,29631,1,2,0:0:0:0:
92,144,29819,1,10,0:0:0:0:
92,144,30194,37,2,0:0:0:0:
148,172,30287,1,0,0:0:0:0:
172,232,30381,1,0,0:0:0:0:
160,296,30475,1,0,0:0:0:0:
128,352,30569,2,0,P|144:336|160:304,1,35,10|0,0:0|0:0,0:0:0:0:
212,336,30756,2,0,P|231:324|255:297,1,35
300,344,30944,6,0,P|321:338|364:312,1,70,2|0,0:0|0:0,0:0:0:0:
428,204,31319,1,10,0:0:0:0:
362,313,31506,1,2,0:0:0:0:
362,313,31881,2,0,B|339:280|339:280|373:273,1,70,2|10,0:0|0:0,0:0:0:0:
368,273,32444,37,2,0:0:0:0:
392,268,32631,1,2,0:0:0:0:
436,304,32819,1,10,0:0:0:0:
436,304,33194,70,0,P|452:284|456:272,1,35,2|0,0:0|0:0,0:0:0:0:
464,212,33381,1,0,0:0:0:0:
464,212,33475,1,0,0:0:0:0:
456,148,33569,2,0,P|453:122|447:111,1,35,10|0,0:0|0:0,0:0:0:0:
400,176,33756,2,0,P|374:179|363:185,1,35
320,228,33944,70,0,L|224:220,1,70,2|0,0:0|0:0,0:0:0:0:
184,112,34319,1,10,0:0:0:0:
308,88,34506,1,2,0:0:0:0:
308,88,34881,2,0,P|327:91|306:69,1,70,2|10,0:0|0:0,0:0:0:0:
311,63,35444,53,2,0:0:0:0:
292,68,35631,1,2,0:0:0:0:
244,40,35819,1,10,0:0:0:0:
244,40,36194,53,2,0:0:0:0:
180,40,36287,1,0,0:0:0:0:
116,40,36381,1,0,0:0:0:0:
52,40,36475,1,0,0:0:0:0:
84,96,36569,1,10,0:0:0:0:
148,96,36662,1,0,0:0:0:0:
212,96,36756,1,0,0:0:0:0:
276,96,36850,1,0,0:0:0:0:
276,96,36944,6,0,P|292:128|268:180,1,70,2|0,0:0|0:0,0:0:0:0:
176,224,37319,1,10,0:0:0:0:
284,292,37506,1,2,0:0:0:0:
284,292,37881,2,0,B|317:287|317:287|360:316,1,70,2|10,0:0|0:0,0:0:0:0:
347,307,38444,6,0,P|339:363|382:292,1,245,2|0,0:0|0:0,0:0:0:0:
360,252,38819,54,0,B|324:240|302:213|302:213|281:187|245:176,1,131.25
232,180,39569,2,0,L|160:180,1,70,2|0,0:0|1:0,0:0:0:0:
92,180,40319,6,0,L|180:180,1,70,4|0,0:3|0:0,0:0:0:0:
228,288,40694,1,2,1:2:0:0:
228,288,40881,1,2,0:0:0:0:
320,128,41069,2,0,P|320:168|308:212,1,70,2|2,0:0|0:0,0:0:0:0:
228,104,41444,2,0,P|221:69|221:34,1,70,0|2,1:0|0:0,0:0:0:0:
320,128,41819,5,4,0:3:0:0:
376,168,42006,1,0,0:0:0:0:
396,236,42194,1,0,1:0:0:0:
372,300,42381,1,0,0:0:0:0:
308,332,42569,1,0,0:0:0:0:
240,320,42756,1,0,0:0:0:0:
192,268,42944,1,0,1:0:0:0:
188,200,43131,1,2,3:0:0:0:
224,140,43319,70,0,B|252:128|252:128|264:84,1,70,4|0,0:3|0:0,0:0:0:0:
328,200,43694,2,0,B|338:238|338:238|366:250,1,70,2|2,1:2|0:0,0:0:0:0:
268,324,44069,1,2,0:0:0:0:
180,232,44256,1,2,0:0:0:0:
236,120,44444,2,0,L|228:44,1,70,0|2,1:0|0:0,0:0:0:0:
284,20,44725,1,0,0:0:0:0:
284,20,44819,5,4,0:3:0:0:
300,88,45006,1,0,0:0:0:0:
316,156,45194,1,0,1:0:0:0:
336,224,45381,1,0,0:0:0:0:
340,152,45569,1,0,0:0:0:0:
356,220,45756,1,0,0:0:0:0:
372,288,45944,1,0,1:0:0:0:
392,356,46131,1,2,3:0:0:0:
392,284,46319,6,0,L|324:304,1,70,4|0,0:3|0:0,0:0:0:0:
256,320,46694,1,2,1:2:0:0:
188,336,46881,1,0,0:0:0:0:
260,340,47069,2,0,L|208:64,1,280,2|4,0:0|0:3,0:0:0:0:
260,20,48006,69,0,0:0:0:0:
328,32,48194,1,2,1:2:0:0:
368,88,48381,1,0,0:0:0:0:
372,160,48569,2,0,P|306:155|152:308,1,280,2|4,0:0|0:3,0:0:0:0:
176,356,49506,5,0,0:0:0:0:
244,376,49694,1,2,1:2:0:0:
304,336,49881,1,0,0:0:0:0:
304,264,50069,2,0,B|184:184|184:184|248:160|248:160|316:204,1,280,2|4,0:0|0:3,0:0:0:0:
352,228,51194,5,0,1:0:0:0:
400,264,51569,1,2,0:0:0:0:
448,300,51944,1,0,1:0:0:0:
496,332,52319,69,0,0:0:0:0:
484,264,52506,1,0,1:0:0:0:
428,200,52694,1,0,0:0:0:0:
352,148,52881,1,0,0:0:0:0:
260,112,53069,1,0,0:0:0:0:
156,112,53256,1,0,0:0:0:0:
48,144,53444,1,0,1:0:0:0:
76,28,53631,1,0,0:0:0:0:
136,236,53819,5,6,0:0:0:0:
244,300,54006,1,0,0:0:0:0:
244,300,54100,1,0,0:0:0:0:
244,300,54194,1,10,0:0:0:0:
352,240,54381,2,0,L|400:228,1,35
428,280,54569,1,2,0:0:0:0:
488,168,54756,1,0,0:0:0:0:
468,108,54850,1,0,0:0:0:0:
420,68,54944,1,10,0:0:0:0:
360,44,55037,1,0,0:0:0:0:
296,40,55131,1,2,0:0:0:0:
236,52,55225,1,0,0:0:0:0:
188,92,55319,5,0,0:0:0:0:
272,288,55506,2,0,L|284:248,1,35,2|0,0:0|0:0,0:0:0:0:
360,204,55694,1,10,0:0:0:0:
264,296,55881,2,0,L|276:256,1,35
352,212,56069,1,2,0:0:0:0:
256,304,56256,2,0,L|268:264,1,35
252,208,56444,2,0,L|264:168,1,35,10|0,0:0|0:0,0:0:0:0:
248,112,56631,2,0,L|260:72,1,35
248,16,56819,69,2,0:0:0:0:
136,72,57006,1,0,0:0:0:0:
76,56,57100,1,0,0:0:0:0:
16,40,57194,1,10,0:0:0:0:
128,204,57381,1,0,0:0:0:0:
188,220,57475,1,0,0:0:0:0:
188,220,57569,1,2,0:0:0:0:
232,336,57756,1,0,0:0:0:0:
292,320,57850,1,0,0:0:0:0:
352,304,57944,1,10,0:0:0:0:
412,284,58037,1,0,0:0:0:0:
364,244,58131,1,2,0:0:0:0:
424,228,58225,1,0,0:0:0:0:
380,184,58319,6,0,P|352:168|296:176,1,70,0|2,0:0|0:0,0:0:0:0:
216,244,58694,1,10,0:0:0:0:
144,140,58881,1,0,0:0:0:0:
132,136,58944,2,0,L|104:144,1,23.3333333333333
100,200,59069,2,0,L|28:220,1,70,2|0,0:0|0:0,0:0:0:0:
220,356,59444,1,10,0:0:0:0:
292,140,59631,1,0,0:0:0:0:
396,212,59819,6,0,B|420:240|420:240|400:304|400:304|352:320,1,140,2|10,0:0|0:0,0:0:0:0:
304,332,60287,1,0,0:0:0:0:
244,344,60381,2,0,L|196:352,1,35
128,284,60569,2,0,L|204:272,1,70,2|0,0:0|0:0,0:0:0:0:
256,264,60819,1,0,0:0:0:0:
256,264,60881,1,0,0:0:0:0:
256,264,60944,1,10,0:0:0:0:
168,176,61131,1,2,0:0:0:0:
272,76,61319,70,0,P|276:104|264:156,1,70,0|2,0:0|0:0,0:0:0:0:
336,36,61694,2,0,P|340:44|344:88,1,35,10|0,0:0|0:0,0:0:0:0:
352,128,61881,2,0,P|351:136|332:177,1,35
312,216,62069,1,2,0:0:0:0:
188,208,62256,2,0,L|152:200,3,23.3333333333333,0|0|0|10,0:0|0:0|0:0|0:0,0:0:0:0:
312,216,62631,1,0,0:0:0:0:
248,324,62819,5,2,0:0:0:0:
186,307,62912,1,0,0:0:0:0:
124,290,63006,1,0,0:0:0:0:
62,274,63100,1,0,0:0:0:0:
4,252,63194,5,10,0:0:0:0:
66,235,63287,1,0,0:0:0:0:
128,218,63381,1,0,0:0:0:0:
190,202,63475,1,0,0:0:0:0:
248,180,63569,69,2,0:0:0:0:
186,163,63662,1,0,0:0:0:0:
124,146,63756,1,0,0:0:0:0:
62,130,63850,1,0,0:0:0:0:
4,108,63944,5,10,0:0:0:0:
92,84,64037,1,0,0:0:0:0:
180,60,64131,1,0,0:0:0:0:
268,36,64225,1,0,0:0:0:0:
356,8,64319,6,0,L|344:156,1,140,2|10,0:0|0:0,0:0:0:0:
440,304,64881,1,2,0:0:0:0:
440,304,64975,1,0,0:0:0:0:
440,304,65069,1,0,0:0:0:0:
260,284,65256,2,0,P|200:248|112:264,1,140,10|0,0:0|0:0,0:0:0:0:
20,108,65819,69,12,0:2:0:0:
156,92,66006,1,0,0:0:0:0:
216,112,66100,1,0,0:0:0:0:
200,52,66194,1,0,0:0:0:0:
112,228,66381,1,12,0:2:0:0:
248,212,66568,1,0,0:0:0:0:
308,232,66662,1,0,0:0:0:0:
292,172,66756,1,0,0:0:0:0:
224,364,66944,2,0,L|312:356,1,70,12|0,0:2|0:0,0:0:0:0:
392,280,67319,6,0,B|404:168|404:168|380:200,1,140,12|8,0:2|0:2,0:0:0:0:
332,76,67881,2,0,B|444:88|444:88|412:64,1,140,0|0,0:2|0:0,0:0:0:0:
232,112,68444,2,0,P|216:140|228:200,1,70,8|0,0:2|0:0,0:0:0:0:
284,284,68819,5,12,0:2:0:0:
160,312,69006,1,0,0:0:0:0:
100,292,69100,1,0,0:0:0:0:
160,312,69194,1,0,0:0:0:0:
340,160,69381,1,12,0:2:0:0:
216,188,69568,1,0,0:0:0:0:
156,168,69662,1,0,0:0:0:0:
216,188,69756,1,0,0:0:0:0:
392,36,69944,2,0,L|314:17,1,70,12|0,0:2|0:0,0:0:0:0:
199,42,70319,70,0,B|133:84|133:84|203:75,1,140,12|8,0:2|0:2,0:0:0:0:
273,223,70881,2,0,B|339:181|339:181|269:190,1,140,0|0,0:2|0:0,0:0:0:0:
151,200,71444,2,0,L|16:184,1,122.5
151,200,71819,6,0,P|131:264|159:344,1,140,0|8,0:0|0:2,0:0:0:0:
272,372,72381,1,0,0:0:0:0:
272,372,72756,1,0,0:0:0:0:
296,248,72944,1,8,0:2:0:0:
404,312,73131,1,0,0:0:0:0:
296,248,73319,6,0,L|248:256,1,35
372,184,73506,2,0,L|324:192,1,35
432,128,73694,1,8,0:2:0:0:
316,76,73881,2,0,L|160:56,1,140
156,184,74444,1,8,0:2:0:0:
44,128,74631,1,0,0:0:0:0:
156,184,74819,70,0,L|136:288,1,93.3333333333333
224,152,75194,2,0,L|248:248,1,93.3333333333333
288,120,75569,2,0,L|348:204,1,93.3333333333333
336,56,75944,1,0,0:0:0:0:
396,92,76069,2,0,L|460:92,1,46.6666666666667
488,208,76319,38,0,P|424:220|484:164,1,186.666666666667,0|0,1:0|0:0,0:0:0:0:
316,340,76694,2,0,P|304:276|360:336,1,186.666666666667,0|0,1:0|0:0,0:0:0:0:
248,128,77069,2,0,P|312:116|252:172,1,186.666666666667,0|0,1:0|0:0,0:0:0:0:
108,160,77444,1,0,1:0:0:0:
116,328,77569,1,0,0:0:0:0:
0,248,77694,1,0,0:0:0:0:
224,240,77819,69,0,0:0:0:0:
216,244,78006,1,0,0:0:0:0:
272,172,78194,5,0,0:0:0:0:
267,179,78381,1,0,0:0:0:0:
304,92,78569,69,0,0:0:0:0:
303,100,78756,1,0,0:0:0:0:
292,4,78944,5,0,0:0:0:0:
295,11,79131,1,0,0:0:0:0:
220,32,79319,6,0,L|144:16,1,70,0|0,0:0|1:0,0:0:0:0:
60,84,79881,1,0,1:0:0:0:
100,176,80069,2,0,L|92:224,1,35
36,236,80256,1,0,0:0:0:0:
36,236,80350,1,0,0:0:0:0:
56,296,80444,2,0,L|112:304,1,35
136,384,80631,2,0,L|101:379,1,35
208,316,80819,69,0,0:0:0:0:
216,304,81381,1,0,0:0:0:0:
224,292,81944,1,0,0:0:0:0:
328,260,82694,5,0,0:0:0:0:
320,248,83256,1,0,0:0:0:0:
312,236,83819,1,0,0:0:0:0:
200,192,84381,5,0,0:0:0:0:
208,180,84944,1,0,0:0:0:0:
216,168,85319,70,0,B|147:146|147:146|220:140,1,140,2|0,0:0|0:0,0:0:0:0:
272,132,85787,1,0,0:0:0:0:
352,164,85975,1,0,0:0:0:0:
352,164,86068,1,0,0:0:0:0:
360,80,86256,1,0,0:0:0:0:
440,112,86444,1,0,0:0:0:0:
456,28,86631,1,0,0:0:0:0:
440,112,86819,6,0,P|440:184|380:208,1,140,2|0,0:0|0:0,0:0:0:0:
320,208,87287,1,0,0:0:0:0:
320,208,87381,1,0,0:0:0:0:
264,180,87475,1,0,0:0:0:0:
320,148,87569,1,2,0:0:0:0:
228,60,87756,1,0,0:0:0:0:
120,124,87944,1,2,0:0:0:0:
140,248,88131,1,0,0:0:0:0:
264,276,88319,6,0,B|276:328|276:328|312:248,1,140,2|0,0:0|0:0,0:0:0:0:
336,192,88787,1,0,0:0:0:0:
344,200,88881,2,0,L|384:192,1,35
440,176,89069,2,0,P|468:200|448:240,1,70,2|0,0:0|0:0,0:0:0:0:
320,228,89444,2,0,P|315:194|342:174,1,70,2|0,0:0|0:0,0:0:0:0:
462,229,89819,70,0,P|462:281|366:313,1,140,2|0,0:0|0:0,0:0:0:0:
332,312,90287,1,0,0:0:0:0:
284,272,90381,1,0,0:0:0:0:
284,272,90475,1,0,0:0:0:0:
284,272,90569,2,0,L|280:196,1,70,2|0,0:0|0:0,0:0:0:0:
364,64,90944,2,0,L|360:133,1,70,2|0,0:0|0:0,0:0:0:0:
284,272,91319,6,0,P|252:265|212:296,1,70,2|0,0:0|0:0,0:0:0:0:
188,336,91600,1,0,0:0:0:0:
144,292,91694,2,0,L|56:284,1,70,2|0,0:0|0:0,0:0:0:0:
24,168,92069,1,2,0:0:0:0:
74,285,92256,1,0,0:0:0:0:
88,124,92444,1,2,0:0:0:0:
88,124,92537,1,2,0:0:0:0:
88,124,92631,1,2,0:0:0:0:
88,124,92725,1,2,0:0:0:0:
88,124,92819,6,0,L|136:120,1,35,6|0,0:0|0:0,0:0:0:0:
116,232,93006,2,0,L|112:184,1,35
236,200,93194,2,0,L|201:202,1,35,2|0,0:0|0:0,0:0:0:0:
208,88,93381,2,0,L|212:136,1,35
84,132,93569,70,0,L|132:128,1,35,2|0,0:0|0:0,0:0:0:0:
112,240,93756,2,0,L|108:192,1,35
232,208,93944,2,0,L|197:210,1,35,2|0,0:0|0:0,0:0:0:0:
204,96,94131,2,0,L|208:144,1,35
76,140,94319,6,0,L|124:136,1,35,2|0,0:0|0:0,0:0:0:0:
104,248,94506,2,0,L|100:200,1,35
224,216,94694,2,0,L|189:218,1,35,2|0,0:0|0:0,0:0:0:0:
196,104,94881,2,0,L|200:152,1,35
68,148,95069,5,2,0:0:0:0:
56,164,95162,2,0,L|64:252,1,70,0|0,1:0|0:0,0:0:0:0:
28,288,95444,1,0,1:0:0:0:
124,304,95537,1,0,0:0:0:0:
220,320,95631,1,0,0:0:0:0:
316,336,95725,1,0,0:0:0:0:
412,352,95819,6,0,B|352:316|340:256|340:256|472:272,1,210,12|0,0:2|2:0,0:0:0:0:
416,36,96194,2,0,B|380:96|320:108|320:108|336:-24,1,210,12|0,0:2|2:0,0:0:0:0:
100,32,96569,2,0,B|160:68|172:128|172:128|40:112,1,210,12|0,0:2|2:0,0:0:0:0:
96,348,96944,2,0,B|132:288|192:276|192:276|176:408,1,210,12|0,0:2|2:0,0:0:0:0:
260,216,97319,54,0,L|260:140,1,70,14|0,0:0|0:0,0:0:0:0:
236,228,97506,2,0,L|236:152,1,70
120,32,97694,2,0,L|120:108,1,70,14|0,0:0|0:0,0:0:0:0:
144,20,97881,2,0,L|144:96,1,70
144,276,98069,1,14,0:0:0:0:
81,167,98162,1,0,0:0:0:0:
67,292,98256,1,0,0:0:0:0:
151,198,98350,1,0,0:0:0:0:
29,225,98444,2,0,P|112:224|216:120,1,210,14|0,0:0|0:0,0:0:0:0:
272,20,98819,37,6,0:0:0:0:
376,32,98912,1,0,0:0:0:0:
376,32,99006,2,0,P|388:68|372:124,1,70
364,204,99194,2,0,P|292:228|264:304,1,140,10|0,0:0|0:0,0:0:0:0:
332,364,99475,1,0,0:0:0:0:
228,360,99569,6,0,L|124:344,1,70,2|0,0:0|0:0,0:0:0:0:
84,276,99756,2,0,L|14:286,1,70
164,176,99944,1,10,0:0:0:0:
164,176,100037,1,0,0:0:0:0:
268,192,100131,6,0,L|348:204,1,70,2|0,0:0|0:0,0:0:0:0:
380,300,100319,1,0,0:0:0:0:
452,224,100412,1,0,0:0:0:0:
508,136,100506,2,0,P|484:104|444:96,1,70,2|0,0:0|0:0,0:0:0:0:
352,116,100694,1,10,0:0:0:0:
352,116,100787,1,0,0:0:0:0:
352,116,100881,2,0,L|264:108,1,70
196,48,101069,5,2,0:0:0:0:
164,148,101162,1,0,0:0:0:0:
80,84,101256,2,0,P|52:112|48:172,1,70
96,232,101444,2,0,L|228:244,1,70,10|0,0:0|0:0,0:0:0:0:
96,316,101631,2,0,L|26:309,1,70
184,344,101819,54,0,L|272:336,3,70,2|0|0|0,0:0|0:0|0:0|0:0,0:0:0:0:
336,272,102194,2,0,L|405:278,3,70,10|0|0|0,0:0|0:0|0:0|0:0,0:0:0:0:
488,216,102569,5,2,0:0:0:0:
460,116,102662,1,0,0:0:0:0:
368,64,102756,1,0,0:0:0:0:
264,64,102850,1,0,0:0:0:0:
184,132,102944,1,10,0:0:0:0:
184,132,103037,1,0,0:0:0:0:
184,132,103131,2,0,P|164:160|152:204,1,70,2|0,0:0|0:0,0:0:0:0:
140,300,103319,6,0,B|204:264|260:292|260:292|180:344|88:328,1,280,0|10,0:0|0:0,0:0:0:0:
0,152,103881,1,0,0:0:0:0:
44,168,103944,1,0,0:0:0:0:
88,156,104006,1,0,0:0:0:0:
116,118,104069,6,0,P|99:95|121:111,1,70,2|0,0:0|0:0,0:0:0:0:
217,61,104256,2,0,P|228:34|225:61,1,70
338,73,104444,2,0,P|366:69|341:80,1,70,10|0,0:0|0:0,0:0:0:0:
402,175,104631,2,0,P|419:197|397:181,1,70
464,270,104819,54,0,P|391:291|333:239,1,140,2|0,0:0|0:0,0:0:0:0:
289,166,105100,1,0,0:0:0:0:
197,217,105194,2,0,B|100:204|100:204|53:251,1,140,10|0,0:0|0:0,0:0:0:0:
19,325,105475,1,0,0:0:0:0:
120,353,105569,6,0,P|179:368|250:297,1,140,2|0,0:0|0:0,0:0:0:0:
281,228,105850,1,0,0:0:0:0:
261,124,105944,2,0,L|182:106,1,70,10|0,0:0|0:0,0:0:0:0:
96,152,106131,1,2,0:0:0:0:
96,152,106225,1,0,0:0:0:0:
192,108,106319,6,0,P|224:80|268:68,1,70
296,164,106506,2,0,P|336:177|368:209,1,70,2|0,0:0|0:0,0:0:0:0:
288,276,106694,2,0,P|296:317|284:361,1,70,10|0,0:0|0:0,0:0:0:0:
192,308,106881,2,0,P|159:336|116:348,1,70
120,232,107069,6,0,P|79:217|47:186,3,70,2|0|0|0,0:0|0:0|0:0|0:0,0:0:0:0:
20,104,107444,1,10,0:0:0:0:
116,148,107537,1,0,0:0:0:0:
220,160,107631,1,0,0:0:0:0:
316,116,107725,1,0,0:0:0:0:
356,16,107819,53,2,0:0:0:0:
356,16,107912,1,0,0:0:0:0:
356,16,108006,1,0,0:0:0:0:
356,16,108100,1,0,0:0:0:0:
428,92,108194,2,0,L|424:164,1,70,10|0,0:0|0:0,0:0:0:0:
460,329,108381,2,0,L|464:260,1,70
356,252,108569,6,0,P|316:244|252:260,1,70,2|0,0:0|0:0,0:0:0:0:
188,280,108756,2,0,P|161:310|142:374,1,70
280,360,108944,2,0,P|267:321|221:273,1,70,10|0,0:0|0:0,0:0:0:0:
176,224,109131,2,0,P|136:215|71:231,1,70,2|0,0:0|0:0,0:0:0:0:
0,368,109319,5,2,0:0:0:0:
68,288,109412,1,0,0:0:0:0:
96,188,109506,1,0,0:0:0:0:
96,84,109600,1,0,0:0:0:0:
28,4,109694,5,10,0:0:0:0:
60,104,109787,1,0,0:0:0:0:
152,152,109881,1,0,0:0:0:0:
256,152,109975,1,0,0:0:0:0:
336,104,110069,53,2,0:0:0:0:
236,344,110256,5,2,0:0:0:0:
412,0,110444,5,2,0:0:0:0:
324,256,110631,5,2,0:0:0:0:
108,88,110819,5,2,0:0:0:0:
256,192,110867,12,2,112377,0:0:0:0:
204,152,113546,6,0,L|200:200,1,35,2|2,0:0|0:0,0:0:0:0:
204,152,115096,6,0,P|208:188|192:212,1,52.5,2|2,0:0|0:0,0:0:0:0:
156,232,115483,1,0,0:0:0:0:
212,276,115870,1,2,0:0:0:0:
216,280,116160,1,2,0:0:0:0:
224,288,117031,2,0,L|376:288,1,140
432,352,118967,69,0,0:0:0:0:
432,288,120515,1,0,0:0:0:0:
432,224,122132,1,0,0:0:0:0:
432,160,123843,5,0,0:0:0:0:
368,148,124065,5,0,0:0:0:0:
316,112,124287,69,0,0:0:0:0:
292,56,124509,85,2,0:0:0:0:
