osu file format v14

[General]
AudioFilename: audio.mp3
AudioLeadIn: 0
PreviewTime: 27508
Countdown: 0
SampleSet: Soft
StackLeniency: 0.7
Mode: 0
LetterboxInBreaks: 0
WidescreenStoryboard: 0

[Editor]
DistanceSpacing: 1.3
BeatDivisor: 4
GridSize: 4
TimelineZoom: 1

[Metadata]
Title:KING OF THE WILD
TitleUnicode:KING OF THE WILD
Artist:Shounan no Kaze
ArtistUnicode:湘南乃風
Creator:ezek
Version:Tiger Mask W!
Source:タイガーマスクW
Tags:Tiger Mask W sharkie polkamocha ezek
BeatmapID:1167131
BeatmapSetID:550956

[Difficulty]
HPDrainRate:6
CircleSize:5
OverallDifficulty:9
ApproachRate:9.3
SliderMultiplier:2.59999990463257
SliderTickRate:1

[Events]
//Background and Video events
Video,32,"TM.avi"
0,0,"Tiger Maskuu.png",0,0
//Break Periods
//Storyboard Layer 0 (Background)
//Storyboard Layer 1 (Fail)
//Storyboard Layer 2 (Pass)
//Storyboard Layer 3 (Foreground)
//Storyboard Sound Samples

[TimingPoints]
981,555.555555555556,4,2,1,100,1,0
981,-200,4,2,1,40,0,0
27647,-100,4,2,1,65,0,0
29175,-66.6666666666667,4,2,1,65,0,0
29453,-100,4,2,1,65,0,0
31397,-66.6666666666667,4,2,1,65,0,0
31675,-100,4,2,1,65,0,0
38064,-66.6666666666667,4,2,1,65,0,0
38342,-100,4,2,1,65,0,0
40286,-66.6666666666667,4,2,1,65,0,0
40564,-100,4,2,1,65,0,0
43203,-50,4,2,1,65,0,0
44036,-100,4,2,1,65,0,0
45981,-80,4,2,1,65,0,0
46536,-66.6666666666667,4,2,1,65,0,0
46814,-100,4,2,1,65,0,0
48203,-80,4,2,1,65,0,0
48758,-66.6666666666667,4,2,1,65,0,0
49036,-100,4,2,1,65,0,0
50425,-80,4,2,1,65,0,0
50981,-66.6666666666667,4,2,1,65,0,0
51258,-100,4,2,1,65,0,0
52647,-80,4,2,1,65,0,0
53203,-100,4,2,1,65,0,0
63203,-100,4,2,1,65,0,1
64731,-80,4,2,1,65,0,1
65008,-100,4,2,1,65,0,1
66953,-80,4,2,1,65,0,1
67231,-100,4,2,1,65,0,1
71814,-100,4,2,1,65,0,0
72092,-100,4,2,1,65,0,1
73619,-80,4,2,1,65,0,1
73897,-100,4,2,1,65,0,1
75842,-80,4,2,1,65,0,1
76119,-100,4,2,1,65,0,1
78758,-50,4,2,1,65,0,1
79592,-100,4,2,1,65,0,1
80981,-100,4,2,1,65,0,0
85147,-100,4,2,1,80,0,1
85425,-100,4,2,1,80,0,0

[Colours]
Combo1 : 224,224,224
Combo2 : 248,210,1
SliderBorder : 248,210,1
SliderTrackOverride : 0,0,0

[HitObjects]
176,140,981,6,0,B|224:140|256:188|256:188|288:140|336:140,1,194.999992847443
168,344,2647,1,0,0:0:0:0:
344,344,2925,1,0,0:0:0:0:
196,144,3203,6,0,B|184:120|196:96|196:96|208:68|196:40,1,108.33332935969
256,344,4036,1,0,0:0:0:0:
316,144,4314,2,0,B|328:120|316:96|316:96|304:68|316:40,1,108.33332935969
334,27,4869,1,0,0:0:0:0:
340,300,5425,6,0,P|256:344|172:300,1,194.999992847443
152,280,6351,2,0,L|144:256,1,21.6666658719381
256,32,7647,5,0,0:0:0:0:
352,124,7925,2,0,B|324:184|256:206|256:206|188:184|160:124,1,259.999990463257
256,276,9314,1,0,0:0:0:0:
48,112,9869,6,0,P|28:68|48:24,1,97.4999964237214,2|2,0:0|0:0,0:0:0:0:
256,196,10564,2,0,L|256:228,1,32.4999988079071,0|2,0:0|0:0,0:0:0:0:
465,25,10981,2,0,P|483:69|464:112,1,97.4999964237214,2|0,0:0|0:0,0:0:0:0:
256,228,11675,2,0,L|256:196,1,32.4999988079071,0|2,0:0|0:0,0:0:0:0:
408,312,12092,5,2,0:0:0:0:
104,312,12369,1,2,0:0:0:0:
256,32,12925,1,0,0:0:0:0:
328,252,13203,2,0,L|360:192,1,64.9999976158143
184,252,13758,2,0,L|152:192,1,64.9999976158143
256,32,14314,6,0,L|256:96,1,64.9999976158143,2|2,0:0|0:0,0:0:0:0:
256,272,15008,2,0,L|256:236,1,32.4999988079071,0|2,0:0|0:0,0:0:0:0:
60,352,15425,1,0,0:0:0:0:
376,224,15703,1,0,0:0:0:0:
136,224,15981,1,0,0:0:0:0:
452,352,16259,1,0,0:0:0:0:
136,292,16536,6,0,P|100:280|80:260,1,64.9999976158143,2|0,0:0|0:0,0:0:0:0:
376,292,17092,2,0,P|412:280|432:260,1,64.9999976158143
256,48,17647,2,0,L|256:112,1,64.9999976158143,2|2,0:0|0:0,0:0:0:0:
104,28,18203,1,0,0:0:0:0:
408,28,18480,1,0,0:0:0:0:
256,296,18758,6,0,B|248:268|256:248|256:248|264:228|256:200,1,97.4999964237214,2|2,0:0|0:0,0:0:0:0:
112,136,19406,2,0,L|64:136,1,43.3333317438762,0|2,0:0|0:0,0:0:0:0:
372,40,19869,6,0,P|432:12|488:40,1,129.999995231629,2|0,0:0|0:0,0:0:0:0:
140,344,20981,2,0,P|80:372|24:344,1,129.999995231629,2|0,0:0|0:0,0:0:0:0:
430,84,22092,2,0,L|418:220,1,129.999995231629
84,304,23203,5,2,0:0:0:0:
256,192,23342,12,4,25425,0:0:0:0:
256,348,25703,5,2,0:0:0:0:
256,348,25842,1,0,0:0:0:0:
256,348,25981,1,2,0:0:0:0:
28,192,26258,1,2,0:0:0:0:
260,40,26536,5,8,1:0:0:0:
364,136,26675,1,8,3:1:0:0:
336,4,26814,1,8,3:1:0:0:
280,124,26953,1,2,1:0:0:0:
396,60,27092,1,8,1:0:0:0:
492,312,27369,1,0,1:0:0:0:
492,312,27508,1,0,1:0:0:0:
368,176,27647,6,0,P|336:168|304:176,2,64.9999976158143,4|0|0,1:2|0:0|0:0,0:0:0:0:
256,336,28064,1,2,1:0:0:0:
144,176,28203,2,0,P|176:168|208:176,1,64.9999976158143
112,296,28481,1,8,1:1:0:0:
112,88,28619,1,0,0:0:0:0:
292,224,28758,2,0,B|332:264|332:264|352:344,1,129.999995231629,2|0,1:0|3:0,0:0:0:0:
348,156,29175,6,0,B|404:212|404:212|433:326,1,195.000000286102,2|0,1:0|3:0,0:0:0:0:
292,224,29592,1,8,1:1:0:0:
304,64,29731,1,0,0:0:0:0:
304,64,29869,6,0,L|368:56,1,64.9999976158143,4|0,1:2|0:0,0:0:0:0:
240,100,30147,1,0,0:0:0:0:
116,156,30286,2,0,L|180:148,1,64.9999976158143,2|0,1:0|0:0,0:0:0:0:
56,204,30564,1,0,0:0:0:0:
104,84,30703,1,8,1:0:0:0:
60,224,30842,1,0,0:0:0:0:
120,68,30981,2,0,P|168:104|204:164,1,129.999995231629,2|0,1:0|3:0,0:0:0:0:
144,0,31397,6,0,P|215:53|268:142,1,195.000000286102,2|0,1:0|3:0,0:0:0:0:
120,68,31814,1,8,1:0:0:0:
428,320,32092,5,4,1:2:0:0:
356,232,32231,1,0,0:0:0:0:
312,336,32369,1,0,0:0:0:0:
464,312,32508,1,2,1:0:0:0:
345,192,32647,1,0,0:0:0:0:
280,348,32786,1,0,0:0:0:0:
456,232,32925,2,0,L|462:155,1,64.9999976158143,8|0,1:0|0:0,0:0:0:0:
256,56,33203,6,0,L|256:128,1,64.9999976158143,2|0,1:0|0:0,0:0:0:0:
56,232,33481,1,0,0:0:0:0:
56,232,33619,2,0,L|50:155,1,64.9999976158143,2|0,1:0|0:0,0:0:0:0:
116,48,33897,1,0,0:0:0:0:
256,120,34036,2,0,L|256:192,1,64.9999976158143,8|0,1:0|3:0,0:0:0:0:
172,352,34314,5,2,1:0:0:0:
340,352,34453,1,0,0:0:0:0:
148,320,34592,1,0,0:0:0:0:
364,320,34731,1,2,1:0:0:0:
124,288,34869,1,0,0:0:0:0:
388,288,35008,1,0,0:0:0:0:
96,252,35147,1,8,1:0:0:0:
416,252,35286,1,0,0:0:0:0:
196,80,35425,5,8,1:0:0:0:
216,44,35494,1,8,3:1:0:0:
256,32,35564,1,2,3:1:0:0:
296,44,35633,1,2,3:1:0:0:
316,80,35702,1,8,1:1:0:0:
156,148,35842,2,0,P|132:128|120:96,1,64.9999976158143,2|2,1:0|3:1,0:0:0:0:
391,97,36119,2,0,P|380:127|356:148,1,64.9999976158143,0|8,1:0|1:0,0:0:0:0:
256,32,36397,1,10,1:0:0:0:
256,296,36536,6,0,L|256:360,1,64.9999976158143,4|0,0:0|0:0,0:0:0:0:
344,240,36814,1,0,0:0:0:0:
256,152,36953,1,2,1:0:0:0:
168,240,37092,1,0,0:0:0:0:
364,220,37231,1,0,0:0:0:0:
256,116,37369,1,8,1:0:0:0:
148,220,37508,1,0,0:0:0:0:
324,108,37647,2,0,B|364:104|364:104|408:112|408:112|452:108,1,129.999995231629,2|0,1:0|3:0,0:0:0:0:
296,24,38064,6,0,B|356:17|356:17|423:30|423:30|489:24,1,195.000000286102,2|0,1:0|3:0,0:0:0:0:
232,72,38481,6,0,P|220:40|220:4,1,64.9999976158143,8|0,1:0|0:0,0:0:0:0:
240,164,38758,5,4,1:2:0:0:
128,140,38897,1,0,0:0:0:0:
244,204,39036,1,0,0:0:0:0:
96,160,39175,1,2,1:0:0:0:
248,240,39314,2,0,L|256:308,1,64.9999976158143
64,184,39592,2,0,L|0:224,1,64.9999976158143,8|0,1:0|0:0,0:0:0:0:
144,356,39869,2,0,P|132:304|64:308,1,129.999995231629,2|0,1:0|3:0,0:0:0:0:
212,316,40286,6,0,P|172:252|59:235,1,195.000000286102,2|0,1:0|3:0,0:0:0:0:
144,356,40703,1,8,1:0:0:0:
66,306,40842,1,0,0:0:0:0:
288,232,40981,6,0,B|304:212|328:212|328:212|348:212,1,64.9999976158143,4|0,1:2|0:0,0:0:0:0:
256,320,41258,1,0,0:0:0:0:
224,232,41397,2,0,B|208:212|184:212|184:212|164:212,1,64.9999976158143,2|0,1:0|0:0,0:0:0:0:
96,120,41675,1,0,0:0:0:0:
164,28,41814,1,8,1:0:0:0:
233,125,41953,1,0,0:0:0:0:
233,125,42092,6,0,L|297:125,1,64.9999976158143,2|0,1:0|0:0,0:0:0:0:
456,232,42369,1,0,0:0:0:0:
456,232,42508,2,0,L|392:232,1,64.9999976158143,2|0,1:0|0:0,0:0:0:0:
233,125,42786,1,0,0:0:0:0:
392,24,42925,1,8,1:0:0:0:
408,332,43203,6,2,B|376:360|300:364|268:328|256:275|256:275|244:328|212:364|136:360|104:332,2,389.999985694885,2|2|8,1:0|1:0|1:0,0:0:0:0:
316,32,44314,5,8,1:0:0:0:
296,68,44383,1,8,3:1:0:0:
256,80,44453,1,2,3:1:0:0:
216,68,44522,1,2,3:1:0:0:
196,32,44592,1,8,1:0:0:0:
336,160,44731,2,0,L|400:168,1,64.9999976158143,2|2,1:0|1:0,0:0:0:0:
176,160,45008,2,0,L|112:168,1,64.9999976158143,2|8,3:1|1:0,0:0:0:0:
256,344,45286,1,8,3:1:0:0:
392,240,45425,2,0,L|412:112,1,129.999995231629,4|0,1:2|3:0,0:0:0:0:
424,304,45842,1,2,1:0:0:0:
424,304,45981,6,0,L|452:140,1,162.499994039536,2|8,3:1|1:0,0:0:0:0:
456,364,46536,6,0,L|492:164,1,195.000000286102,2|0,1:0|3:0,0:0:0:0:
220,116,46953,6,0,L|212:52,1,64.9999976158143,2|0,1:0|0:0,0:0:0:0:
292,144,47231,2,0,L|300:208,1,64.9999976158143,0|8,0:1|1:0,0:0:0:0:
256,344,47508,1,0,0:0:0:0:
120,240,47647,6,0,L|100:112,1,129.999995231629,4|0,1:2|3:0,0:0:0:0:
88,304,48064,1,2,1:0:0:0:
88,304,48203,6,0,L|60:140,1,162.499994039536,2|8,3:1|1:0,0:0:0:0:
56,364,48758,6,0,L|20:164,1,195.000000286102,2|0,1:0|3:0,0:0:0:0:
296,80,49175,6,0,L|308:144,1,64.9999976158143,2|0,1:0|0:0,0:0:0:0:
220,64,49453,2,0,L|208:0,1,64.9999976158143,0|8,0:1|1:0,0:0:0:0:
332,232,49731,1,0,0:0:0:0:
332,232,49869,6,0,B|256:248|256:248|204:240,1,129.999995231629,4|0,1:2|3:0,1:0:0:0:
352,292,50286,1,2,1:0:0:0:
352,292,50425,6,0,B|257:311|257:311|192:301,1,162.499994039536,2|8,3:1|1:0,0:0:0:0:
372,352,50981,6,0,B|257:374|257:374|179:362,1,195.000000286102,2|0,1:0|3:0,0:0:0:0:
136,160,51397,6,0,L|204:160,1,64.9999976158143,2|0,1:0|0:0,0:0:0:0:
376,224,51675,2,0,L|308:224,1,64.9999976158143,0|8,0:1|1:0,0:0:0:0:
176,72,51953,1,0,0:0:0:0:
176,72,52092,2,0,P|232:80|292:124,1,129.999995231629,4|0,1:2|3:0,0:0:0:0:
372,324,52508,1,2,1:0:0:0:
372,324,52647,6,0,P|334:281|308:176,1,162.499994039536,2|8,3:1|1:0,0:0:0:0:
456,76,53064,1,0,0:0:0:0:
290,122,53203,5,2,1:0:0:0:
464,160,53342,1,2,3:1:0:0:
464,160,53411,1,8,3:1:0:0:
464,160,53481,1,8,1:0:0:0:
288,52,53619,2,0,L|216:48,1,64.9999976158143,2|2,1:0|3:1,0:0:0:0:
51,183,53897,2,0,L|123:187,1,64.9999976158143,2|8,3:1|3:1,0:0:0:0:
284,284,54175,1,2,1:0:0:0:
188,100,54314,6,0,L|160:41,1,64.9999976158143,4|0,1:2|3:0,0:0:0:0:
324,284,54592,2,0,L|351:342,1,64.9999976158143,2|0,3:1|3:0,0:0:0:0:
116,188,54869,2,0,L|52:184,1,64.9999976158143,2|0,1:0|3:0,0:0:0:0:
396,188,55147,2,0,L|460:184,1,64.9999976158143,8|0,0:1|3:0,0:0:0:0:
188,284,55425,2,0,L|160:342,1,64.9999976158143,2|0,1:0|3:0,0:0:0:0:
324,100,55703,2,0,L|351:41,1,64.9999976158143,2|0,3:1|1:0,0:0:0:0:
332,188,55981,1,2,1:1:0:0:
180,188,56119,1,8,3:1:0:0:
256,124,56258,1,8,1:0:0:0:
256,260,56397,1,2,3:1:0:0:
380,84,56536,6,0,L|448:84,1,64.9999976158143,4|0,1:2|3:0,0:0:0:0:
168,204,56814,2,0,L|100:204,1,64.9999976158143,2|0,3:1|3:0,0:0:0:0:
411,66,57092,2,0,L|500:66,1,64.9999976158143,2|0,1:0|3:0,0:0:0:0:
136,221,57369,2,0,L|47:221,1,64.9999976158143,8|0,1:0|3:0,0:0:0:0:
433,53,57647,2,0,L|535:53,1,64.9999976158143,2|0,1:0|3:0,0:0:0:0:
114,234,57925,2,0,L|12:234,1,64.9999976158143,2|0,3:1|1:0,0:0:0:0:
332,188,58203,1,2,1:0:0:0:
180,188,58341,1,8,3:1:0:0:
256,124,58480,1,8,1:0:0:0:
256,260,58619,1,2,3:1:0:0:
112,136,58758,5,4,1:2:0:0:
400,136,58897,1,0,0:0:0:0:
168,276,59036,1,2,3:1:0:0:
256,40,59175,1,8,1:0:0:0:
344,276,59314,1,2,1:0:0:0:
168,76,59453,5,0,0:1:0:0:
400,216,59592,1,4,1:2:0:0:
112,216,59731,1,0,0:0:0:0:
344,76,59870,1,2,1:0:0:0:
256,312,60009,1,0,0:0:0:0:
112,136,60147,5,2,3:1:0:0:
400,136,60286,1,8,1:0:0:0:
168,276,60425,1,2,1:0:0:0:
256,40,60564,1,0,0:0:0:0:
344,276,60703,1,4,1:2:0:0:
112,136,60842,1,0,0:0:0:0:
352,80,60981,6,0,P|380:64|412:56,1,64.9999976158143,2|0,3:0|0:0,0:0:0:0:
160,80,61258,2,0,P|132:64|100:56,1,64.9999976158143,2|2,3:0|3:0,0:0:0:0:
256,156,61536,2,0,B|272:192|256:220|256:220|240:248|256:284,1,129.999995231629,2|2,3:0|3:0,0:0:0:0:
296,356,61953,1,0,0:0:0:0:
468,212,62092,5,2,3:0:0:0:
256,156,62231,1,8,3:1:0:0:
238,151,62300,1,8,3:1:0:0:
221,147,62369,1,8,1:0:0:0:
384,288,62508,1,8,1:0:0:0:
360,72,62647,1,2,1:0:0:0:
360,72,62925,2,0,P|392:64|424:60,1,64.9999976158143,2|2,1:0|3:1,0:0:0:0:
168,192,63203,6,0,P|136:200|104:204,1,64.9999976158143,4|0,1:2|0:0,0:0:0:0:
24,104,63481,1,0,0:0:0:0:
200,76,63619,1,2,1:3:0:0:
144,264,63758,2,0,L|156:332,1,64.9999976158143
116,120,64036,1,2,1:3:0:0:
20,224,64175,1,0,0:0:0:0:
248,180,64314,2,0,P|304:224|320:280,1,129.999995231629,4|0,1:2|3:0,0:0:0:0:
148,176,64731,6,0,P|112:96|127:26,1,162.499994039536,4|0,1:2|3:0,0:0:0:0:
260,84,65147,1,2,1:3:0:0:
148,176,65286,1,0,0:0:0:0:
312,256,65425,6,0,B|344:268|380:268,1,64.9999976158143,4|0,1:2|0:0,0:0:0:0:
484,200,65703,1,0,0:0:0:0:
412,24,65842,2,0,B|380:12|344:12,1,64.9999976158143,2|0,1:3|0:0,0:0:0:0:
228,52,66119,1,0,0:0:0:0:
320,220,66258,2,0,B|352:232|388:232,1,64.9999976158143,2|0,1:3|0:0,0:0:0:0:
164,164,66536,2,0,P|132:216|128:284,1,129.999995231629,4|0,1:2|3:0,0:0:0:0:
288,152,66953,6,0,P|260:81|195:26,1,162.499994039536,4|0,1:2|3:0,0:0:0:0:
72,180,67369,1,2,1:3:0:0:
72,180,67647,5,4,1:2:0:0:
192,124,67786,1,0,0:0:0:0:
180,256,67925,1,0,0:0:0:0:
42,177,68064,1,2,1:3:0:0:
208,99,68203,1,0,0:0:0:0:
192,282,68342,1,0,0:0:0:0:
72,96,68481,2,0,L|136:84,1,64.9999976158143,2|0,1:3|0:0,0:0:0:0:
304,188,68758,2,0,L|240:204,1,64.9999976158143,4|0,1:2|0:0,0:0:0:0:
368,64,69036,1,0,0:0:0:0:
416,240,69175,2,0,L|436:312,1,64.9999976158143,2|0,1:3|0:0,0:0:0:0:
476,116,69453,1,0,0:0:0:0:
304,188,69592,2,0,L|240:204,1,64.9999976158143,2|0,1:3|0:0,0:0:0:0:
368,64,69869,5,4,1:2:0:0:
424,208,70008,1,0,0:0:0:0:
88,208,70147,1,0,0:0:0:0:
144,64,70286,1,2,1:3:0:0:
332,248,70425,1,0,0:0:0:0:
180,248,70564,1,0,0:0:0:0:
360,52,70703,2,0,B|424:60,1,64.9999976158143,2|0,1:2|0:0,0:0:0:0:
172,236,70981,2,0,B|108:228,1,64.9999976158143,4|0,1:2|0:0,0:0:0:0:
256,352,71258,1,8,1:0:0:0:
360,128,71397,2,0,P|392:200|376:248,1,129.999995231629,4|0,1:2|0:0,0:0:0:0:
200,168,71814,2,0,P|184:132|184:104,1,64.9999976158143,4|0,1:2|0:0,0:0:0:0:
380,52,72092,5,4,1:2:0:0:
200,168,72231,1,0,0:0:0:0:
412,168,72370,1,0,0:0:0:0:
244,40,72509,1,2,1:3:0:0:
308,240,72648,1,0,0:0:0:0:
380,52,72786,1,0,0:0:0:0:
200,168,72925,2,0,L|128:192,1,64.9999976158143,2|0,1:3|0:0,0:0:0:0:
264,304,73203,2,0,L|388:264,1,129.999995231629,4|0,1:2|3:0,0:0:0:0:
440,92,73619,6,0,L|284:144,1,162.499994039536,4|0,1:2|3:0,0:0:0:0:
80,208,74036,1,2,1:3:0:0:
80,208,74314,6,0,L|72:280,1,64.9999976158143,4|0,1:2|0:0,0:0:0:0:
256,348,74592,1,0,0:0:0:0:
439,272,74731,2,0,L|432:208,1,64.9999976158143,2|0,1:3|0:0,0:0:0:0:
256,116,75008,1,0,0:0:0:0:
256,316,75147,2,0,L|256:384,1,64.9999976158143,2|0,1:3|0:0,0:0:0:0:
152,224,75425,2,0,P|136:172|140:96,1,129.999995231629,4|0,1:2|3:0,0:0:0:0:
320,12,75842,6,0,P|339:76|334:170,1,162.499994039536,4|0,1:2|3:0,0:0:0:0:
184,292,76258,1,2,1:3:0:0:
328,292,76397,1,0,0:0:0:0:
178,170,76536,5,4,1:2:0:0:
256,312,76675,1,0,0:0:0:0:
334,170,76814,1,0,0:0:0:0:
137,271,76953,1,2,1:3:0:0:
375,271,77092,1,0,0:0:0:0:
256,148,77231,1,0,0:0:0:0:
413,75,77369,2,0,P|412:40|407:11,1,64.9999976158143,2|0,1:3|0:0,0:0:0:0:
105,10,77647,2,0,P|99:42|99:75,1,64.9999976158143,4|0,1:2|0:0,0:0:0:0:
134,208,77925,1,0,0:0:0:0:
256,86,78064,2,0,L|245:22,1,64.9999976158143,2|0,1:3|0:0,0:0:0:0:
254,234,78342,1,0,0:0:0:0:
341,131,78481,2,0,L|330:67,1,64.9999976158143,2|0,1:3|0:0,0:0:0:0:
136,240,78758,6,0,B|144:336|256:379|256:379|368:336|376:240,2,389.999985694885,4|4|2,1:2|1:2|1:3,0:0:0:0:
256,20,79869,6,0,B|272:56|256:84|256:84|240:112|256:148,1,129.999995231629,4|0,1:2|0:0,0:0:0:0:
312,248,80286,2,0,P|256:220|200:248,1,129.999995231629,2|0,1:3|0:0,0:0:0:0:
256,376,80703,1,2,1:0:0:0:
256,376,80772,1,8,3:1:0:0:
256,376,80842,1,8,1:0:0:0:
140,172,80981,5,4,1:2:0:0:
384,252,81119,1,0,1:0:0:0:
128,252,81258,1,8,3:1:0:0:
372,172,81397,1,2,1:0:0:0:
148,107,81536,2,0,P|140:140|140:171,1,64.9999976158143,2|2,3:3|3:1,0:0:0:0:
372,170,81814,2,0,P|371:138|364:107,1,64.9999976158143,2|8,1:3|3:1,0:0:0:0:
188,288,82092,1,4,1:2:0:0:
388,240,82231,1,8,3:1:0:0:
124,240,82369,1,8,3:1:0:0:
324,288,82508,1,2,1:0:0:0:
256,112,82647,6,0,B|240:148|256:176|256:176|272:204|256:240,1,129.999995231629,2|2,3:0|3:0,0:0:0:0:
168,336,83064,1,8,1:0:0:0:
132,356,83133,1,8,3:1:0:0:
92,348,83203,1,4,1:2:0:0:
56,324,83272,1,2,3:1:0:0:
52,280,83342,1,8,3:1:0:0:
200,192,83481,1,8,3:1:0:0:
32,136,83619,2,0,L|24:72,1,64.9999976158143,2|2,1:0|3:0,0:0:0:0:
168,8,83897,1,2,3:1:0:0:
320,128,84036,2,0,L|328:192,1,64.9999976158143,2|8,3:0|1:0,0:0:0:0:
352,380,84314,5,4,1:2:0:0:
168,248,84453,1,8,3:1:0:0:
392,364,84592,1,8,3:1:0:0:
168,208,84731,1,2,1:0:0:0:
428,352,84869,1,2,1:3:0:0:
168,168,85008,1,2,3:1:0:0:
472,80,85147,5,4,1:2:0:0:
