osu file format v14

[General]
AudioFilename: audio.mp3
AudioLeadIn: 0
PreviewTime: 72296
Countdown: 0
SampleSet: Soft
StackLeniency: 0.3
Mode: 0
LetterboxInBreaks: 0
WidescreenStoryboard: 1

[Editor]
Bookmarks: 44535
DistanceSpacing: 1.1
BeatDivisor: 4
GridSize: 4
TimelineZoom: 1.3

[Metadata]
Title:Grand Blue
TitleUnicode:Grand Blue
Artist:Shounan no Kaze
ArtistUnicode:Shounan no Kaze
Creator:Botan
Version:Hard
Source:ぐらんぶる
Tags:Grand Blue
BeatmapID:1802124
BeatmapSetID:861417

[Difficulty]
HPDrainRate:5.5
CircleSize:4
OverallDifficulty:7
ApproachRate:8.2
SliderMultiplier:1.65
SliderTickRate:2

[Events]
//Background and Video events
0,0,"gb.JPG",0,0
//Break Periods
//Storyboard Layer 0 (Background)
//Storyboard Layer 1 (Fail)
//Storyboard Layer 2 (Pass)
//Storyboard Layer 3 (Foreground)
//Storyboard Sound Samples

[TimingPoints]
1546,447.761194029851,4,2,1,100,1,0
1546,-133.333333333333,4,2,1,40,0,0
8710,-111.111111111111,4,2,1,60,0,0
12292,-100,4,2,1,40,0,0
13635,-90.9090909090909,4,2,1,40,0,0
15426,-80,4,2,1,40,0,0
15874,-200,4,2,1,60,0,0
15986,-200,4,2,1,60,0,0
29531,-133.333333333333,4,2,1,60,0,0
30202,-100,4,2,1,60,0,0
58859,-200,4,2,1,60,0,0
66023,-111.111111111111,4,2,1,60,0,0
72740,-80,4,2,1,60,0,0
73187,-100,4,2,1,60,0,0

[Colours]
Combo1 : 128,191,255
Combo2 : 255,255,83

[HitObjects]
440,168,1546,6,0,L|436:229,1,61.875002360344,2|0,0:0|0:0,0:0:0:0:
364,188,1881,2,0,L|360:249,1,61.875002360344,0|0,0:0|0:0,0:0:0:0:
274,240,2217,2,0,P|331:232|374:271,2,92.812503540516,0|0|0,0:0|0:0|0:0,0:0:0:0:
311,307,3113,1,0,0:0:0:0:
268,224,3337,6,0,L|271:162,1,61.875002360344,2|0,0:0|0:0,0:0:0:0:
196,196,3672,2,0,L|199:134,1,61.875002360344,0|0,0:0|0:0,0:0:0:0:
112,80,4008,2,0,B|80:72|80:72|44:80|44:80|0:64,2,92.812503540516,0|0|0,0:0|0:0|0:0,0:0:0:0:
224,79,4904,1,0,0:0:0:0:
199,134,5128,6,0,P|217:109|225:79,1,61.875002360344,2|0,0:0|0:0,0:0:0:0:
271,162,5463,2,0,P|297:146|327:140,1,61.875002360344
368,220,5799,1,0,0:0:0:0:
348,216,6135,1,0,0:0:0:0:
328,212,6471,1,0,0:0:0:0:
488,180,6695,1,0,0:0:0:0:
483,92,6919,6,0,B|499:124|499:124|487:180,1,92.812503540516,2|0,0:0|0:0,0:0:0:0:
275,249,7590,2,0,B|259:217|259:217|271:161,1,92.812503540516
270,161,8262,2,0,L|180:156,1,61.875002360344
32,252,8710,6,0,L|106:247,1,74.2499977340699,12|0,0:0|0:0,0:0:0:0:
136,244,9046,1,8,0:0:0:0:
132,272,9157,2,0,L|120:364,1,74.2499977340699,4|8,0:0|0:0,0:0:0:0:
277,234,9605,6,0,L|273:197,1,37.1249988670349,4|8,0:0|0:0,0:0:0:0:
273,197,9941,2,0,L|269:160,1,37.1249988670349,4|8,0:0|0:0,0:0:0:0:
264,132,10165,1,8,0:0:0:0:
292,136,10277,1,8,0:0:0:0:
320,132,10389,1,8,0:0:0:0:
348,120,10501,6,0,L|352:28,1,74.2499977340699,4|0,0:0|0:0,0:0:0:0:
351,15,10837,1,8,0:0:0:0:
321,16,10948,2,0,L|247:19,1,74.2499977340699,4|8,0:0|0:0,0:0:0:0:
77,135,11396,6,0,L|129:139,1,37.1249988670349,4|8,0:0|0:0,0:0:0:0:
114,137,11732,2,0,L|166:141,1,37.1249988670349,4|8,0:0|0:0,0:0:0:0:
180,144,11956,1,8,0:0:0:0:
188,172,12068,1,8,0:0:0:0:
184,200,12180,1,8,0:0:0:0:
172,232,12292,6,0,P|164:288|192:328,1,82.5,4|0,0:0|0:0,0:0:0:0:
232,348,12628,2,0,P|240:292|212:252,1,82.5,4|0,0:0|0:0,0:0:0:0:
307,267,12963,6,0,P|268:279|228:269,1,82.5,4|0,0:0|0:0,0:0:0:0:
266,211,13299,2,0,P|304:198|344:208,1,82.5,4|0,0:0|0:0,0:0:0:0:
344,208,13635,2,0,L|356:136,1,45.3750013847352,4|0,0:0|0:0,0:0:0:0:
396,288,13859,2,0,L|403:332,1,45.3750013847352,4|0,0:0|0:0,0:0:0:0:
508,208,14083,6,0,B|476:192|476:192|417:214,1,90.7500027694703,4|0,0:0|0:0,0:0:0:0:
435,130,14419,2,0,L|343:166,1,90.7500027694703,4|0,0:0|0:0,0:0:0:0:
348,84,14754,2,0,L|256:120,1,90.7500027694703,4|0,0:0|0:0,0:0:0:0:
192,148,15090,1,0,0:0:0:0:
190,151,15202,1,8,0:0:0:0:
188,155,15314,1,8,0:0:0:0:
186,158,15426,6,0,B|196:125|153:82|194:40,1,103.125,8|0,0:0|0:0,0:0:0:0:
181,57,15874,6,0,L|133:52,1,41.25,2|0,0:1|0:0,0:0:0:0:
104,120,16210,2,0,L|62:115,1,41.25,4|0,0:0|0:0,0:0:0:0:
186,158,16546,6,0,L|234:152,1,41.25,4|0,0:0|0:0,0:0:0:0:
263,220,16882,2,0,L|304:215,1,41.25,4|0,0:0|0:0,0:0:0:0:
372,144,17217,2,0,L|368:168,1,20.625,4|0,0:0|0:0,0:0:0:0:
384,160,17441,2,0,L|380:184,1,20.625,4|0,0:0|0:0,0:0:0:0:
376,296,17665,6,0,L|369:241,1,41.25,4|0,0:0|0:0,0:0:0:0:
303,215,18001,2,0,L|296:160,1,41.25,4|0,0:0|0:0,0:0:0:0:
236,252,18337,6,0,L|229:307,1,41.25,4|0,0:0|0:0,0:0:0:0:
156,312,18673,2,0,L|149:367,1,41.25,4|0,0:0|0:0,0:0:0:0:
52,272,19008,2,0,L|56:296,1,20.625,4|0,0:0|0:0,0:0:0:0:
72,280,19232,2,0,L|76:304,1,20.625,4|0,0:0|0:0,0:0:0:0:
144,196,19456,6,0,L|136:148,1,41.25,4|0,0:0|0:0,0:0:0:0:
208,132,19792,2,0,L|200:84,1,41.25,4|0,0:0|0:0,0:0:0:0:
284,44,20128,6,0,L|277:84,1,41.25,4|0,0:0|0:0,0:0:0:0:
352,91,20464,2,0,L|345:131,1,41.25,4|0,0:0|0:0,0:0:0:0:
368,232,20799,2,0,L|364:196,1,20.625,4|0,0:0|0:0,0:0:0:0:
376,200,21023,1,4,0:0:0:0:
396,188,21135,1,0,0:0:0:0:
420,184,21247,6,0,L|480:192,1,41.25,4|0,0:0|0:0,0:0:0:0:
504,256,21583,2,0,L|496:304,1,41.25,4|0,0:0|0:0,0:0:0:0:
432,344,21919,6,0,L|372:336,1,41.25,4|0,0:0|0:0,0:0:0:0:
348,272,22255,2,0,L|356:224,1,41.25,4|0,0:0|0:0,0:0:0:0:
296,144,22590,2,0,L|300:180,1,20.625,4|0,0:0|0:0,0:0:0:0:
276,164,22814,2,0,L|280:200,1,20.625,4|0,0:0|0:0,0:0:0:0:
208,232,23038,6,0,L|164:228,1,41.25,4|0,0:0|0:0,0:0:0:0:
156,304,23374,2,0,L|112:300,1,41.25,4|0,0:0|0:0,0:0:0:0:
48,224,23710,6,0,L|89:227,1,41.25,4|0,0:0|0:0,0:0:0:0:
100,153,24046,2,0,L|141:156,1,41.25,4|0,0:0|0:0,0:0:0:0:
208,96,24381,2,0,L|204:64,1,20.625,4|0,0:0|0:0,0:0:0:0:
228,84,24605,2,0,L|224:52,1,20.625,4|0,0:0|0:0,0:0:0:0:
324,112,24829,6,0,L|320:160,1,41.25,4|0,0:0|0:0,0:0:0:0:
396,152,25165,2,0,L|392:200,1,41.25,4|0,0:0|0:0,0:0:0:0:
292,248,25501,6,0,L|332:224,1,41.25,4|0,0:0|0:0,0:0:0:0:
360,296,25837,2,0,L|400:272,1,41.25,4|0,0:0|0:0,0:0:0:0:
472,356,26172,2,0,L|464:324,1,20.625,4|0,0:0|0:0,0:0:0:0:
456,372,26396,2,0,L|448:340,1,20.625,4|0,0:0|0:0,0:0:0:0:
360,296,26620,6,0,L|364:348,1,41.25,4|0,0:0|0:0,0:0:0:0:
288,320,26956,2,0,L|292:372,1,41.25,4|0,0:0|0:0,0:0:0:0:
212,288,27292,6,0,L|208:336,1,41.25,4|0,0:0|0:0,0:0:0:0:
136,296,27628,2,0,L|132:344,1,41.25,4|0,0:0|0:0,0:0:0:0:
52,280,27963,2,0,L|72:252,1,20.625,4|0,0:0|0:0,0:0:0:0:
72,244,28187,1,0,0:0:0:0:
76,220,28299,1,0,0:0:0:0:
72,196,28411,6,0,L|56:152,1,41.25,4|0,0:0|0:0,0:0:0:0:
112,84,28747,2,0,L|128:128,1,41.25,4|0,0:0|0:0,0:0:0:0:
188,176,29083,6,0,P|220:184|264:172,1,61.875,4|0,0:0|0:0,0:0:0:0:
248,179,29531,6,0,L|252:144,2,30.937501180172,8|8|8,0:0|0:0|0:0,0:0:0:0:
316,224,29978,1,8,0:0:0:0:
392,222,30202,6,0,P|352:210|308:230,1,82.5,2|0,0:1|0:0,0:0:0:0:
252,284,30538,1,4,0:0:0:0:
250,287,30650,2,0,L|256:352,1,41.25,8|0,0:0|0:0,0:0:0:0:
272,364,30874,5,0,0:0:0:0:
400,232,31098,1,4,0:0:0:0:
392,222,31210,1,0,0:0:0:0:
251,148,31546,5,8,0:0:0:0:
192,228,31769,1,0,0:0:0:0:
251,148,31993,6,0,B|240:120|240:120|251:65,1,82.5,4|0,0:0|0:0,0:0:0:0:
308,8,32329,1,4,0:0:0:0:
311,6,32441,2,0,L|372:4,1,41.25,8|0,0:0|0:0,0:0:0:0:
392,20,32665,5,0,0:0:0:0:
264,152,32889,1,4,0:0:0:0:
251,148,33001,1,0,0:0:0:0:
128,52,33337,5,8,0:0:0:0:
152,148,33560,1,0,0:0:0:0:
128,52,33784,6,0,L|28:48,1,82.5,4|0,0:0|0:0,0:0:0:0:
8,64,34120,1,4,0:0:0:0:
5,65,34232,1,8,0:0:0:0:
12,212,34456,6,0,L|112:208,1,82.5,0|4,0:0|0:0,0:0:0:0:
133,228,34792,1,0,0:0:0:0:
132,227,34904,1,0,0:0:0:0:
224,352,35128,5,8,0:0:0:0:
344,300,35351,1,0,0:0:0:0:
228,176,35575,6,0,B|216:208|216:208|236:272,1,82.5,4|0,0:0|0:0,0:0:0:0:
264,280,35911,1,4,0:0:0:0:
264,280,36023,1,8,0:0:0:0:
392,176,36247,5,0,0:0:0:0:
444,312,36471,1,4,0:0:0:0:
448,323,36583,1,0,0:0:0:0:
453,336,36695,1,0,0:0:0:0:
344,300,36919,5,8,0:0:0:0:
512,240,37143,1,0,0:0:0:0:
344,300,37366,6,0,P|356:256|344:212,1,82.5,2|0,0:1|0:0,0:0:0:0:
300,153,37702,1,4,0:0:0:0:
297,151,37814,2,0,L|237:147,1,41.25,8|0,0:0|0:0,0:0:0:0:
196,200,38038,5,0,0:0:0:0:
148,32,38262,1,4,0:0:0:0:
152,20,38374,1,0,0:0:0:0:
92,152,38710,5,8,0:0:0:0:
0,120,38934,1,0,0:0:0:0:
92,152,39157,6,0,B|108:192|108:192|92:236,1,82.5,4|0,0:0|0:0,0:0:0:0:
136,304,39493,1,4,0:0:0:0:
139,307,39605,2,0,L|187:303,1,41.25,8|0,0:0|0:0,0:0:0:0:
215,282,39829,5,0,0:0:0:0:
336,196,40053,1,4,0:0:0:0:
338,184,40165,1,0,0:0:0:0:
460,272,40501,5,8,0:0:0:0:
472,368,40725,1,0,0:0:0:0:
460,272,40948,6,0,L|468:180,1,82.5,4|0,0:0|0:0,0:0:0:0:
456,164,41284,1,4,0:0:0:0:
456,164,41396,1,8,0:0:0:0:
322,68,41620,6,0,L|314:160,1,82.5,0|4,0:0|0:0,0:0:0:0:
338,184,41956,1,0,0:0:0:0:
341,187,42068,1,0,0:0:0:0:
264,276,42292,5,8,0:0:0:0:
88,236,42516,1,0,0:0:0:0:
192,164,42740,6,0,P|165:132|127:119,1,82.5,4|0,0:0|0:0,0:0:0:0:
84,121,43075,1,4,0:0:0:0:
84,121,43187,1,8,0:0:0:0:
132,24,43411,5,0,0:0:0:0:
95,211,43635,1,4,0:0:0:0:
91,224,43747,1,0,0:0:0:0:
88,236,43859,1,0,0:0:0:0:
192,164,44083,5,8,0:0:0:0:
264,276,44307,1,0,0:0:0:0:
341,187,44531,6,0,B|400:172|400:172|464:192,1,123.75,2|4,0:1|0:0,0:0:0:0:
476,160,44978,2,0,B|483:140|483:140|482:106|456:87,2,82.5,8|0|4,0:0|0:0|0:0,0:0:0:0:
420,284,45650,1,0,0:0:0:0:
341,187,45874,1,8,0:0:0:0:
480,152,46098,1,0,0:0:0:0:
420,284,46322,6,0,P|380:296|332:280,1,82.5,4|0,0:0|0:0,0:0:0:0:
308,276,46657,1,4,0:0:0:0:
308,276,46769,2,0,L|312:372,2,82.5,8|0|4,0:0|0:0|0:0,0:0:0:0:
160,212,47441,1,0,0:0:0:0:
212,296,47665,1,8,0:0:0:0:
341,187,47889,1,0,0:0:0:0:
183,111,48113,6,0,P|143:155|163:215,1,123.75,4|4,0:0|0:0,0:0:0:0:
192,220,48560,2,0,L|284:232,1,82.5,8|0,0:0|0:0,0:0:0:0:
340,108,49008,2,0,B|352:136|352:136|336:204,1,82.5,4|0,0:0|0:0,0:0:0:0:
412,288,49456,2,0,B|400:260|400:260|412:188,1,82.5,8|0,0:0|0:0,0:0:0:0:
496,136,49904,6,0,L|400:136,1,82.5,4|0,0:0|0:0,0:0:0:0:
340,108,50240,1,4,0:0:0:0:
337,107,50351,2,0,L|237:103,2,82.5,8|0|4,0:0|0:0|0:0,0:0:0:0:
300,16,51023,1,0,0:0:0:0:
200,160,51247,1,8,0:0:0:0:
152,40,51471,1,0,0:0:0:0:
254,103,51695,6,0,P|278:159|242:227,1,123.75,2|4,0:1|0:0,0:0:0:0:
232,244,52143,2,0,L|124:240,1,82.5,8|0,0:0|0:0,0:0:0:0:
8,218,52590,6,0,P|64:194|132:230,1,123.75,4|0,0:0|0:0,0:0:0:0:
149,240,53038,2,0,L|145:348,1,82.5,8|0,0:0|0:0,0:0:0:0:
328,384,53486,6,0,L|324:301,1,82.5,4|0,0:0|0:0,0:0:0:0:
344,276,53822,1,4,0:0:0:0:
344,276,53934,2,0,P|384:288|440:264,2,82.5,8|0|4,0:0|0:0|0:0,0:0:0:0:
256,214,54605,1,0,0:0:0:0:
376,148,54829,1,8,0:0:0:0:
344,276,55053,1,0,0:0:0:0:
240,200,55277,6,0,B|228:172|228:172|244:112,1,82.5,4|0,0:0|0:0,0:0:0:0:
252,92,55613,1,4,0:0:0:0:
252,92,55725,1,8,0:0:0:0:
108,32,55948,2,0,P|148:44|196:28,1,82.5,0|4,0:0|0:0,0:0:0:0:
216,16,56284,2,0,P|255:6|294:18,1,82.5
324,32,56620,6,0,L|368:24,1,41.25,8|0,0:0|0:0,0:0:0:0:
380,96,56844,2,0,L|428:88,1,41.25
379,173,57068,6,0,P|391:129|371:85,1,82.5,4|0,0:0|0:0,0:0:0:0:
319,133,57404,2,0,P|307:177|327:221,1,82.5,4|0,0:0|0:0,0:0:0:0:
214,176,57740,6,0,P|266:168|321:216,1,123.75,4|0,0:0|0:0,0:0:0:0:
252,240,58187,2,8,P|227:248|192:244,2,41.25
319,133,58635,1,0,0:0:0:0:
427,194,58859,6,0,B|462:181|483:149|483:149|448:111|394:113|337:131|315:220,1,288.75,2|0,0:0|0:0,0:0:0:0:
189,305,60650,6,0,B|165:333|129:333|105:309|81:277|113:193|169:173|225:205|257:229|257:257,1,288.75,2|0,0:0|0:0,0:0:0:0:
312,352,62441,6,0,P|316:320|316:272,2,61.875,2|0|0,0:0|0:0|0:0,0:0:0:0:
312,352,63560,1,0,0:0:0:0:
189,305,64008,1,0,0:0:0:0:
72,360,64456,1,0,0:0:0:0:
72,360,65351,5,0,0:0:0:0:
84,284,65575,1,0,0:0:0:0:
96,208,65799,1,0,0:0:0:0:
60,156,66023,6,0,L|148:160,1,74.2499977340699,4|0,0:0|0:0,0:0:0:0:
168,180,66359,1,8,0:0:0:0:
192,200,66471,2,0,L|280:204,1,74.2499977340699,4|8,0:0|0:0,0:0:0:0:
332,340,66919,6,0,L|334:303,1,37.1249988670349,4|8,0:0|0:0,0:0:0:0:
334,302,67254,2,0,L|336:265,1,37.1249988670349,4|8,0:0|0:0,0:0:0:0:
356,240,67478,1,8,0:0:0:0:
384,228,67590,1,8,0:0:0:0:
412,232,67702,1,8,0:0:0:0:
440,244,67814,6,0,L|444:164,1,74.2499977340699,4|0,0:0|0:0,0:0:0:0:
424,148,68150,1,8,0:0:0:0:
404,124,68262,2,0,L|400:48,1,74.2499977340699,4|8,0:0|0:0,0:0:0:0:
256,12,68710,6,0,L|260:56,1,37.1249988670349,4|8,0:0|0:0,0:0:0:0:
259,48,69046,2,0,L|263:92,1,37.1249988670349,4|8,0:0|0:0,0:0:0:0:
244,108,69269,1,8,0:0:0:0:
216,120,69381,1,8,0:0:0:0:
188,120,69493,1,8,0:0:0:0:
160,112,69605,6,0,P|124:104|76:124,1,74.2499977340699,4|0,0:0|0:0,0:0:0:0:
44,176,69941,2,0,P|36:212|56:260,1,74.2499977340699,4|0,0:0|0:0,0:0:0:0:
96,304,70277,6,0,P|132:312|180:292,1,74.2499977340699,4|0,0:0|0:0,0:0:0:0:
212,240,70613,2,0,P|220:204|200:156,1,74.2499977340699,4|0,0:0|0:0,0:0:0:0:
209,168,70948,2,0,L|160:164,1,37.1249988670349,4|0,0:0|0:0,0:0:0:0:
104,68,71172,2,0,L|153:63,1,37.1249988670349,4|0,0:0|0:0,0:0:0:0:
264,24,71396,6,0,B|276:56|276:56|260:116,1,74.2499977340699,4|0,0:0|0:0,0:0:0:0:
348,68,71732,2,0,L|324:152,1,74.2499977340699,4|0,0:0|0:0,0:0:0:0:
412,112,72068,2,0,L|388:196,1,74.2499977340699,4|0,0:0|0:0,0:0:0:0:
364,264,72404,1,0,0:0:0:0:
363,268,72516,1,8,0:0:0:0:
363,271,72628,1,8,0:0:0:0:
362,274,72740,6,0,B|324:244|236:304|196:244,1,154.6875,8|0,0:0|0:0,0:0:0:0:
211,260,73187,6,0,L|217:177,1,82.5,2|0,0:1|0:0,0:0:0:0:
164,112,73523,1,4,0:0:0:0:
161,110,73635,2,0,L|85:114,1,41.25,8|0,0:0|0:0,0:0:0:0:
80,116,73859,1,0,0:0:0:0:
40,268,74083,1,4,0:0:0:0:
24,280,74195,1,0,0:0:0:0:
211,260,74531,5,8,0:0:0:0:
228,348,74754,1,0,0:0:0:0:
211,260,74978,6,0,P|252:272|292:260,1,82.5,4|0,0:0|0:0,0:0:0:0:
344,196,75314,1,4,0:0:0:0:
347,195,75426,2,0,L|343:131,1,41.25,8|0,0:0|0:0,0:0:0:0:
316,116,75650,1,0,0:0:0:0:
468,52,75874,1,4,0:0:0:0:
488,44,75986,1,0,0:0:0:0:
504,236,76322,5,8,0:0:0:0:
480,156,76546,1,0,0:0:0:0:
504,236,76769,6,0,B|468:248|468:248|416:232,1,82.5,4|0,0:0|0:0,0:0:0:0:
363,294,77105,1,4,0:0:0:0:
360,296,77217,2,0,L|364:360,1,41.25,8|0,0:0|0:0,0:0:0:0:
388,376,77441,1,0,0:0:0:0:
236,320,77665,1,4,0:0:0:0:
216,312,77777,1,0,0:0:0:0:
256,156,78113,5,8,0:0:0:0:
276,240,78337,1,0,0:0:0:0:
256,156,78560,6,0,L|264:72,1,82.5,4|0,0:0|0:0,0:0:0:0:
319,12,78896,1,4,0:0:0:0:
320,9,79008,2,0,L|361:11,1,41.25,8|0,0:0|0:0,0:0:0:0:
404,16,79232,1,0,0:0:0:0:
492,104,79456,2,0,P|492:132|484:156,2,41.25,4|0|0,0:0|0:0|0:0,0:0:0:0:
404,16,79904,5,8,0:0:0:0:
263,73,80128,1,0,0:0:0:0:
156,12,80351,6,0,B|128:4|128:4|52:12,1,82.5,2|0,0:1|0:0,0:0:0:0:
16,72,80687,1,4,0:0:0:0:
13,74,80799,2,0,L|17:134,1,41.25,8|0,0:0|0:0,0:0:0:0:
28,156,81023,1,0,0:0:0:0:
120,260,81247,1,4,0:0:0:0:
116,280,81359,1,0,0:0:0:0:
256,184,81695,5,8,0:0:0:0:
176,148,81919,1,0,0:0:0:0:
256,184,82143,6,0,B|288:196|288:196|352:176,1,82.5,4|0,0:0|0:0,0:0:0:0:
392,116,82478,1,4,0:0:0:0:
395,114,82590,2,0,L|388:73,1,41.25,8|0,0:0|0:0,0:0:0:0:
380,32,82814,1,0,0:0:0:0:
468,160,83038,1,4,0:0:0:0:
480,176,83150,2,0,B|468:216|468:216|485:252,1,82.5
508,288,83486,5,8,0:0:0:0:
376,232,83710,1,0,0:0:0:0:
304,344,83934,6,0,B|264:356|264:356|216:340,1,82.5,4|0,0:0|0:0,0:0:0:0:
188,328,84269,1,4,0:0:0:0:
185,326,84381,1,8,0:0:0:0:
24,216,84605,6,0,B|64:204|64:204|102:216,1,82.5,0|4,0:0|0:0,0:0:0:0:
140,232,84940,1,0,0:0:0:0:
143,234,85052,1,0,0:0:0:0:
176,104,85277,5,8,0:0:0:0:
294,153,85501,1,0,0:0:0:0:
304,72,85725,6,0,B|292:180,1,82.5,4|0,0:0|0:0,0:0:0:0:
380,60,86060,6,0,B|368:168,1,82.5,4|0,0:0|0:0,0:0:0:0:
456,44,86396,6,0,B|444:152,1,82.5,4|0,0:0|0:0,0:0:0:0:
446,125,86844,6,8,L|456:188,2,41.25
216,8,87516,1,0,0:0:0:0:
