osu file format v14

[General]
AudioFilename: audio.mp3
AudioLeadIn: 0
PreviewTime: 18
Countdown: 0
SampleSet: Soft
StackLeniency: 0.4
Mode: 0
LetterboxInBreaks: 0
WidescreenStoryboard: 1

[Editor]
Bookmarks: 19915,96415,231115,250315
DistanceSpacing: 1
BeatDivisor: 2
GridSize: 32
TimelineZoom: 2.5

[Metadata]
Title:Ruten
TitleUnicode:流転
Artist:Shoujozenjidou
ArtistUnicode:少女全自動
Creator:Elcheer
Version:Normal
Source:東方風神録 ~ Mountain of Faith.
Tags:breakcore instrumental video game touhou corsace ro32 hr2 hardrock hard rock nitori kawashiro 河城かわしろ にとり Xe ZUN 芥川龙之介の河童 ~ Candid Friend さんめん The third stage
BeatmapID:2864290
BeatmapSetID:1252829

[Difficulty]
HPDrainRate:3.5
CircleSize:3
OverallDifficulty:5
ApproachRate:6.5
SliderMultiplier:1
SliderTickRate:1

[Events]
//Background and Video events
0,0,"kawashiro.jpg",0,0
//Break Periods
2,39315,47740
2,135315,143740
2,154315,172540
//Storyboard Layer 0 (Background)
//Storyboard Layer 1 (Fail)
//Storyboard Layer 2 (Pass)
//Storyboard Layer 3 (Foreground)
//Storyboard Layer 4 (Overlay)
//Storyboard Sound Samples

[TimingPoints]
715,300,4,2,1,60,1,0
23065,-100,4,2,1,45,0,0
23515,-100,4,2,1,60,0,0
26815,-100,4,2,1,45,0,0
27115,-100,4,2,1,60,0,0
29515,-100,4,2,1,80,0,1
32665,-100,4,2,1,65,0,1
33115,-100,4,2,1,80,0,1
36415,-100,4,2,1,65,0,1
36715,-100,4,2,1,80,0,1
39115,-100,4,2,1,60,0,0
48715,-100,4,2,1,50,0,0
54415,-100,4,2,1,40,0,0
54715,-100,4,2,1,50,0,0
58315,-100,4,2,1,60,0,0
60415,-100,4,2,1,45,0,0
60715,-100,4,2,1,60,0,0
66415,-100,4,2,1,45,0,0
66715,-100,4,2,1,60,0,0
71065,-100,4,2,1,45,0,0
71515,-100,4,2,1,60,0,0
74815,-100,4,2,1,45,0,0
75115,-100,4,2,1,60,0,0
79915,-100,4,2,1,80,0,1
80815,-100,4,2,1,65,0,1
81115,-100,4,2,1,80,0,1
86815,-100,4,2,1,65,0,1
87115,-100,4,2,1,80,0,1
89215,-100,4,2,1,65,0,1
89515,-100,4,2,1,80,0,1
96715,-100,4,2,1,60,0,0
99115,-100,4,2,1,80,0,1
100015,-100,4,2,1,65,0,1
100315,-100,4,2,1,80,0,1
103615,-100,4,2,1,65,0,1
103915,-100,4,2,1,80,0,1
106015,-100,4,2,1,65,0,1
106315,-100,4,2,1,80,0,1
108415,-100,4,2,1,65,0,1
108715,-100,4,2,1,80,0,1
115915,-100,4,2,1,60,0,0
119065,-100,4,2,1,45,0,0
119515,-100,4,2,1,60,0,0
122815,-100,4,2,1,45,0,0
123115,-100,4,2,1,60,0,0
124315,-117.647058823529,4,2,1,40,0,0
125515,-100,4,2,1,60,0,0
128665,-100,4,2,1,45,0,0
129115,-100,4,2,1,60,0,0
132415,-100,4,2,1,45,0,0
132715,-100,4,2,1,60,0,0
144715,-125,4,2,1,40,0,0
183115,-100,4,2,1,50,0,0
190165,-100,4,2,1,25,0,0
190315,-100,4,2,1,50,0,0
192415,-100,4,2,1,40,0,0
192715,-100,4,2,1,60,0,0
195115,-100,4,2,1,80,0,1
196015,-100,4,2,1,65,0,1
196315,-100,4,2,1,80,0,1
199615,-100,4,2,1,65,0,1
199915,-100,4,2,1,80,0,1
202015,-100,4,2,1,65,0,1
202315,-100,4,2,1,80,0,1
204415,-100,4,2,1,65,0,1
204715,-100,4,2,1,80,0,1
211915,-100,4,2,1,60,0,0
214315,-100,4,2,1,80,0,1
215215,-100,4,2,1,65,0,1
215515,-100,4,2,1,80,0,1
218815,-100,4,2,1,50,0,1
219115,-100,4,2,1,80,0,1
221215,-100,4,2,1,65,0,1
221515,-100,4,2,1,80,0,1
223615,-100,4,2,1,65,0,1
223915,-100,4,2,1,80,0,1
229915,-100,4,2,1,50,0,1
230815,-100,4,2,1,40,0,1
231115,-100,4,2,1,60,0,0

[Colours]
Combo1 : 88,184,224
Combo2 : 90,142,93

[HitObjects]
355,166,19915,6,0,P|324:130|243:124,1,100,2|8,1:1|0:2,0:0:0:0:
230,138,20365,2,0,P|188:176|180:230,1,100,0|8,1:0|0:2,0:0:0:0:
209,256,20815,1,2,0:2:0:0:
174,349,21115,6,0,L|67:365,2,100,8|8|0,0:2|0:2|1:0,0:0:0:0:
275,361,22015,1,2,0:2:0:0:
335,281,22315,6,0,L|316:173,1,100,2|0,1:1|1:0,0:0:0:0:
305,133,22765,1,8,0:2:0:0:
287,34,23065,2,0,L|346:23,2,50,8|8|8,0:2|0:2|0:2,0:0:0:0:
238,21,23515,5,2,1:1:0:0:
139,36,23815,1,2,1:1:0:0:
59,102,24115,2,0,L|46:162,1,50,0|8,1:0|0:2,0:0:0:0:
80,189,24415,2,0,L|67:249,1,50,2|2,0:2|0:2,0:0:0:0:
58,287,24715,6,0,L|211:238,2,150,2|2|8,1:1|1:1|0:2,0:0:0:0:
126,359,25915,1,0,1:0:0:0:
221,328,26215,1,0,1:0:0:0:
297,264,26515,2,0,L|364:243,1,50,8|8,0:2|0:2,0:0:0:0:
391,268,26815,2,0,L|458:247,1,50,8|8,0:2|0:2,0:0:0:0:
471,214,27115,6,0,L|499:57,2,150,2|2|8,1:1|1:1|0:2,0:0:0:0:
387,159,28315,2,0,L|415:2,2,150,8|8|8,0:2|0:2|0:2,0:0:0:0:
429,249,29515,6,0,P|378:213|340:215,1,100,6|8,1:1|0:2,0:0:0:0:
300,241,29965,2,0,P|247:232|215:197,1,100,0|8,1:0|0:2,0:0:0:0:
223,150,30415,1,2,0:2:0:0:
126,147,30715,6,0,B|104:254,1,100,8|8,0:2|0:2,0:0:0:0:
96,343,31315,2,0,L|163:355,1,50,0|0,1:0|1:0,0:0:0:0:
184,320,31615,2,0,L|251:332,1,50,2|2,0:2|0:2,0:0:0:0:
276,354,31915,6,0,P|257:305|286:257,1,100,2|0,1:1|1:0,0:0:0:0:
315,233,32365,1,8,0:2:0:0:
268,144,32665,2,0,L|210:158,2,50,8|8|8,0:2|0:2|0:2,0:0:0:0:
297,103,33115,6,0,L|407:82,1,100,2|2,1:1|1:1,0:0:0:0:
475,140,33715,2,0,L|489:199,1,50,0|8,1:0|0:2,0:0:0:0:
467,235,34015,2,0,L|455:283,1,50,2|2,0:2|0:2,0:0:0:0:
438,331,34315,6,0,L|290:303,2,150,2|2|8,1:1|1:1|0:2,0:0:0:0:
400,237,35515,1,0,1:0:0:0:
307,199,35815,1,0,1:0:0:0:
222,249,36115,2,0,L|166:234,1,50,8|8,0:2|0:2,0:0:0:0:
129,259,36415,2,0,L|73:244,1,50,8|8,0:2|0:2,0:0:0:0:
34,226,36715,6,0,B|1:171|1:171|47:94,2,150,2|2|8,1:1|1:1|0:2,0:0:0:0:
113,164,37915,1,8,0:2:0:0:
172,83,38215,1,8,0:2:0:0:
239,8,38515,2,0,L|269:114,2,100,0|0|6,0:0|0:0|1:1,0:0:0:0:
18,17,48715,6,0,L|130:37,1,100,2|8,1:1|0:2,0:0:0:0:
161,13,49165,2,0,L|229:21,1,50,2|2,0:2|0:2,0:0:0:0:
253,43,49465,2,0,L|321:51,1,50,0|2,1:0|1:1,0:0:0:0:
376,116,49915,6,0,B|398:163|398:163|368:226,1,100,2|8,1:1|0:2,0:0:0:0:
354,250,50365,2,0,L|305:237,1,50,8|0,0:2|1:0,0:0:0:0:
256,226,50665,1,8,0:2:0:0:
244,274,50815,1,2,1:1:0:0:
147,299,51115,6,0,P|123:245|208:146,2,200,2|2|8,1:1|1:1|0:2,0:0:0:0:
179,337,52465,2,0,L|243:325,1,50,2|2,0:2|0:2,0:0:0:0:
261,290,52765,2,0,L|278:348,2,50,8|2|2,0:2|0:2|0:2,0:0:0:0:
249,241,53215,1,8,0:2:0:0:
348,250,53515,6,0,L|408:155,1,100,0|8,1:0|0:2,0:0:0:0:
426,121,53965,1,0,1:0:0:0:
417,71,54115,2,0,L|356:58,1,50,0|8,1:0|0:2,0:0:0:0:
330,93,54415,6,0,L|229:75,1,100,8|2,0:2|1:1,0:0:0:0:
191,167,55015,1,2,1:1:0:0:
105,114,55315,2,0,B|95:65|95:65|138:18,2,100,0|8|0,1:0|0:2|1:0,0:0:0:0:
224,204,56365,6,0,P|256:255|242:350,1,150,0|8,1:0|0:2,0:0:0:0:
152,373,57115,1,0,1:0:0:0:
419,75,58315,5,6,1:1:0:0:
150,208,59215,6,0,L|141:152,1,50,0|8,1:0|0:2,0:0:0:0:
139,107,59515,1,0,1:0:0:0:
238,96,59815,1,0,1:0:0:0:
302,171,60115,2,0,P|349:190|409:167,1,100,8|8,0:2|0:2,0:0:0:0:
435,148,60565,1,8,0:2:0:0:
442,97,60715,6,0,P|385:138|417:262,1,200,0|8,1:0|0:2,0:0:0:0:
489,306,61615,1,0,1:0:0:0:
421,379,61915,2,0,B|351:368|351:368|337:374|337:374|246:358,1,150,8|8,0:2|0:2,0:0:0:0:
169,251,62815,2,0,L|192:188,1,50,2|2,1:1|1:1,0:0:0:0:
205,157,63115,6,0,L|311:205,1,100,0|0,1:0|1:0,0:0:0:0:
339,108,63715,1,8,0:2:0:0:
248,66,64015,1,0,1:0:0:0:
148,74,64315,2,0,B|102:114|102:114|86:215,1,150,0|0,1:0|1:0,0:0:0:0:
126,233,64915,2,0,L|116:290,3,50,8|8|8|8,0:2|0:2|0:2|0:2,0:0:0:0:
84,320,65515,6,0,P|156:307|219:358,2,150,2|2|8,1:1|1:1|0:2,0:0:0:0:
4,381,66715,2,0,B|46:329|46:329|18:187,1,200,0|0,1:0|1:0,0:0:0:0:
1,99,67615,1,2,1:1:0:0:
99,117,67915,6,0,B|193:152,1,100,0|8,1:0|0:2,0:0:0:0:
242,160,68365,2,0,B|336:125,1,100,0|8,1:0|0:2,0:0:0:0:
355,78,68815,1,2,0:2:0:0:
446,37,69115,2,0,B|481:73|481:73|471:125,1,100,8|8,0:2|0:2,0:0:0:0:
448,219,69715,2,0,L|429:270,1,50,0|0,1:0|1:0,0:0:0:0:
413,313,70015,1,2,0:2:0:0:
313,316,70315,6,0,L|201:344,1,100,2|0,1:1|1:0,0:0:0:0:
169,323,70765,1,8,0:2:0:0:
72,308,71065,2,0,L|23:320,2,50,8|8|8,0:2|0:2|0:2,0:0:0:0:
86,260,71515,1,2,1:1:0:0:
183,236,71815,1,2,1:1:0:0:
215,142,72115,2,0,L|262:128,1,50,0|8,1:0|0:2,0:0:0:0:
310,142,72415,2,0,L|357:128,1,50,2|2,0:2|0:2,0:0:0:0:
367,78,72715,6,0,L|513:39,2,150,2|2|8,1:1|1:1|0:2,0:0:0:0:
268,61,73915,1,0,1:0:0:0:
209,142,74215,1,0,1:0:0:0:
230,240,74515,2,0,L|177:253,1,50,8|8,0:2|0:2,0:0:0:0:
142,282,74815,2,0,L|155:335,1,50,8|8,0:2|0:2,0:0:0:0:
134,376,75115,6,0,B|75:396|18:364|18:364|34:331,2,150,2|2|2,1:1|1:1|1:1,0:0:0:0:
229,345,76315,2,0,L|281:354,1,50,8|8,0:2|0:2,0:0:0:0:
325,336,76615,2,0,L|377:345,1,50,8|8,0:2|0:2,0:0:0:0:
416,371,76915,1,8,0:2:0:0:
479,186,77515,6,0,B|374:172,1,100,2|2,1:1|0:2,0:0:0:0:
304,239,78115,2,0,L|254:230,1,50,2|0,0:2|1:0,0:0:0:0:
188,155,78565,6,0,B|142:129|142:129|77:150,1,100,2|0,1:1|1:0,0:0:0:0:
51,165,79015,1,2,1:1:0:0:
10,256,79315,1,0,1:0:0:0:
18,355,79615,1,8,0:2:0:0:
117,376,79915,6,0,L|270:351,2,150,2|2|8,1:1|1:1|0:2,0:0:0:0:
77,345,80965,1,8,0:2:0:0:
95,298,81115,2,0,L|199:281,1,100,2|2,1:1|1:1,0:0:0:0:
269,216,81715,1,0,1:0:0:0:
243,172,81865,2,0,L|139:155,1,100,8|2,0:2|0:2,0:0:0:0:
98,135,82315,6,0,B|54:154|54:154|35:202,1,100,0|8,1:0|0:2,0:0:0:0:
31,252,82765,2,0,B|50:296|50:296|98:315,1,100,0|8,1:0|0:2,0:0:0:0:
141,289,83215,1,0,1:0:0:0:
209,216,83515,2,0,L|311:234,1,100,2|8,1:1|0:2,0:0:0:0:
341,270,83965,2,0,L|443:252,1,100,2|8,1:1|0:2,0:0:0:0:
481,224,84415,2,0,L|470:175,1,50,8|8,0:2|0:2,0:0:0:0:
430,144,84715,5,0,1:0:0:0:
447,45,85015,1,8,0:2:0:0:
356,7,85315,2,0,P|289:-3|298:112,1,200,8|8,0:2|0:2,0:0:0:0:
357,166,86215,1,8,0:2:0:0:
316,257,86515,2,0,L|214:282,1,100,2|8,0:2|0:2,0:0:0:0:
119,288,87115,6,0,B|108:238|108:238|140:200,1,100,2|8,1:1|0:2,0:0:0:0:
177,167,87565,2,0,B|209:129|209:129|198:79,1,100,2|8,1:1|0:2,0:0:0:0:
186,31,88015,1,2,0:2:0:0:
87,11,88315,6,0,L|63:119,1,100,2|8,1:1|0:2,0:0:0:0:
23,135,88765,2,0,L|-1:243,1,100,2|8,1:1|0:2,0:0:0:0:
21,278,89215,2,0,L|73:293,1,50,8|8,0:2|0:2,0:0:0:0:
113,268,89515,6,0,L|129:373,2,100,0|8|0,1:0|0:2|1:0,0:0:0:0:
110,217,90265,1,8,0:2:0:0:
207,237,90565,2,0,B|249:264|249:264|313:247,1,100,0|2,1:0|0:2,0:0:0:0:
346,239,91015,1,0,1:0:0:0:
383,146,91315,1,8,0:2:0:0:
453,216,91615,1,8,0:2:0:0:
428,312,91915,6,0,L|335:351,1,100,0|0,1:0|1:0,0:0:0:0:
287,365,92365,2,0,L|194:326,1,100,8|0,0:2|1:0,0:0:0:0:
149,305,92815,1,8,0:2:0:0:
67,250,93115,2,0,L|15:274,2,50,0|2|0,1:0|0:2|1:0,0:0:0:0:
81,201,93565,2,0,L|189:165,1,100,8|8,0:2|0:2,0:0:0:0:
221,148,94015,1,0,1:0:0:0:
211,247,94315,6,0,L|316:274,1,100,8|0,0:2|1:0,0:0:0:0:
338,233,94765,2,0,P|327:278|335:334,1,100,8|2,0:2|0:2,0:0:0:0:
368,366,95215,2,0,P|401:368|430:356,1,50,0|8,1:0|0:2,0:0:0:0:
462,342,95515,2,0,L|444:282,1,50,2|2,0:2|0:2,0:0:0:0:
471,250,95815,2,0,L|415:54,1,200,2|0,1:1|0:0,0:0:0:0:
327,10,96715,6,0,B|279:-2|279:-2|235:23,1,100,2|2,1:1|0:2,0:0:0:0:
165,94,97315,2,0,L|216:104,1,50,2|0,0:2|1:0,0:0:0:0:
293,163,97765,6,0,L|319:271,1,100,2|0,1:1|1:0,0:0:0:0:
328,309,98215,1,2,1:1:0:0:
230,288,98515,1,0,1:0:0:0:
133,262,98815,1,8,0:2:0:0:
57,327,99115,6,0,B|23:281|23:281|50:187,2,150,2|2|8,1:1|1:1|0:2,0:0:0:0:
93,363,100165,1,8,0:2:0:0:
140,346,100315,2,0,L|234:312,1,100,2|2,1:1|1:1,0:0:0:0:
324,356,100915,1,0,1:0:0:0:
359,321,101065,2,0,P|365:271|352:223,1,100,8|2,0:2|0:2,0:0:0:0:
324,182,101515,6,0,P|273:170|221:198,1,100,0|8,1:0|0:2,0:0:0:0:
193,221,101965,2,0,P|142:233|90:205,1,100,0|8,1:0|0:2,0:0:0:0:
61,182,102415,1,0,1:0:0:0:
121,102,102715,2,0,L|225:116,1,100,2|8,1:1|0:2,0:0:0:0:
258,147,103165,2,0,L|362:133,1,100,2|8,1:1|0:2,0:0:0:0:
403,113,103615,2,0,L|420:182,1,50,8|8,0:2|0:2,0:0:0:0:
454,191,103915,5,0,1:0:0:0:
462,290,104215,1,8,0:2:0:0:
378,343,104515,2,0,B|288:333|288:333|270:341|270:341|167:326,1,200,8|8,0:2|0:2,0:0:0:0:
81,317,105415,1,8,0:2:0:0:
6,250,105715,1,2,0:2:0:0:
22,151,106015,1,8,0:2:0:0:
123,146,106315,6,0,L|148:6,1,100,2|8,1:1|0:2,0:0:0:0:
177,13,106765,2,0,B|227:5|227:5|274:42,1,100,2|8,1:1|0:2,0:0:0:0:
304,67,107215,1,2,0:2:0:0:
238,142,107515,6,0,L|259:254,1,100,2|8,1:1|0:2,0:0:0:0:
220,274,107965,2,0,B|201:322|201:322|241:386,1,100,2|8,1:1|0:2,0:0:0:0:
272,382,108415,2,0,L|320:362,1,50,8|8,0:2|0:2,0:0:0:0:
341,318,108715,6,0,L|369:215,2,100,0|8|0,1:0|0:2|1:0,0:0:0:0:
378,351,109465,1,8,0:2:0:0:
468,308,109765,2,0,P|479:247|463:199,1,100,0|2,1:0|0:2,0:0:0:0:
449,165,110215,1,0,1:0:0:0:
367,221,110515,1,8,0:2:0:0:
268,205,110815,1,8,0:2:0:0:
188,144,111115,6,0,P|167:189|176:245,1,100,0|0,1:0|1:0,0:0:0:0:
205,275,111565,2,0,P|226:320|217:376,1,100,8|0,0:2|1:0,0:0:0:0:
171,380,112015,2,0,L|114:370,1,50,8|8,0:2|0:2,0:0:0:0:
81,341,112315,2,0,L|17:358,2,50,0|2|0,1:0|0:2|1:0,0:0:0:0:
103,292,112765,2,0,B|119:184,1,100,8|8,0:2|0:2,0:0:0:0:
127,144,113215,1,0,1:0:0:0:
226,156,113515,6,0,B|210:264,1,100,8|0,0:2|1:0,0:0:0:0:
252,283,113965,2,0,B|266:184,1,100,8|2,0:2|0:2,0:0:0:0:
305,152,114415,2,0,L|369:127,1,50,0|8,1:0|0:2,0:0:0:0:
376,90,114715,2,0,L|440:65,1,50,2|2,0:2|0:2,0:0:0:0:
458,37,115015,2,0,B|506:59|506:59|513:226,1,200,2|0,1:1|0:0,0:0:0:0:
468,296,115915,6,0,P|419:285|388:248,1,100,2|8,1:1|0:2,0:0:0:0:
376,199,116365,2,0,P|327:209|296:246,1,100,0|8,1:0|0:2,0:0:0:0:
281,294,116815,1,2,0:2:0:0:
191,248,117115,2,0,L|171:141,2,100,8|8|0,0:2|0:2|1:0,0:0:0:0:
148,338,118015,1,2,0:2:0:0:
59,380,118315,6,0,L|42:273,1,100,2|0,1:1|1:0,0:0:0:0:
32,232,118765,1,8,0:2:0:0:
107,166,119065,2,0,L|169:175,2,50,8|8|8,0:2|0:2|0:2,0:0:0:0:
66,136,119515,1,2,1:1:0:0:
79,36,119815,1,2,1:1:0:0:
177,18,120115,2,0,L|236:39,1,50,0|8,1:0|0:2,0:0:0:0:
273,24,120415,2,0,L|332:45,1,50,2|2,0:2|0:2,0:0:0:0:
369,32,120715,6,0,L|514:77,2,150,2|2|8,1:1|1:1|0:2,0:0:0:0:
330,124,121915,1,0,1:0:0:0:
291,216,122215,1,0,1:0:0:0:
227,293,122515,2,0,L|207:248,1,50,8|8,0:2|0:2,0:0:0:0:
160,227,122815,2,0,L|140:182,1,50,8|8,0:2|0:2,0:0:0:0:
100,150,123115,6,0,L|40:293,2,150,2|2|8,1:1|1:1|0:2,0:0:0:0:
119,57,124315,6,0,P|85:91|4:87,2,127.5,8|8|8,0:2|0:2|0:2,0:0:0:0:
205,7,125515,6,0,L|305:26,1,100,6|8,1:1|0:2,0:0:0:0:
350,8,125965,2,0,L|369:106,1,100,0|8,1:0|0:2,0:0:0:0:
335,142,126415,1,2,0:2:0:0:
413,203,126715,2,0,L|511:184,2,100,8|8|0,0:2|0:2|1:0,0:0:0:0:
355,284,127615,1,2,0:2:0:0:
423,356,127915,6,0,B|377:381|377:381|319:371,1,100,2|0,1:1|1:0,0:0:0:0:
282,358,128365,1,8,0:2:0:0:
236,267,128665,2,0,L|225:203,2,50,8|8|8,0:2|0:2|0:2,0:0:0:0:
202,303,129115,1,2,1:1:0:0:
130,373,129415,1,2,1:1:0:0:
47,316,129715,2,0,L|31:259,1,50,0|8,1:0|0:2,0:0:0:0:
74,238,130015,2,0,L|58:181,1,50,2|2,0:2|0:2,0:0:0:0:
90,149,130315,6,0,B|143:123|143:123|237:161,2,150,2|2|8,1:1|1:1|0:2,0:0:0:0:
158,223,131515,1,0,1:0:0:0:
239,280,131815,1,0,1:0:0:0:
320,338,132115,2,0,L|375:309,1,50,8|8,0:2|0:2,0:0:0:0:
412,329,132415,2,0,L|467:300,1,50,8|8,0:2|0:2,0:0:0:0:
477,260,132715,6,0,B|504:209|504:209|479:103,2,150,2|2|8,1:1|1:1|0:2,0:0:0:0:
399,196,133915,2,0,L|300:226,1,100,8|2,0:2|0:2,0:0:0:0:
262,254,134365,2,0,L|147:235,1,100,8|2,0:2|0:2,0:0:0:0:
113,234,134815,1,8,0:2:0:0:
78,327,135115,1,6,1:1:0:0:
485,26,144715,5,2,1:2:0:0:
466,112,145015,1,0,1:0:0:0:
447,197,145315,5,8,0:2:0:0:
357,100,145765,6,0,L|370:21,2,80,0|0|2,1:0|1:0|1:2,0:0:0:0:
328,133,146515,2,0,L|286:148,1,40,8|2,0:2|0:2,0:0:0:0:
253,162,146815,2,0,L|211:147,1,40,10|0,0:2|1:0,0:0:0:0:
184,122,147115,5,2,1:2:0:0:
129,190,147415,1,0,1:0:0:0:
71,256,147715,2,0,P|68:311|92:346,1,80,8|10,0:2|0:2,0:0:0:0:
119,351,148165,1,0,1:0:0:0:
161,360,148315,6,0,B|200:381|200:381|252:363,1,80,2|0,1:2|1:0,0:0:0:0:
271,346,148765,2,0,P|325:326|361:347,1,80,8|8,0:2|0:2,0:0:0:0:
383,351,149215,2,0,L|395:308,1,40,2|10,0:2|0:2,0:0:0:0:
436,304,149515,5,2,1:2:0:0:
470,223,149815,1,0,1:0:0:0:
445,138,150115,1,8,0:2:0:0:
323,190,150565,6,0,L|233:169,2,80,0|0|2,1:0|1:0|1:2,0:0:0:0:
350,224,151315,2,0,L|346:278,1,40,8|2,0:2|0:2,0:0:0:0:
314,293,151615,2,0,L|310:347,1,40,10|0,0:2|1:0,0:0:0:0:
270,349,151915,5,2,1:2:0:0:
182,339,152215,1,0,1:0:0:0:
131,266,152515,2,0,L|151:181,1,80,8|10,0:2|0:2,0:0:0:0:
160,145,152965,1,0,1:0:0:0:
167,101,153115,6,0,L|252:121,1,80,2|0,1:2|1:0,0:0:0:0:
288,124,153565,1,8,0:2:0:0:
491,366,173515,5,2,0:2:0:0:
403,361,173815,1,2,0:2:0:0:
348,292,174115,2,0,L|283:308,1,40,2|2,3:2|3:2,0:0:0:0:
235,253,174565,2,0,P|223:205|243:172,1,80,2|0,0:2|3:2,0:0:0:0:
259,146,175015,1,2,0:2:0:0:
336,105,175315,2,0,L|427:124,1,80,2|2,3:2|0:2,0:0:0:0:
456,198,175915,6,0,L|332:223,2,120,2|2|2,0:2|0:2|0:2,0:0:0:0:
497,212,176965,1,2,0:2:0:0:
505,255,177115,2,0,L|488:334,1,80,2|2,0:2|0:2,0:0:0:0:
409,372,177715,1,2,3:2:0:0:
379,339,177865,2,0,L|300:322,1,80,2|4,3:2|3:3,0:0:0:0:
260,341,178315,6,0,B|235:308|235:308|251:263,1,80,2|0,0:2|3:2,0:0:0:0:
278,239,178765,2,0,L|306:160,1,80,2|2,0:2|3:2,0:0:0:0:
315,120,179215,1,2,0:2:0:0:
237,79,179515,2,0,P|198:74|158:89,1,80,2|0,0:2|3:2,0:0:0:0:
129,118,179965,2,0,L|113:207,1,80,2|0,0:2|3:2,0:0:0:0:
110,240,180415,1,2,0:2:0:0:
175,298,180715,6,0,B|238:315|238:315|264:309|264:309|358:329,1,160,2|0,0:2|3:2,0:0:0:0:
411,286,181615,1,2,0:2:0:0:
346,226,181915,2,0,L|370:139,1,80,2|0,0:2|3:2,0:0:0:0:
353,107,182365,2,0,P|307:80|259:89,1,80,2|0,0:2|3:2,0:0:0:0:
241,98,182815,1,2,0:2:0:0:
163,161,183115,6,0,L|186:265,1,100,2|0,1:1|0:0,0:0:0:0:
199,306,183565,2,0,P|246:339|315:308,1,100,0|2,0:0|0:2,0:0:0:0:
327,306,184015,1,2,1:1:0:0:
389,225,184315,2,0,B|422:189|422:189|413:121,1,100,2|0,1:1|0:0,0:0:0:0:
403,89,184765,2,0,L|288:110,1,100,0|2,0:0|0:2,0:0:0:0:
274,67,185215,2,0,L|216:77,1,50,2|0,1:1|0:0,0:0:0:0:
195,115,185515,6,0,L|87:141,1,100,2|8,1:1|0:2,0:0:0:0:
60,172,185965,2,0,B|41:219|41:219|66:271,1,100,2|8,1:1|0:2,0:0:0:0:
92,303,186415,1,2,1:1:0:0:
181,346,186715,2,0,L|269:328,1,50,0|0,1:0|1:0,0:0:0:0:
275,357,187015,2,0,L|369:339,1,50,8|2,0:2|0:2,0:0:0:0:
363,316,187315,2,0,L|386:199,1,100,8|8,0:2|0:2,0:0:0:0:
335,128,187915,6,0,B|266:118|266:118|250:127|250:127|189:116,1,150,2|2,1:1|1:1,0:0:0:0:
113,50,188665,1,8,0:2:0:0:
73,80,188815,2,0,L|66:129,1,50,2|2,1:1|1:1,0:0:0:0:
99,166,189115,6,0,L|82:321,1,150,2|2,1:1|1:1,0:0:0:0:
59,360,189715,2,0,P|133:329|204:376,1,150,8|8,0:2|0:2,0:0:0:0:
235,382,190315,5,0,1:0:0:0:
333,366,190615,1,0,1:0:0:0:
385,280,190915,2,0,L|368:175,1,100,8|2,0:2|0:2,0:0:0:0:
340,140,191365,1,8,0:2:0:0:
295,162,191515,2,0,B|253:201|196:178|216:160|154:138|103:163,1,200,0|2,1:0|0:2,0:0:0:0:
32,234,192415,1,8,0:2:0:0:
71,325,192715,5,2,1:1:0:0:
170,338,193015,1,2,0:2:0:0:
222,253,193315,2,0,L|283:267,1,50,2|0,0:2|1:0,0:0:0:0:
360,307,193765,6,0,B|378:327|383:351|383:351|446:332,1,100,2|0,1:1|1:0,0:0:0:0:
479,323,194215,1,2,1:1:0:0:
481,223,194515,1,0,1:0:0:0:
418,145,194815,1,8,0:2:0:0:
330,192,195115,6,0,B|293:231|293:231|192:211,2,150,2|2|8,1:1|1:1|0:2,0:0:0:0:
335,142,196165,1,8,0:2:0:0:
326,92,196315,2,0,P|273:68|221:77,1,100,2|2,1:1|1:1,0:0:0:0:
157,138,196915,1,0,1:0:0:0:
170,186,197065,2,0,P|213:210|261:204,1,100,8|2,0:2|0:2,0:0:0:0:
301,173,197515,6,0,L|326:279,1,100,0|8,1:0|0:2,0:0:0:0:
363,301,197965,2,0,P|310:301|273:339,1,100,0|8,1:0|0:2,0:0:0:0:
251,374,198415,1,0,1:0:0:0:
164,323,198715,6,0,B|145:272|145:272|179:230,1,100,2|8,1:1|0:2,0:0:0:0:
202,195,199165,2,0,B|221:144|221:144|187:102,1,100,2|8,1:1|0:2,0:0:0:0:
148,83,199615,2,0,L|86:98,1,50,8|8,0:2|0:2,0:0:0:0:
54,117,199915,5,0,1:0:0:0:
36,215,200215,1,8,0:2:0:0:
63,312,200515,2,0,B|151:299|151:299|172:288|172:288|267:275,1,200,8|8,0:2|0:2,0:0:0:0:
357,258,201415,1,8,0:2:0:0:
287,185,201715,2,0,L|188:199,1,100,2|8,0:2|0:2,0:0:0:0:
98,154,202315,6,0,L|76:43,1,100,2|8,1:1|0:2,0:0:0:0:
71,0,202765,2,0,P|131:-8|182:24,1,100,2|8,1:1|0:2,0:0:0:0:
197,45,203215,1,2,0:2:0:0:
249,129,203515,6,0,L|352:108,1,100,2|8,1:1|0:2,0:0:0:0:
395,95,203965,2,0,P|420:137|412:186,1,100,2|8,1:1|0:2,0:0:0:0:
384,227,204415,2,0,L|321:222,1,50,8|8,0:2|0:2,0:0:0:0:
283,222,204715,6,0,B|266:330,2,100,0|8|0,1:0|0:2|1:0,0:0:0:0:
252,182,205465,1,8,0:2:0:0:
163,228,205765,2,0,P|145:168|163:127,1,100,0|2,1:0|0:2,0:0:0:0:
188,95,206215,1,0,1:0:0:0:
276,48,206515,1,8,0:2:0:0:
375,53,206815,1,8,0:2:0:0:
460,108,207115,6,0,P|483:156|466:205,1,100,0|0,1:0|1:0,0:0:0:0:
448,244,207565,2,0,L|347:279,1,100,8|0,0:2|1:0,0:0:0:0:
304,287,208015,2,0,L|251:271,1,50,8|8,0:2|0:2,0:0:0:0:
219,238,208315,2,0,L|196:284,2,50,0|2|0,1:0|0:2|1:0,0:0:0:0:
214,188,208765,2,0,P|191:150|136:137,1,100,8|8,0:2|0:2,0:0:0:0:
99,165,209215,1,0,1:0:0:0:
2,137,209515,2,0,P|2:74|31:34,1,100,8|0,0:2|1:0,0:0:0:0:
57,9,209965,2,0,L|168:28,1,100,8|2,0:2|0:2,0:0:0:0:
201,6,210415,2,0,L|186:66,1,50,0|8,1:0|0:2,0:0:0:0:
215,96,210715,2,0,L|200:156,1,50,2|2,0:2|0:2,0:0:0:0:
201,194,211015,2,0,B|231:195|255:179|255:179|270:239|306:270|366:266,1,200,2|0,1:1|0:0,0:0:0:0:
453,262,211915,6,0,L|480:154,2,100,2|2|2,1:1|1:1|1:1,0:0:0:0:
436,309,212665,1,0,1:0:0:0:
349,359,212965,6,0,B|302:378|302:378|256:361,1,100,2|0,1:1|1:0,0:0:0:0:
214,332,213415,1,2,1:1:0:0:
140,267,213715,1,0,1:0:0:0:
221,204,214015,1,8,0:2:0:0:
158,125,214315,6,0,P|218:100|271:115,1,100,2|8,1:1|0:2,0:0:0:0:
297,124,214765,2,0,P|346:127|389:104,1,100,2|8,1:1|0:2,0:0:0:0:
420,64,215215,2,0,L|438:117,1,50,8|8,0:2|0:2,0:0:0:0:
485,118,215515,6,0,L|499:175,1,50,2|2,1:1|1:1,0:0:0:0:
459,200,215815,1,2,1:1:0:0:
495,293,216115,2,0,L|510:343,1,50,0|8,1:0|0:2,0:0:0:0:
472,374,216415,1,2,0:2:0:0:
383,326,216715,6,0,P|330:303|275:325,1,100,0|8,1:0|0:2,0:0:0:0:
242,338,217165,2,0,P|193:347|149:324,1,100,0|8,1:0|0:2,0:0:0:0:
115,281,217615,1,0,1:0:0:0:
202,214,217915,6,0,L|208:264,2,50,2|2|8,1:1|1:1|0:2,0:0:0:0:
195,164,218365,1,2,1:1:0:0:
190,114,218515,2,0,P|235:90|287:99,1,100,2|8,1:1|0:2,0:0:0:0:
382,105,219115,6,0,L|368:163,1,50,0|0,1:0|1:0,0:0:0:0:
410,183,219415,2,0,L|396:241,1,50,8|0,0:2|1:0,0:0:0:0:
428,271,219715,2,0,P|375:242|274:330,1,200,8|8,0:2|0:2,0:0:0:0:
200,381,220615,1,8,0:2:0:0:
101,361,220915,1,2,0:2:0:0:
2,341,221215,1,8,0:2:0:0:
59,259,221515,6,0,L|175:286,1,100,2|8,1:1|0:2,0:0:0:0:
198,253,221965,2,0,B|235:218|235:218|225:161,1,100,2|8,1:1|0:2,0:0:0:0:
219,120,222415,1,2,0:2:0:0:
149,47,222715,6,0,B|102:29|102:29|42:47,1,100,2|8,1:1|0:2,0:0:0:0:
19,79,223165,2,0,L|36:186,1,100,2|8,1:1|0:2,0:0:0:0:
76,205,223615,2,0,L|86:265,1,50,8|8,0:2|0:2,0:0:0:0:
121,287,223915,6,0,P|64:299|42:343,2,100,0|8|0,1:0|0:2|1:0,0:0:0:0:
170,293,224665,1,8,0:2:0:0:
245,358,224965,2,0,P|298:372|351:334,1,100,0|2,1:0|0:2,0:0:0:0:
370,316,225415,1,0,1:0:0:0:
292,252,225715,1,8,0:2:0:0:
314,154,226015,1,8,0:2:0:0:
392,91,226315,6,0,P|341:51|295:51,1,100,0|0,1:0|1:0,0:0:0:0:
271,82,226765,2,0,P|222:106|165:82,1,100,8|0,0:2|1:0,0:0:0:0:
150,54,227215,1,8,0:2:0:0:
55,60,227515,2,0,L|0:33,2,50,0|2|0,1:0|0:2|1:0,0:0:0:0:
68,108,227965,2,0,B|87:151|87:151|68:207,1,100,8|8,0:2|0:2,0:0:0:0:
52,248,228415,1,0,1:0:0:0:
145,284,228715,6,0,L|265:248,1,100,8|0,0:2|1:0,0:0:0:0:
287,275,229165,2,0,L|407:239,1,100,8|2,0:2|0:2,0:0:0:0:
409,203,229615,1,0,1:0:0:0:
399,110,229915,6,0,B|315:137|315:137|288:128|288:128|241:143,2,150,8|8|8,0:2|0:2|0:2,0:0:0:0:
473,42,231115,1,6,1:1:0:0:
