osu file format v14

[General]
AudioFilename: audio.mp3
AudioLeadIn: 0
PreviewTime: 18
Countdown: 0
SampleSet: Soft
StackLeniency: 0.4
Mode: 0
LetterboxInBreaks: 0
WidescreenStoryboard: 1

[Editor]
Bookmarks: 19915,135115,192715,211915,231115,250315
DistanceSpacing: 1.7
BeatDivisor: 4
GridSize: 32
TimelineZoom: 2.5

[Metadata]
Title:Ruten
TitleUnicode:流転
Artist:Shoujozenjidou
ArtistUnicode:少女全自動
Creator:Elcheer
Version:Lunatic
Source:東方風神録 ~ Mountain of Faith.
Tags:breakcore instrumental video game touhou corsace ro32 hr2 hardrock hard rock nitori kawashiro 河城かわしろ にとり Xe ZUN 芥川龙之介の河童 ~ Candid Friend さんめん The third stage
BeatmapID:2858748
BeatmapSetID:1252829

[Difficulty]
HPDrainRate:4.5
CircleSize:3.8
OverallDifficulty:7.7
ApproachRate:9
SliderMultiplier:1.4
SliderTickRate:1

[Events]
//Background and Video events
0,0,"kawashiro.jpg",0,0
//Break Periods
2,39314,48115
2,135015,144115
2,154315,172915
//Storyboard Layer 0 (Background)
//Storyboard Layer 1 (Fail)
//Storyboard Layer 2 (Pass)
//Storyboard Layer 3 (Foreground)
//Storyboard Layer 4 (Overlay)
//Storyboard Sound Samples

[TimingPoints]
715,300,4,2,1,60,1,0
23065,-100,4,2,1,45,0,0
23515,-100,4,2,1,60,0,0
26815,-100,4,2,1,45,0,0
27115,-100,4,2,1,60,0,0
29515,-100,4,2,1,80,0,1
32665,-100,4,2,1,65,0,1
33115,-100,4,2,1,80,0,1
36415,-100,4,2,1,65,0,1
36715,-100,4,2,1,80,0,1
38665,-142.857142857143,4,2,1,80,0,1
38965,-200,4,2,1,80,0,1
39115,-200,4,2,1,60,0,0
48715,-100,4,2,1,50,0,0
54415,-100,4,2,1,40,0,0
54715,-100,4,2,1,50,0,0
58315,-100,4,2,1,60,0,0
60415,-100,4,2,1,45,0,0
60715,-100,4,2,1,60,0,0
66415,-100,4,2,1,45,0,0
66715,-100,4,2,1,60,0,0
71065,-100,4,2,1,45,0,0
71515,-100,4,2,1,60,0,0
74815,-100,4,2,1,45,0,0
75115,-100,4,2,1,60,0,0
76990,-100,4,2,1,5,0,0
77215,-100,4,2,1,30,0,0
77515,-100,4,2,1,60,0,0
79915,-100,4,2,1,80,0,1
80815,-100,4,2,1,65,0,1
81115,-100,4,2,1,80,0,1
85352,-100,4,2,1,45,0,1
85390,-100,4,2,1,40,0,1
85427,-100,4,2,1,35,0,1
85465,-100,4,2,1,30,0,1
85502,-100,4,2,1,25,0,1
85540,-100,4,2,1,20,0,1
85577,-100,4,2,1,15,0,1
85615,-100,4,2,1,10,0,1
85652,-100,4,2,1,15,0,1
85690,-100,4,2,1,20,0,1
85727,-100,4,2,1,25,0,1
85765,-100,4,2,1,30,0,1
85802,-100,4,2,1,35,0,1
85840,-100,4,2,1,40,0,1
85877,-100,4,2,1,45,0,1
85915,-100,4,2,1,80,0,1
86815,-100,4,2,1,65,0,1
87115,-100,4,2,1,80,0,1
89215,-100,4,2,1,65,0,1
89515,-100,4,2,1,80,0,1
96715,-100,4,2,1,60,0,0
99115,-100,4,2,1,80,0,1
100015,-100,4,2,1,65,0,1
100315,-100,4,2,1,80,0,1
103615,-100,4,2,1,65,0,1
103915,-100,4,2,1,80,0,1
104552,-100,4,2,1,45,0,1
104590,-100,4,2,1,40,0,1
104627,-100,4,2,1,35,0,1
104665,-100,4,2,1,30,0,1
104702,-100,4,2,1,25,0,1
104740,-100,4,2,1,20,0,1
104777,-100,4,2,1,15,0,1
104815,-100,4,2,1,10,0,1
104852,-100,4,2,1,15,0,1
104890,-100,4,2,1,20,0,1
104927,-100,4,2,1,25,0,1
104965,-100,4,2,1,30,0,1
105002,-100,4,2,1,35,0,1
105040,-100,4,2,1,40,0,1
105077,-100,4,2,1,45,0,1
105115,-100,4,2,1,80,0,1
106015,-100,4,2,1,65,0,1
106315,-100,4,2,1,80,0,1
108415,-100,4,2,1,65,0,1
108715,-100,4,2,1,80,0,1
115915,-100,4,2,1,60,0,0
119065,-100,4,2,1,45,0,0
119515,-100,4,2,1,60,0,0
122815,-100,4,2,1,45,0,0
123115,-100,4,2,1,60,0,0
124315,-100,4,2,1,40,0,0
124465,-142.857142857143,4,2,1,40,0,0
125515,-100,4,2,1,60,0,0
128665,-100,4,2,1,45,0,0
129115,-100,4,2,1,60,0,0
132415,-100,4,2,1,45,0,0
132715,-100,4,2,1,60,0,0
144715,-125,4,2,1,40,0,0
183115,-100,4,2,1,50,0,0
187390,-100,4,2,1,45,0,0
187427,-100,4,2,1,40,0,0
187465,-100,4,2,1,35,0,0
187502,-100,4,2,1,30,0,0
187540,-100,4,2,1,5,0,0
187615,-100,4,2,1,50,0,0
187690,-100,4,2,1,45,0,0
187727,-100,4,2,1,40,0,0
187765,-100,4,2,1,35,0,0
187802,-100,4,2,1,30,0,0
187840,-100,4,2,1,5,0,0
187915,-100,4,2,1,50,0,0
190015,-100,4,2,1,25,0,0
190315,-100,4,2,1,50,0,0
192265,-100,4,2,1,40,0,0
192715,-100,4,2,1,60,0,0
195115,-100,4,2,1,80,0,1
196015,-100,4,2,1,65,0,1
196315,-100,4,2,1,80,0,1
199615,-100,4,2,1,65,0,1
199915,-100,4,2,1,80,0,1
200552,-100,4,2,1,45,0,1
200590,-100,4,2,1,40,0,1
200627,-100,4,2,1,35,0,1
200665,-100,4,2,1,30,0,1
200702,-100,4,2,1,25,0,1
200740,-100,4,2,1,20,0,1
200777,-100,4,2,1,15,0,1
200815,-100,4,2,1,10,0,1
200852,-100,4,2,1,15,0,1
200890,-100,4,2,1,20,0,1
200927,-100,4,2,1,25,0,1
200965,-100,4,2,1,30,0,1
201002,-100,4,2,1,35,0,1
201040,-100,4,2,1,40,0,1
201077,-100,4,2,1,45,0,1
201115,-100,4,2,1,80,0,1
202015,-100,4,2,1,65,0,1
202315,-100,4,2,1,80,0,1
204415,-100,4,2,1,65,0,1
204715,-100,4,2,1,80,0,1
211915,-100,4,2,1,60,0,0
214315,-100,4,2,1,80,0,1
215215,-100,4,2,1,65,0,1
215515,-100,4,2,1,80,0,1
218815,-100,4,2,1,50,0,1
219115,-100,4,2,1,80,0,1
219752,-100,4,2,1,45,0,1
219790,-100,4,2,1,40,0,1
219827,-100,4,2,1,35,0,1
219865,-100,4,2,1,30,0,1
219902,-100,4,2,1,25,0,1
219940,-100,4,2,1,20,0,1
219977,-100,4,2,1,15,0,1
220015,-100,4,2,1,10,0,1
220052,-100,4,2,1,15,0,1
220090,-100,4,2,1,20,0,1
220127,-100,4,2,1,25,0,1
220165,-100,4,2,1,30,0,1
220202,-100,4,2,1,35,0,1
220240,-100,4,2,1,40,0,1
220277,-100,4,2,1,45,0,1
220315,-100,4,2,1,80,0,1
221215,-100,4,2,1,65,0,1
221515,-100,4,2,1,80,0,1
223615,-100,4,2,1,65,0,1
223915,-100,4,2,1,80,0,1
229915,-100,4,2,1,50,0,1
230815,-100,4,2,1,40,0,1
231115,-100,4,2,1,60,0,0

[Colours]
Combo1 : 88,184,224
Combo2 : 90,142,93

[HitObjects]
488,276,19915,6,0,P|442:260|413:273,1,70,2|2,1:1|0:2,0:0:0:0:
396,280,20140,1,2,0:2:0:0:
400,284,20215,1,8,0:2:0:0:
327,384,20365,1,0,1:0:0:0:
262,329,20515,2,0,L|224:339,2,35,2|2|8,0:2|0:2|0:2,0:0:0:0:
313,263,20815,1,2,0:2:0:0:
323,241,20890,1,2,0:2:0:0:
326,216,20965,1,0,1:0:0:0:
322,192,21040,1,0,1:0:0:0:
309,170,21115,6,0,B|273:159|273:159|207:187,1,105,8|2,0:2|0:2,0:0:0:0:
176,205,21415,2,0,B|140:216|140:216|96:202,1,70,8|2,0:2|0:2,0:0:0:0:
50,114,21715,1,0,1:0:0:0:
50,114,21865,1,0,1:0:0:0:
142,9,22015,2,0,L|179:18,3,35,2|2|2|2,0:2|0:2|0:2|0:2,0:0:0:0:
184,44,22315,6,0,L|312:27,1,105,2|0,1:1|0:0,0:0:0:0:
314,5,22615,2,0,L|339:88,1,70,0|8,1:0|0:2,0:0:0:0:
449,34,22915,1,2,0:2:0:0:
449,34,22990,1,2,0:2:0:0:
449,34,23065,2,0,L|441:72,1,35,8|8,0:2|0:2,0:0:0:0:
426,146,23215,1,8,0:2:0:0:
420,169,23290,1,8,0:2:0:0:
415,193,23365,1,8,0:2:0:0:
409,217,23440,1,8,0:2:0:0:
404,240,23515,6,0,L|379:345,1,105,2|2,1:1|0:2,0:0:0:0:
369,382,23815,2,0,L|266:357,1,105,2|2,1:1|0:2,0:0:0:0:
239,349,24115,1,0,1:0:0:0:
239,349,24190,1,0,1:0:0:0:
239,349,24265,1,8,0:2:0:0:
165,258,24415,2,0,L|130:266,3,35,2|2|2|2,0:2|0:2|0:2|0:2,0:0:0:0:
95,286,24715,6,0,P|120:239|100:189,1,105,2|0,1:1|0:0,0:0:0:0:
30,177,25015,2,0,P|53:196|80:195,1,35,0|0,1:0|1:0,0:0:0:0:
151,127,25165,6,0,P|198:102|248:122,1,105,2|0,1:1|0:0,0:0:0:0:
260,192,25465,2,0,P|241:169|242:142,1,35,0|0,1:0|0:0,0:0:0:0:
313,72,25615,1,8,0:2:0:0:
410,146,25765,1,2,0:2:0:0:
410,146,25840,1,2,0:2:0:0:
410,146,25915,6,0,L|402:182,3,35,0|2|2|2,1:0|0:2|0:2|0:2,0:0:0:0:
374,206,26215,2,0,L|382:242,3,35,0|2|2|2,1:0|0:2|0:2|0:2,0:0:0:0:
411,265,26515,1,8,0:2:0:0:
445,363,26665,1,8,0:2:0:0:
327,318,26815,1,8,0:2:0:0:
303,324,26890,1,8,0:2:0:0:
279,330,26965,1,8,0:2:0:0:
255,336,27040,1,8,0:2:0:0:
231,341,27115,6,0,P|211:294|229:233,1,105,2|0,1:1|0:0,0:0:0:0:
297,234,27415,2,0,P|273:250|256:253,1,35,0|0,1:0|1:0,0:0:0:0:
207,167,27565,6,0,P|160:147|99:165,1,105,2|0,1:1|0:0,0:0:0:0:
100,233,27865,2,0,P|116:209|119:192,1,35,0|0,1:0|0:0,0:0:0:0:
47,109,28015,1,8,0:2:0:0:
47,109,28090,2,0,P|83:120|129:90,1,70,8|0,0:2|0:0,0:0:0:0:
132,81,28315,5,8,0:2:0:0:
204,132,28465,1,2,0:2:0:0:
204,132,28540,1,2,0:2:0:0:
204,132,28615,2,0,P|207:162|200:183,2,35,2|2|8,0:2|0:2|0:2,0:0:0:0:
267,77,28915,1,2,0:2:0:0:
267,77,28990,1,2,0:2:0:0:
267,77,29065,2,0,P|264:47|271:26,2,35,2|2|8,0:2|0:2|0:2,0:0:0:0:
337,150,29365,1,2,0:2:0:0:
337,150,29440,1,2,0:2:0:0:
337,150,29515,6,0,P|295:157|282:234,1,105,6|2,1:1|0:2,0:0:0:0:
290,245,29815,1,8,0:2:0:0:
429,198,29965,2,0,P|464:220|446:296,1,105,0|2,1:0|0:2,0:0:0:0:
435,303,30265,1,8,0:2:0:0:
321,358,30415,2,0,L|284:348,3,35,2|2|0|0,0:2|0:2|1:0|1:0,0:0:0:0:
260,315,30715,6,0,L|141:341,1,105,8|2,0:2|0:2,0:0:0:0:
127,340,31015,2,0,B|141:286|141:286|110:224,1,105,8|2,0:2|0:2,0:0:0:0:
100,208,31315,1,0,1:0:0:0:
7,253,31465,1,0,1:0:0:0:
27,119,31615,1,2,0:2:0:0:
50,111,31690,1,2,0:2:0:0:
73,104,31765,1,2,0:2:0:0:
97,97,31840,1,2,0:2:0:0:
123,88,31915,6,0,B|150:67|179:73|176:91|202:100|236:81,1,105,2|0,1:1|0:0,0:0:0:0:
250,49,32215,2,0,P|287:41|334:55,1,70,0|8,1:0|0:2,0:0:0:0:
312,183,32515,1,2,0:2:0:0:
312,183,32590,1,2,0:2:0:0:
312,183,32665,2,0,L|302:221,1,35,8|8,0:2|0:2,0:0:0:0:
307,295,32815,1,8,0:2:0:0:
316,272,32890,1,8,0:2:0:0:
333,255,32965,1,8,0:2:0:0:
356,246,33040,1,8,0:2:0:0:
382,247,33115,6,0,P|357:276|295:273,1,105,2|2,1:1|0:2,0:0:0:0:
277,252,33415,2,0,P|238:247|195:292,1,105,2|0,1:1|0:0,0:0:0:0:
191,327,33715,1,0,1:0:0:0:
191,327,33790,1,0,1:0:0:0:
191,327,33865,1,8,0:2:0:0:
143,208,34015,1,2,0:2:0:0:
135,184,34090,1,2,0:2:0:0:
128,161,34165,1,2,0:2:0:0:
121,137,34240,1,2,0:2:0:0:
113,113,34315,6,0,P|132:68|202:52,1,105,2|0,1:1|0:0,0:0:0:0:
218,116,34615,2,0,P|187:90|181:76,1,35,0|0,1:0|1:0,0:0:0:0:
321,12,34765,6,0,L|343:147,1,105,2|0,1:1|0:0,0:0:0:0:
413,126,35065,2,0,P|382:105|365:102,1,35,0|0,1:0|0:0,0:0:0:0:
276,175,35215,1,8,0:2:0:0:
368,259,35365,1,2,0:2:0:0:
368,259,35440,1,2,0:2:0:0:
368,259,35515,6,0,L|413:241,3,35,0|0|2|0,1:0|0:0|0:2|0:0,0:0:0:0:
435,221,35815,2,0,L|453:272,3,35,0|0|2|0,1:0|0:0|0:2|0:0,0:0:0:0:
459,296,36115,1,8,0:2:0:0:
351,367,36265,1,8,0:2:0:0:
298,210,36415,1,8,0:2:0:0:
322,208,36490,1,8,0:2:0:0:
344,218,36565,1,8,0:2:0:0:
361,236,36640,1,8,0:2:0:0:
368,258,36715,6,0,P|328:288|265:288,1,105,2|0,1:1|0:0,0:0:0:0:
210,259,37015,2,0,P|248:276|255:287,1,35,0|0,1:0|1:0,0:0:0:0:
134,372,37165,6,0,P|117:317|123:243,1,105,2|0,1:1|0:0,0:0:0:0:
144,194,37465,2,0,P|132:235|123:244,1,35,0|0,1:0|0:0,0:0:0:0:
20,297,37615,1,8,0:2:0:0:
20,297,37690,2,0,P|6:253|21:213,1,70,8|0,0:2|0:0,0:0:0:0:
24,197,37915,5,8,0:2:0:0:
111,119,38065,2,0,P|147:111|162:114,2,35,2|2|8,0:2|0:2|0:2,0:0:0:0:
33,52,38365,2,0,P|-3:44|-18:47,2,35,2|0|0,0:2|0:0|0:0,0:0:0:0:
161,12,38665,6,0,P|202:4|226:7,1,48.9999999999999,2|0,0:2|0:0,0:0:0:0:
285,71,38965,6,0,L|297:113,1,35,2|6,0:2|1:1,0:0:0:0:
451,36,48715,6,0,P|483:74|465:170,1,140,2|8,1:1|0:2,0:0:0:0:
379,219,49165,1,2,0:2:0:0:
354,222,49240,1,2,0:2:0:0:
330,218,49315,1,2,0:2:0:0:
308,207,49390,1,8,0:2:0:0:
291,190,49465,1,0,1:0:0:0:
354,28,49615,2,0,P|401:15|431:27,1,70,2|2,1:1|0:2,0:0:0:0:
451,36,49840,1,2,0:2:0:0:
451,36,49915,6,0,P|483:74|465:170,1,140,2|8,1:1|0:2,0:0:0:0:
379,219,50365,1,8,0:2:0:0:
379,219,50440,1,8,0:2:0:0:
379,219,50515,1,0,1:0:0:0:
488,248,50665,1,8,0:2:0:0:
393,102,50815,2,0,P|394:62|419:35,1,70,2|2,1:1|0:2,0:0:0:0:
451,36,51040,1,2,0:2:0:0:
451,36,51115,6,0,P|483:74|465:170,1,140,2|8,1:1|0:2,0:0:0:0:
379,219,51565,2,0,P|370:184|377:167,1,35,2|2,0:2|0:2,0:0:0:0:
451,36,51715,6,0,P|483:74|465:170,1,140,2|0,1:1|1:0,0:0:0:0:
450,182,52090,1,0,1:0:0:0:
450,182,52165,1,8,0:2:0:0:
337,73,52315,5,8,0:2:0:0:
281,168,52465,1,2,0:2:0:0:
258,178,52540,1,2,0:2:0:0:
234,180,52615,1,2,0:2:0:0:
210,176,52690,1,2,0:2:0:0:
188,165,52765,1,8,0:2:0:0:
151,93,52915,1,2,0:2:0:0:
151,93,52990,1,2,0:2:0:0:
151,93,53065,2,0,P|162:66|163:45,2,35,2|2|8,0:2|0:2|0:2,0:0:0:0:
78,142,53365,2,0,P|71:169|74:193,1,35,2|2,0:2|0:2,0:0:0:0:
107,251,53515,6,0,P|151:255|185:309,1,105,0|2,1:0|0:2,0:0:0:0:
174,337,53815,1,8,0:2:0:0:
254,225,53965,1,0,1:0:0:0:
300,357,54115,1,0,1:0:0:0:
300,357,54265,1,8,0:2:0:0:
417,273,54415,1,8,0:2:0:0:
413,248,54490,1,8,0:2:0:0:
409,224,54565,1,8,0:2:0:0:
405,200,54640,1,8,0:2:0:0:
402,174,54715,6,0,L|385:62,1,105,2|2,1:1|0:2,0:0:0:0:
381,34,55015,2,0,B|345:12|345:12|312:12|261:38,1,105,2|2,1:1|0:2,0:0:0:0:
252,41,55315,2,0,P|244:83|248:117,1,70,0|0,1:0|0:0,0:0:0:0:
272,195,55615,2,0,L|338:173,2,46.6666666666667,8|0|0,0:2|0:0|0:0,0:0:0:0:
228,262,55915,6,0,L|83:237,1,140,0|0,1:0|0:0,0:0:0:0:
74,123,56365,2,0,P|113:167|70:249,1,140,0|0,1:0|1:0,0:0:0:0:
19,289,56815,1,8,0:2:0:0:
19,289,56890,1,8,0:2:0:0:
19,289,56965,1,0,1:0:0:0:
141,352,57115,1,0,1:0:0:0:
256,192,57190,12,6,58315,1:1:0:0:
481,139,58765,5,0,1:0:0:0:
479,222,58915,2,0,L|371:196,1,105,8|2,0:2|0:2,0:0:0:0:
345,189,59215,2,0,L|334:233,1,35,0|0,1:0|1:0,0:0:0:0:
275,281,59365,2,0,L|266:247,1,35,8|8,0:2|0:2,0:0:0:0:
199,192,59515,6,0,L|180:287,1,70,0|8,1:0|0:2,0:0:0:0:
162,356,59815,1,0,1:0:0:0:
162,356,59965,1,0,1:0:0:0:
46,288,60115,2,0,P|34:248|53:214,1,70,8|2,0:2|0:2,0:0:0:0:
97,148,60415,1,8,0:2:0:0:
80,165,60490,1,8,0:2:0:0:
57,174,60565,1,8,0:2:0:0:
33,173,60640,1,8,0:2:0:0:
8,159,60715,6,0,L|29:51,1,105,0|2,1:0|0:2,0:0:0:0:
36,23,61015,2,0,B|72:54|72:54|139:34,1,105,0|2,1:0|0:2,0:0:0:0:
158,24,61315,1,8,0:2:0:0:
145,137,61465,1,2,0:2:0:0:
253,73,61615,1,0,1:0:0:0:
269,90,61690,1,0,1:0:0:0:
280,112,61765,1,8,0:2:0:0:
283,136,61840,1,0,0:0:0:0:
280,162,61915,6,0,L|241:176,5,35,8|0|2|2|2|2,0:2|0:0|0:2|0:2|0:2|0:2,0:0:0:0:
344,207,62365,2,0,L|383:221,3,35,8|0|2|2,0:2|0:0|0:2|0:2,0:0:0:0:
446,178,62665,2,0,L|458:223,1,35,8|0,0:2|0:0,0:0:0:0:
510,269,62815,5,2,1:1:0:0:
498,364,62965,1,2,1:1:0:0:
407,308,63115,5,0,1:0:0:0:
407,308,63415,1,0,1:0:0:0:
407,308,63715,2,0,P|371:326|335:321,1,70,8|2,0:2|0:2,0:0:0:0:
317,301,63940,1,2,0:2:0:0:
317,301,64015,2,0,L|308:252,2,35,0|0|8,1:0|1:0|0:2,0:0:0:0:
244,384,64315,6,0,L|222:273,2,105,0|0|0,1:0|1:0|1:0,0:0:0:0:
141,318,64915,1,8,0:2:0:0:
224,203,65065,1,8,0:2:0:0:
92,148,65215,1,8,0:2:0:0:
92,148,65365,1,8,0:2:0:0:
192,42,65515,6,0,B|255:52|255:52|265:61|265:61|334:74,1,140,2|0,1:1|1:0,0:0:0:0:
399,25,65965,2,0,P|354:61|363:142,1,140,2|0,1:1|1:0,0:0:0:0:
460,175,66415,1,8,0:2:0:0:
463,199,66490,1,8,0:2:0:0:
466,223,66565,1,8,0:2:0:0:
469,247,66640,1,8,0:2:0:0:
470,273,66715,2,0,P|424:256|359:298,1,105,0|2,1:0|0:2,0:0:0:0:
346,350,67015,6,0,L|412:372,2,46.6666666666667,8|0|8,0:2|0:0|0:2,0:0:0:0:
279,304,67315,2,0,L|213:326,2,46.6666666666667,0|8|0,1:0|0:2|1:0,0:0:0:0:
314,228,67615,1,2,1:1:0:0:
129,99,67915,6,0,P|103:132|105:172,1,70,0|2,1:0|0:2,0:0:0:0:
115,187,68140,1,2,0:2:0:0:
115,187,68215,1,8,0:2:0:0:
203,254,68365,1,0,1:0:0:0:
248,183,68515,2,0,L|236:133,2,35,2|2|8,0:2|0:2|0:2,0:0:0:0:
337,284,68815,1,2,0:2:0:0:
338,259,68890,1,2,0:2:0:0:
349,237,68965,1,0,1:0:0:0:
367,221,69040,1,0,1:0:0:0:
391,212,69115,6,0,P|406:171|389:113,1,105,8|2,0:2|0:2,0:0:0:0:
371,86,69415,2,0,B|339:70|339:70|255:90,1,105,8|2,0:2|0:2,0:0:0:0:
240,96,69715,1,0,1:0:0:0:
277,170,69865,1,0,1:0:0:0:
182,220,70015,2,0,L|139:209,3,35,2|2|2|2,0:2|0:2|0:2|0:2,0:0:0:0:
112,187,70315,6,0,P|130:235|98:286,1,105,2|0,1:1|0:0,0:0:0:0:
79,300,70615,2,0,L|39:288,2,35,0|0|8,1:0|1:0|0:2,0:0:0:0:
162,372,70915,2,0,L|205:363,1,35,2|2,0:2|0:2,0:0:0:0:
249,296,71065,1,8,0:2:0:0:
249,296,71140,1,8,0:2:0:0:
249,296,71215,2,0,L|295:308,3,35,8|8|8|8,0:2|0:2|0:2|0:2,0:0:0:0:
320,335,71515,6,0,P|310:272|351:234,1,105,2|2,1:1|0:2,0:0:0:0:
359,221,71815,2,0,P|369:158|328:120,1,105,2|2,1:1|0:2,0:0:0:0:
322,106,72115,1,0,1:0:0:0:
322,106,72190,1,0,1:0:0:0:
322,106,72265,1,8,0:2:0:0:
199,213,72415,1,2,0:2:0:0:
221,221,72490,1,2,0:2:0:0:
245,218,72565,1,2,0:2:0:0:
265,204,72640,1,2,0:2:0:0:
275,180,72715,6,0,P|235:218|244:286,1,105,2|0,1:1|0:0,0:0:0:0:
299,306,73015,2,0,P|268:282|251:278,1,35,0|0,1:0|1:0,0:0:0:0:
168,322,73165,6,0,P|126:316|95:263,1,105,2|0,1:1|0:0,0:0:0:0:
145,205,73465,2,0,P|138:242|123:254,1,35,0|0,1:0|0:0,0:0:0:0:
17,261,73615,1,8,0:2:0:0:
58,127,73765,1,2,0:2:0:0:
58,127,73840,1,2,0:2:0:0:
58,127,73915,6,0,P|84:112|99:111,3,35,0|0|2|0,1:0|0:0|0:2|0:0,0:0:0:0:
131,120,74215,2,0,P|147:114|161:104,3,35,0|0|2|0,1:0|0:0|0:2|0:0,0:0:0:0:
173,66,74515,1,8,0:2:0:0:
236,185,74665,1,8,0:2:0:0:
302,62,74815,1,8,0:2:0:0:
326,66,74890,1,8,0:2:0:0:
350,70,74965,1,8,0:2:0:0:
374,74,75040,1,8,0:2:0:0:
400,79,75115,6,0,L|425:188,1,105,2|0,1:1|0:0,0:0:0:0:
494,220,75415,2,0,P|462:197|441:194,1,35,0|0,1:0|1:0,0:0:0:0:
360,229,75565,6,0,P|327:260|321:332,1,105,2|0,1:1|0:0,0:0:0:0:
377,367,75865,2,0,P|353:333|339:328,1,35,0|0,1:0|1:0,0:0:0:0:
236,293,76015,1,2,1:1:0:0:
213,382,76165,1,2,1:1:0:0:
120,301,76315,6,0,L|132:263,3,35,8|0|8|0,0:2|0:0|0:2|0:0,0:0:0:0:
160,237,76615,2,0,L|148:199,3,35,8|0|8|0,0:2|0:0|0:2|0:0,0:0:0:0:
116,176,76915,6,0,L|128:134,1,35,8|0,0:2|0:0,0:0:0:0:
205,57,77215,6,0,L|212:81,6,17.5,8|8|8|8|8|8|8,0:2|0:2|0:2|0:2|0:2|0:2|0:2,0:0:0:0:
226,110,77515,6,0,P|263:85|307:91,1,70,2|2,1:1|0:2,0:0:0:0:
378,120,77815,2,0,L|396:200,1,70,2|2,0:2|0:2,0:0:0:0:
335,258,78115,1,2,0:2:0:0:
403,112,78265,2,0,L|421:192,1,70,0|0,1:0|1:0,0:0:0:0:
335,258,78565,6,0,P|384:219|441:288,1,140,2|0,1:1|1:0,0:0:0:0:
337,373,79015,2,0,L|264:358,1,70,2|0,1:1|0:0,0:0:0:0:
170,265,79315,2,0,L|243:250,1,70,0|0,1:0|0:0,0:0:0:0:
304,158,79615,1,8,0:2:0:0:
304,158,79690,2,0,P|296:106|279:88,1,70,8|0,0:2|0:0,0:0:0:0:
247,74,79915,6,0,B|205:58|163:72|179:87|143:101|105:82,1,140,2|8,1:1|0:2,0:0:0:0:
218,147,80365,2,0,L|248:291,1,140,2|8,1:1|0:2,0:0:0:0:
118,361,80815,1,8,0:2:0:0:
123,337,80890,1,8,0:2:0:0:
128,313,80965,1,8,0:2:0:0:
133,289,81040,1,8,0:2:0:0:
137,260,81115,6,0,P|103:240|60:249,1,70,2|8,1:1|0:2,0:0:0:0:
232,360,81415,2,0,P|266:361|295:342,1,70,2|0,1:1|0:0,0:0:0:0:
336,229,81715,1,0,1:0:0:0:
420,313,81865,1,8,0:2:0:0:
420,313,81940,2,0,P|457:329|490:327,1,70,8|0,0:2|0:0,0:0:0:0:
512,301,82165,1,2,0:2:0:0:
512,301,82240,1,2,0:2:0:0:
512,301,82315,6,0,L|493:193,1,105,0|2,1:0|0:2,0:0:0:0:
487,167,82615,1,8,0:2:0:0:
361,95,82765,2,0,L|342:203,1,105,0|2,1:0|0:2,0:0:0:0:
336,229,83065,1,8,0:2:0:0:
242,110,83215,1,0,1:0:0:0:
242,110,83365,1,0,1:0:0:0:
170,229,83515,6,0,B|137:253|97:230|110:217|65:202|30:231,1,140,2|8,1:1|0:2,0:0:0:0:
146,154,83965,2,0,B|174:104|135:59|135:59|91:80,1,140,2|8,1:1|0:2,0:0:0:0:
14,132,84415,1,8,0:2:0:0:
19,155,84490,1,8,0:2:0:0:
25,179,84565,1,8,0:2:0:0:
30,203,84640,1,8,0:2:0:0:
36,227,84715,5,0,1:0:0:0:
94,346,84865,1,0,1:0:0:0:
170,229,85015,1,8,0:2:0:0:
170,229,85165,1,0,1:0:0:0:
264,344,85315,2,0,L|260:370,16,17.5,8|8|8|8|8|8|8|8|8|8|8|8|8|8|8|8|8,0:2|0:2|0:2|0:2|0:2|0:2|0:2|0:2|0:2|0:2|0:2|0:2|0:2|0:2|0:2|0:2|0:2,0:0:0:0:
283,227,86065,5,0,1:0:0:0:
283,227,86140,1,0,1:0:0:0:
283,227,86215,1,8,0:2:0:0:
377,324,86365,1,0,1:0:0:0:
451,227,86515,2,0,L|442:187,3,35,2|2|0|0,0:2|0:2|1:0|0:0,0:0:0:0:
420,163,86815,2,0,L|429:123,3,35,8|8|8|8,0:2|0:2|0:2|0:2,0:0:0:0:
456,96,87115,6,0,P|402:111|376:97,1,70,2|0,1:1|0:0,0:0:0:0:
330,30,87415,1,8,0:2:0:0:
302,161,87565,2,0,P|251:134|181:185,1,140,2|8,1:1|0:2,0:0:0:0:
259,279,88015,2,0,L|304:266,3,35,2|2|2|0,0:2|0:2|0:2|0:0,0:0:0:0:
326,259,88315,6,0,P|348:306|340:351,1,70,2|0,1:1|0:0,0:0:0:0:
280,384,88615,1,8,0:2:0:0:
173,299,88765,2,0,B|150:244|150:244|197:149,1,140,2|8,1:1|0:2,0:0:0:0:
251,80,89215,2,0,L|304:94,3,35,8|8|8|8,0:2|0:2|0:2|0:2,0:0:0:0:
309,118,89515,6,0,L|380:92,1,70,0|0,1:0|1:0,0:0:0:0:
468,52,89815,1,8,0:2:0:0:
458,171,89965,1,2,0:2:0:0:
458,171,90040,1,2,0:2:0:0:
458,171,90115,1,0,1:0:0:0:
374,93,90265,2,0,L|364:172,1,70,8|2,0:2|0:2,0:0:0:0:
343,257,90565,6,0,P|288:289|217:265,1,140,0|2,1:0|0:2,0:0:0:0:
259,131,91015,2,0,L|280:209,1,70,0|0,1:0|1:0,0:0:0:0:
220,267,91315,2,0,L|206:348,1,70,8|2,0:2|0:2,0:0:0:0:
203,369,91540,1,2,0:2:0:0:
203,369,91615,2,0,P|165:352|127:357,1,70,8|2,0:2|0:2,0:0:0:0:
29,280,91915,6,0,P|61:253|73:221,1,70,0|2,1:0|0:2,0:0:0:0:
65,192,92140,1,2,0:2:0:0:
65,192,92215,1,0,1:0:0:0:
8,81,92365,2,0,P|38:42|141:72,1,140,8|0,0:2|1:0,0:0:0:0:
175,140,92815,1,8,0:2:0:0:
175,140,92965,1,8,0:2:0:0:
256,58,93115,5,0,1:0:0:0:
315,133,93265,1,2,0:2:0:0:
247,208,93415,1,0,1:0:0:0:
386,275,93565,2,0,P|333:265|295:339,1,140,8|8,0:2|0:2,0:0:0:0:
460,372,94015,1,0,1:0:0:0:
462,347,94090,1,0,1:0:0:0:
464,323,94165,1,0,1:0:0:0:
467,298,94240,1,0,1:0:0:0:
470,274,94315,5,8,0:2:0:0:
402,181,94465,2,0,L|359:192,2,35,2|2|0,0:2|0:2|1:0,0:0:0:0:
480,113,94765,1,8,0:2:0:0:
394,26,94915,1,2,0:2:0:0:
370,32,94990,1,2,0:2:0:0:
346,38,95065,1,2,0:2:0:0:
322,44,95140,1,2,0:2:0:0:
299,51,95215,1,0,1:0:0:0:
248,137,95365,1,8,0:2:0:0:
155,56,95515,2,0,L|146:95,3,35,2|2|2|2,0:2|0:2|0:2|0:2,0:0:0:0:
161,130,95815,6,0,B|86:69|86:69|31:95,2,140,2|0|0,1:1|0:0|0:0,0:0:0:0:
46,87,96715,6,0,L|26:161,1,70,2|2,1:1|0:2,0:0:0:0:
68,241,97015,2,0,P|105:256|137:249,1,70,2|2,0:2|0:2,0:0:0:0:
196,187,97315,1,2,0:2:0:0:
64,265,97465,2,0,P|101:280|133:273,1,70,0|0,1:0|1:0,0:0:0:0:
196,187,97765,6,0,B|230:164|269:177|255:193|294:204|331:184,1,140,2|0,1:1|1:0,0:0:0:0:
308,44,98215,2,0,L|296:119,1,70,2|2,1:1|0:2,0:0:0:0:
409,200,98515,2,0,P|405:158|383:129,1,70,0|0,1:0|1:0,0:0:0:0:
283,192,98815,1,8,0:2:0:0:
283,192,98890,2,0,L|272:277,1,70,8|0,0:2|0:0,0:0:0:0:
322,332,99115,6,0,P|285:301|208:334,1,140,2|8,1:1|0:2,0:0:0:0:
127,253,99565,2,0,P|175:256|207:333,1,140,2|8,1:1|0:2,0:0:0:0:
56,368,100015,1,8,0:2:0:0:
52,343,100090,1,8,0:2:0:0:
49,319,100165,1,8,0:2:0:0:
45,295,100240,1,8,0:2:0:0:
42,271,100315,5,2,1:1:0:0:
24,145,100465,1,8,0:2:0:0:
127,253,100615,2,0,P|157:225|167:191,1,70,2|2,1:1|0:2,0:0:0:0:
131,102,100915,1,0,1:0:0:0:
242,154,101065,1,8,0:2:0:0:
242,154,101140,2,0,P|288:174|330:155,1,70,8|0,0:2|0:0,0:0:0:0:
335,144,101365,1,2,0:2:0:0:
335,144,101440,1,2,0:2:0:0:
335,144,101515,6,0,P|386:141|427:207,1,105,0|2,1:0|0:2,0:0:0:0:
419,213,101815,1,8,0:2:0:0:
353,321,101965,2,0,L|237:301,1,105,0|2,1:0|0:2,0:0:0:0:
216,300,102265,1,8,0:2:0:0:
288,200,102415,1,0,1:0:0:0:
288,200,102565,1,0,1:0:0:0:
185,96,102715,6,0,P|141:133|164:232,1,140,2|8,1:1|0:2,0:0:0:0:
164,67,103165,2,0,P|118:106|109:200,1,140,2|8,1:1|0:2,0:0:0:0:
211,301,103615,1,8,0:2:0:0:
215,276,103690,1,8,0:2:0:0:
219,252,103765,1,8,0:2:0:0:
224,228,103840,1,8,0:2:0:0:
228,204,103915,5,0,1:0:0:0:
324,303,104065,1,0,1:0:0:0:
376,177,104215,1,8,0:2:0:0:
376,177,104365,1,0,1:0:0:0:
469,301,104515,2,0,L|464:328,16,17.5,8|8|8|8|8|8|8|8|8|8|8|8|8|8|8|8|8,0:2|0:2|0:2|0:2|0:2|0:2|0:2|0:2|0:2|0:2|0:2|0:2|0:2|0:2|0:2|0:2|0:2,0:0:0:0:
499,173,105265,5,0,1:0:0:0:
499,173,105340,1,0,1:0:0:0:
499,173,105415,1,8,0:2:0:0:
394,256,105565,1,0,1:0:0:0:
308,126,105715,2,0,P|297:90|302:70,3,35,2|2|0|0,0:2|0:2|1:0|0:0,0:0:0:0:
312,58,106015,2,0,P|278:47|260:52,3,35,8|8|8|8,0:2|0:2|0:2|0:2,0:0:0:0:
249,64,106315,6,0,P|214:78|167:75,1,70,2|0,1:1|0:0,0:0:0:0:
101,28,106615,1,8,0:2:0:0:
148,148,106765,2,0,B|178:188|164:222|145:205|132:256|156:289,1,140,2|8,1:1|0:2,0:0:0:0:
231,359,107215,2,0,L|270:349,3,35,2|2|2|2,0:2|0:2|0:2|0:2,0:0:0:0:
292,333,107515,6,0,L|305:248,1,70,2|0,1:1|0:0,0:0:0:0:
318,160,107815,1,8,0:2:0:0:
399,270,107965,2,0,P|450:265|451:183,1,140,2|8,1:1|0:2,0:0:0:0:
395,85,108415,2,0,L|350:94,3,35,8|8|8|8,0:2|0:2|0:2|0:2,0:0:0:0:
323,66,108715,6,0,L|243:54,1,70,0|0,1:0|1:0,0:0:0:0:
164,118,109015,1,8,0:2:0:0:
270,174,109165,1,2,0:2:0:0:
270,174,109240,1,2,0:2:0:0:
270,174,109315,1,0,1:0:0:0:
253,55,109465,2,0,L|173:43,1,70,8|2,0:2|0:2,0:0:0:0:
83,138,109765,6,0,B|60:184|60:184|94:275,1,140,0|2,1:0|0:2,0:0:0:0:
217,314,110215,2,0,L|193:247,1,70,0|0,1:0|1:0,0:0:0:0:
321,175,110515,2,0,L|297:241,1,70,8|2,0:2|0:2,0:0:0:0:
317,273,110740,1,2,0:2:0:0:
317,273,110815,2,0,P|355:287|397:269,1,70,8|2,0:2|0:2,0:0:0:0:
495,151,111115,6,0,P|461:144|429:158,1,70,0|2,1:0|0:2,0:0:0:0:
409,187,111340,1,2,0:2:0:0:
409,187,111415,1,0,1:0:0:0:
277,46,111565,2,0,P|306:93|321:182,1,140,8|0,0:2|1:0,0:0:0:0:
249,269,112015,1,8,0:2:0:0:
249,269,112165,1,8,0:2:0:0:
163,165,112315,5,0,1:0:0:0:
253,181,112465,1,2,0:2:0:0:
160,267,112615,1,0,1:0:0:0:
160,267,112765,2,0,P|117:291|34:256,1,140,8|8,0:2|0:2,0:0:0:0:
113,144,113215,1,0,1:0:0:0:
123,121,113290,1,0,1:0:0:0:
128,97,113365,1,0,1:0:0:0:
126,73,113440,1,0,1:0:0:0:
119,50,113515,5,8,0:2:0:0:
40,6,113665,2,0,P|18:3|1:3,2,35,2|2|0,0:2|0:2|1:0,0:0:0:0:
119,50,113965,1,8,0:2:0:0:
205,2,114115,1,2,0:2:0:0:
229,0,114190,1,2,0:2:0:0:
252,6,114265,1,2,0:2:0:0:
272,21,114340,1,2,0:2:0:0:
285,41,114415,1,0,1:0:0:0:
317,137,114565,1,8,0:2:0:0:
397,49,114715,2,0,P|422:41|437:42,3,35,2|2|2|2,0:2|0:2|0:2|0:2,0:0:0:0:
459,44,115015,6,0,B|494:83|494:83|480:187,2,140,2|0|0,1:1|0:0|0:0,0:0:0:0:
258,177,115915,6,0,L|276:253,1,70,2|2,1:1|0:2,0:0:0:0:
284,275,116140,1,2,0:2:0:0:
284,275,116215,1,8,0:2:0:0:
219,361,116365,1,0,1:0:0:0:
149,293,116515,2,0,L|159:253,2,35,2|2|8,0:2|0:2|0:2,0:0:0:0:
57,351,116815,1,2,0:2:0:0:
39,334,116890,1,2,0:2:0:0:
27,313,116965,1,0,1:0:0:0:
23,289,117040,1,0,1:0:0:0:
26,261,117115,6,0,L|53:146,1,105,8|2,0:2|0:2,0:0:0:0:
58,125,117415,2,0,B|94:118|94:118|127:131,1,70,8|2,0:2|0:2,0:0:0:0:
209,184,117715,1,0,1:0:0:0:
209,184,117865,1,0,1:0:0:0:
265,107,118015,2,0,L|251:55,3,35,2|2|2|2,0:2|0:2|0:2|0:2,0:0:0:0:
262,32,118315,6,0,P|322:33|366:57,1,105,2|0,1:1|0:0,0:0:0:0:
386,78,118615,2,0,L|368:158,1,70,0|8,1:0|0:2,0:0:0:0:
478,129,118915,1,2,0:2:0:0:
478,129,118990,1,2,0:2:0:0:
478,129,119065,2,0,L|490:174,1,35,8|8,0:2|0:2,0:0:0:0:
511,241,119215,1,8,0:2:0:0:
486,239,119290,1,8,0:2:0:0:
463,247,119365,1,8,0:2:0:0:
445,263,119440,1,8,0:2:0:0:
435,289,119515,6,0,P|396:276|334:312,1,105,2|2,1:1|0:2,0:0:0:0:
322,328,119815,2,0,L|201:314,1,105,2|2,1:1|0:2,0:0:0:0:
187,319,120115,1,0,1:0:0:0:
187,319,120190,1,0,1:0:0:0:
187,319,120265,1,8,0:2:0:0:
269,207,120415,2,0,L|262:170,3,35,2|2|2|2,0:2|0:2|0:2|0:2,0:0:0:0:
257,137,120715,6,0,B|245:65|245:65|201:42,1,105,2|0,1:1|0:0,0:0:0:0:
148,78,121015,2,0,P|176:71|196:52,1,35,0|0,1:0|1:0,0:0:0:0:
284,6,121165,6,0,P|326:-2|383:30,1,105,2|0,1:1|0:0,0:0:0:0:
361,103,121465,2,0,P|351:60|357:45,1,35,0|0,1:0|0:0,0:0:0:0:
453,2,121615,1,8,0:2:0:0:
506,104,121765,1,2,0:2:0:0:
506,104,121840,1,2,0:2:0:0:
506,104,121915,6,0,L|493:145,3,35,0|2|2|2,1:0|0:2|0:2|0:2,0:0:0:0:
470,172,122215,2,0,L|483:213,3,35,0|2|2|2,1:0|0:2|0:2|0:2,0:0:0:0:
464,243,122515,1,8,0:2:0:0:
361,159,122665,1,8,0:2:0:0:
307,286,122815,1,8,0:2:0:0:
288,302,122890,1,8,0:2:0:0:
265,308,122965,1,8,0:2:0:0:
241,304,123040,1,8,0:2:0:0:
223,288,123115,6,0,P|177:274|122:307,1,105,2|0,1:1|0:0,0:0:0:0:
122,372,123415,2,0,P|136:332|135:313,1,35,0|0,1:0|1:0,0:0:0:0:
75,232,123565,6,0,P|56:186|93:117,1,105,2|0,1:1|0:0,0:0:0:0:
147,115,123865,2,0,P|124:133|105:137,1,35,0|0,1:0|0:0,0:0:0:0:
25,71,124015,1,8,0:2:0:0:
25,71,124090,2,0,P|51:39|102:35,1,70,8|0,0:2|0:0,0:0:0:0:
113,32,124315,5,8,0:2:0:0:
147,115,124465,2,0,L|183:126,4,24.5,2|2|2|2|8,0:2|0:2|0:2|0:2|0:2,0:0:0:0:
263,176,124915,2,0,L|227:187,4,24.5,2|2|2|2|8,0:2|0:2|0:2|0:2|0:2,0:0:0:0:
399,263,125365,1,2,0:2:0:0:
399,263,125440,1,2,0:2:0:0:
399,263,125515,6,0,P|353:248|315:286,1,105,6|2,1:1|0:2,0:0:0:0:
308,314,125815,1,8,0:2:0:0:
472,383,125965,2,0,L|487:273,1,105,0|2,1:0|0:2,0:0:0:0:
490,246,126265,1,8,0:2:0:0:
431,182,126415,1,2,0:2:0:0:
427,157,126490,1,2,0:2:0:0:
424,133,126565,1,0,1:0:0:0:
420,109,126640,1,0,1:0:0:0:
415,79,126715,6,0,B|377:64|377:64|319:107,1,105,8|2,0:2|0:2,0:0:0:0:
296,125,127015,2,0,L|223:113,1,70,8|2,0:2|0:2,0:0:0:0:
125,101,127315,1,0,1:0:0:0:
125,101,127465,1,0,1:0:0:0:
201,202,127615,2,0,L|206:246,3,35,2|2|2|2,0:2|0:2|0:2|0:2,0:0:0:0:
183,267,127915,6,0,P|244:255|285:306,1,105,2|0,1:1|0:0,0:0:0:0:
294,305,128215,2,0,B|272:338|272:338|240:349,1,70,0|8,1:0|0:2,0:0:0:0:
94,293,128515,1,2,0:2:0:0:
94,293,128590,1,2,0:2:0:0:
94,293,128665,2,0,L|103:253,1,35,8|8,0:2|0:2,0:0:0:0:
145,195,128815,1,8,0:2:0:0:
140,170,128890,1,8,0:2:0:0:
135,146,128965,1,8,0:2:0:0:
131,122,129040,1,8,0:2:0:0:
125,97,129115,6,0,P|161:108|221:77,1,105,2|2,1:1|0:2,0:0:0:0:
239,53,129415,2,0,P|275:42|335:73,1,105,2|2,1:1|0:2,0:0:0:0:
357,106,129715,1,0,1:0:0:0:
357,106,129790,1,0,1:0:0:0:
357,106,129865,1,8,0:2:0:0:
289,227,130015,2,0,L|247:215,3,35,2|2|2|2,0:2|0:2|0:2|0:2,0:0:0:0:
230,185,130315,6,0,P|202:222|222:306,1,105,2|0,1:1|0:0,0:0:0:0:
265,325,130615,2,0,P|236:295|219:293,1,35,0|0,1:0|1:0,0:0:0:0:
93,347,130765,6,0,P|116:311|103:232,1,105,2|0,1:1|0:0,0:0:0:0:
45,223,131065,2,0,P|79:245|98:240,1,35,0|0,1:0|0:0,0:0:0:0:
139,177,131215,1,8,0:2:0:0:
49,81,131365,1,2,0:2:0:0:
49,81,131440,1,2,0:2:0:0:
49,81,131515,6,0,P|66:98|87:104,3,35,0|2|2|2,1:0|0:2|0:2|0:2,0:0:0:0:
114,94,131815,2,0,P|137:87|152:72,3,35,0|2|2|2,1:0|0:2|0:2|0:2,0:0:0:0:
159,48,132115,1,8,0:2:0:0:
216,166,132265,1,8,0:2:0:0:
283,51,132415,1,8,0:2:0:0:
307,54,132490,1,8,0:2:0:0:
331,58,132565,1,8,0:2:0:0:
355,62,132640,1,8,0:2:0:0:
381,66,132715,6,0,B|412:98|412:98|391:182,1,105,2|0,1:1|0:0,0:0:0:0:
329,189,133015,2,0,L|365:165,1,35,0|0,1:0|1:0,0:0:0:0:
445,308,133165,6,0,L|335:291,1,105,2|0,1:1|0:0,0:0:0:0:
276,252,133465,2,0,L|306:284,1,35,0|0,1:0|0:0,0:0:0:0:
243,360,133615,1,8,0:2:0:0:
243,360,133690,2,0,B|203:377|203:377|168:367,1,70,8|0,0:2|0:0,0:0:0:0:
146,347,133915,5,8,0:2:0:0:
188,248,134065,1,2,0:2:0:0:
188,248,134140,1,2,0:2:0:0:
188,248,134215,2,0,L|177:207,2,35,2|2|8,0:2|0:2|0:2,0:0:0:0:
105,165,134515,1,2,0:2:0:0:
105,165,134590,1,2,0:2:0:0:
105,165,134665,2,0,L|94:206,2,35,2|2|8,0:2|0:2|0:2,0:0:0:0:
84,344,144715,6,0,L|149:332,1,56,2|0,1:2|0:0,0:0:0:0:
206,273,145015,2,0,L|271:285,1,56,0|0,1:0|0:0,0:0:0:0:
336,333,145315,2,0,L|356:200,1,112,8|2,0:2|0:2,0:0:0:0:
275,135,145765,2,0,P|234:115|175:163,2,112,0|0|2,1:0|1:0|1:2,0:0:0:0:
356,103,146515,2,0,L|374:4,1,84,8|2,0:2|0:2,0:0:0:0:
402,33,146815,2,0,L|392:88,1,56,10|0,0:2|1:0,0:0:0:0:
474,160,147115,6,0,L|489:219,1,56,2|0,1:2|0:0,0:0:0:0:
394,300,147415,2,0,L|409:241,1,56,0|0,1:0|0:0,0:0:0:0:
338,173,147715,2,0,B|296:154|296:154|220:175,1,112,8|10,0:2|0:2,0:0:0:0:
140,196,148165,1,0,1:0:0:0:
69,132,148315,2,0,B|49:102|49:102|76:43,1,84,2|2,1:2|0:2,0:0:0:0:
87,24,148615,1,0,1:0:0:0:
202,49,148765,2,0,L|261:67,2,56,8|0|8,0:2|1:0|0:2,0:0:0:0:
220,155,149215,2,0,L|279:173,1,56,2|10,0:2|0:2,0:0:0:0:
361,110,149515,6,0,L|381:176,1,56,2|0,1:2|0:0,0:0:0:0:
438,230,149815,2,0,L|418:296,1,56,0|0,1:0|0:0,0:0:0:0:
468,356,150115,2,0,P|426:322|363:344,1,112,8|2,0:2|0:2,0:0:0:0:
295,282,150565,2,0,B|274:207|274:207|301:205|319:181,2,112,0|0|2,1:0|1:0|1:2,0:0:0:0:
246,363,151315,2,0,L|162:353,1,84,8|2,0:2|0:2,0:0:0:0:
134,348,151615,2,0,L|77:359,1,56,10|0,0:2|1:0,0:0:0:0:
23,289,151915,6,0,P|14:256|26:223,1,56,2|0,1:2|0:0,0:0:0:0:
86,167,152215,2,0,P|90:139|81:113,1,56,0|0,1:0|0:0,0:0:0:0:
18,41,152515,2,0,P|75:73|115:52,1,112,8|10,0:2|0:2,0:0:0:0:
187,0,152965,1,0,1:0:0:0:
221,121,153115,2,0,P|253:105|278:106,1,56,2|2,1:2|0:2,0:0:0:0:
299,113,153340,1,2,0:2:0:0:
299,113,153415,1,0,1:0:0:0:
363,190,153565,1,8,0:2:0:0:
27,368,173515,6,0,L|15:302,1,56,2|0,0:2|3:2,0:0:0:0:
54,230,173815,2,0,P|85:231|113:253,1,56,2|0,0:2|3:2,0:0:0:0:
163,312,174115,1,2,3:2:0:0:
204,232,174265,2,0,L|233:183,1,56,2|0,3:2|3:2,0:0:0:0:
205,98,174565,2,0,P|223:141|283:162,1,112,2|0,0:2|3:2,0:0:0:0:
382,100,175015,2,0,P|417:86|448:91,1,56,2|0,0:2|3:2,0:0:0:0:
410,210,175315,2,0,P|375:224|344:219,1,56,2|0,3:2|3:2,0:0:0:0:
295,93,175615,2,0,P|304:48|316:22,1,56,2|0,0:2|3:2,0:0:0:0:
485,11,175915,6,0,P|512:57|506:131,1,112,2|0,0:2|3:2,0:0:0:0:
467,192,176365,2,0,P|440:238|446:312,1,112,2|0,0:2|3:2,0:0:0:0:
495,366,176815,2,0,P|463:367|431:382,1,56,2|2,0:2|0:2,0:0:0:0:
331,326,177115,6,0,L|263:309,1,56,2|0,0:2|3:2,0:0:0:0:
211,249,177415,2,0,L|143:266,1,56,2|0,0:2|3:2,0:0:0:0:
70,355,177715,1,2,3:2:0:0:
70,355,177865,2,0,L|87:279,2,56,2|0|4,3:2|3:2|3:3,0:0:0:0:
9,245,178315,6,0,B|3:209|3:209|37:133,1,112,2|0,0:2|3:2,0:0:0:0:
76,60,178765,2,0,L|123:89,1,56,2|0,0:2|3:2,0:0:0:0:
201,143,179065,1,2,3:2:0:0:
222,0,179215,2,0,L|214:55,1,56,2|0,0:2|3:2,0:0:0:0:
295,167,179515,6,0,P|253:131|201:143,1,112,2|0,0:2|3:2,0:0:0:0:
261,258,179965,2,0,L|378:237,1,112,2|0,0:2|3:2,0:0:0:0:
400,112,180415,2,0,L|374:168,1,56,2|0,0:2|3:2,0:0:0:0:
458,311,180715,6,0,B|489:275|489:275|464:196,2,112,2|0|0,0:2|3:2|3:2,0:0:0:0:
394,373,181465,1,0,3:2:0:0:
319,323,181615,2,0,L|304:385,1,56,2|0,0:2|3:2,0:0:0:0:
239,296,181915,6,0,B|213:279|177:291|191:303|151:312|124:300,1,112,2|0,0:2|3:2,0:0:0:0:
58,248,182365,2,0,L|81:147,1,84,2|0,0:2|3:2,0:0:0:0:
85,129,182665,1,0,3:2:0:0:
171,213,182815,2,0,P|210:210|238:190,1,56,2|4,0:2|3:3,0:0:0:0:
323,71,183115,6,0,L|345:218,1,140,2|0,1:1|0:0,0:0:0:0:
237,120,183565,1,0,0:0:0:0:
278,283,183715,1,2,0:2:0:0:
278,283,183790,1,2,0:2:0:0:
278,283,183865,1,2,0:2:0:0:
158,207,184015,2,0,L|147:276,1,70,2|0,1:1|0:0,0:0:0:0:
323,71,184315,6,0,L|345:218,1,140,2|0,1:1|0:0,0:0:0:0:
361,306,184765,1,0,0:0:0:0:
466,213,184915,1,2,0:2:0:0:
466,213,184990,1,2,0:2:0:0:
466,213,185065,1,2,0:2:0:0:
464,373,185215,2,0,L|447:297,1,70,2|0,1:1|0:0,0:0:0:0:
336,70,185515,6,0,L|358:217,1,140,2|8,1:1|0:2,0:0:0:0:
343,209,185965,6,0,L|323:71,1,140,2|8,1:1|0:2,0:0:0:0:
229,41,186415,2,0,L|240:114,1,70,2|0,1:1|0:0,0:0:0:0:
252,207,186715,1,0,1:0:0:0:
323,70,186865,1,0,1:0:0:0:
176,149,187015,1,8,0:2:0:0:
323,70,187165,1,2,0:2:0:0:
148,13,187315,6,0,L|123:7,6,17.5,8|8|8|8|8|8|8,0:2|0:2|0:2|0:2|0:2|0:2|0:2,0:0:0:0:
74,66,187615,2,0,L|50:73,6,17.5,8|8|8|8|8|8|8,0:2|0:2|0:2|0:2|0:2|0:2|0:2,0:0:0:0:
0,133,187915,6,0,L|76:157,1,70,2|0,1:1|0:0,0:0:0:0:
159,186,188215,1,8,0:2:0:0:
255,99,188365,2,0,B|322:88|322:88|330:91|330:91|397:79,1,140,2|8,1:1|0:2,0:0:0:0:
490,63,188815,1,2,1:1:0:0:
490,63,188965,1,2,1:1:0:0:
426,162,189115,2,0,L|323:180,2,105,2|2|2,1:1|1:1|1:1,0:0:0:0:
507,217,189715,2,0,L|498:262,3,35,8|8|8|8,0:2|0:2|0:2|0:2,0:0:0:0:
464,285,190015,2,0,L|455:330,3,35,8|8|8|8,0:2|0:2|0:2|0:2,0:0:0:0:
476,364,190315,6,0,L|393:339,1,70,0|0,1:0|0:0,0:0:0:0:
308,288,190615,2,0,L|391:263,1,70,0|0,1:0|0:0,0:0:0:0:
294,378,190915,1,8,0:2:0:0:
217,320,191065,2,0,L|168:337,4,35,2|2|2|2|8,0:2|0:2|0:2|0:2|0:2,0:0:0:0:
308,288,191515,5,0,1:0:0:0:
217,320,191665,1,0,1:0:0:0:
234,225,191815,1,8,0:2:0:0:
143,256,191965,1,2,0:2:0:0:
119,264,192040,1,2,0:2:0:0:
96,272,192115,1,2,0:2:0:0:
73,280,192190,1,2,0:2:0:0:
48,289,192265,2,0,L|36:249,1,35,0|0,1:0|1:0,0:0:0:0:
13,177,192415,5,8,0:2:0:0:
46,166,192490,1,8,0:2:0:0:
79,155,192565,1,8,0:2:0:0:
112,144,192640,1,8,0:2:0:0:
146,133,192715,6,0,L|229:112,1,70,2|0,1:1|0:0,0:0:0:0:
309,91,193015,2,0,P|336:131|336:159,1,70,2|2,0:2|0:2,0:0:0:0:
275,227,193315,1,2,0:2:0:0:
339,81,193465,2,0,P|366:121|366:149,1,70,0|0,1:0|1:0,0:0:0:0:
275,227,193765,6,0,B|340:243|340:243|344:249|344:249|416:269,1,140,2|0,1:1|1:0,0:0:0:0:
494,220,194215,2,0,L|510:291,1,70,2|0,1:1|0:0,0:0:0:0:
450,366,194515,2,0,L|375:381,1,70,0|0,1:0|1:0,0:0:0:0:
299,314,194815,1,8,0:2:0:0:
299,314,194890,2,0,L|204:290,1,70,8|0,0:2|0:0,0:0:0:0:
211,258,195115,6,0,P|174:224|81:254,1,140,2|8,1:1|0:2,0:0:0:0:
20,307,195565,2,0,L|-2:161,1,140,2|8,1:1|0:2,0:0:0:0:
64,95,196015,1,8,0:2:0:0:
85,83,196090,1,8,0:2:0:0:
109,79,196165,1,8,0:2:0:0:
133,85,196240,1,8,0:2:0:0:
157,101,196315,6,0,L|174:172,1,70,2|8,1:1|0:2,0:0:0:0:
248,267,196615,2,0,L|265:196,1,70,2|0,1:1|0:0,0:0:0:0:
292,104,196915,1,0,1:0:0:0:
365,195,197065,1,8,0:2:0:0:
365,195,197140,2,0,P|399:215|436:212,1,70,8|0,0:2|0:0,0:0:0:0:
461,196,197365,1,2,0:2:0:0:
461,196,197440,1,2,0:2:0:0:
461,196,197515,6,0,P|437:234|459:305,1,105,0|2,1:0|0:2,0:0:0:0:
481,322,197815,1,8,0:2:0:0:
360,288,197965,2,0,L|251:299,1,105,0|2,1:0|0:2,0:0:0:0:
217,306,198265,1,8,0:2:0:0:
296,383,198415,1,0,1:0:0:0:
296,383,198565,1,0,1:0:0:0:
291,214,198715,6,0,B|222:219|222:219|217:223|217:223|146:231,1,140,2|8,1:1|0:2,0:0:0:0:
69,179,199165,2,0,P|75:127|164:96,1,140,2|8,1:1|0:2,0:0:0:0:
226,139,199615,1,8,0:2:0:0:
250,135,199690,1,8,0:2:0:0:
274,131,199765,1,8,0:2:0:0:
298,127,199840,1,8,0:2:0:0:
325,122,199915,5,0,1:0:0:0:
424,52,200065,1,0,1:0:0:0:
492,140,200215,1,8,0:2:0:0:
492,140,200365,1,0,1:0:0:0:
405,230,200515,2,0,L|377:225,16,17.5,8|8|8|8|8|8|8|8|8|8|8|8|8|8|8|8|8,0:2|0:2|0:2|0:2|0:2|0:2|0:2|0:2|0:2|0:2|0:2|0:2|0:2|0:2|0:2|0:2|0:2,0:0:0:0:
505,299,201265,5,0,1:0:0:0:
505,299,201340,1,0,1:0:0:0:
505,299,201415,1,8,0:2:0:0:
426,369,201565,1,0,1:0:0:0:
337,309,201715,2,0,L|289:301,3,35,2|2|0|0,0:2|0:2|1:0|0:0,0:0:0:0:
272,325,202015,2,0,L|224:317,3,35,8|8|8|8,0:2|0:2|0:2|0:2,0:0:0:0:
202,346,202315,6,0,L|126:331,1,70,2|0,1:1|0:0,0:0:0:0:
42,295,202615,1,8,0:2:0:0:
122,160,202765,2,0,P|162:173|133:253,1,140,2|8,1:1|0:2,0:0:0:0:
24,169,203215,2,0,L|36:118,3,35,2|2|2|2,0:2|0:2|0:2|0:2,0:0:0:0:
41,101,203515,6,0,L|60:31,1,70,2|0,1:1|0:0,0:0:0:0:
147,119,203815,1,8,0:2:0:0:
206,26,203965,2,0,B|243:2|283:20|262:34|302:52|339:33,1,140,2|8,1:1|0:2,0:0:0:0:
432,0,204415,2,0,L|441:41,3,35,8|8|8|8,0:2|0:2|0:2|0:2,0:0:0:0:
448,76,204715,6,0,L|466:152,1,70,0|0,1:0|1:0,0:0:0:0:
491,238,205015,1,8,0:2:0:0:
389,184,205165,1,2,0:2:0:0:
389,184,205240,1,2,0:2:0:0:
389,184,205315,1,0,1:0:0:0:
319,297,205465,2,0,L|388:287,1,70,8|2,0:2|0:2,0:0:0:0:
270,209,205765,6,0,L|126:228,1,140,0|2,1:0|0:2,0:0:0:0:
35,248,206215,1,0,1:0:0:0:
107,313,206365,1,0,1:0:0:0:
71,163,206515,2,0,L|57:89,1,70,8|2,0:2|0:2,0:0:0:0:
51,59,206740,1,2,0:2:0:0:
51,59,206815,2,0,P|93:40|131:48,1,70,8|2,0:2|0:2,0:0:0:0:
173,119,207115,6,0,L|259:131,1,70,0|2,1:0|0:2,0:0:0:0:
278,136,207340,1,2,0:2:0:0:
278,136,207415,1,0,1:0:0:0:
380,60,207565,2,0,B|415:96|415:96|388:193,1,140,8|0,0:2|1:0,0:0:0:0:
368,278,208015,1,8,0:2:0:0:
368,278,208165,1,8,0:2:0:0:
282,229,208315,5,0,1:0:0:0:
216,301,208465,1,2,0:2:0:0:
280,374,208615,1,0,1:0:0:0:
134,324,208765,2,0,P|143:256|201:221,1,140,8|8,0:2|0:2,0:0:0:0:
301,126,209215,1,0,1:0:0:0:
278,135,209290,1,0,1:0:0:0:
254,139,209365,1,0,1:0:0:0:
229,139,209440,1,0,1:0:0:0:
205,134,209515,5,8,0:2:0:0:
129,72,209665,2,0,L|142:27,2,35,2|2|0,0:2|0:2|1:0,0:0:0:0:
107,167,209965,1,8,0:2:0:0:
18,86,210115,1,2,0:2:0:0:
13,110,210190,1,2,0:2:0:0:
9,134,210265,1,2,0:2:0:0:
5,158,210340,1,2,0:2:0:0:
1,182,210415,1,0,1:0:0:0:
31,275,210565,1,8,0:2:0:0:
159,240,210715,2,0,L|169:276,3,35,2|2|2|2,0:2|0:2|0:2|0:2,0:0:0:0:
200,304,211015,6,0,B|110:343|110:343|91:384,2,140,2|0|0,1:1|0:0|0:0,0:0:0:0:
92,381,211915,5,2,1:1:0:0:
132,239,212215,5,2,1:1:0:0:
92,381,212515,5,2,1:1:0:0:
132,239,212665,1,0,1:0:0:0:
92,381,212965,6,0,B|110:343|110:343|200:304,1,140,2|0,1:1|1:0,0:0:0:0:
310,257,213415,1,2,1:1:0:0:
92,381,213715,5,0,1:0:0:0:
310,257,214015,2,0,L|343:237,1,35,8|8,0:2|0:2,0:0:0:0:
396,33,214315,6,0,P|338:36|310:110,1,140,2|8,1:1|0:2,0:0:0:0:
383,159,214765,2,0,B|322:175|322:175|313:184|313:184|246:199,1,140,2|8,1:1|0:2,0:0:0:0:
198,83,215215,1,8,0:2:0:0:
176,71,215290,1,8,0:2:0:0:
152,68,215365,1,8,0:2:0:0:
128,72,215440,1,8,0:2:0:0:
107,85,215515,5,2,1:1:0:0:
37,170,215665,1,2,1:1:0:0:
145,213,215815,1,2,1:1:0:0:
145,213,215965,1,2,1:1:0:0:
18,282,216115,2,0,L|9:321,3,35,0|0|8|8,1:0|1:0|0:2|0:2,0:0:0:0:
0,356,216415,2,0,L|39:365,3,35,2|2|2|2,0:2|0:2|0:2|0:2,0:0:0:0:
68,369,216715,6,0,B|108:377|108:377|171:343,1,105,0|2,1:0|0:2,0:0:0:0:
195,324,217015,1,8,0:2:0:0:
309,273,217165,2,0,L|414:311,1,105,0|2,1:0|0:2,0:0:0:0:
445,321,217465,1,8,0:2:0:0:
501,192,217615,1,0,1:0:0:0:
501,192,217765,1,0,1:0:0:0:
396,202,217915,5,2,1:1:0:0:
402,56,218065,1,2,1:1:0:0:
317,156,218215,1,8,0:2:0:0:
458,118,218365,1,2,1:1:0:0:
317,31,218515,2,0,L|238:40,1,70,2|8,1:1|0:2,0:0:0:0:
150,97,218815,6,0,L|125:88,6,17.5,8|8|8|8|8|8|8,0:2|0:2|0:2|0:2|0:2|0:2|0:2,0:0:0:0:
213,142,219115,5,0,1:0:0:0:
125,191,219265,1,0,1:0:0:0:
240,257,219415,1,8,0:2:0:0:
240,257,219565,1,0,1:0:0:0:
134,323,219715,2,0,L|105:317,16,17.5,8|8|8|8|8|8|8|8|8|8|8|8|8|8|8|8|8,0:2|0:2|0:2|0:2|0:2|0:2|0:2|0:2|0:2|0:2|0:2|0:2|0:2|0:2|0:2|0:2|0:2,0:0:0:0:
237,380,220465,5,0,1:0:0:0:
237,380,220540,1,0,1:0:0:0:
237,380,220615,1,8,0:2:0:0:
307,297,220765,1,0,1:0:0:0:
397,350,220915,2,0,L|405:384,3,35,2|2|0|0,0:2|0:2|1:0|0:0,0:0:0:0:
449,373,221215,2,0,L|441:339,3,35,8|8|8|8,0:2|0:2|0:2|0:2,0:0:0:0:
474,311,221515,6,0,L|454:233,1,70,2|0,1:1|0:0,0:0:0:0:
429,143,221815,1,8,0:2:0:0:
308,210,221965,2,0,P|252:173|273:95,1,140,2|8,1:1|0:2,0:0:0:0:
339,27,222415,2,0,P|369:19|393:25,3,35,2|2|2|2,0:2|0:2|0:2|0:2,0:0:0:0:
389,42,222715,6,0,P|342:62|310:57,1,70,2|0,1:1|0:0,0:0:0:0:
244,3,223015,1,8,0:2:0:0:
155,83,223165,2,0,B|119:97|80:83|95:68|54:48|13:73,1,140,2|8,1:1|0:2,0:0:0:0:
47,167,223615,2,0,L|59:210,3,35,8|8|8|8,0:2|0:2|0:2|0:2,0:0:0:0:
85,219,223915,6,0,L|106:289,1,70,0|0,1:0|1:0,0:0:0:0:
131,380,224215,1,8,0:2:0:0:
214,286,224365,1,2,0:2:0:0:
214,286,224440,1,2,0:2:0:0:
214,286,224515,1,0,1:0:0:0:
296,377,224665,1,8,0:2:0:0:
296,377,224815,1,2,0:2:0:0:
375,259,224965,6,0,P|387:214|312:144,1,140,0|2,1:0|0:2,0:0:0:0:
234,202,225415,2,0,P|270:223|307:221,1,70,0|0,1:0|1:0,0:0:0:0:
401,142,225715,2,0,P|439:128|475:135,1,70,8|2,0:2|0:2,0:0:0:0:
493,153,225940,1,2,0:2:0:0:
493,153,226015,2,0,P|510:193|505:230,1,70,8|2,0:2|0:2,0:0:0:0:
318,143,226315,6,0,P|309:95|322:57,1,70,0|2,1:0|0:2,0:0:0:0:
326,50,226540,1,2,0:2:0:0:
326,50,226615,1,0,1:0:0:0:
438,12,226765,2,0,P|414:49|321:46,1,140,8|0,0:2|1:0,0:0:0:0:
245,3,227215,1,8,0:2:0:0:
245,3,227365,1,8,0:2:0:0:
211,89,227515,5,0,1:0:0:0:
133,29,227665,1,2,0:2:0:0:
73,107,227815,1,0,1:0:0:0:
151,167,227965,2,0,B|186:193|186:193|152:306,1,140,8|8,0:2|0:2,0:0:0:0:
115,374,228415,1,0,1:0:0:0:
138,367,228490,1,0,1:0:0:0:
162,364,228565,1,0,1:0:0:0:
187,364,228640,1,0,1:0:0:0:
211,368,228715,5,8,0:2:0:0:
292,311,228865,2,0,L|304:275,2,35,2|2|0,0:2|0:2|1:0,0:0:0:0:
361,379,229165,1,8,0:2:0:0:
461,300,229315,1,2,0:2:0:0:
456,275,229390,1,2,0:2:0:0:
452,251,229465,1,2,0:2:0:0:
448,227,229540,1,2,0:2:0:0:
444,203,229615,1,0,1:0:0:0:
429,106,229765,1,8,0:2:0:0:
341,185,229915,6,0,L|295:171,5,35,8|0|0|0|0|0,0:2|0:0|0:0|0:0|0:0|0:0,0:0:0:0:
275,151,230365,2,0,L|229:165,5,35,8|0|0|0|0|0,0:2|0:0|0:0|0:0|0:0|0:0,0:0:0:0:
200,148,230815,6,0,L|189:126,6,17.5,8|8|8|8|8|8|8,0:2|0:2|0:2|0:2|0:2|0:2|0:2,0:0:0:0:
153,103,231115,5,6,1:1:0:0:
