osu file format v14

[General]
AudioFilename: audio.mp3
AudioLeadIn: 0
PreviewTime: 18
Countdown: 0
SampleSet: Soft
StackLeniency: 0.4
Mode: 0
LetterboxInBreaks: 0
WidescreenStoryboard: 1

[Editor]
Bookmarks: 19915,192715,211915,231115,250315
DistanceSpacing: 1.5
BeatDivisor: 4
GridSize: 32
TimelineZoom: 3.299999

[Metadata]
Title:Ruten
TitleUnicode:流転
Artist:Shoujozenjidou
ArtistUnicode:少女全自動
Creator:Elcheer
Version:Extra Stage
Source:東方風神録 ~ Mountain of Faith.
Tags:breakcore instrumental video game touhou corsace ro32 hr2 hardrock hard rock nitori kawashiro 河城かわしろ にとり Xe ZUN 芥川龙之介の河童 ~ Candid Friend さんめん The third stage
BeatmapID:2603705
BeatmapSetID:1252829

[Difficulty]
HPDrainRate:5
CircleSize:4
OverallDifficulty:8
ApproachRate:9.5
SliderMultiplier:1.6
SliderTickRate:1

[Events]
//Background and Video events
0,0,"kawashiro.jpg",0,0
//Break Periods
2,39315,48190
2,135315,144190
2,154315,172990
//Storyboard Layer 0 (Background)
//Storyboard Layer 1 (Fail)
//Storyboard Layer 2 (Pass)
//Storyboard Layer 3 (Foreground)
//Storyboard Layer 4 (Overlay)
//Storyboard Sound Samples

[TimingPoints]
715,300,4,2,1,60,1,0
23065,-100,4,2,1,45,0,0
23515,-100,4,2,1,60,0,0
26815,-100,4,2,1,45,0,0
27115,-100,4,2,1,60,0,0
29515,-100,4,2,1,80,0,1
32665,-100,4,2,1,65,0,1
33115,-100,4,2,1,80,0,1
36415,-100,4,2,1,65,0,1
36715,-100,4,2,1,80,0,1
39115,-100,4,2,1,60,0,0
48715,-100,4,2,1,50,0,0
54415,-100,4,2,1,40,0,0
54715,-100,4,2,1,50,0,0
58315,-100,4,2,1,60,0,0
60415,-100,4,2,1,45,0,0
60715,-100,4,2,1,60,0,0
66415,-100,4,2,1,45,0,0
66715,-100,4,2,1,60,0,0
71065,-100,4,2,1,45,0,0
71515,-100,4,2,1,60,0,0
74815,-100,4,2,1,45,0,0
75115,-100,4,2,1,60,0,0
76990,-100,4,2,1,5,0,0
77215,-100,4,2,1,30,0,0
77515,-100,4,2,1,60,0,0
79915,-100,4,2,1,80,0,1
80815,-100,4,2,1,65,0,1
81115,-100,4,2,1,80,0,1
85352,-100,4,2,1,45,0,1
85390,-100,4,2,1,40,0,1
85427,-100,4,2,1,35,0,1
85465,-100,4,2,1,30,0,1
85502,-100,4,2,1,25,0,1
85540,-100,4,2,1,20,0,1
85577,-100,4,2,1,15,0,1
85615,-100,4,2,1,10,0,1
85652,-100,4,2,1,15,0,1
85690,-100,4,2,1,20,0,1
85727,-100,4,2,1,25,0,1
85765,-100,4,2,1,30,0,1
85802,-100,4,2,1,35,0,1
85840,-100,4,2,1,40,0,1
85877,-100,4,2,1,45,0,1
85915,-100,4,2,1,80,0,1
86815,-100,4,2,1,65,0,1
87115,-100,4,2,1,80,0,1
89215,-100,4,2,1,65,0,1
89515,-100,4,2,1,80,0,1
96715,-100,4,2,1,60,0,0
99115,-100,4,2,1,80,0,1
100015,-100,4,2,1,65,0,1
100315,-100,4,2,1,80,0,1
103615,-100,4,2,1,65,0,1
103915,-100,4,2,1,80,0,1
104552,-100,4,2,1,45,0,1
104590,-100,4,2,1,40,0,1
104627,-100,4,2,1,35,0,1
104665,-100,4,2,1,30,0,1
104702,-100,4,2,1,25,0,1
104740,-100,4,2,1,20,0,1
104777,-100,4,2,1,15,0,1
104815,-100,4,2,1,10,0,1
104852,-100,4,2,1,15,0,1
104890,-100,4,2,1,20,0,1
104927,-100,4,2,1,25,0,1
104965,-100,4,2,1,30,0,1
105002,-100,4,2,1,35,0,1
105040,-100,4,2,1,40,0,1
105077,-100,4,2,1,45,0,1
105115,-100,4,2,1,80,0,1
106015,-100,4,2,1,65,0,1
106315,-100,4,2,1,80,0,1
108415,-100,4,2,1,65,0,1
108715,-100,4,2,1,80,0,1
115915,-100,4,2,1,60,0,0
119065,-100,4,2,1,45,0,0
119515,-100,4,2,1,60,0,0
122815,-100,4,2,1,45,0,0
123115,-100,4,2,1,60,0,0
124315,-100,4,2,1,40,0,0
124465,-142.857142857143,4,2,1,40,0,0
125515,-100,4,2,1,60,0,0
128665,-100,4,2,1,45,0,0
129115,-100,4,2,1,60,0,0
132415,-100,4,2,1,45,0,0
132715,-100,4,2,1,60,0,0
144715,-125,4,2,1,40,0,0
153640,-125,4,2,1,5,0,0
173515,-125,4,2,1,40,0,0
183115,-100,4,2,1,50,0,0
187390,-100,4,2,1,45,0,0
187427,-100,4,2,1,40,0,0
187465,-100,4,2,1,35,0,0
187502,-100,4,2,1,30,0,0
187540,-100,4,2,1,5,0,0
187615,-100,4,2,1,50,0,0
187690,-100,4,2,1,45,0,0
187727,-100,4,2,1,40,0,0
187765,-100,4,2,1,35,0,0
187802,-100,4,2,1,30,0,0
187840,-100,4,2,1,5,0,0
187915,-100,4,2,1,50,0,0
190015,-100,4,2,1,25,0,0
190315,-100,4,2,1,50,0,0
192265,-100,4,2,1,40,0,0
192715,-100,4,2,1,60,0,0
195115,-100,4,2,1,80,0,1
196015,-100,4,2,1,65,0,1
196315,-100,4,2,1,80,0,1
199615,-100,4,2,1,65,0,1
199915,-100,4,2,1,80,0,1
200552,-100,4,2,1,45,0,1
200590,-100,4,2,1,40,0,1
200627,-100,4,2,1,35,0,1
200665,-100,4,2,1,30,0,1
200702,-100,4,2,1,25,0,1
200740,-100,4,2,1,20,0,1
200777,-100,4,2,1,15,0,1
200815,-100,4,2,1,10,0,1
200852,-100,4,2,1,15,0,1
200890,-100,4,2,1,20,0,1
200927,-100,4,2,1,25,0,1
200965,-100,4,2,1,30,0,1
201002,-100,4,2,1,35,0,1
201040,-100,4,2,1,40,0,1
201077,-100,4,2,1,45,0,1
201115,-100,4,2,1,80,0,1
202015,-100,4,2,1,65,0,1
202315,-100,4,2,1,80,0,1
204415,-100,4,2,1,65,0,1
204715,-100,4,2,1,80,0,1
211915,-100,4,2,1,60,0,0
211952,-100,4,2,1,5,0,0
212215,-100,4,2,1,60,0,0
212252,-100,4,2,1,5,0,0
212515,-100,4,2,1,60,0,0
212552,-100,4,2,1,5,0,0
212665,-100,4,2,1,60,0,0
213452,-100,4,2,1,5,0,0
213715,-100,4,2,1,60,0,0
213752,-100,4,2,1,5,0,0
214015,-100,4,2,1,60,0,0
214315,-100,4,2,1,80,0,1
215215,-100,4,2,1,65,0,1
215515,-100,4,2,1,80,0,1
217952,-100,4,2,1,5,0,1
218065,-100,4,2,1,80,0,1
218102,-100,4,2,1,5,0,1
218215,-100,4,2,1,80,0,1
218252,-100,4,2,1,5,0,1
218365,-100,4,2,1,80,0,1
218402,-100,4,2,1,5,0,1
218515,-100,4,2,1,80,0,1
218815,-100,4,2,1,50,0,1
219115,-100,4,2,1,80,0,1
219752,-100,4,2,1,45,0,1
219790,-100,4,2,1,40,0,1
219827,-100,4,2,1,35,0,1
219865,-100,4,2,1,30,0,1
219902,-100,4,2,1,25,0,1
219940,-100,4,2,1,20,0,1
219977,-100,4,2,1,15,0,1
220015,-100,4,2,1,10,0,1
220052,-100,4,2,1,15,0,1
220090,-100,4,2,1,20,0,1
220127,-100,4,2,1,25,0,1
220165,-100,4,2,1,30,0,1
220202,-100,4,2,1,35,0,1
220240,-100,4,2,1,40,0,1
220277,-100,4,2,1,45,0,1
220315,-100,4,2,1,80,0,1
221215,-100,4,2,1,65,0,1
221515,-100,4,2,1,80,0,1
223615,-100,4,2,1,65,0,1
223915,-100,4,2,1,80,0,1
229915,-100,4,2,1,50,0,1
230815,-100,4,2,1,40,0,1
231115,-100,4,2,1,60,0,0

[Colours]
Combo1 : 88,184,224
Combo2 : 90,142,93

[HitObjects]
94,43,19915,6,0,L|86:132,1,80,2|2,1:1|0:2,0:0:0:0:
85,157,20140,1,2,0:2:0:0:
81,188,20215,1,8,0:2:0:0:
197,67,20365,2,0,L|189:156,1,80,0|2,1:0|0:2,0:0:0:0:
188,180,20590,1,2,0:2:0:0:
184,211,20665,1,8,0:2:0:0:
49,302,20815,1,2,0:2:0:0:
76,285,20890,1,2,0:2:0:0:
107,277,20965,1,0,1:0:0:0:
139,280,21040,1,0,1:0:0:0:
170,288,21115,6,0,P|207:308|251:306,1,80,8|2,0:2|0:2,0:0:0:0:
275,293,21340,1,2,0:2:0:0:
275,293,21415,2,0,P|323:284|361:300,1,80,8|2,0:2|0:2,0:0:0:0:
382,315,21640,1,2,0:2:0:0:
382,315,21715,5,0,1:0:0:0:
268,384,21865,1,0,1:0:0:0:
223,205,22015,1,2,0:2:0:0:
251,190,22090,1,2,0:2:0:0:
283,187,22165,1,2,0:2:0:0:
313,196,22240,1,2,0:2:0:0:
339,214,22315,6,0,L|354:313,1,80,2|0,1:1|0:0,0:0:0:0:
268,384,22615,2,0,L|278:307,2,40,0|0|8,1:0|1:0|0:2,0:0:0:0:
152,305,22915,2,0,L|157:346,1,40,2|2,0:2|0:2,0:0:0:0:
265,230,23065,1,8,0:2:0:0:
269,198,23140,1,8,0:2:0:0:
262,167,23215,1,8,0:2:0:0:
244,141,23290,1,8,0:2:0:0:
218,122,23365,1,8,0:2:0:0:
187,115,23440,1,8,0:2:0:0:
155,116,23515,6,0,P|98:137|75:136,1,80,2|2,1:1|0:2,0:0:0:0:
10,97,23740,1,2,0:2:0:0:
10,97,23815,2,0,L|2:187,1,80,2|2,1:1|0:2,0:0:0:0:
62,238,24040,1,2,0:2:0:0:
62,238,24115,2,0,L|56:308,1,40,0|0,1:0|1:0,0:0:0:0:
103,343,24265,1,8,0:2:0:0:
251,256,24415,2,0,L|302:262,3,40,2|2|2|2,0:2|0:2|0:2|0:2,0:0:0:0:
331,243,24715,6,0,P|386:270|391:355,1,120,2|0,1:1|0:0,0:0:0:0:
299,375,25015,2,0,L|305:318,1,40,0|0,1:0|1:0,0:0:0:0:
349,223,25165,2,0,P|404:250|409:335,1,120,2|0,1:1|0:0,0:0:0:0:
338,372,25465,1,0,1:0:0:0:
199,222,25615,1,8,0:2:0:0:
288,317,25765,1,2,0:2:0:0:
288,317,25840,1,2,0:2:0:0:
288,317,25915,6,0,L|327:323,3,40,0|2|2|2,1:0|0:2|0:2|0:2,0:0:0:0:
392,276,26215,2,0,L|431:269,3,40,0|2|2|2,1:0|0:2|0:2|0:2,0:0:0:0:
508,243,26515,1,8,0:2:0:0:
415,356,26665,1,8,0:2:0:0:
288,204,26815,1,8,0:2:0:0:
256,206,26890,1,8,0:2:0:0:
224,208,26965,1,8,0:2:0:0:
192,210,27040,1,8,0:2:0:0:
161,216,27115,6,0,P|121:275|129:356,1,120,2|0,1:1|0:0,0:0:0:0:
223,364,27415,2,0,L|216:316,1,40,0|0,1:0|1:0,0:0:0:0:
131,209,27565,2,0,P|91:268|99:349,1,120,2|0,1:1|0:0,0:0:0:0:
187,363,27865,1,0,1:0:0:0:
105,190,28015,1,8,0:2:0:0:
79,173,28090,2,0,B|65:129|65:129|80:85,1,80,8|0,0:2|0:0,0:0:0:0:
76,71,28315,6,0,L|95:78,1,20,8|0,0:2|0:0,0:0:0:0:
207,167,28465,1,2,0:2:0:0:
238,162,28540,1,2,0:2:0:0:
269,157,28615,1,2,0:2:0:0:
300,154,28690,1,2,0:2:0:0:
331,150,28765,1,8,0:2:0:0:
409,270,28915,5,2,0:2:0:0:
377,267,28990,1,2,0:2:0:0:
345,262,29065,1,2,0:2:0:0:
313,257,29140,1,2,0:2:0:0:
281,253,29215,1,8,0:2:0:0:
198,353,29365,1,2,0:2:0:0:
229,349,29440,1,2,0:2:0:0:
260,344,29515,6,0,B|301:333|301:333|400:353,1,120,6|2,1:1|0:2,0:0:0:0:
408,356,29815,1,8,0:2:0:0:
164,249,29965,6,0,B|205:238|205:238|276:251,1,80,0|2,1:0|0:2,0:0:0:0:
281,253,30190,1,2,0:2:0:0:
281,253,30265,1,8,0:2:0:0:
114,150,30415,1,2,0:2:0:0:
104,188,30490,1,2,0:2:0:0:
93,226,30565,1,0,1:0:0:0:
86,265,30640,1,0,1:0:0:0:
74,303,30715,6,0,B|62:342|62:342|86:401,1,80,8|2,0:2|0:2,0:0:0:0:
108,382,30940,1,2,0:2:0:0:
108,382,31015,2,0,L|197:355,1,80,8|2,0:2|0:2,0:0:0:0:
218,352,31240,1,2,0:2:0:0:
218,352,31315,1,0,1:0:0:0:
362,384,31465,1,0,1:0:0:0:
440,242,31615,2,0,L|401:233,1,40,2|2,0:2|0:2,0:0:0:0:
382,308,31765,2,0,L|421:317,1,40,2|2,0:2|0:2,0:0:0:0:
388,158,31915,6,0,P|352:175|330:259,1,120,2|0,1:1|0:0,0:0:0:0:
478,250,32215,2,0,L|439:241,1,40,0|0,1:0|1:0,0:0:0:0:
305,319,32365,1,8,0:2:0:0:
257,173,32515,2,0,L|296:182,1,40,2|2,0:2|0:2,0:0:0:0:
200,247,32665,1,8,0:2:0:0:
176,215,32740,1,8,0:2:0:0:
166,176,32815,1,8,0:2:0:0:
172,137,32890,1,8,0:2:0:0:
194,104,32965,1,8,0:2:0:0:
227,81,33040,1,8,0:2:0:0:
264,67,33115,6,0,L|366:56,1,80,2|2,1:1|0:2,0:0:0:0:
387,120,33340,1,2,0:2:0:0:
387,120,33415,2,0,L|489:109,1,80,2|0,1:1|0:0,0:0:0:0:
491,39,33640,1,0,0:0:0:0:
491,39,33715,2,0,L|498:-5,2,40,0|0|8,1:0|1:0|0:2,0:0:0:0:
387,120,34015,2,0,L|380:159,1,40,2|2,0:2|0:2,0:0:0:0:
435,260,34165,2,0,L|442:221,1,40,2|2,0:2|0:2,0:0:0:0:
393,40,34315,6,0,P|324:69|306:114,1,120,2|0,1:1|0:0,0:0:0:0:
372,198,34615,2,0,L|379:159,1,40,0|0,1:0|1:0,0:0:0:0:
372,22,34765,2,0,P|303:51|285:96,1,120,2|0,1:1|0:0,0:0:0:0:
336,193,35065,1,0,1:0:0:0:
442,72,35215,1,8,0:2:0:0:
264,163,35365,1,2,0:2:0:0:
264,163,35440,1,2,0:2:0:0:
264,163,35515,6,0,L|218:174,3,40,0|0|2|0,1:0|0:0|0:2|0:0,0:0:0:0:
197,196,35815,2,0,L|151:185,3,40,0|0|2|0,1:0|0:0|0:2|0:0,0:0:0:0:
126,163,36115,1,8,0:2:0:0:
204,298,36265,1,8,0:2:0:0:
329,202,36415,1,8,0:2:0:0:
324,162,36490,1,8,0:2:0:0:
317,122,36565,1,8,0:2:0:0:
312,82,36640,1,8,0:2:0:0:
308,42,36715,6,0,P|260:28|184:59,1,120,2|0,1:1|0:0,0:0:0:0:
237,177,37015,2,0,L|243:125,1,40,0|0,1:0|1:0,0:0:0:0:
306,15,37165,2,0,P|258:1|182:32,1,120,2|0,1:1|0:0,0:0:0:0:
207,177,37465,1,0,1:0:0:0:
408,114,37615,1,8,0:2:0:0:
431,146,37690,2,0,B|445:190|445:190|430:234,1,80,8|0,0:2|0:0,0:0:0:0:
432,262,37915,6,0,L|414:256,1,20,8|0,0:2|0:0,0:0:0:0:
321,143,38065,1,2,0:2:0:0:
281,141,38140,1,2,0:2:0:0:
241,137,38215,1,8,0:2:0:0:
181,239,38365,6,0,L|214:233,2,20,2|0|0,0:2|0:0|0:0,0:0:0:0:
51,166,38665,2,0,L|16:158,2,20,2|0|0,0:2|0:0|0:0,0:0:0:0:
196,111,38965,1,2,0:2:0:0:
86,290,39115,1,6,1:1:0:0:
2,384,48715,6,0,L|-1:198,1,160,2|8,1:1|0:2,0:0:0:0:
75,166,49165,1,2,0:2:0:0:
73,197,49240,1,2,0:2:0:0:
75,228,49315,1,2,0:2:0:0:
76,259,49390,1,8,0:2:0:0:
76,291,49465,1,0,1:0:0:0:
169,384,49615,2,0,L|165:279,1,80,2|2,1:1|0:2,0:0:0:0:
166,231,49840,1,2,0:2:0:0:
166,231,49915,6,0,L|163:45,1,160,2|8,1:1|0:2,0:0:0:0:
239,12,50365,1,8,0:2:0:0:
240,43,50440,1,8,0:2:0:0:
242,74,50515,1,0,1:0:0:0:
248,185,50665,1,8,0:2:0:0:
322,34,50815,2,0,L|326:139,1,80,2|2,1:1|0:2,0:0:0:0:
330,192,51040,1,2,0:2:0:0:
330,192,51115,6,0,L|333:378,1,160,2|8,1:1|0:2,0:0:0:0:
411,289,51565,1,2,0:2:0:0:
412,257,51640,1,2,0:2:0:0:
413,225,51715,6,0,L|410:39,1,160,2|0,1:1|1:0,0:0:0:0:
412,33,52090,1,0,1:0:0:0:
412,33,52165,1,8,0:2:0:0:
505,140,52315,1,8,0:2:0:0:
327,102,52465,5,2,0:2:0:0:
295,102,52540,1,2,0:2:0:0:
263,106,52615,1,2,0:2:0:0:
231,108,52690,1,2,0:2:0:0:
199,111,52765,1,8,0:2:0:0:
126,191,52915,1,2,0:2:0:0:
158,194,52990,1,2,0:2:0:0:
190,196,53065,1,2,0:2:0:0:
222,200,53140,1,2,0:2:0:0:
254,200,53215,1,8,0:2:0:0:
79,128,53365,1,2,0:2:0:0:
79,128,53440,1,2,0:2:0:0:
79,128,53515,6,0,P|53:163|49:207,1,80,0|2,1:0|0:2,0:0:0:0:
54,234,53740,1,2,0:2:0:0:
54,234,53815,1,8,0:2:0:0:
168,108,53965,1,0,1:0:0:0:
196,274,54115,1,0,1:0:0:0:
126,191,54265,1,8,0:2:0:0:
270,240,54415,5,8,0:2:0:0:
279,270,54490,1,8,0:2:0:0:
274,301,54565,1,8,0:2:0:0:
259,329,54640,1,8,0:2:0:0:
235,350,54715,6,0,L|329:343,1,80,2|2,1:1|0:2,0:0:0:0:
385,306,54940,1,2,0:2:0:0:
385,306,55015,2,0,P|394:254|391:218,1,80,2|2,1:1|0:2,0:0:0:0:
348,167,55240,1,2,0:2:0:0:
348,167,55315,6,0,L|277:160,2,53.3333333333333,0|0|0,1:0|1:0|1:0,0:0:0:0:
409,120,55615,2,0,L|480:113,2,53.3333333333333,8|0|0,0:2|0:0|0:0,0:0:0:0:
352,65,55915,6,0,L|258:55,1,80,0|8,1:0|0:2,0:0:0:0:
240,60,56140,2,0,L|244:40,2,20,0|0|0,0:0|0:0|0:0,0:0:0:0:
186,194,56365,2,0,P|179:253|187:290,1,80,0|2,1:0|0:2,0:0:0:0:
238,331,56590,1,2,0:2:0:0:
238,331,56665,2,0,L|307:322,1,40,0|0,1:0|1:0,0:0:0:0:
329,253,56815,1,8,0:2:0:0:
360,255,56890,1,8,0:2:0:0:
392,258,56965,1,0,1:0:0:0:
424,261,57040,1,0,0:0:0:0:
456,264,57115,1,0,1:0:0:0:
256,192,57190,12,6,58315,1:1:0:0:
157,131,58765,5,0,1:0:0:0:
215,206,58915,2,0,L|327:193,1,80,8|2,0:2|0:2,0:0:0:0:
326,193,59140,1,2,0:2:0:0:
357,190,59215,2,0,L|368:237,1,40,0|0,1:0|1:0,0:0:0:0:
263,379,59365,1,8,0:2:0:0:
267,347,59440,1,8,0:2:0:0:
273,315,59515,2,0,L|281:273,2,40,0|0|8,1:0|1:0|0:2,0:0:0:0:
347,363,59815,5,0,1:0:0:0:
428,230,59965,1,0,1:0:0:0:
267,347,60115,1,8,0:2:0:0:
461,318,60265,1,2,0:2:0:0:
253,264,60415,1,8,0:2:0:0:
224,279,60490,1,8,0:2:0:0:
204,304,60565,1,8,0:2:0:0:
192,333,60640,1,8,0:2:0:0:
188,364,60715,6,0,P|147:383|111:381,1,80,0|2,1:0|0:2,0:0:0:0:
52,337,60940,1,2,0:2:0:0:
52,337,61015,2,0,L|46:246,1,80,0|2,1:0|0:2,0:0:0:0:
45,223,61240,1,2,0:2:0:0:
45,223,61315,1,8,0:2:0:0:
204,304,61465,1,2,0:2:0:0:
211,117,61615,1,0,1:0:0:0:
132,219,61765,1,8,0:2:0:0:
285,273,61915,6,0,L|324:266,3,40,8|0|2|2,0:2|0:0|0:2|0:2,0:0:0:0:
386,207,62215,2,0,L|425:213,1,40,2|2,0:2|0:2,0:0:0:0:
476,296,62365,6,0,L|424:305,3,40,8|0|2|2,0:2|0:0|0:2|0:2,0:0:0:0:
375,362,62665,2,0,L|323:353,1,40,8|0,0:2|0:0,0:0:0:0:
250,337,62815,1,2,1:1:0:0:
386,207,62965,1,2,1:1:0:0:
206,155,63115,5,0,1:0:0:0:
477,58,63415,5,0,1:0:0:0:
225,251,63715,6,0,P|182:253|138:232,1,80,8|2,0:2|0:2,0:0:0:0:
127,214,63940,1,2,0:2:0:0:
120,182,64015,1,0,1:0:0:0:
115,150,64090,1,0,1:0:0:0:
113,118,64165,1,8,0:2:0:0:
252,54,64315,6,0,L|242:151,1,80,0|0,1:0|0:0,0:0:0:0:
219,168,64540,2,0,P|262:149|311:151,1,80,0|0,1:0|0:0,0:0:0:0:
334,162,64765,1,0,1:0:0:0:
334,162,64840,1,0,1:0:0:0:
334,162,64915,1,8,0:2:0:0:
293,312,65065,1,8,0:2:0:0:
413,191,65215,1,8,0:2:0:0:
244,248,65365,1,8,0:2:0:0:
450,264,65515,6,0,P|491:219|462:128,1,160,2|0,1:1|1:0,0:0:0:0:
334,162,65965,2,0,B|304:205|304:205|442:188,1,160,2|0,1:1|1:0,0:0:0:0:
365,93,66415,1,8,0:2:0:0:
335,81,66490,1,8,0:2:0:0:
303,88,66565,1,8,0:2:0:0:
277,107,66640,1,8,0:2:0:0:
258,132,66715,6,0,P|216:141|171:133,1,80,0|2,1:0|0:2,0:0:0:0:
133,78,66940,1,2,0:2:0:0:
133,78,67015,6,0,L|150:9,2,53.3333333333333,8|0|8,0:2|0:0|0:2,0:0:0:0:
68,117,67315,2,0,L|16:104,2,53.3333333333333,0|8|0,1:0|0:2|1:0,0:0:0:0:
127,159,67615,2,0,P|151:206|131:275,1,120,2|0,1:1|0:0,0:0:0:0:
102,302,67915,6,0,P|155:285|196:294,1,80,0|2,1:0|0:2,0:0:0:0:
208,300,68140,1,2,0:2:0:0:
208,300,68215,1,8,0:2:0:0:
319,350,68365,2,0,L|337:261,1,80,0|2,1:0|0:2,0:0:0:0:
342,235,68590,1,2,0:2:0:0:
347,203,68665,1,8,0:2:0:0:
227,94,68815,1,2,0:2:0:0:
228,125,68890,1,2,0:2:0:0:
230,156,68965,1,0,1:0:0:0:
231,187,69040,1,0,1:0:0:0:
234,218,69115,6,0,P|177:209|139:216,1,80,8|2,0:2|0:2,0:0:0:0:
127,228,69340,1,2,0:2:0:0:
127,228,69415,1,8,0:2:0:0:
36,309,69565,2,0,L|31:375,2,40,2|2|0,0:2|0:2|1:0,0:0:0:0:
49,157,69865,1,0,1:0:0:0:
140,312,70015,1,2,0:2:0:0:
167,327,70090,1,2,0:2:0:0:
198,333,70165,1,2,0:2:0:0:
229,333,70240,1,2,0:2:0:0:
260,329,70315,6,0,L|275:217,1,80,2|0,1:1|0:0,0:0:0:0:
181,155,70615,2,0,P|212:166|241:165,1,40,0|0,1:0|1:0,0:0:0:0:
302,60,70765,2,0,P|340:57|385:73,1,80,8|2,0:2|0:2,0:0:0:0:
421,87,70990,1,2,0:2:0:0:
421,87,71065,1,8,0:2:0:0:
450,107,71140,1,8,0:2:0:0:
466,134,71215,1,8,0:2:0:0:
471,165,71290,1,8,0:2:0:0:
463,196,71365,1,8,0:2:0:0:
443,221,71440,1,8,0:2:0:0:
415,237,71515,6,0,P|386:289|387:321,1,80,2|2,1:1|0:2,0:0:0:0:
437,374,71740,1,2,0:2:0:0:
437,374,71815,2,0,L|349:385,1,80,2|2,1:1|0:2,0:0:0:0:
303,329,72040,1,2,0:2:0:0:
303,329,72115,2,0,L|257:319,1,40,0|0,1:0|1:0,0:0:0:0:
191,302,72265,1,8,0:2:0:0:
346,168,72415,2,0,L|355:127,3,40,2|2|2|2,0:2|0:2|0:2|0:2,0:0:0:0:
347,85,72715,6,0,P|315:26|235:20,1,120,2|0,1:1|0:0,0:0:0:0:
235,133,73015,2,0,L|284:120,1,40,0|0,1:0|1:0,0:0:0:0:
381,73,73165,2,0,P|349:14|269:8,1,120,2|0,1:1|0:0,0:0:0:0:
220,98,73465,1,0,1:0:0:0:
376,156,73615,1,8,0:2:0:0:
209,72,73765,1,2,0:2:0:0:
209,72,73840,1,2,0:2:0:0:
209,72,73915,6,0,L|149:62,3,40,0|0|2|0,1:0|0:0|0:2|0:0,0:0:0:0:
115,114,74215,2,0,L|55:124,3,40,0|0|2|0,1:0|0:0|0:2|0:0,0:0:0:0:
6,83,74515,1,8,0:2:0:0:
124,0,74665,1,8,0:2:0:0:
185,150,74815,1,8,0:2:0:0:
186,182,74890,1,8,0:2:0:0:
188,213,74965,1,8,0:2:0:0:
190,244,75040,1,8,0:2:0:0:
191,275,75115,6,0,P|164:329|78:335,1,120,2|0,1:1|0:0,0:0:0:0:
60,217,75415,2,0,L|116:222,1,40,0|0,1:0|1:0,0:0:0:0:
211,297,75565,2,0,P|184:352|99:357,1,120,2|0,1:1|0:0,0:0:0:0:
56,258,75865,2,0,L|113:263,1,40,0|0,1:0|1:0,0:0:0:0:
239,314,76015,1,2,1:1:0:0:
53,297,76165,1,2,1:1:0:0:
198,154,76315,2,0,L|247:147,3,40,8|0|8|0,0:2|0:0|0:2|0:0,0:0:0:0:
293,204,76615,2,0,L|342:211,3,40,8|0|8|0,0:2|0:0|0:2|0:0,0:0:0:0:
396,165,76915,6,0,L|406:117,1,40,8|0,0:2|0:0,0:0:0:0:
261,54,77215,6,0,L|266:85,6,20,8|8|8|8|8|8|8,0:2|0:2|0:2|0:2|0:2|0:2|0:2,0:0:0:0:
199,11,77515,6,0,L|115:5,1,80,2|2,1:1|0:2,0:0:0:0:
21,101,77815,1,2,0:2:0:0:
4,128,77890,1,2,0:2:0:0:
0,159,77965,1,2,0:2:0:0:
7,190,78040,1,2,0:2:0:0:
25,216,78115,2,0,L|80:223,1,40,2|0,0:2|0:0,0:0:0:0:
122,273,78265,2,0,L|177:266,1,40,0|0,1:0|0:0,0:0:0:0:
239,254,78415,1,0,1:0:0:0:
206,38,78565,6,0,P|134:97|137:178,1,160,2|0,1:1|1:0,0:0:0:0:
239,254,79015,2,0,L|331:241,1,80,2|0,1:1|0:0,0:0:0:0:
437,224,79315,1,0,1:0:0:0:
317,89,79465,2,0,L|308:144,1,40,0|0,0:0|0:0,0:0:0:0:
405,323,79615,1,8,0:2:0:0:
427,300,79690,2,0,P|440:234|423:201,1,80,8|0,0:2|0:0,0:0:0:0:
238,242,79915,6,0,L|239:333,1,80,2|2,1:1|0:2,0:0:0:0:
344,378,80215,1,8,0:2:0:0:
309,177,80365,2,0,P|277:152|227:147,1,80,2|2,1:1|0:2,0:0:0:0:
132,203,80665,1,8,0:2:0:0:
308,337,80815,1,8,0:2:0:0:
308,297,80890,1,8,0:2:0:0:
307,257,80965,1,8,0:2:0:0:
309,217,81040,1,8,0:2:0:0:
309,177,81115,5,2,1:1:0:0:
176,273,81265,1,8,0:2:0:0:
78,146,81415,2,0,P|76:88|85:51,1,80,2|0,1:1|0:0,0:0:0:0:
183,5,81715,1,0,1:0:0:0:
309,177,81865,1,8,0:2:0:0:
281,191,81940,2,0,P|243:203|203:199,1,80,8|0,0:2|0:0,0:0:0:0:
171,188,82165,1,2,0:2:0:0:
171,188,82240,1,2,0:2:0:0:
171,188,82315,6,0,P|159:124|165:93,1,80,0|2,1:0|0:2,0:0:0:0:
178,74,82540,1,2,0:2:0:0:
178,74,82615,1,8,0:2:0:0:
312,0,82765,2,0,P|324:64|318:95,1,80,0|2,1:0|0:2,0:0:0:0:
309,116,82990,1,2,0:2:0:0:
309,116,83065,1,8,0:2:0:0:
149,0,83215,1,0,1:0:0:0:
56,156,83365,1,0,1:0:0:0:
178,74,83515,6,0,P|230:117|207:227,1,160,2|8,1:1|0:2,0:0:0:0:
105,285,83965,2,0,P|53:242|76:132,1,160,2|8,1:1|0:2,0:0:0:0:
227,203,84415,1,8,0:2:0:0:
258,225,84490,1,8,0:2:0:0:
276,261,84565,1,8,0:2:0:0:
278,301,84640,1,8,0:2:0:0:
263,337,84715,5,0,1:0:0:0:
326,127,84865,1,0,1:0:0:0:
197,299,85015,1,8,0:2:0:0:
146,123,85165,1,0,1:0:0:0:
379,223,85315,6,0,L|417:216,16,20,8|8|8|8|8|8|8|8|8|8|8|8|8|8|8|8|8,0:2|0:2|0:2|0:2|0:2|0:2|0:2|0:2|0:2|0:2|0:2|0:2|0:2|0:2|0:2|0:2|0:2,0:0:0:0:
259,138,86065,1,0,1:0:0:0:
219,131,86140,1,0,1:0:0:0:
179,127,86215,1,8,0:2:0:0:
303,57,86365,1,0,1:0:0:0:
319,252,86515,2,0,L|306:298,3,40,2|2|0|0,0:2|0:2|1:0|0:0,0:0:0:0:
240,329,86815,2,0,L|227:375,3,40,8|8|8|8,0:2|0:2|0:2|0:2,0:0:0:0:
159,377,87115,6,0,L|63:385,1,80,2|0,1:1|0:0,0:0:0:0:
3,290,87415,1,8,0:2:0:0:
99,161,87565,2,0,B|132:197|132:197|114:323,1,160,2|8,1:1|0:2,0:0:0:0:
14,184,88015,1,2,0:2:0:0:
11,144,88090,1,2,0:2:0:0:
28,108,88165,1,2,0:2:0:0:
61,86,88240,1,0,0:0:0:0:
100,81,88315,6,0,L|210:74,1,80,2|0,1:1|0:0,0:0:0:0:
309,67,88615,1,8,0:2:0:0:
126,307,88765,2,0,B|97:264|97:264|110:150,1,160,2|8,1:1|0:2,0:0:0:0:
231,70,89215,1,8,0:2:0:0:
225,109,89290,1,8,0:2:0:0:
220,149,89365,1,8,0:2:0:0:
214,188,89440,1,8,0:2:0:0:
209,228,89515,5,0,1:0:0:0:
309,67,89665,1,0,1:0:0:0:
126,108,89815,1,8,0:2:0:0:
311,181,89965,1,2,0:2:0:0:
311,181,90040,1,2,0:2:0:0:
311,181,90115,1,0,1:0:0:0:
123,227,90265,1,8,0:2:0:0:
231,70,90415,1,2,0:2:0:0:
274,248,90565,6,0,P|331:257|389:178,1,160,0|2,1:0|0:2,0:0:0:0:
348,53,91015,1,0,1:0:0:0:
311,181,91165,1,0,1:0:0:0:
453,81,91315,2,0,P|467:131|465:165,1,80,8|2,0:2|0:2,0:0:0:0:
413,210,91540,1,2,0:2:0:0:
413,210,91615,2,0,P|399:260|401:294,1,80,8|2,0:2|0:2,0:0:0:0:
500,384,91915,6,0,L|403:384,1,80,0|2,1:0|0:2,0:0:0:0:
376,383,92140,1,2,0:2:0:0:
376,383,92215,1,0,1:0:0:0:
270,269,92365,2,0,P|278:209|305:181,1,80,8|2,0:2|0:2,0:0:0:0:
320,164,92590,1,2,0:2:0:0:
320,164,92665,1,0,1:0:0:0:
353,299,92815,1,8,0:2:0:0:
183,238,92965,1,8,0:2:0:0:
393,124,93115,5,0,1:0:0:0:
243,117,93265,1,2,0:2:0:0:
379,224,93415,1,0,1:0:0:0:
371,39,93565,2,0,P|410:44|443:66,1,80,8|2,0:2|0:2,0:0:0:0:
469,184,93865,1,8,0:2:0:0:
286,52,94015,1,0,1:0:0:0:
258,80,94090,1,0,1:0:0:0:
243,117,94165,1,0,1:0:0:0:
245,156,94240,1,0,1:0:0:0:
263,192,94315,6,0,P|282:248|270:291,1,80,8|2,0:2|0:2,0:0:0:0:
264,304,94540,1,2,0:2:0:0:
264,304,94615,1,0,1:0:0:0:
142,160,94765,1,8,0:2:0:0:
63,323,94915,1,2,0:2:0:0:
63,323,94990,1,2,0:2:0:0:
63,323,95065,2,0,L|54:368,2,40,2|2|0,0:2|0:2|1:0,0:0:0:0:
150,123,95365,1,8,0:2:0:0:
326,197,95515,5,2,0:2:0:0:
326,197,95590,1,2,0:2:0:0:
326,197,95665,2,0,L|368:189,1,40,2|2,0:2|0:2,0:0:0:0:
433,150,95815,2,0,P|444:197|366:275,2,160,2|0|0,1:1|0:0|0:0,0:0:0:0:
361,87,96565,1,0,0:0:0:0:
221,255,96715,6,0,L|137:261,1,80,2|2,1:1|0:2,0:0:0:0:
0,148,97015,1,2,0:2:0:0:
3,179,97090,1,2,0:2:0:0:
7,211,97165,1,2,0:2:0:0:
11,243,97240,1,2,0:2:0:0:
17,275,97315,2,0,L|25:318,1,40,2|0,0:2|0:0,0:0:0:0:
130,374,97465,2,0,L|122:331,1,40,0|0,1:0|0:0,0:0:0:0:
103,246,97615,1,0,1:0:0:0:
326,191,97765,6,0,P|277:252|200:258,1,160,2|0,1:1|1:0,0:0:0:0:
232,97,98215,2,0,L|240:198,1,80,2|2,1:1|0:2,0:0:0:0:
305,28,98515,1,0,1:0:0:0:
154,75,98665,2,0,L|159:138,1,40,0|0,1:0|0:0,0:0:0:0:
103,246,98815,1,8,0:2:0:0:
75,225,98890,2,0,L|68:145,1,80,8|0,0:2|0:0,0:0:0:0:
248,196,99115,6,0,P|263:252|253:299,1,80,2|2,1:1|0:2,0:0:0:0:
186,368,99415,1,8,0:2:0:0:
103,246,99565,2,0,L|192:247,1,80,2|0,1:1|0:0,0:0:0:0:
282,348,99865,1,8,0:2:0:0:
380,223,100015,1,8,0:2:0:0:
398,187,100090,1,8,0:2:0:0:
404,148,100165,1,8,0:2:0:0:
396,109,100240,1,8,0:2:0:0:
376,75,100315,5,2,1:1:0:0:
278,240,100465,1,8,0:2:0:0:
175,96,100615,2,0,P|125:88|80:93,1,80,2|2,1:1|0:2,0:0:0:0:
12,177,100915,1,0,1:0:0:0:
158,307,101065,1,8,0:2:0:0:
174,284,101140,2,0,P|187:229|183:195,1,80,8|0,0:2|0:0,0:0:0:0:
166,165,101365,1,2,0:2:0:0:
166,165,101440,1,2,0:2:0:0:
166,165,101515,6,0,P|230:153|261:159,1,80,0|2,1:0|0:2,0:0:0:0:
285,170,101740,1,2,0:2:0:0:
285,170,101815,1,8,0:2:0:0:
373,313,101965,2,0,P|309:325|278:319,1,80,0|2,1:0|0:2,0:0:0:0:
250,321,102190,1,2,0:2:0:0:
250,321,102265,1,8,0:2:0:0:
363,166,102415,1,0,1:0:0:0:
192,82,102565,1,0,1:0:0:0:
285,170,102715,6,0,P|242:222|132:199,1,160,2|8,1:1|0:2,0:0:0:0:
62,131,103165,2,0,P|105:79|215:102,1,160,2|8,1:1|0:2,0:0:0:0:
155,219,103615,1,8,0:2:0:0:
148,258,103690,1,8,0:2:0:0:
123,288,103765,1,8,0:2:0:0:
86,303,103840,1,8,0:2:0:0:
47,298,103915,5,0,1:0:0:0:
227,245,104065,1,0,1:0:0:0:
43,192,104215,1,8,0:2:0:0:
182,339,104365,1,0,1:0:0:0:
146,147,104515,6,0,L|139:109,16,20,8|8|8|8|8|8|8|8|8|8|8|8|8|8|8|8|8,0:2|0:2|0:2|0:2|0:2|0:2|0:2|0:2|0:2|0:2|0:2|0:2|0:2|0:2|0:2|0:2|0:2,0:0:0:0:
220,231,105265,1,0,1:0:0:0:
263,236,105340,1,0,1:0:0:0:
306,240,105415,1,8,0:2:0:0:
412,156,105565,1,0,1:0:0:0:
498,292,105715,2,0,L|446:288,3,40,2|2|0|0,0:2|0:2|1:0|0:0,0:0:0:0:
429,328,106015,1,8,0:2:0:0:
389,324,106090,1,8,0:2:0:0:
349,320,106165,1,8,0:2:0:0:
309,316,106240,1,8,0:2:0:0:
269,312,106315,6,0,P|256:262|270:226,1,80,2|0,1:1|0:0,0:0:0:0:
316,64,106615,1,8,0:2:0:0:
486,209,106765,2,0,B|455:241|455:241|329:225,1,160,2|8,1:1|0:2,0:0:0:0:
419,7,107215,1,2,0:2:0:0:
423,46,107290,1,2,0:2:0:0:
425,86,107365,1,2,0:2:0:0:
428,126,107440,1,2,0:2:0:0:
430,166,107515,6,0,L|336:153,1,80,2|0,1:1|0:0,0:0:0:0:
243,209,107815,1,8,0:2:0:0:
356,384,107965,2,0,B|383:341|383:341|371:215,1,160,2|8,1:1|0:2,0:0:0:0:
240,127,108415,1,8,0:2:0:0:
202,138,108490,1,8,0:2:0:0:
172,164,108565,1,8,0:2:0:0:
155,200,108640,1,8,0:2:0:0:
155,240,108715,5,0,1:0:0:0:
196,41,108865,1,0,1:0:0:0:
243,209,109015,1,8,0:2:0:0:
99,121,109165,1,2,0:2:0:0:
99,121,109240,1,2,0:2:0:0:
99,121,109315,1,0,1:0:0:0:
282,60,109465,1,8,0:2:0:0:
155,240,109615,1,2,0:2:0:0:
133,47,109765,6,0,P|76:38|16:118,1,160,0|2,1:0|0:2,0:0:0:0:
155,240,110215,1,0,1:0:0:0:
99,121,110365,1,0,1:0:0:0:
17,226,110515,2,0,P|5:264|18:302,1,80,8|2,0:2|0:2,0:0:0:0:
85,348,110740,1,2,0:2:0:0:
85,348,110815,2,0,L|176:335,1,80,8|2,0:2|0:2,0:0:0:0:
303,222,111115,6,0,P|324:266|325:309,1,80,0|2,1:0|0:2,0:0:0:0:
311,338,111340,1,2,0:2:0:0:
311,338,111415,1,0,1:0:0:0:
150,222,111565,2,0,P|151:182|167:145,1,80,8|2,0:2|0:2,0:0:0:0:
200,115,111790,1,2,0:2:0:0:
200,115,111865,1,0,1:0:0:0:
303,222,112015,1,8,0:2:0:0:
346,53,112165,1,8,0:2:0:0:
222,245,112315,5,0,1:0:0:0:
334,132,112465,1,2,0:2:0:0:
200,115,112615,1,0,1:0:0:0:
303,222,112765,2,0,L|396:233,1,80,8|2,0:2|0:2,0:0:0:0:
482,163,113065,1,8,0:2:0:0:
290,137,113215,1,0,1:0:0:0:
253,152,113290,1,0,1:0:0:0:
226,181,113365,1,0,1:0:0:0:
214,219,113440,1,0,1:0:0:0:
220,258,113515,6,0,L|294:311,1,80,8|2,0:2|0:2,0:0:0:0:
315,323,113740,1,2,0:2:0:0:
315,323,113815,1,0,1:0:0:0:
253,152,113965,1,8,0:2:0:0:
177,326,114115,1,2,0:2:0:0:
177,326,114190,1,2,0:2:0:0:
177,326,114265,2,0,L|168:371,2,40,2|2|0,0:2|0:2|1:0,0:0:0:0:
133,139,114565,1,8,0:2:0:0:
35,262,114715,5,2,0:2:0:0:
35,262,114790,1,2,0:2:0:0:
35,262,114865,2,0,L|89:278,1,40,2|2,0:2|0:2,0:0:0:0:
117,336,115015,2,0,P|139:310|99:205,2,160,2|0|0,1:1|0:0|0:0,0:0:0:0:
16,376,115765,1,0,0:0:0:0:
99,205,115915,6,0,L|180:162,1,80,2|2,1:1|0:2,0:0:0:0:
199,148,116140,1,2,0:2:0:0:
226,132,116215,1,8,0:2:0:0:
173,278,116365,2,0,L|254:235,1,80,0|2,1:0|0:2,0:0:0:0:
275,224,116590,1,2,0:2:0:0:
301,205,116665,1,8,0:2:0:0:
260,344,116815,1,2,0:2:0:0:
288,330,116890,1,2,0:2:0:0:
317,316,116965,1,0,1:0:0:0:
346,302,117040,1,0,1:0:0:0:
374,289,117115,6,0,L|470:249,1,80,8|2,0:2|0:2,0:0:0:0:
478,244,117340,1,2,0:2:0:0:
478,244,117415,2,0,P|467:183|440:158,1,80,8|2,0:2|0:2,0:0:0:0:
436,153,117640,1,2,0:2:0:0:
436,153,117715,1,0,1:0:0:0:
374,290,117865,1,0,1:0:0:0:
300,146,118015,5,2,0:2:0:0:
272,130,118090,1,2,0:2:0:0:
241,126,118165,1,2,0:2:0:0:
211,133,118240,1,2,0:2:0:0:
191,158,118315,6,0,L|181:248,1,80,2|0,1:1|0:0,0:0:0:0:
259,342,118615,2,0,L|262:292,2,40,0|0|8,1:0|1:0|0:2,0:0:0:0:
374,302,118915,2,0,L|376:236,1,40,2|2,0:2|0:2,0:0:0:0:
355,170,119065,1,8,0:2:0:0:
337,144,119140,1,8,0:2:0:0:
311,125,119215,1,8,0:2:0:0:
280,116,119290,1,8,0:2:0:0:
249,118,119365,1,8,0:2:0:0:
220,131,119440,1,8,0:2:0:0:
194,150,119515,6,0,B|168:181|168:181|176:241,1,80,2|2,1:1|0:2,0:0:0:0:
184,258,119740,1,2,0:2:0:0:
184,258,119815,2,0,L|281:292,1,80,2|2,1:1|0:2,0:0:0:0:
294,299,120040,1,2,0:2:0:0:
294,299,120115,2,0,P|304:265|295:234,1,40,0|0,1:0|1:0,0:0:0:0:
269,185,120265,1,8,0:2:0:0:
389,71,120415,2,0,L|437:82,3,40,2|2|2|2,0:2|0:2|0:2|0:2,0:0:0:0:
457,98,120715,6,0,P|497:162|467:225,1,120,2|0,1:1|0:0,0:0:0:0:
373,223,121015,2,0,L|366:162,1,40,0|0,1:0|1:0,0:0:0:0:
482,92,121165,2,0,P|522:156|492:219,1,120,2|0,1:1|0:0,0:0:0:0:
412,226,121465,1,0,1:0:0:0:
506,66,121615,1,8,0:2:0:0:
503,280,121765,1,2,0:2:0:0:
503,280,121840,1,2,0:2:0:0:
503,280,121915,6,0,L|495:333,3,40,0|2|2|2,1:0|0:2|0:2|0:2,0:0:0:0:
430,355,122215,2,0,L|424:315,3,40,0|2|2|2,1:0|0:2|0:2|0:2,0:0:0:0:
361,274,122515,1,8,0:2:0:0:
256,370,122665,1,8,0:2:0:0:
198,171,122815,1,8,0:2:0:0:
167,160,122890,1,8,0:2:0:0:
136,158,122965,1,8,0:2:0:0:
104,165,123040,1,8,0:2:0:0:
78,184,123115,6,0,P|55:256|71:309,1,120,2|0,1:1|0:0,0:0:0:0:
212,263,123415,2,0,L|163:237,1,40,0|0,1:0|1:0,0:0:0:0:
48,180,123565,2,0,P|25:252|41:305,1,120,2|0,1:1|0:0,0:0:0:0:
196,302,123865,1,0,1:0:0:0:
25,160,124015,1,8,0:2:0:0:
2,141,124090,2,0,P|-7:96|3:53,1,80,8|0,0:2|0:0,0:0:0:0:
5,30,124315,6,0,L|23:37,1,20,8|0,0:2|0:0,0:0:0:0:
161,139,124465,6,0,L|201:131,1,28,2|2,0:2|0:2,0:0:0:0:
247,83,124615,2,0,L|287:91,2,28,2|2|8,0:2|0:2|0:2,0:0:0:0:
181,223,124915,6,0,L|221:215,1,28,2|2,0:2|0:2,0:0:0:0:
267,167,125065,2,0,L|307:175,2,28,2|2|8,0:2|0:2|0:2,0:0:0:0:
201,307,125365,6,0,L|241:299,1,28,2|2,0:2|0:2,0:0:0:0:
287,251,125515,6,0,L|382:276,1,80,6|2,1:1|0:2,0:0:0:0:
394,281,125740,1,2,0:2:0:0:
394,281,125815,1,8,0:2:0:0:
401,94,125965,2,0,P|366:133|358:172,1,80,0|2,1:0|0:2,0:0:0:0:
355,190,126190,1,2,0:2:0:0:
355,190,126265,1,8,0:2:0:0:
465,143,126415,1,2,0:2:0:0:
477,113,126490,1,2,0:2:0:0:
477,81,126565,1,0,1:0:0:0:
463,51,126640,1,0,1:0:0:0:
442,26,126715,6,0,B|403:13|403:13|349:22,1,80,8|2,0:2|0:2,0:0:0:0:
333,27,126940,1,2,0:2:0:0:
333,27,127015,2,0,L|319:110,1,80,8|2,0:2|0:2,0:0:0:0:
318,151,127240,1,2,0:2:0:0:
318,151,127315,1,0,1:0:0:0:
413,96,127465,1,0,1:0:0:0:
483,210,127615,2,0,L|426:201,1,40,2|2,0:2|0:2,0:0:0:0:
375,252,127765,2,0,L|318:261,1,40,2|2,0:2|0:2,0:0:0:0:
283,319,127915,6,0,L|149:294,1,120,2|0,1:1|0:0,0:0:0:0:
134,274,128215,2,0,L|118:322,2,40,0|0|8,1:0|1:0|0:2,0:0:0:0:
232,192,128515,2,0,L|276:180,1,40,2|2,0:2|0:2,0:0:0:0:
340,247,128665,1,8,0:2:0:0:
358,220,128740,1,8,0:2:0:0:
365,188,128815,1,8,0:2:0:0:
362,156,128890,1,8,0:2:0:0:
349,126,128965,1,8,0:2:0:0:
325,104,129040,1,8,0:2:0:0:
295,91,129115,6,0,P|254:74|199:62,1,80,2|2,1:1|0:2,0:0:0:0:
154,112,129340,1,2,0:2:0:0:
154,112,129415,2,0,P|115:101|78:86,1,80,2|2,1:1|0:2,0:0:0:0:
24,31,129640,1,2,0:2:0:0:
24,31,129715,2,0,P|10:52|1:82,2,40,0|0|8,1:0|1:0|0:2,0:0:0:0:
154,112,130015,1,2,0:2:0:0:
163,142,130090,1,2,0:2:0:0:
169,173,130165,1,2,0:2:0:0:
171,204,130240,1,2,0:2:0:0:
171,236,130315,6,0,P|127:293|66:298,1,120,2|0,1:1|0:0,0:0:0:0:
64,169,130615,2,0,L|111:205,1,40,0|0,1:0|1:0,0:0:0:0:
194,261,130765,2,0,P|150:318|89:323,1,120,2|0,1:1|0:0,0:0:0:0:
38,197,131065,1,0,1:0:0:0:
227,272,131215,1,8,0:2:0:0:
28,318,131365,1,2,0:2:0:0:
28,318,131440,1,2,0:2:0:0:
28,318,131515,6,0,P|15:349|16:377,3,40,0|2|2|2,1:0|0:2|0:2|0:2,0:0:0:0:
44,378,131815,2,0,L|96:386,3,40,0|2|2|2,1:0|0:2|0:2|0:2,0:0:0:0:
128,365,132115,1,8,0:2:0:0:
82,194,132265,1,8,0:2:0:0:
271,197,132415,1,8,0:2:0:0:
302,204,132490,1,8,0:2:0:0:
331,216,132565,1,8,0:2:0:0:
357,233,132640,1,8,0:2:0:0:
379,255,132715,6,0,P|408:326|375:374,1,120,2|0,1:1|0:0,0:0:0:0:
251,299,133015,2,0,L|303:286,1,40,0|0,1:0|1:0,0:0:0:0:
405,257,133165,2,0,P|434:328|401:376,1,120,2|0,1:1|0:0,0:0:0:0:
258,335,133465,1,0,1:0:0:0:
431,238,133615,1,8,0:2:0:0:
458,214,133690,2,0,P|467:169|457:126,1,80,8|0,0:2|0:0,0:0:0:0:
458,100,133915,6,0,L|440:107,1,20,8|0,0:2|0:0,0:0:0:0:
238,181,134065,1,2,0:2:0:0:
206,179,134140,1,2,0:2:0:0:
174,177,134215,1,2,0:2:0:0:
142,175,134290,1,2,0:2:0:0:
110,174,134365,1,8,0:2:0:0:
24,87,134515,1,2,0:2:0:0:
55,84,134590,1,2,0:2:0:0:
86,82,134665,1,2,0:2:0:0:
117,79,134740,1,2,0:2:0:0:
148,76,134815,2,0,L|325:60,1,160,8|6,0:2|1:1,0:0:0:0:
9,34,144715,6,0,L|91:42,1,64,2|0,1:2|0:0,0:0:0:0:
147,100,145015,2,0,L|228:91,1,64,0|0,1:0|0:0,0:0:0:0:
292,41,145315,2,0,P|314:80|284:161,1,128,8|2,0:2|0:2,0:0:0:0:
135,245,145765,2,0,L|223:253,1,64,0|0,1:0|0:0,0:0:0:0:
268,316,146065,2,0,L|356:308,1,64,0|0,1:0|0:0,0:0:0:0:
422,342,146365,1,2,1:2:0:0:
467,228,146515,2,0,P|472:182|465:147,1,64,8|2,0:2|0:2,0:0:0:0:
448,140,146740,1,2,0:2:0:0:
448,140,146815,1,10,0:2:0:0:
359,236,146965,1,0,1:0:0:0:
254,103,147115,6,0,L|242:184,1,64,2|0,1:2|0:0,0:0:0:0:
183,273,147415,2,0,L|174:210,1,64,0|0,1:0|0:0,0:0:0:0:
106,97,147715,2,0,L|89:237,1,128,8|10,0:2|0:2,0:0:0:0:
77,306,148165,1,0,1:0:0:0:
174,210,148315,2,0,P|215:201|248:210,1,64,2|2,1:2|0:2,0:0:0:0:
270,233,148540,1,2,0:2:0:0:
270,233,148615,1,0,1:0:0:0:
343,295,148765,2,0,P|384:304|417:295,2,64,8|0|8,0:2|1:0|0:2,0:0:0:0:
270,233,149215,1,2,0:2:0:0:
409,174,149365,1,10,0:2:0:0:
223,81,149515,6,0,P|218:112|224:143,1,64,2|0,1:2|0:0,0:0:0:0:
347,82,149815,2,0,P|351:51|346:20,1,64,0|0,1:0|0:0,0:0:0:0:
224,143,150115,2,0,L|92:135,1,128,8|2,0:2|0:2,0:0:0:0:
119,0,150565,2,0,P|135:38|125:84,1,64,0|0,1:0|0:0,0:0:0:0:
23,145,150865,2,0,P|24:113|39:85,1,64,0|0,1:0|0:0,0:0:0:0:
119,0,151165,1,2,1:2:0:0:
224,143,151315,2,0,P|232:183|226:234,1,64,8|2,0:2|0:2,0:0:0:0:
184,265,151540,1,2,0:2:0:0:
184,265,151615,2,0,L|99:255,1,64,10|0,0:2|1:0,0:0:0:0:
231,206,151915,6,0,L|316:196,1,64,2|0,1:2|0:0,0:0:0:0:
412,143,152215,2,0,L|349:136,1,64,0|0,1:0|0:0,0:0:0:0:
229,66,152515,2,0,L|356:52,1,128,8|10,0:2|0:2,0:0:0:0:
438,40,152965,1,0,1:0:0:0:
348,135,153115,2,0,P|335:167|336:212,1,64,2|2,1:2|0:2,0:0:0:0:
350,231,153340,1,2,0:2:0:0:
350,231,153415,1,0,1:0:0:0:
490,167,153565,2,0,L|484:115,1,32,8|0,0:2|0:0,0:0:0:0:
31,339,173515,6,0,L|39:262,1,64,2|0,0:2|3:2,0:0:0:0:
101,203,173815,2,0,L|93:126,1,64,2|0,0:2|3:2,0:0:0:0:
83,52,174115,1,2,3:2:0:0:
83,52,174190,1,0,3:2:0:0:
83,52,174265,1,2,3:2:0:0:
2,170,174415,1,0,3:2:0:0:
176,147,174565,6,0,L|258:141,1,64,2|0,0:2|3:2,0:0:0:0:
335,139,174865,1,0,3:2:0:0:
274,64,175015,1,2,0:2:0:0:
208,219,175165,2,0,P|200:263|222:302,1,64,0|2,3:2|3:2,0:0:0:0:
231,309,175390,1,0,3:2:0:0:
231,309,175465,1,0,3:2:0:0:
302,244,175615,1,2,0:2:0:0:
330,334,175765,1,0,3:2:0:0:
378,181,175915,6,0,P|422:171|461:185,1,64,2|0,0:2|3:2,0:0:0:0:
512,239,176215,1,0,3:2:0:0:
425,341,176365,2,0,P|394:350|363:347,1,64,2|0,0:2|3:2,0:0:0:0:
330,334,176590,1,0,3:2:0:0:
330,334,176665,1,0,3:2:0:0:
396,264,176815,1,2,0:2:0:0:
302,244,176965,1,2,0:2:0:0:
410,142,177115,6,0,L|400:66,1,64,2|0,0:2|3:2,0:0:0:0:
317,1,177415,2,0,L|307:77,1,64,2|0,0:2|3:2,0:0:0:0:
299,166,177715,1,2,3:2:0:0:
299,166,177790,1,0,3:2:0:0:
299,166,177865,1,2,3:2:0:0:
216,100,178015,2,0,P|185:85|139:89,1,64,0|4,3:2|3:3,0:0:0:0:
73,168,178315,6,0,L|84:250,1,64,2|0,0:2|3:2,0:0:0:0:
98,332,178615,1,0,3:2:0:0:
196,250,178765,2,0,P|242:243|271:262,1,64,2|0,0:2|3:2,0:0:0:0:
290,271,178990,1,0,3:2:0:0:
290,271,179065,1,2,3:2:0:0:
349,353,179215,1,2,0:2:0:0:
388,258,179365,1,0,3:2:0:0:
261,344,179515,6,0,L|193:359,1,64,2|0,0:2|3:2,0:0:0:0:
104,377,179815,1,0,3:2:0:0:
144,290,179965,1,2,0:2:0:0:
62,261,180115,1,0,3:2:0:0:
62,261,180190,1,0,3:2:0:0:
62,261,180265,1,0,3:2:0:0:
109,177,180415,1,2,0:2:0:0:
195,217,180565,1,0,3:2:0:0:
268,106,180715,6,0,L|412:134,1,128,2|0,0:2|3:2,0:0:0:0:
488,146,181165,1,0,3:2:0:0:
478,248,181315,1,0,3:2:0:0:
478,248,181390,1,0,3:2:0:0:
478,248,181465,1,0,3:2:0:0:
391,291,181615,2,0,L|406:371,1,64,2|0,0:2|3:2,0:0:0:0:
375,199,181915,6,0,P|328:173|249:212,1,128,2|0,0:2|3:2,0:0:0:0:
289,365,182365,2,0,P|300:316|298:297,1,64,2|0,0:2|3:2,0:0:0:0:
286,268,182590,1,0,3:2:0:0:
286,268,182665,1,0,3:2:0:0:
169,199,182815,2,0,P|160:229|160:261,1,64,2|4,0:2|3:3,0:0:0:0:
281,187,183115,6,0,L|262:16,1,160,2|0,1:1|0:0,0:0:0:0:
80,104,183565,2,0,L|162:112,1,80,0|2,0:0|0:2,0:0:0:0:
199,117,183790,1,2,0:2:0:0:
199,117,183865,1,2,0:2:0:0:
38,38,184015,2,0,P|4:73|1:137,1,80,2|0,1:1|0:0,0:0:0:0:
98,262,184315,6,0,L|79:97,1,160,2|0,1:1|0:0,0:0:0:0:
189,37,184765,2,0,L|200:131,1,80,0|2,0:0|0:2,0:0:0:0:
206,151,184990,1,2,0:2:0:0:
206,151,185065,1,2,0:2:0:0:
312,219,185215,2,0,L|302:139,1,80,2|0,1:1|0:0,0:0:0:0:
398,28,185515,6,0,L|407:107,1,80,2|0,1:1|0:0,0:0:0:0:
417,188,185815,1,8,0:2:0:0:
293,59,185965,2,0,L|302:138,1,80,2|0,1:1|0:0,0:0:0:0:
312,219,186265,1,8,0:2:0:0:
188,90,186415,2,0,L|197:169,1,80,2|0,1:1|0:0,0:0:0:0:
209,251,186715,5,0,1:0:0:0:
302,138,186865,1,0,1:0:0:0:
104,204,187015,1,8,0:2:0:0:
316,262,187165,1,2,0:2:0:0:
136,309,187315,6,0,L|109:315,6,20,8|8|8|8|8|8|8,0:2|0:2|0:2|0:2|0:2|0:2|0:2,0:0:0:0:
210,344,187615,2,0,L|234:335,6,20,8|8|8|8|8|8|8,0:2|0:2|0:2|0:2|0:2|0:2|0:2,0:0:0:0:
136,309,187915,6,0,P|127:259|140:223,1,80,2|0,1:1|0:0,0:0:0:0:
185,149,188215,1,8,0:2:0:0:
278,264,188365,2,0,B|334:285|334:285|445:249,1,160,2|8,1:1|0:2,0:0:0:0:
343,113,188815,1,2,1:1:0:0:
333,194,188965,1,2,1:1:0:0:
418,82,189115,6,0,P|386:45|326:36,1,80,2|0,1:1|0:0,0:0:0:0:
325,28,189340,2,0,P|283:46|257:93,1,80,2|0,1:1|0:0,0:0:0:0:
264,111,189565,1,2,1:1:0:0:
410,168,189715,1,8,0:2:0:0:
417,206,189790,1,8,0:2:0:0:
405,244,189865,1,8,0:2:0:0:
377,272,189940,1,8,0:2:0:0:
339,284,190015,2,0,P|318:288|290:282,3,40,8|8|8|8,0:2|0:2|0:2|0:2,0:0:0:0:
228,278,190315,6,0,P|173:280|129:295,1,80,0|0,1:0|0:0,0:0:0:0:
75,364,190615,2,0,L|65:268,1,80,0|0,1:0|0:0,0:0:0:0:
60,190,190915,1,8,0:2:0:0:
205,152,191065,2,0,L|199:191,4,40,2|2|2|2|8,0:2|0:2|0:2|0:2|0:2,0:0:0:0:
220,72,191515,5,0,1:0:0:0:
288,179,191665,1,0,1:0:0:0:
141,96,191815,1,8,0:2:0:0:
351,127,191965,1,2,0:2:0:0:
363,156,192040,1,2,0:2:0:0:
364,187,192115,1,2,0:2:0:0:
355,217,192190,1,2,0:2:0:0:
335,242,192265,2,0,P|318:256|291:268,1,40,0|0,1:0|1:0,0:0:0:0:
204,167,192415,5,8,0:2:0:0:
165,158,192490,1,8,0:2:0:0:
126,168,192565,1,8,0:2:0:0:
97,194,192640,1,8,0:2:0:0:
83,231,192715,6,0,L|94:321,1,80,2|0,1:1|0:0,0:0:0:0:
191,381,193015,1,2,0:2:0:0:
187,349,193090,1,2,0:2:0:0:
181,317,193165,1,2,0:2:0:0:
177,285,193240,1,2,0:2:0:0:
174,253,193315,2,0,L|229:240,1,40,2|0,0:2|0:0,0:0:0:0:
276,200,193465,2,0,L|331:213,1,40,0|0,1:0|0:0,0:0:0:0:
399,226,193615,1,0,1:0:0:0:
420,37,193765,6,0,P|359:83|375:165,1,160,2|0,1:1|1:0,0:0:0:0:
512,123,194215,2,0,L|418:113,1,80,2|0,1:1|0:0,0:0:0:0:
266,110,194515,1,0,1:0:0:0:
296,266,194665,2,0,L|308:213,1,40,0|0,1:0|0:0,0:0:0:0:
175,126,194815,1,8,0:2:0:0:
177,156,194890,2,0,L|189:253,1,80,8|0,0:2|0:0,0:0:0:0:
266,110,195115,6,0,P|235:52|204:42,1,80,2|2,1:1|0:2,0:0:0:0:
105,33,195415,1,8,0:2:0:0:
187,236,195565,2,0,L|277:228,1,80,2|0,1:1|0:0,0:0:0:0:
386,216,195865,1,8,0:2:0:0:
177,156,196015,1,8,0:2:0:0:
139,167,196090,1,8,0:2:0:0:
111,195,196165,1,8,0:2:0:0:
101,233,196240,1,8,0:2:0:0:
111,272,196315,5,2,1:1:0:0:
265,230,196465,1,8,0:2:0:0:
180,76,196615,2,0,L|176:165,1,80,2|0,1:1|0:0,0:0:0:0:
168,330,196915,1,0,1:0:0:0:
278,139,197065,1,8,0:2:0:0:
313,160,197140,2,0,P|342:189|357:250,1,80,8|0,0:2|0:0,0:0:0:0:
345,267,197365,1,2,0:2:0:0:
345,267,197440,1,2,0:2:0:0:
345,267,197515,6,0,L|428:257,1,80,0|2,1:0|0:2,0:0:0:0:
468,254,197740,1,2,0:2:0:0:
468,254,197815,1,8,0:2:0:0:
512,133,197965,2,0,L|429:123,1,80,0|2,1:0|0:2,0:0:0:0:
388,121,198190,1,2,0:2:0:0:
388,121,198265,1,8,0:2:0:0:
274,118,198415,1,0,1:0:0:0:
396,14,198565,1,0,1:0:0:0:
286,201,198715,6,0,P|209:174|199:83,1,160,2|8,1:1|0:2,0:0:0:0:
388,121,199165,2,0,L|406:311,1,160,2|8,1:1|0:2,0:0:0:0:
286,201,199615,1,8,0:2:0:0:
282,161,199690,1,8,0:2:0:0:
279,121,199765,1,8,0:2:0:0:
276,81,199840,1,8,0:2:0:0:
272,41,199915,5,0,1:0:0:0:
388,121,200065,1,0,1:0:0:0:
205,200,200215,1,8,0:2:0:0:
355,24,200365,1,0,1:0:0:0:
146,13,200515,6,0,L|108:6,16,20,8|8|8|8|8|8|8|8|8|8|8|8|8|8|8|8|8,0:2|0:2|0:2|0:2|0:2|0:2|0:2|0:2|0:2|0:2|0:2|0:2|0:2|0:2|0:2|0:2|0:2,0:0:0:0:
278,128,201265,1,0,1:0:0:0:
321,121,201340,1,0,1:0:0:0:
364,114,201415,1,8,0:2:0:0:
238,29,201565,1,0,1:0:0:0:
147,139,201715,2,0,L|97:132,3,40,2|2|0|0,0:2|0:2|1:0|0:0,0:0:0:0:
51,184,202015,2,0,L|43:234,1,40,8|8,0:2|0:2,0:0:0:0:
86,288,202165,2,0,L|94:338,1,40,8|8,0:2|0:2,0:0:0:0:
185,348,202315,6,0,L|278:364,1,80,2|0,1:1|0:0,0:0:0:0:
383,384,202615,1,8,0:2:0:0:
431,226,202765,2,0,L|430:61,1,160,2|8,1:1|0:2,0:0:0:0:
323,6,203215,1,2,0:2:0:0:
323,46,203290,1,2,0:2:0:0:
323,86,203365,1,2,0:2:0:0:
324,126,203440,1,2,0:2:0:0:
327,169,203515,6,0,B|280:179|280:179|225:172,1,80,2|0,1:1|0:0,0:0:0:0:
198,65,203815,1,8,0:2:0:0:
102,172,203965,2,0,B|71:217|71:217|92:338,1,160,2|8,1:1|0:2,0:0:0:0:
217,225,204415,1,8,0:2:0:0:
255,215,204490,1,8,0:2:0:0:
295,208,204565,1,8,0:2:0:0:
334,203,204640,1,8,0:2:0:0:
374,202,204715,5,0,1:0:0:0:
195,141,204865,1,0,1:0:0:0:
275,326,205015,1,8,0:2:0:0:
422,199,205165,1,2,0:2:0:0:
422,199,205240,1,2,0:2:0:0:
422,199,205315,1,0,1:0:0:0:
217,225,205465,1,8,0:2:0:0:
349,114,205615,1,2,0:2:0:0:
195,141,205765,6,0,P|142:184|172:295,1,160,0|2,1:0|0:2,0:0:0:0:
246,310,206215,1,0,1:0:0:0:
67,313,206365,1,0,1:0:0:0:
217,225,206515,2,0,P|270:218|309:224,1,80,8|2,0:2|0:2,0:0:0:0:
362,276,206740,1,2,0:2:0:0:
362,276,206815,2,0,P|415:283|454:277,1,80,8|2,0:2|0:2,0:0:0:0:
496,181,207115,6,0,L|486:83,1,80,0|2,1:0|0:2,0:0:0:0:
483,57,207340,1,2,0:2:0:0:
483,57,207415,1,0,1:0:0:0:
337,26,207565,2,0,L|347:124,1,80,8|2,0:2|0:2,0:0:0:0:
353,148,207790,1,2,0:2:0:0:
353,148,207865,1,0,1:0:0:0:
418,10,208015,1,8,0:2:0:0:
242,67,208165,1,8,0:2:0:0:
432,134,208315,5,0,1:0:0:0:
223,161,208465,1,2,0:2:0:0:
337,26,208615,1,0,1:0:0:0:
319,185,208765,2,0,L|310:277,1,80,8|2,0:2|0:2,0:0:0:0:
294,384,209065,1,8,0:2:0:0:
205,299,209215,1,0,1:0:0:0:
170,278,209290,1,0,1:0:0:0:
131,273,209365,1,0,1:0:0:0:
93,283,209440,1,0,1:0:0:0:
61,308,209515,6,0,P|72:264|58:227,1,80,8|2,0:2|0:2,0:0:0:0:
41,205,209740,1,2,0:2:0:0:
41,205,209815,1,0,1:0:0:0:
180,152,209965,1,8,0:2:0:0:
63,310,210115,1,2,0:2:0:0:
63,310,210190,1,2,0:2:0:0:
61,308,210265,2,0,L|41:364,2,40,2|2|0,0:2|0:2|1:0,0:0:0:0:
108,107,210565,1,8,0:2:0:0:
222,286,210715,5,2,0:2:0:0:
222,286,210790,1,2,0:2:0:0:
222,286,210865,2,0,L|273:300,1,40,2|2,0:2|0:2,0:0:0:0:
307,233,211015,2,0,P|340:302|297:366,2,160,2|0|0,1:1|0:0|0:0,0:0:0:0:
198,184,211765,1,0,0:0:0:0:
373,111,211915,6,0,L|367:87,1,20,2|0,1:1|0:0,0:0:0:0:
115,53,212215,6,0,L|121:81,1,20,2|0,1:1|0:0,0:0:0:0:
340,204,212515,6,0,L|337:227,1,20,2|0,1:1|0:0,0:0:0:0:
163,255,212665,1,0,1:0:0:0:
163,255,212965,6,0,P|215:251|281:351,1,160,2|0,1:1|1:0,0:0:0:0:
190,349,213415,2,0,L|199:324,1,20,2|0,1:1|0:0,0:0:0:0:
256,148,213715,6,0,L|276:174,1,20,0|0,1:0|0:0,0:0:0:0:
388,273,214015,5,8,0:2:0:0:
388,273,214090,1,8,0:2:0:0:
388,273,214315,6,0,L|400:107,1,160,2|8,1:1|0:2,0:0:0:0:
482,36,214765,2,0,P|434:90|351:73,1,160,2|8,1:1|0:2,0:0:0:0:
231,2,215215,1,8,0:2:0:0:
210,35,215290,1,8,0:2:0:0:
201,74,215365,1,8,0:2:0:0:
206,114,215440,1,8,0:2:0:0:
225,149,215515,5,2,1:1:0:0:
319,7,215665,1,2,1:1:0:0:
119,94,215815,1,2,1:1:0:0:
324,155,215965,1,2,1:1:0:0:
132,227,216115,5,0,1:0:0:0:
132,227,216190,1,0,1:0:0:0:
132,227,216265,2,0,L|84:241,1,40,8|8,0:2|0:2,0:0:0:0:
5,356,216415,1,2,0:2:0:0:
42,342,216490,1,2,0:2:0:0:
80,329,216565,1,2,0:2:0:0:
118,316,216640,1,2,0:2:0:0:
156,304,216715,6,0,L|253:269,1,80,0|2,1:0|0:2,0:0:0:0:
273,263,216940,1,2,0:2:0:0:
273,263,217015,1,8,0:2:0:0:
324,155,217165,2,0,L|227:190,1,80,0|2,1:0|0:2,0:0:0:0:
208,200,217390,1,2,0:2:0:0:
208,200,217465,1,8,0:2:0:0:
347,239,217615,1,0,1:0:0:0:
241,96,217765,1,0,1:0:0:0:
435,51,217915,6,0,L|451:36,1,20,2|0,1:1|0:0,0:0:0:0:
324,155,218065,2,0,L|301:178,1,20,2|0,1:1|0:0,0:0:0:0:
340,21,218215,2,0,L|326:-3,1,20,8|0,0:2|0:0,0:0:0:0:
421,146,218365,2,0,L|435:170,1,20,2|0,1:1|0:0,0:0:0:0:
248,18,218515,2,0,P|199:27|169:60,1,80,2|8,1:1|0:2,0:0:0:0:
238,181,218815,2,0,L|245:146,7,20,8|8|8|8|8|8|8|8,0:2|0:2|0:2|0:2|0:2|0:2|0:2|0:2,0:0:0:0:
251,130,219115,5,0,1:0:0:0:
312,252,219265,1,0,1:0:0:0:
328,95,219415,1,8,0:2:0:0:
158,191,219565,1,0,1:0:0:0:
199,20,219715,6,0,L|206:-18,16,20,8|8|8|8|8|8|8|8|8|8|8|8|8|8|8|8|8,0:2|0:2|0:2|0:2|0:2|0:2|0:2|0:2|0:2|0:2|0:2|0:2|0:2|0:2|0:2|0:2|0:2,0:0:0:0:
249,133,220465,1,0,1:0:0:0:
241,176,220540,1,0,1:0:0:0:
234,219,220615,1,8,0:2:0:0:
151,86,220765,1,0,1:0:0:0:
90,214,220915,2,0,L|39:200,3,40,2|2|0|0,0:2|0:2|1:0|0:0,0:0:0:0:
8,261,221215,2,0,L|-4:314,1,40,8|8,0:2|0:2,0:0:0:0:
43,360,221365,2,0,L|96:372,1,40,8|8,0:2|0:2,0:0:0:0:
162,277,221515,6,0,P|210:266|256:294,1,80,2|0,1:1|0:0,0:0:0:0:
321,360,221815,1,8,0:2:0:0:
339,225,221965,2,0,L|353:65,1,160,2|8,1:1|0:2,0:0:0:0:
164,0,222415,1,2,0:2:0:0:
136,28,222490,1,2,0:2:0:0:
133,67,222565,1,2,0:2:0:0:
156,98,222640,1,2,0:2:0:0:
195,108,222715,6,0,L|285:100,1,80,2|0,1:1|0:0,0:0:0:0:
367,23,223015,1,8,0:2:0:0:
433,172,223165,2,0,L|418:346,1,160,2|8,1:1|0:2,0:0:0:0:
308,378,223615,1,8,0:2:0:0:
268,374,223690,1,8,0:2:0:0:
228,370,223765,1,8,0:2:0:0:
188,366,223840,1,8,0:2:0:0:
148,362,223915,5,0,1:0:0:0:
349,256,224065,1,0,1:0:0:0:
195,196,224215,1,8,0:2:0:0:
388,110,224365,1,2,0:2:0:0:
388,110,224440,1,2,0:2:0:0:
388,110,224515,1,0,1:0:0:0:
255,269,224665,1,8,0:2:0:0:
206,81,224815,1,2,0:2:0:0:
442,172,224965,6,0,P|468:113|407:30,1,160,0|2,1:0|0:2,0:0:0:0:
360,198,225415,1,0,1:0:0:0:
231,44,225565,1,0,1:0:0:0:
120,202,225715,2,0,L|210:192,1,80,8|2,0:2|0:2,0:0:0:0:
260,142,225940,1,2,0:2:0:0:
260,142,226015,2,0,P|279:188|260:248,1,80,8|2,0:2|0:2,0:0:0:0:
116,281,226315,6,0,L|120:176,1,80,0|2,1:0|0:2,0:0:0:0:
120,157,226540,1,2,0:2:0:0:
120,157,226615,1,0,1:0:0:0:
268,217,226765,2,0,L|264:322,1,80,8|2,0:2|0:2,0:0:0:0:
264,340,226990,1,2,0:2:0:0:
264,340,227065,1,0,1:0:0:0:
189,220,227215,1,8,0:2:0:0:
348,285,227365,1,8,0:2:0:0:
225,142,227515,5,0,1:0:0:0:
264,340,227665,1,2,0:2:0:0:
363,158,227815,1,0,1:0:0:0:
189,220,227965,2,0,P|152:186|141:152,1,80,8|2,0:2|0:2,0:0:0:0:
198,53,228265,1,8,0:2:0:0:
363,158,228415,1,0,1:0:0:0:
359,197,228490,1,0,1:0:0:0:
355,237,228565,1,0,1:0:0:0:
352,277,228640,1,0,1:0:0:0:
348,317,228715,6,0,L|261:331,1,80,8|2,0:2|0:2,0:0:0:0:
233,334,228940,1,2,0:2:0:0:
233,334,229015,1,0,1:0:0:0:
275,142,229165,1,8,0:2:0:0:
450,244,229315,1,2,0:2:0:0:
450,244,229390,1,2,0:2:0:0:
450,244,229465,2,0,L|455:302,2,40,2|2|0,0:2|0:2|1:0,0:0:0:0:
422,59,229765,1,8,0:2:0:0:
225,142,229915,6,0,L|181:152,1,40,8|0,0:2|0:0,0:0:0:0:
122,203,230065,2,0,L|78:193,3,40,0|0|0|0,0:0|0:0|0:0|0:0,0:0:0:0:
4,129,230365,6,0,L|48:119,1,40,8|0,0:2|0:0,0:0:0:0:
107,68,230515,2,0,L|151:78,3,40,0|0|0|0,0:0|0:0|0:0|0:0,0:0:0:0:
225,142,230815,6,0,L|248:138,7,20,8|8|8|8|8|8|8|8,0:2|0:2|0:2|0:2|0:2|0:2|0:2|0:2,0:0:0:0:
284,131,231115,5,6,1:1:0:0:
