osu file format v14

[General]
AudioFilename: audio.mp3
AudioLeadIn: 0
PreviewTime: 134155
Countdown: 1
SampleSet: Soft
StackLeniency: 0.5
Mode: 0
LetterboxInBreaks: 0
WidescreenStoryboard: 0

[Editor]
DistanceSpacing: 1
BeatDivisor: 4
GridSize: 8
TimelineZoom: 2.2

[Metadata]
Title:Samayoi no Mei
TitleUnicode:彷徨いの冥
Artist:Shoujo Fractal
ArtistUnicode:柚木梨沙
Creator:Sakura Airi
Version:Youkai Tree in her Garden
Source:東方妖々夢 ~ Perfect Cherry Blossom.
Tags:border of life yuyuko touhou 7 perfect cherry blossom
BeatmapID:1745991
BeatmapSetID:819790

[Difficulty]
HPDrainRate:6
CircleSize:4.2
OverallDifficulty:8.5
ApproachRate:9
SliderMultiplier:1.7
SliderTickRate:1

[Events]
//Background and Video events
0,0,"Konachan.com - 244011 bow breasts butterfly fan gray_hair green_eyes hat headband long_hair myon petals pink_eyes pink_hair ribbons short_hair skirt sword touhou weapon.jpg",0,0
//Break Periods
//Storyboard Layer 0 (Background)
//Storyboard Layer 1 (Fail)
//Storyboard Layer 2 (Pass)
//Storyboard Layer 3 (Foreground)
//Storyboard Sound Samples

[TimingPoints]
843,375,4,2,1,100,1,0
2905,-100,4,2,1,100,0,0
3843,-125,4,2,1,100,0,0
5343,-83.3333333333333,4,2,1,100,0,0
6093,-100,4,2,1,100,0,0
6749,-100,4,2,1,100,0,0
9843,-100,4,2,1,100,0,0
10033,-100,4,2,1,100,0,0
10218,-100,4,2,1,100,0,0
10405,-100,4,2,1,100,0,0
12093,-66.6666666666667,4,2,1,100,0,0
12843,-100,4,2,1,100,0,0
24843,-100,4,2,1,100,0,0
26343,-100,4,2,1,100,0,0
26436,-100,4,2,1,100,0,0
26999,-100,4,2,1,100,0,0
27186,-100,4,2,1,100,0,0
28311,-100,4,2,1,100,0,0
28499,-100,4,2,1,100,0,0
29624,-100,4,2,1,100,0,0
30186,-100,4,2,1,100,0,0
32999,-100,4,2,1,100,0,0
33561,-100,4,2,1,100,0,0
35624,-100,4,2,1,100,0,0
35811,-100,4,2,1,100,0,0
36186,-100,4,2,2,100,0,0
36843,-100,4,2,1,100,0,0
38249,-100,4,2,1,100,0,0
38436,-100,4,2,1,100,0,0
38999,-100,4,2,1,100,0,0
39186,-100,4,2,1,100,0,0
41624,-100,4,2,1,100,0,0
41811,-100,4,2,1,100,0,0
44249,-100,4,2,1,100,0,0
44436,-100,4,2,1,100,0,0
48843,-100,4,2,1,100,0,0
58030,-100,4,2,1,100,0,0
58499,-100,4,2,1,100,0,0
60843,-125,4,2,2,100,0,0
61593,-125,4,2,2,100,0,0
61968,-166.666666666667,4,2,1,100,0,0
62343,-90.9090909090909,4,2,1,100,0,1
62905,-100,4,2,1,100,0,1
68343,-90.9090909090909,4,2,1,100,0,1
68905,-100,4,2,1,100,0,1
72843,-76.9230769230769,4,2,1,100,0,1
74343,-100,4,2,1,100,0,1
86343,-125,4,2,1,60,0,0
98343,-100,4,2,1,100,0,0
106218,-66.6666666666667,4,2,1,100,0,0
106405,-100,4,2,1,100,0,0
108374,-66.6666666666667,4,2,1,100,0,0
109405,-100,4,2,1,100,0,0
122343,-100,4,2,1,100,0,0
126843,-66.6666666666667,4,2,1,100,0,0
128343,-125,4,2,1,100,0,0
130968,-100,4,2,1,100,0,0
134343,-133.333333333333,4,2,1,70,0,1
134624,-100,4,2,1,70,0,1
134905,-90.9090909090909,4,2,1,70,0,1
135655,-100,4,2,1,70,0,0
136593,-90.9090909090909,4,2,1,90,0,1
143718,-100,4,2,1,100,0,1
159093,-66.6666666666667,4,2,1,100,0,1
159843,-100,4,2,1,100,0,1
160593,-100,4,2,1,100,0,0
162093,-76.9230769230769,4,2,1,100,0,0
168843,-71.4285714285714,4,2,1,100,0,0
171655,-100,4,2,1,100,0,0
172030,-83.3333333333333,4,2,1,100,0,0
173718,-66.6666666666667,4,2,1,100,0,0
176155,-100,4,2,1,100,0,0
184686,-100,4,2,1,100,0,0
188155,-133.333333333333,4,2,1,100,0,0
199593,-153.846153846153,4,2,1,100,0,1
199968,-100,4,2,1,100,0,1
210093,-142.857142857143,4,2,1,100,0,1
210843,-142.857142857143,4,2,1,100,0,0
211593,-90.9090909090909,4,2,1,100,0,1
222093,-76.9230769230769,4,2,1,100,0,1
223593,-90.9090909090909,4,2,1,100,0,1
234093,-76.9230769230769,4,2,1,100,0,0
235593,-100,4,2,1,60,0,0
238593,394.736842105263,4,2,1,50,1,0
238987,416.666666666667,4,2,1,60,1,0
239403,526.315789473684,5,2,1,50,1,0
239929,483.870967741935,5,2,1,50,1,0
240412,588.235294117647,5,2,1,30,1,0
242470,666.666666666667,5,2,1,30,1,0

[Colours]
Combo1 : 247,157,157
Combo2 : 242,242,242
Combo3 : 235,148,202
Combo4 : 128,128,192

[HitObjects]
207,119,843,6,0,B|180:114|164:97|164:97|140:97|116:117|116:117|50:151|-18:102|68:17|89:111,2,255,2|0|0,0:0|0:0|0:0,0:0:0:0:
284,183,2155,1,0,0:0:0:0:
272,62,2343,6,0,B|288:102|291:124|291:124|281:144|268:158|268:158|279:189|261:226,1,170,2|0,0:0|0:0,0:0:0:0:
93,271,2905,1,2,0:0:0:0:
251,299,3093,1,0,0:0:0:0:
178,378,3280,1,0,0:0:0:0:
106,190,3468,1,0,0:0:0:0:
251,299,3843,6,0,P|245:275|238:216,1,68,2|0,0:0|0:0,0:0:0:0:
348,309,4218,2,0,P|346:332|332:387,1,68,2|0,0:0|0:0,0:0:0:0:
335,209,4593,1,2,0:0:0:0:
403,249,4780,1,0,0:0:0:0:
394,92,4968,1,2,0:0:0:0:
406,170,5155,1,0,0:0:0:0:
482,58,5343,6,0,B|494:42|494:42|507:-11,3,50.9999984436036,4|0|0|0,0:0|0:0|0:0|0:0,0:0:0:0:
394,92,5718,2,0,B|399:68|399:68|414:39,3,50.9999984436036,4|0|0|0,0:0|0:0|0:0|0:0,0:0:0:0:
331,146,6093,5,4,0:0:0:0:
291,146,6186,1,0,0:0:0:0:
251,146,6280,1,0,0:0:0:0:
215,145,6374,1,0,0:0:0:0:
147,112,6468,1,4,0:0:0:0:
111,137,6561,1,0,0:0:0:0:
92,176,6655,1,0,0:0:0:0:
96,220,6749,1,0,0:0:0:0:
113,255,6843,6,0,B|150:240|171:252|171:252|205:237|205:237|237:268|275:264|301:235,1,170,8|0,0:0|0:0,0:0:0:0:
459,289,7405,1,2,0:0:0:0:
450,302,7499,1,0,0:0:0:0:
440,317,7593,2,0,P|412:333|345:323,1,85
321,154,7968,1,0,0:0:0:0:
394,198,8155,1,0,0:0:0:0:
291,275,8343,6,0,B|270:254|266:222|266:222|276:206|279:185|279:185|260:151|279:103,1,170,12|0,0:0|0:0,0:0:0:0:
379,8,8905,1,2,0:0:0:0:
384,18,8999,1,0,0:0:0:0:
390,30,9093,2,0,P|388:73|378:130,1,85
435,269,9468,2,0,P|437:221|447:151,1,85
379,114,9843,5,12,0:0:0:0:
311,41,10030,1,0,0:0:0:0:
209,38,10218,1,8,0:0:0:0:
119,108,10405,1,0,0:0:0:0:
291,204,10593,2,0,P|303:186|283:105,1,85,12|0,0:0|0:0,0:0:0:0:
139,212,10968,2,0,P|122:249|144:312,1,85,4|0,0:0|0:0,0:0:0:0:
280,321,11343,5,12,0:0:0:0:
203,262,11530,1,0,0:0:0:0:
202,362,11718,1,12,0:0:0:0:
264,204,11905,1,0,0:0:0:0:
129,293,12093,6,0,P|50:275|16:281,1,63.7500024318696,4|0,0:0|0:0,0:0:0:0:
264,204,12280,2,0,P|343:222|377:216,1,63.7500024318696
238,310,12468,2,0,P|240:342|250:372,1,63.7500024318696,4|0,0:0|0:0,0:0:0:0:
155,174,12655,2,0,P|144:144|142:112,1,63.7500024318696
366,49,12843,6,0,L|264:42,1,85,12|0,0:0|0:0,0:0:0:0:
282,186,13218,1,8,0:0:0:0:
422,104,13405,2,0,P|385:54|348:49,1,85,0|8,0:0|0:0,0:0:0:0:
194,129,13780,1,2,0:0:0:0:
186,135,13874,1,0,0:0:0:0:
178,142,13968,1,10,0:0:0:0:
282,186,14155,1,0,0:0:0:0:
357,231,14343,6,0,B|334:228|319:222|319:222|305:231|286:235|286:235|236:199|173:230,1,170,12|0,0:0|0:0,0:0:0:0:
137,308,14811,1,0,0:0:0:0:
137,308,14905,2,0,P|112:315|36:291,1,85
172,126,15280,1,0,0:0:0:0:
180,131,15374,1,0,0:0:0:0:
189,136,15468,2,0,P|190:180|198:234,1,85
361,293,15843,5,12,0:0:0:0:
207,346,16030,1,0,0:0:0:0:
454,228,16218,1,8,0:0:0:0:
299,194,16405,1,0,0:0:0:0:
432,75,16593,5,12,0:0:0:0:
325,278,16780,1,0,0:0:0:0:
296,76,16968,1,8,0:0:0:0:
222,197,17155,6,0,B|189:187|162:202|162:202|131:196|116:169|116:169|75:155|21:204|112:284|127:185,1,255,14|0,0:0|0:0,0:0:0:0:
240,284,17905,2,0,P|274:280|340:276,1,85
264,384,18280,1,0,0:0:0:0:
304,179,18468,1,0,0:0:0:0:
405,329,18655,1,2,0:0:0:0:
412,338,18749,1,0,0:0:0:0:
422,350,18843,6,0,B|435:309|454:290|454:290|455:258|443:222|399:184,1,170,6|0,0:0|0:0,0:0:0:0:
395,118,19405,1,0,0:0:0:0:
287,252,19593,2,0,P|304:267|387:262,1,85
498,110,19968,1,0,0:0:0:0:
343,201,20155,1,0,0:0:0:0:
261,25,20343,6,0,B|196:12|196:12|154:36|154:36|99:26,1,170,4|0,0:0|0:0,0:0:0:0:
28,153,20905,1,0,0:0:0:0:
28,153,21093,2,0,P|63:147|134:148,1,85
285,224,21468,2,0,P|248:219|200:218,1,85
90,227,21843,5,4,0:0:0:0:
215,120,22030,1,0,0:0:0:0:
246,338,22218,1,0,0:0:0:0:
337,129,22405,1,4,0:0:0:0:
337,129,22780,5,8,0:0:0:0:
307,320,22968,1,4,0:0:0:0:
307,320,23061,1,0,0:0:0:0:
307,320,23155,1,0,0:0:0:0:
228,213,23343,5,4,0:0:0:0:
470,152,23530,1,0,0:0:0:0:
397,375,23718,1,0,0:0:0:0:
397,375,23811,1,0,0:0:0:0:
337,129,23999,6,4,B|295:140|286:136|286:136|276:126|263:122|263:122|244:129|244:129|206:149|149:110,1,170,4|0,0:0|0:0,0:0:0:0:
142,65,24468,1,0,0:0:0:0:
124,66,24561,1,0,0:0:0:0:
106,67,24655,1,0,0:0:0:0:
88,68,24749,1,0,0:0:0:0:
76,68,24843,6,0,B|68:106|85:137|85:137|79:158|62:184|62:184|86:211|91:245,1,170,4|0,0:0|0:0,0:0:0:0:
170,227,25405,2,0,P|131:222|72:225,1,85,2|0,0:0|0:0,0:0:0:0:
50,306,25780,1,2,0:0:0:0:
221,283,25968,2,0,P|250:230|234:181,1,85,2|0,0:0|0:0,0:0:0:0:
203,115,26343,5,2,0:0:0:0:
170,225,26530,1,0,0:0:0:0:
286,12,26718,1,2,0:0:0:0:
307,133,26905,1,0,0:0:0:0:
432,68,27093,6,0,P|457:121|440:169,1,85,2|0,0:0|0:0,0:0:0:0:
310,261,27468,1,2,0:0:0:0:
373,124,27655,1,0,0:0:0:0:
420,291,27843,6,0,B|350:285|350:285|317:300|317:300|241:295,1,170,2|0,0:0|0:0,0:0:0:0:
117,361,28405,2,0,P|91:315|99:273,1,85,2|0,0:0|0:0,0:0:0:0:
186,127,28780,1,2,0:0:0:0:
175,303,28968,1,2,0:0:0:0:
88,168,29155,6,0,P|72:121|155:28,1,170,2|2,0:0|0:0,0:0:0:0:
359,103,29718,2,0,P|309:110|260:109,1,85,2|0,0:0|0:0,0:0:0:0:
156,117,30093,1,2,0:0:0:0:
198,184,30280,1,0,0:0:0:0:
265,24,30468,1,2,0:0:0:0:
352,222,30655,1,0,0:0:0:0:
397,86,30843,6,0,B|417:60|415:34|415:34|459:88|437:159,1,170,2|0,0:0|0:0,0:0:0:0:
352,222,31405,2,0,P|315:220|264:217,1,85,2|0,0:0|0:0,0:0:0:0:
238,112,31780,1,2,0:0:0:0:
424,218,31968,2,0,P|438:258|422:307,1,85,2|0,0:0|0:0,0:0:0:0:
349,333,32343,1,2,0:0:0:0:
349,333,32718,6,0,P|321:349|238:324,1,85,2|0,0:0|0:0,0:0:0:0:
386,149,33093,2,0,L|489:157,1,85,2|0,0:0|0:0,0:0:0:0:
351,255,33468,1,2,0:0:0:0:
299,102,33655,1,2,0:0:0:0:
223,293,33843,6,0,B|174:285|135:311|135:311|84:298|93:234,1,170,2|0,0:0|0:0,0:0:0:0:
218,108,34405,2,0,P|240:97|305:105,1,85,2|0,0:0|0:0,0:0:0:0:
296,331,34780,1,2,0:0:0:0:
263,181,34968,1,2,0:0:0:0:
377,210,35155,6,0,B|339:211|319:204|319:204|293:212|278:231|278:231|244:234|183:223,1,170,2|0,0:0|0:0,0:0:0:0:
70,126,35718,1,2,0:0:0:0:
232,143,35905,1,0,0:0:0:0:
14,197,36093,1,0,0:0:0:0:
154,50,36280,1,0,0:0:0:0:
124,268,36468,1,0,0:0:0:0:
144,33,36655,1,0,0:0:0:0:
117,291,36843,6,0,B|179:281|179:281|222:306|222:306|319:293,1,170,2|0,0:0|0:0,0:0:0:0:
344,106,37405,2,0,P|330:133|340:195,1,85,2|0,0:0|0:0,0:0:0:0:
392,336,37780,1,2,0:0:0:0:
494,163,37968,2,0,P|465:161|386:150,1,85,2|0,0:0|0:0,0:0:0:0:
244,128,38343,5,2,0:0:0:0:
146,107,38530,1,0,0:0:0:0:
280,219,38718,1,2,0:0:0:0:
331,83,38905,1,0,0:0:0:0:
198,208,39093,5,2,0:0:0:0:
255,341,39280,1,0,0:0:0:0:
244,128,39468,1,2,0:0:0:0:
82,216,39655,1,0,0:0:0:0:
312,274,39843,6,0,B|340:285|371:276|371:276|399:266|434:271|434:271|431:231|389:225,1,170,2|0,0:0|0:0,0:0:0:0:
263,207,40405,2,0,P|228:241|237:306,1,85,2|0,0:0|0:0,0:0:0:0:
410,369,40780,1,2,0:0:0:0:
351,184,40968,1,2,0:0:0:0:
276,365,41155,6,0,B|256:369|226:354|226:354|190:358|154:374|154:374|120:355|112:311,1,170,2|0,0:0|0:0,0:0:0:0:
233,211,41718,1,2,0:0:0:0:
77,150,41905,1,0,0:0:0:0:
275,179,42093,1,0,0:0:0:0:
30,222,42280,1,0,0:0:0:0:
189,84,42468,1,0,0:0:0:0:
121,302,42655,1,0,0:0:0:0:
54,65,42843,6,0,B|125:58|125:58|152:70|152:70|233:62,1,170,2|0,0:0|0:0,0:0:0:0:
359,166,43405,2,0,P|327:172|269:179,1,85,2|0,0:0|0:0,0:0:0:0:
299,0,43780,1,2,0:0:0:0:
407,101,43968,2,0,P|434:137|435:190,1,85,2|0,0:0|0:0,0:0:0:0:
281,342,44343,5,2,0:0:0:0:
359,166,44530,1,0,0:0:0:0:
377,311,44718,1,2,0:0:0:0:
215,226,44905,1,0,0:0:0:0:
287,74,45093,1,2,0:0:0:0:
264,299,45280,1,0,0:0:0:0:
123,174,45468,2,0,L|29:169,1,85,2|0,0:0|0:0,0:0:0:0:
217,48,45843,6,0,B|227:82|244:104|244:104|249:144|227:170|227:170|227:143|210:127,1,170,2|0,0:0|0:0,0:0:0:0:
146,343,46405,2,0,P|128:320|133:234,1,85,2|0,0:0|0:0,0:0:0:0:
93,89,46780,1,2,0:0:0:0:
213,273,46968,1,2,0:0:0:0:
12,204,47155,1,2,0:0:0:0:
256,192,47249,12,0,48468,0:0:0:0:
455,154,48843,6,0,B|434:138|406:133|406:133|366:154|323:140,1,127.5,10|0,0:0|0:0,0:0:0:0:
303,151,49218,1,10,0:0:0:0:
388,318,49405,2,0,P|405:299|399:219,1,85,8|0,0:0|0:0,0:0:0:0:
493,302,49780,1,10,0:0:0:0:
321,370,49968,2,0,L|220:374,1,85,8|0,0:0|0:0,0:0:0:0:
310,242,50343,5,8,0:0:0:0:
331,252,50436,1,0,0:0:0:0:
277,74,50624,1,8,2:0:0:0:
258,68,50718,1,0,2:0:0:0:
124,160,50905,2,0,P|103:197|138:296,1,127.5,8|0,0:0|0:0,0:0:0:0:
145,289,51280,1,10,0:0:0:0:
331,177,51468,2,0,P|301:164|215:189,1,85,8|0,0:0|0:0,0:0:0:0:
404,342,51749,1,8,0:0:0:0:
404,342,51843,6,0,L|409:240,1,85,10|0,0:0|0:0,0:0:0:0:
492,323,52218,1,8,0:0:0:0:
486,144,52405,2,0,P|463:126|373:127,1,85,8|0,0:0|0:0,0:0:0:0:
273,165,52780,1,10,0:0:0:0:
419,202,52968,1,0,0:0:0:0:
319,28,53155,1,8,0:0:0:0:
176,197,53343,6,0,L|183:227,6,21.25
91,144,53718,6,0,L|84:114,6,21.25
172,48,54093,6,0,L|180:78,16,21.25
256,192,54936,12,0,56343,0:0:0:0:
399,245,57468,6,0,B|378:236|350:231|350:231|308:255|259:237,1,127.5,2|0,0:0|0:0,0:0:0:0:
245,240,57843,1,8,0:0:0:0:
340,113,58124,1,8,0:0:0:0:
386,346,58405,1,8,0:0:0:0:
273,64,58593,2,0,P|344:29|384:43,1,85,8|0,0:0|0:0,0:0:0:0:
220,179,58968,2,0,L|117:172,1,85,8|0,0:0|0:0,0:0:0:0:
34,238,59343,5,0,0:0:0:0:
63,239,59436,1,0,0:0:0:0:
91,250,59530,1,0,0:0:0:0:
112,271,59624,1,0,0:0:0:0:
134,291,59718,1,0,0:0:0:0:
161,302,59811,1,0,0:0:0:0:
191,302,59905,1,0,0:0:0:0:
219,294,59999,1,0,0:0:0:0:
245,282,60093,5,0,0:0:0:0:
278,319,60186,1,0,0:0:0:0:
326,334,60280,1,0,0:0:0:0:
375,321,60374,1,0,0:0:0:0:
409,284,60468,1,0,0:0:0:0:
419,235,60561,1,0,0:0:0:0:
402,188,60655,1,0,0:0:0:0:
363,157,60749,1,0,0:0:0:0:
313,151,60843,6,0,B|271:139|271:139|232:157|185:146,1,102,2|0,0:0|0:0,0:0:0:0:
402,188,61218,2,0,B|429:158|429:158|410:126|415:75,1,102
325,239,61593,2,0,B|337:276|337:276|377:279|415:308,1,102
476,266,61968,6,0,P|488:296|481:344,1,76.4999976654053
245,271,62343,6,0,B|205:252|171:258|171:258|143:271|110:278|110:278|73:269|71:226,1,187.000005706787,14|8,0:0|0:0,0:0:0:0:
264,98,62905,1,0,0:0:0:0:
281,95,62999,1,0,0:0:0:0:
298,91,63093,2,0,P|329:93|406:99,1,85,8|0,0:0|0:0,0:0:0:0:
277,345,63468,2,0,P|246:262|257:234,1,85,8|0,0:0|0:0,0:0:0:0:
496,215,63843,6,0,B|430:202|430:202|393:221|393:221|295:205,1,170,14|8,0:0|0:0,0:0:0:0:
176,0,64405,1,2,0:0:0:0:
179,7,64499,1,0,0:0:0:0:
182,16,64593,1,10,0:0:0:0:
244,272,64780,1,2,0:0:0:0:
320,38,64968,2,0,P|347:38|434:33,1,85,8|0,0:0|0:0,0:0:0:0:
194,195,65343,6,0,B|173:179|145:174|145:174|105:195|62:181,1,127.5,14|0,0:0|0:0,0:0:0:0:
43,169,65718,1,8,0:0:0:0:
250,84,65905,2,0,L|257:-3,1,85,6|8,0:0|0:0,0:0:0:0:
137,351,66280,2,0,L|125:256,1,85,6|8,0:0|0:0,0:0:0:0:
45,44,66655,1,12,0:0:0:0:
168,172,66843,5,4,0:0:0:0:
201,200,66936,1,0,0:0:0:0:
244,211,67030,1,0,0:0:0:0:
287,204,67124,1,0,0:0:0:0:
344,152,67218,5,4,0:0:0:0:
381,121,67311,1,0,0:0:0:0:
429,112,67405,1,0,0:0:0:0:
475,126,67499,1,0,0:0:0:0:
506,193,67593,5,4,0:0:0:0:
506,243,67686,1,0,0:0:0:0:
481,288,67780,1,0,0:0:0:0:
438,314,67874,1,0,0:0:0:0:
374,276,67968,5,4,0:0:0:0:
356,277,68061,1,0,0:0:0:0:
338,279,68155,1,0,0:0:0:0:
320,281,68249,1,0,0:0:0:0:
304,284,68343,6,0,B|255:271|255:271|239:273|223:281|223:281|189:305|155:300|155:300|144:277|144:277|112:265,1,187.000005706787,6|8,0:0|0:0,0:0:0:0:
5,80,68905,1,2,0:0:0:0:
13,77,68999,1,0,0:0:0:0:
22,74,69093,2,0,L|118:67,1,85,8|0,0:0|0:0,0:0:0:0:
295,126,69468,1,10,0:0:0:0:
139,275,69655,1,0,0:0:0:0:
244,42,69843,6,0,B|315:33|315:33|354:57|354:57|439:44,1,170,14|8,0:0|0:0,0:0:0:0:
497,237,70405,1,2,0:0:0:0:
512,249,70499,1,0,0:0:0:0:
503,245,70593,2,0,L|406:243,1,85,8|0,0:0|0:0,0:0:0:0:
232,377,70968,2,0,P|259:359|267:273,1,85,10|0,0:0|0:0,0:0:0:0:
188,78,71343,5,14,0:0:0:0:
199,303,71530,1,0,0:0:0:0:
294,123,71718,1,10,0:0:0:0:
52,226,71905,1,0,0:0:0:0:
308,220,72093,5,14,0:0:0:0:
63,67,72280,1,0,0:0:0:0:
199,303,72468,1,10,0:0:0:0:
244,18,72655,1,0,0:0:0:0:
372,127,72843,5,14,0:0:0:0:
146,163,73030,1,0,0:0:0:0:
341,248,73218,1,14,0:0:0:0:
71,209,73405,1,0,0:0:0:0:
273,88,73593,5,14,0:0:0:0:
138,308,73780,1,0,0:0:0:0:
304,163,73968,1,14,0:0:0:0:
323,384,74155,1,0,0:0:0:0:
432,98,74343,6,0,B|409:95|394:89|394:89|380:98|361:102|361:102|331:86|288:78|288:78|275:89|248:97,1,170,14|8,0:0|0:0,0:0:0:0:
32,227,74905,1,2,0:0:0:0:
44,223,74999,1,0,0:0:0:0:
57,221,75093,2,0,L|157:219,1,85,8|0,0:0|0:0,0:0:0:0:
282,263,75468,1,10,0:0:0:0:
147,39,75655,1,0,0:0:0:0:
156,331,75843,6,0,B|192:344|225:331|225:331|245:340|268:361|268:361|299:340|333:340,1,170,4|8,0:0|0:0,0:0:0:0:
460,215,76405,1,2,0:0:0:0:
447,209,76499,1,0,0:0:0:0:
432,201,76593,2,0,L|319:196,1,85,8|0,0:0|0:0,0:0:0:0:
487,380,76968,2,0,P|508:353|506:286,1,85,8|0,0:0|0:0,0:0:0:0:
444,90,77343,6,0,B|424:94|394:79|394:79|358:83|337:102|337:102|313:105|299:92,1,127.5,12|0,0:0|0:0,0:0:0:0:
294,95,77718,1,10,0:0:0:0:
114,21,77905,2,0,P|141:19|226:12,1,85,14|8,0:0|0:0,0:0:0:0:
70,226,78280,2,0,P|44:198|45:129,1,85,14|8,0:0|0:0,0:0:0:0:
114,21,78655,1,4,0:0:0:0:
156,132,78843,5,12,0:0:0:0:
174,171,78936,1,0,0:0:0:0:
209,198,79030,1,0,0:0:0:0:
251,209,79124,1,0,0:0:0:0:
324,185,79218,5,12,0:0:0:0:
371,172,79311,1,0,0:0:0:0:
418,183,79405,1,0,0:0:0:0:
455,214,79499,1,0,0:0:0:0:
496,275,79593,5,12,0:0:0:0:
471,324,79686,1,0,0:0:0:0:
426,355,79780,1,0,0:0:0:0:
371,361,79874,1,0,0:0:0:0:
306,331,79968,5,12,0:0:0:0:
288,331,80061,1,0,0:0:0:0:
270,332,80155,1,0,0:0:0:0:
252,333,80249,1,0,0:0:0:0:
235,333,80343,6,0,B|189:315|137:339|137:339|90:331|80:268,1,170,6|8,0:0|0:0,0:0:0:0:
286,144,80905,1,2,0:0:0:0:
293,151,80999,1,0,0:0:0:0:
299,156,81093,2,0,P|315:178|314:249,1,85,10|0,0:0|0:0,0:0:0:0:
217,218,81468,1,10,0:0:0:0:
418,137,81655,1,0,0:0:0:0:
494,331,81843,6,6,B|435:320|435:320|398:337|398:337|317:324,1,170,6|8,0:0|0:0,0:0:0:0:
138,233,82405,1,2,0:0:0:0:
154,236,82499,1,0,0:0:0:0:
169,240,82593,2,0,P|200:238|276:231,1,85,8|0,0:0|0:0,0:0:0:0:
404,157,82968,2,0,P|423:124|414:75,1,85,10|0,0:0|0:0,0:0:0:0:
108,21,83343,5,14,0:0:0:0:
336,105,83530,1,0,0:0:0:0:
125,200,83718,1,14,0:0:0:0:
292,21,83905,1,0,0:0:0:0:
226,313,84093,5,14,0:0:0:0:
146,60,84280,1,0,0:0:0:0:
319,217,84468,1,14,0:0:0:0:
37,191,84655,1,0,0:0:0:0:
330,100,84843,5,2,0:0:0:0:
221,147,85030,1,0,0:0:0:0:
333,71,85218,1,2,0:0:0:0:
223,169,85405,1,0,0:0:0:0:
424,187,85593,5,2,0:0:0:0:
455,301,85780,1,0,0:0:0:0:
395,179,85968,1,2,0:0:0:0:
478,301,86155,1,0,0:0:0:0:
339,342,86343,6,0,P|308:348|266:350,1,68,2|0,0:0|0:0,0:0:0:0:
213,219,86718,1,2,0:0:0:0:
148,344,86905,2,0,P|112:359|63:349,2,68,2|0|2,0:0|0:0|0:0,0:0:0:0:
104,210,87468,2,0,P|101:249|101:282,1,68,2|0,0:0|0:0,0:0:0:0:
193,199,87843,6,0,P|188:168|190:132,1,68,2|0,0:0|0:0,0:0:0:0:
247,78,88218,1,2,0:0:0:0:
276,200,88405,2,0,P|285:235|281:286,1,68,2|0,0:0|0:0,0:0:0:0:
235,333,88780,1,2,0:0:0:0:
149,268,88968,2,0,L|41:262,1,102,2|0,0:0|0:0,0:0:0:0:
11,170,89343,6,0,B|39:164|66:178|66:178|84:164|119:157|119:157|137:162,1,102,2|0,0:0|0:0,0:0:0:0:
138,154,89718,1,2,0:0:0:0:
104,51,89905,1,0,0:0:0:0:
104,51,90280,1,2,0:0:0:0:
138,154,90468,1,2,0:0:0:0:
241,171,90655,6,0,B|285:160|312:173|312:173|352:157|352:157|366:167|397:165,1,136,2|0,0:0|0:0,0:0:0:0:
428,217,91218,1,2,0:0:0:0:
444,249,91405,1,2,0:0:0:0:
410,307,91593,1,2,0:0:0:0:
338,335,91780,1,2,0:0:0:0:
261,302,91968,1,2,0:0:0:0:
181,333,92155,1,2,0:0:0:0:
103,296,92343,6,0,L|22:301,1,68,2|0,0:0|0:0,0:0:0:0:
202,210,92718,1,2,0:0:0:0:
181,333,92905,1,2,0:0:0:0:
122,212,93093,1,2,0:0:0:0:
259,280,93280,1,2,0:0:0:0:
290,302,93468,1,2,0:0:0:0:
359,270,93655,1,2,0:0:0:0:
361,193,93843,6,0,P|334:191|274:188,1,68,2|0,0:0|0:0,0:0:0:0:
207,186,94218,1,2,0:0:0:0:
223,154,94405,1,2,0:0:0:0:
189,96,94593,1,2,0:0:0:0:
120,136,94780,1,2,0:0:0:0:
53,92,94968,1,2,0:0:0:0:
14,162,95155,1,2,0:0:0:0:
66,226,95343,6,0,P|61:258|56:297,1,68,2|0,0:0|0:0,0:0:0:0:
129,326,95718,1,2,0:0:0:0:
148,355,95905,1,2,0:0:0:0:
215,355,96093,1,2,0:0:0:0:
276,307,96280,1,2,0:0:0:0:
353,345,96468,1,2,0:0:0:0:
423,294,96655,1,2,0:0:0:0:
385,225,96843,6,0,P|352:220|290:216,1,68,2|0,0:0|0:0,0:0:0:0:
230,126,97218,2,0,P|263:121|325:117,1,68,2|0,0:0|0:0,0:0:0:0:
159,199,97593,1,2,0:0:0:0:
139,122,97780,1,2,0:0:0:0:
299,200,97968,1,2,0:0:0:0:
271,270,98155,1,2,0:0:0:0:
55,288,98343,6,0,L|192:284,1,127.5,4|0,0:0|0:0,0:0:0:0:
239,343,98718,2,0,P|270:304|262:246,1,85,10|0,0:0|0:0,0:0:0:0:
172,79,99093,1,8,0:0:0:0:
65,204,99280,1,0,0:0:0:0:
88,203,99374,1,0,0:0:0:0:
108,201,99468,2,0,P|139:201|202:198,1,85,8|0,0:0|0:0,0:0:0:0:
339,71,99843,6,0,L|237:66,1,85,8|0,0:0|0:0,0:0:0:0:
175,0,100218,1,8,0:0:0:0:
285,186,100405,1,0,0:0:0:0:
308,182,100499,1,0,0:0:0:0:
330,176,100593,2,0,B|399:216|451:184|451:184|514:251|440:306,1,255,8|0,0:0|0:0,0:0:0:0:
352,329,101343,6,0,B|311:343|311:343|282:318|226:319|226:319|207:338|186:341|186:341|171:321|141:319|141:319|132:297|131:263,1,255,14|0,0:0|0:0,0:0:0:0:
135,297,101999,1,0,0:0:0:0:
135,297,102093,1,8,0:0:0:0:
29,194,102280,1,0,0:0:0:0:
3,353,102468,1,8,0:0:0:0:
119,164,102655,2,0,P|105:159|54:145,1,42.5
174,93,102843,6,0,B|227:95|270:75|270:75|300:80|343:95,1,170,8|0,0:0|0:0,0:0:0:0:
446,165,103405,2,0,B|505:211|438:345|316:248|356:189|356:189|320:194|307:189|307:189|274:203|251:223,1,340
130,330,104249,1,0,0:0:0:0:
130,330,104343,6,0,L|231:326,1,85,14|0,0:0|0:0,0:0:0:0:
320,364,104718,1,8,0:0:0:0:
130,246,104905,1,0,0:0:0:0:
100,230,104999,1,0,0:0:0:0:
80,204,105093,1,8,0:0:0:0:
72,171,105186,1,0,0:0:0:0:
77,138,105280,1,0,0:0:0:0:
96,111,105374,1,0,0:0:0:0:
124,93,105468,5,8,0:0:0:0:
143,131,105561,1,0,0:0:0:0:
176,157,105655,1,0,0:0:0:0:
217,167,105749,1,0,0:0:0:0:
258,158,105843,5,8,0:0:0:0:
259,112,105936,1,0,0:0:0:0:
283,72,106030,1,0,0:0:0:0:
323,49,106124,1,0,0:0:0:0:
369,48,106218,2,0,L|443:55,1,63.7500024318696
480,202,106405,6,0,B|426:162|369:191|369:191|401:227|370:270,1,170
298,244,106968,2,0,L|214:253,2,56.6666666666667
447,338,107343,2,0,L|355:333,1,85,14|0,0:0|0:0,0:0:0:0:
285,352,107624,5,0,0:0:0:0:
243,341,107718,1,8,0:0:0:0:
201,338,107811,1,0,0:0:0:0:
160,347,107905,1,0,0:0:0:0:
119,357,107999,1,0,0:0:0:0:
77,351,108093,1,8,0:0:0:0:
46,326,108186,1,0,0:0:0:0:
46,284,108280,1,0,0:0:0:0:
61,245,108374,6,0,P|40:222|54:154,1,63.7500024318696,0|8,0:0|0:0,0:0:0:0:
204,96,108561,2,0,P|186:137|149:152,1,63.7500024318696
18,38,108749,1,0,0:0:0:0:
18,38,108843,2,0,P|58:56|73:93,1,63.7500024318696,8|0,0:0|0:0,0:0:0:0:
192,244,109030,5,0,0:0:0:0:
373,97,109218,1,8,0:0:0:0:
367,78,109311,1,0,0:0:0:0:
302,276,109499,2,0,B|310:300|294:325|294:325|357:295|334:199,1,170
292,163,109968,5,10,0:0:0:0:
273,161,110061,1,2,0:0:0:0:
255,160,110155,1,2,0:0:0:0:
237,158,110249,1,2,0:0:0:0:
219,157,110343,1,10,0:0:0:0:
167,227,110530,5,10,0:0:0:0:
106,338,110718,1,10,0:0:0:0:
326,115,111093,5,10,0:0:0:0:
351,307,111374,1,10,0:0:0:0:
125,93,111655,5,2,0:0:0:0:
125,93,111749,1,0,0:0:0:0:
125,93,111843,2,0,P|156:75|234:85,1,85,10|0,0:0|0:0,0:0:0:0:
407,121,112218,2,0,P|373:108|298:132,1,85,10|0,0:0|0:0,0:0:0:0:
193,225,112593,2,0,P|220:201|298:198,1,85,10|0,0:0|0:0,0:0:0:0:
368,351,112968,1,10,0:0:0:0:
368,351,113530,5,10,0:0:0:0:
383,202,113718,1,10,0:0:0:0:
185,320,114093,5,10,0:0:0:0:
322,290,114374,1,2,0:0:0:0:
152,171,114655,5,2,0:0:0:0:
152,171,114749,1,0,0:0:0:0:
152,171,114843,2,0,L|50:171,1,85,10|0,0:0|0:0,0:0:0:0:
293,82,115218,2,0,L|195:76,1,85,10|0,0:0|0:0,0:0:0:0:
272,230,115593,1,10,0:0:0:0:
126,115,115780,1,0,0:0:0:0:
335,162,115968,1,10,0:0:0:0:
119,256,116155,1,0,0:0:0:0:
292,327,116343,6,0,P|341:320|395:317,1,85,10|0,0:0|0:0,0:0:0:0:
394,193,116718,1,10,0:0:0:0:
229,277,116905,2,0,P|211:302|223:367,1,85,10|8,0:0|0:0,0:0:0:0:
317,153,117280,1,10,0:0:0:0:
130,225,117468,1,8,0:0:0:0:
295,327,117655,1,2,0:0:0:0:
212,138,117843,6,0,L|114:127,1,85,10|0,0:0|0:0,0:0:0:0:
284,226,118218,2,0,P|315:188|308:129,1,85,10|0,0:0|0:0,0:0:0:0:
229,40,118593,1,10,0:0:0:0:
119,245,118780,1,0,0:0:0:0:
237,159,118968,1,10,0:0:0:0:
38,144,119155,1,0,0:0:0:0:
224,286,119343,6,0,L|341:280,1,85,10|0,0:0|0:0,0:0:0:0:
334,167,119718,1,10,0:0:0:0:
164,233,119905,2,0,P|145:266|161:332,1,85,10|8,0:0|0:0,0:0:0:0:
291,357,120280,1,10,0:0:0:0:
230,165,120468,1,8,0:0:0:0:
280,379,120655,1,10,0:0:0:0:
219,65,121030,5,2,0:0:0:0:
303,56,121218,1,8,0:0:0:0:
399,127,121405,1,2,0:0:0:0:
305,232,121593,2,0,B|284:223|256:218|256:218|214:242|165:224,2,127.5,10|0|10,0:0|0:0|0:0,0:0:0:0:
446,105,122343,6,0,B|417:102|393:95|393:95|354:113|316:100,1,127.5,10|0,0:0|0:0,0:0:0:0:
294,94,122718,1,10,0:0:0:0:
386,293,122905,2,0,P|403:264|397:199,1,85,8|8,0:0|0:0,0:0:0:0:
493,265,123280,1,2,0:0:0:0:
312,238,123468,2,0,L|219:247,1,85,10|0,0:0|0:0,0:0:0:0:
110,290,123843,5,8,0:0:0:0:
123,319,123936,1,0,0:0:0:0:
22,120,124124,1,8,0:0:0:0:
28,89,124218,1,8,0:0:0:0:
136,155,124405,2,0,B|158:144|179:139|179:139|218:154|268:143,1,127.5,8|0,0:0|0:0,0:0:0:0:
289,138,124780,1,10,0:0:0:0:
88,243,124968,2,0,P|53:215|45:159,1,85,8|0,0:0|0:0,0:0:0:0:
126,2,125249,1,0,0:0:0:0:
126,2,125343,6,0,P|155:54|150:85,1,85,8|0,0:0|0:0,0:0:0:0:
88,243,125718,1,8,0:0:0:0:
176,150,125905,2,0,L|265:143,1,85,8|0,0:0|0:0,0:0:0:0:
390,253,126280,1,0,0:0:0:0:
200,244,126468,1,0,0:0:0:0:
365,114,126655,1,0,0:0:0:0:
299,321,126843,6,0,L|344:316,6,31.8750012159348,2|2|2|2|2|2|2,0:0|0:0|0:0|0:0|0:0|0:0|0:0,0:0:0:0:
200,244,127218,2,0,L|248:246,6,31.8750012159348,2|2|2|2|2|2|2,0:0|0:0|0:0|0:0|0:0|0:0|0:0,0:0:0:0:
132,338,127593,2,0,L|183:330,14,31.8750012159348,2|0|2|0|2|0|2|0|2|0|2|0|2|0|2,0:0|0:0|0:0|0:0|0:0|0:0|0:0|0:0|0:0|0:0|0:0|0:0|0:0|0:0|0:0,0:0:0:0:
64,184,128343,6,0,B|57:209|26:224|26:224|73:201|126:216|126:216|152:229|170:222|170:222|186:193|210:177|210:177|306:273|364:188|364:188|315:217|267:194,1,544,14|0,0:0|0:0,0:0:0:0:
54,169,130968,6,0,B|74:166|95:158|95:158|122:164|122:164|157:151|210:169,1,127.5,10|0,0:0|0:0,0:0:0:0:
212,169,131343,1,10,0:0:0:0:
135,280,131624,1,8,0:0:0:0:
99,72,131905,1,8,0:0:0:0:
270,267,132093,6,0,L|366:260,1,85,8|0,0:0|0:0,0:0:0:0:
243,95,132468,2,0,P|219:121|217:185,1,85,8|0,0:0|0:0,0:0:0:0:
413,130,132843,5,0,0:0:0:0:
445,157,132936,1,0,0:0:0:0:
466,193,133030,1,0,0:0:0:0:
473,235,133124,1,0,0:0:0:0:
465,276,133218,1,0,0:0:0:0:
444,313,133311,1,0,0:0:0:0:
411,339,133405,1,0,0:0:0:0:
371,352,133499,1,0,0:0:0:0:
328,351,133593,5,0,0:0:0:0:
314,307,133686,1,0,0:0:0:0:
286,271,133780,1,0,0:0:0:0:
246,248,133874,1,0,0:0:0:0:
200,240,133968,5,0,0:0:0:0:
161,273,134061,1,0,0:0:0:0:
110,280,134155,1,0,0:0:0:0:
63,260,134249,1,0,0:0:0:0:
33,218,134343,2,0,P|23:166|41:137,1,63.7500024318696,0|0,0:0|0:0,0:0:0:0:
205,87,134624,6,0,P|163:116|106:103,1,85,0|0,0:0|0:0,0:0:0:0:
332,212,134905,6,0,P|290:183|224:200,1,93.5000028533936
235,347,135186,2,0,P|273:334|300:278,1,93.5000028533936,0|0,0:0|0:0,0:0:0:0:
154,198,135468,2,0,P|163:236|195:257,1,46.7500014266968,0|0,0:0|0:0,0:0:0:0:
201,263,135655,1,0,0:0:0:0:
478,275,136593,6,0,B|467:291|430:300|430:300|397:293|369:280|369:280|335:274|295:293,1,187.000005706787,14|0,0:0|0:0,0:0:0:0:
67,194,137155,1,2,0:0:0:0:
77,186,137249,1,0,0:0:0:0:
88,178,137343,2,0,B|126:165|126:165|171:182|215:163,1,93.5000028533936,8|0,0:0|0:0,0:0:0:0:
319,375,137718,2,0,P|297:331|311:274,1,93.5000028533936,10|0,0:0|0:0,0:0:0:0:
482,156,138093,6,0,B|424:167|424:167|384:146|384:146|284:164,1,187.000005706787,14|8,0:0|0:0,0:0:0:0:
145,277,138655,1,2,0:0:0:0:
131,286,138749,1,2,0:0:0:0:
120,293,138843,1,2,0:0:0:0:
222,76,139030,1,2,0:0:0:0:
301,281,139218,2,0,L|408:286,1,93.5000028533936,10|0,0:0|0:0,0:0:0:0:
388,30,139593,6,0,B|369:63|367:87|367:87|403:134|362:203,1,140.25000428009,14|0,0:0|0:0,0:0:0:0:
375,191,139968,1,10,0:0:0:0:
135,53,140155,2,0,P|174:76|245:64,1,93.5000028533936,14|0,0:0|0:0,0:0:0:0:
293,30,140530,1,6,0:0:0:0:
225,198,140718,1,0,0:0:0:0:
198,0,140905,1,6,0:0:0:0:
293,30,141093,5,4,0:0:0:0:
331,49,141186,1,0,0:0:0:0:
358,84,141280,1,0,0:0:0:0:
368,127,141374,1,0,0:0:0:0:
436,180,141468,5,4,0:0:0:0:
403,206,141561,1,0,0:0:0:0:
360,216,141655,1,0,0:0:0:0:
316,206,141749,1,0,0:0:0:0:
236,241,141843,5,4,0:0:0:0:
191,210,141936,1,0,0:0:0:0:
139,200,142030,1,0,0:0:0:0:
87,211,142124,1,0,0:0:0:0:
31,256,142218,5,4,0:0:0:0:
33,280,142311,1,0,0:0:0:0:
40,302,142405,1,0,0:0:0:0:
54,320,142499,1,0,0:0:0:0:
75,333,142593,6,0,B|146:322|146:322|178:339|178:339|262:326,1,187.000005706787,4|0,0:0|0:0,0:0:0:0:
426,184,143155,1,2,0:0:0:0:
409,188,143249,1,0,0:0:0:0:
396,191,143343,5,10,0:0:0:0:
418,361,143530,1,0,0:0:0:0:
486,242,143718,2,0,P|501:225|493:131,1,85,10|0,0:0|0:0,0:0:0:0:
235,201,144093,2,0,B|267:177|299:178|299:178|355:212|407:185,1,170,14|8,0:0|0:0,0:0:0:0:
199,303,144655,1,2,0:0:0:0:
185,300,144749,1,0,0:0:0:0:
173,295,144843,6,0,P|130:240|136:202,1,85,8|0,0:0|0:0,0:0:0:0:
240,79,145218,2,0,L|334:68,1,85,10|0,0:0|0:0,0:0:0:0:
220,219,145593,5,14,0:0:0:0:
125,93,145780,1,0,0:0:0:0:
337,178,145968,1,10,0:0:0:0:
67,246,146155,1,0,0:0:0:0:
276,72,146343,5,14,0:0:0:0:
241,310,146530,1,0,0:0:0:0:
125,93,146718,1,10,0:0:0:0:
390,216,146905,1,0,0:0:0:0:
119,278,147093,5,14,0:0:0:0:
333,88,147280,1,0,0:0:0:0:
241,310,147468,1,14,0:0:0:0:
220,24,147655,1,0,0:0:0:0:
218,315,147843,5,14,0:0:0:0:
184,18,148030,1,0,0:0:0:0:
331,225,148218,1,14,0:0:0:0:
46,130,148405,1,0,0:0:0:0:
281,69,148593,6,0,B|323:75|352:47|352:47|412:33|458:97,1,170,14|0,0:0|0:0,0:0:0:0:
188,235,149155,1,2,0:0:0:0:
178,225,149249,1,0,0:0:0:0:
165,215,149343,2,0,P|145:183|160:115,1,85,8|0,0:0|0:0,0:0:0:0:
172,12,149718,1,10,0:0:0:0:
13,112,149905,1,0,0:0:0:0:
249,162,150093,6,0,B|281:168|296:175|296:175|316:164|331:152|331:152|370:169|413:160,1,170,14|8,0:0|0:0,0:0:0:0:
512,364,150655,1,2,0:0:0:0:
501,357,150749,1,0,0:0:0:0:
489,349,150843,2,0,L|391:343,1,85,8|0,0:0|0:0,0:0:0:0:
486,95,151218,2,0,P|512:134|504:190,1,85,8|0,0:0|0:0,0:0:0:0:
339,236,151593,6,0,B|315:238|299:236|299:236|288:248|271:257|271:257|238:248|194:251|194:251|191:257,1,127.5,14|0,0:0|0:0,0:0:0:0:
187,234,151968,1,10,0:0:0:0:
369,372,152155,2,0,P|391:343|378:275,1,85,14|0,0:0|0:0,0:0:0:0:
241,157,152530,2,0,L|332:150,1,85,12|0,0:0|0:0,0:0:0:0:
488,34,152905,1,4,0:0:0:0:
492,236,153093,5,4,2:0:0:0:
458,262,153186,1,0,2:0:0:0:
415,272,153280,1,0,2:0:0:0:
372,263,153374,1,0,2:0:0:0:
316,214,153468,5,4,0:0:0:0:
277,195,153561,1,0,0:0:0:0:
233,194,153655,1,0,0:0:0:0:
193,212,153749,1,0,0:0:0:0:
168,281,153843,5,4,0:0:0:0:
192,321,153936,1,0,0:0:0:0:
230,349,154030,1,0,0:0:0:0:
275,361,154124,1,0,0:0:0:0:
336,320,154218,5,4,0:0:0:0:
333,294,154311,1,0,0:0:0:0:
331,268,154405,1,0,0:0:0:0:
329,242,154499,1,0,0:0:0:0:
326,215,154593,6,0,B|277:224|261:213|261:213|244:200|220:194|220:194|192:215|133:200,1,170,14|0,0:0|0:0,0:0:0:0:
0,55,155155,1,2,0:0:0:0:
11,45,155249,1,0,0:0:0:0:
21,34,155343,2,0,L|120:24,1,85,8|0,0:0|0:0,0:0:0:0:
323,131,155718,2,0,L|224:121,1,85,10|0,0:0|0:0,0:0:0:0:
52,185,156093,6,0,B|46:222|65:252|65:252|60:274|43:300|43:300|70:327|76:360,1,170,14|0,2:0|2:0,2:0:0:0:
245,169,156655,1,2,0:0:0:0:
240,148,156749,1,0,0:0:0:0:
238,122,156843,2,0,P|216:106|131:121,1,85,8|0,0:0|0:0,0:0:0:0:
269,320,157218,2,0,L|366:309,1,85,10|0,0:0|0:0,0:0:0:0:
378,79,157593,5,14,0:0:0:0:
176,190,157780,1,0,0:0:0:0:
419,241,157968,1,10,0:0:0:0:
246,72,158155,1,0,0:0:0:0:
353,315,158343,5,14,0:0:0:0:
378,79,158530,1,0,0:0:0:0:
214,270,158718,1,10,0:0:0:0:
466,132,158905,1,0,0:0:0:0:
271,104,159093,6,0,P|245:86|184:95,1,63.7500024318696
180,151,159280,2,0,P|158:168|105:160,1,63.7500024318696
151,29,159468,2,0,P|132:58|135:108,1,63.7500024318696
30,166,159655,5,0,0:0:0:0:
42,184,159749,1,0,0:0:0:0:
54,204,159843,2,0,P|71:268|31:320,2,127.5
161,291,160593,5,12,0:0:0:0:
200,315,160686,1,0,0:0:0:0:
245,293,160780,1,0,0:0:0:0:
289,278,160874,1,0,0:0:0:0:
330,301,160968,1,8,0:0:0:0:
445,208,161155,1,4,0:0:0:0:
408,180,161249,5,0,0:0:0:0:
369,204,161343,1,12,0:0:0:0:
324,182,161436,1,0,0:0:0:0:
280,167,161530,1,0,0:0:0:0:
239,190,161624,1,0,0:0:0:0:
197,173,161718,2,0,P|187:160|195:99,1,42.5
266,46,161905,5,0,0:0:0:0:
266,46,161999,1,0,0:0:0:0:
266,46,162093,2,0,L|354:54,1,55.2499974708558,12|0,0:0|0:0,0:0:0:0:
477,118,162280,2,0,L|405:111,1,55.2499974708558
266,134,162468,2,0,L|354:142,1,55.2499974708558
427,207,162655,1,4,0:0:0:0:
427,207,162749,1,0,0:0:0:0:
427,207,162843,6,0,B|489:266|468:328|468:328|419:304|349:319,1,220.999989883423,8|4,0:0|0:0,0:0:0:0:
321,266,163311,5,0,0:0:0:0:
302,264,163405,1,0,0:0:0:0:
284,263,163499,1,0,0:0:0:0:
265,260,163593,2,0,P|241:251|197:254,1,55.2499974708558,12|0,0:0|0:0,0:0:0:0:
160,330,163780,5,0,0:0:0:0:
111,305,163874,1,0,0:0:0:0:
82,259,163968,2,0,P|69:226|79:182,1,55.2499974708558,8|0,0:0|0:0,0:0:0:0:
157,163,164155,6,0,B|194:165|220:146|220:146|260:153|285:181|285:181|351:164|360:100|333:89,1,220.999989883423,4|0,0:0|0:0,0:0:0:0:
400,53,164624,2,0,L|330:55,1,55.2499974708558,0|8,0:0|0:0,0:0:0:0:
275,21,164811,1,0,0:0:0:0:
275,21,164905,2,0,L|199:21,1,55.2499974708558
75,44,165093,5,12,0:0:0:0:
87,67,165186,1,0,0:0:0:0:
93,93,165280,1,0,0:0:0:0:
92,119,165374,1,0,0:0:0:0:
84,144,165468,1,8,0:0:0:0:
72,168,165561,1,0,0:0:0:0:
65,193,165655,1,4,0:0:0:0:
66,220,165749,1,0,0:0:0:0:
19,290,165843,6,0,B|82:316|137:279|137:279|143:255|166:234|166:234|209:245|232:268|232:268|259:264|275:242|275:242|335:236|337:250,1,331.499984825135
362,306,166499,5,0,0:0:0:0:
362,306,166593,2,0,P|389:278|395:236,1,55.2499974708558,12|0,0:0|0:0,0:0:0:0:
471,251,166780,1,0,0:0:0:0:
483,214,166874,1,0,0:0:0:0:
494,177,166968,2,0,P|501:156|468:97,1,55.2499974708558,12|0,0:0|0:0,0:0:0:0:
416,148,167155,5,4,0:0:0:0:
392,163,167249,1,0,0:0:0:0:
365,174,167343,1,0,0:0:0:0:
337,177,167436,1,0,0:0:0:0:
309,170,167530,1,0,0:0:0:0:
283,156,167624,1,0,0:0:0:0:
256,147,167718,1,8,0:0:0:0:
228,144,167811,1,0,0:0:0:0:
199,148,167905,1,0,0:0:0:0:
172,157,167999,1,0,0:0:0:0:
102,146,168093,5,8,0:0:0:0:
84,186,168186,1,0,0:0:0:0:
86,231,168280,1,0,0:0:0:0:
105,270,168374,1,0,0:0:0:0:
140,298,168468,1,8,0:0:0:0:
183,309,168561,1,0,0:0:0:0:
227,301,168655,1,0,0:0:0:0:
263,275,168749,1,0,0:0:0:0:
285,237,168843,2,0,P|297:208|283:147,1,59.4999981842042,8|0,0:0|0:0,0:0:0:0:
226,40,169030,1,0,0:0:0:0:
226,40,169124,1,0,0:0:0:0:
226,40,169218,6,0,P|218:62|233:118,1,59.4999981842042,8|0,0:0|0:0,0:0:0:0:
364,127,169405,1,0,0:0:0:0:
192,195,169593,2,0,P|162:200|130:187,2,59.4999981842042,12|0|0,0:0|0:0|0:0,0:0:0:0:
273,227,169874,1,0,0:0:0:0:
285,239,169968,1,8,0:0:0:0:
285,239,170061,1,0,0:0:0:0:
285,239,170155,6,0,L|360:233,1,59.4999981842042
445,230,170343,1,12,0:0:0:0:
444,197,170436,1,0,0:0:0:0:
435,167,170530,1,0,0:0:0:0:
419,139,170624,1,0,0:0:0:0:
396,117,170718,1,8,0:0:0:0:
368,102,170811,1,0,0:0:0:0:
337,94,170905,1,0,0:0:0:0:
305,95,170999,1,0,0:0:0:0:
249,140,171093,5,12,0:0:0:0:
221,166,171186,1,0,0:0:0:0:
186,182,171280,1,4,0:0:0:0:
147,185,171374,1,0,0:0:0:0:
110,174,171468,1,12,0:0:0:0:
79,151,171561,1,0,0:0:0:0:
58,119,171655,6,0,B|72:78|97:66|97:66|126:75|144:83,1,85,4|8,0:0|0:0,0:0:0:0:
199,52,171936,1,0,0:0:0:0:
221,35,172030,2,0,L|296:29,1,50.9999984436036,4|0,0:0|0:0,0:0:0:0:
305,95,172218,2,0,L|367:104,1,50.9999984436036,12|0,0:0|0:0,0:0:0:0:
389,28,172405,2,0,L|468:18,1,50.9999984436036,4|0,0:0|0:0,0:0:0:0:
441,127,172593,5,12,0:0:0:0:
459,154,172686,1,0,0:0:0:0:
467,186,172780,1,0,0:0:0:0:
464,218,172874,1,0,0:0:0:0:
449,248,172968,1,0,0:0:0:0:
425,270,173061,1,0,0:0:0:0:
394,283,173155,5,4,0:0:0:0:
373,268,173249,1,0,0:0:0:0:
345,253,173343,1,0,0:0:0:0:
309,252,173436,1,0,0:0:0:0:
270,277,173530,1,0,0:0:0:0:
229,296,173624,1,0,0:0:0:0:
181,284,173718,2,0,P|151:285|77:293,1,63.7500024318696,4|0,0:0|0:0,0:0:0:0:
45,122,173905,5,0,0:0:0:0:
45,122,173999,1,0,0:0:0:0:
45,122,174093,1,0,0:0:0:0:
56,152,174186,1,0,0:0:0:0:
61,185,174280,1,4,0:0:0:0:
57,218,174374,1,0,0:0:0:0:
46,249,174468,1,0,0:0:0:0:
29,277,174561,1,0,0:0:0:0:
37,306,174655,1,0,0:0:0:0:
63,327,174749,1,0,0:0:0:0:
97,343,174843,6,0,P|128:337|183:333,1,63.7500024318696,4|0,0:0|0:0,0:0:0:0:
317,229,175030,2,0,P|286:223|231:219,1,63.7500024318696
154,148,175218,2,0,P|151:178|162:245,1,63.7500024318696,4|0,0:0|0:0,0:0:0:0:
261,373,175405,2,0,P|274:341|276:299,1,63.7500024318696
328,82,175593,5,12,0:0:0:0:
261,373,175780,1,0,0:0:0:0:
493,159,175968,1,12,0:0:0:0:
234,99,176155,6,0,B|192:112|157:77|157:77|72:110,1,127.500004863739,4|0,0:0|0:0,0:0:0:0:
99,122,176530,1,0,0:0:0:0:
251,218,176718,2,0,P|280:216|302:209,1,42.5
346,162,176905,2,0,L|341:58,1,85,4|0,0:0|0:0,0:0:0:0:
157,211,177280,1,4,0:0:0:0:
310,306,177468,1,4,0:0:0:0:
234,99,177655,6,0,L|149:93,1,85
34,24,178030,1,0,0:0:0:0:
36,35,178124,1,0,0:0:0:0:
39,46,178218,1,0,0:0:0:0:
128,261,178405,1,0,0:0:0:0:
77,196,178593,2,0,P|107:211|187:196,1,85
266,357,178968,5,0,0:0:0:0:
320,218,179155,1,0,0:0:0:0:
173,195,179343,2,0,P|144:150|163:64,2,127.5
366,127,180093,6,0,B|326:124|310:110|310:110|281:122|236:124,1,127.5,4|0,0:0|0:0,0:0:0:0:
234,148,180468,1,0,0:0:0:0:
445,185,180655,2,0,B|460:147|460:147|445:92,1,85
304,200,181030,6,0,B|295:234|312:268|312:268|303:306|259:312,1,127.5
246,284,181405,1,0,0:0:0:0:
162,177,181593,2,0,L|78:170,1,85,4|0,0:0|0:0,0:0:0:0:
161,295,181968,2,0,L|259:282,1,85,4|0,0:0|0:0,0:0:0:0:
253,61,182343,6,0,P|238:86|250:147,1,85,4|0,0:0|0:0,0:0:0:0:
497,148,182718,2,0,P|476:116|431:101,1,85,4|0,0:0|0:0,0:0:0:0:
269,363,183093,5,14,0:0:0:0:
420,186,183280,1,0,0:0:0:0:
253,61,183468,1,14,0:0:0:0:
418,322,183655,1,0,0:0:0:0:
494,214,183843,5,14,0:0:0:0:
158,183,184030,1,0,0:0:0:0:
490,196,184218,1,14,0:0:0:0:
165,204,184405,1,0,0:0:0:0:
253,61,184593,5,0,0:0:0:0:
233,60,184686,1,0,0:0:0:0:
213,59,184780,1,0,0:0:0:0:
193,58,184874,1,0,0:0:0:0:
173,58,184968,1,0,0:0:0:0:
153,57,185061,1,0,0:0:0:0:
89,14,185155,5,0,0:0:0:0:
66,31,185248,1,0,0:0:0:0:
49,54,185342,1,0,0:0:0:0:
38,81,185436,1,0,0:0:0:0:
35,110,185530,1,0,0:0:0:0:
40,138,185623,1,0,0:0:0:0:
82,200,185718,5,0,0:0:0:0:
111,198,185811,1,0,0:0:0:0:
140,197,185905,1,0,0:0:0:0:
169,196,185999,1,0,0:0:0:0:
250,177,186093,6,0,L|255:220,5,42.5
181,341,186655,2,0,L|174:280,5,42.5
85,306,187217,5,0,0:0:0:0:
87,277,187311,1,0,0:0:0:0:
88,248,187405,1,0,0:0:0:0:
90,219,187498,1,0,0:0:0:0:
92,193,187593,5,0,0:0:0:0:
92,116,187780,1,0,0:0:0:0:
158,154,187968,1,0,0:0:0:0:
163,80,188155,2,0,B|197:64|231:83|231:83|261:59|298:67,1,127.500004863739
358,170,188718,6,0,P|315:156|295:130,1,63.7500024318696
365,89,189093,2,0,P|392:93|432:127,1,63.7500024318696
452,198,189468,1,0,0:0:0:0:
410,272,189655,1,0,0:0:0:0:
425,191,189843,5,0,0:0:0:0:
389,262,190030,1,0,0:0:0:0:
321,299,190218,2,0,L|237:294,1,63.7500024318696
112,337,190593,5,0,0:0:0:0:
112,260,190780,1,0,0:0:0:0:
178,298,190968,1,0,0:0:0:0:
178,298,191155,1,0,0:0:0:0:
216,154,191343,5,0,0:0:0:0:
217,232,191530,1,0,0:0:0:0:
151,194,191718,1,0,0:0:0:0:
151,194,191905,1,0,0:0:0:0:
106,108,192093,6,0,L|48:109,3,31.8750012159348
183,48,192468,2,0,L|133:41,3,31.8750012159348
237,117,192843,2,0,L|177:124,3,31.8750012159348
297,59,193218,2,0,L|257:48,3,31.8750012159348
331,126,193593,6,0,B|375:134|424:120|424:120|440:139|468:151,1,127.500004863739
497,9,194155,2,0,P|477:51|481:75,1,63.7500024318696
511,176,194530,1,0,0:0:0:0:
439,222,194718,2,0,L|352:214,1,63.7500024318696
328,275,195093,2,0,B|276:280|239:262|239:262|215:264|190:269,1,127.500004863739
163,341,195655,6,0,P|125:307|129:226,1,127.500004863739
188,188,196218,2,0,L|180:118,1,63.7500024318696
125,71,196593,1,0,0:0:0:0:
90,135,196780,1,0,0:0:0:0:
267,124,196968,1,0,2:0:0:0:
228,59,197155,1,0,2:0:0:0:
358,128,197343,5,0,0:0:0:0:
328,194,197530,1,0,0:0:0:0:
442,95,197718,5,0,2:0:0:0:
369,108,197905,1,0,2:0:0:0:
443,182,198093,5,0,0:0:0:0:
476,249,198280,1,0,0:0:0:0:
461,322,198468,1,0,0:0:0:0:
404,371,198655,1,0,0:0:0:0:
342,329,198843,1,0,0:0:0:0:
272,344,199030,1,0,0:0:0:0:
215,296,199218,2,0,P|195:293|132:289,1,63.7500024318696
13,113,199593,6,0,P|26:147|19:207,1,82.8749962062838
94,228,199968,6,0,P|125:200|204:198,1,85,14|0,0:0|0:0,0:0:0:0:
321,114,200343,2,0,P|284:92|242:90,1,85,10|0,0:0|0:0,0:0:0:0:
215,296,200718,1,10,0:0:0:0:
357,238,200905,1,10,0:0:0:0:
364,250,200998,1,0,0:0:0:0:
372,261,201092,2,0,L|459:265,1,85,10|0,0:0|0:0,0:0:0:0:
263,168,201468,2,0,P|231:149|151:162,1,85,10|0,0:0|0:0,0:0:0:0:
63,318,201843,5,10,0:0:0:0:
198,239,202030,1,0,0:0:0:0:
168,360,202218,1,10,0:0:0:0:
184,146,202405,1,0,0:0:0:0:
53,231,202593,6,14,B|29:188|29:188|50:138|37:91,1,127.5,14|0,0:0|0:0,0:0:0:0:
95,59,202968,1,10,0:0:0:0:
184,146,203155,2,0,P|208:159|276:143,1,85,14|0,0:0|0:0,0:0:0:0:
426,8,203530,2,0,L|331:-2,1,85,14|0,0:0|0:0,0:0:0:0:
229,77,203905,1,14,0:0:0:0:
368,106,204093,5,12,0:0:0:0:
409,118,204186,1,0,0:0:0:0:
440,150,204280,1,0,0:0:0:0:
456,190,204374,1,0,0:0:0:0:
401,237,204468,5,12,0:0:0:0:
364,259,204562,1,0,0:0:0:0:
320,267,204656,1,0,0:0:0:0:
281,253,204749,1,0,0:0:0:0:
233,197,204843,5,12,0:0:0:0:
188,166,204936,1,0,0:0:0:0:
136,156,205030,1,0,0:0:0:0:
84,167,205124,1,0,0:0:0:0:
50,229,205218,5,12,0:0:0:0:
54,258,205311,1,0,0:0:0:0:
67,284,205405,1,0,0:0:0:0:
87,306,205499,1,0,0:0:0:0:
113,321,205593,6,0,B|145:307|166:296|166:296|223:333|312:314,1,170,14|8,0:0|0:0,0:0:0:0:
394,233,206155,1,2,0:0:0:0:
386,222,206249,1,2,0:0:0:0:
377,209,206343,2,0,L|282:202,1,85,10|0,0:0|0:0,0:0:0:0:
434,327,206718,2,0,P|471:294|474:221,1,85,10|0,0:0|0:0,0:0:0:0:
420,108,207093,6,0,B|388:114|373:121|373:121|353:110|338:98|338:98|299:115|256:106,1,170,14|8,0:0|0:0,0:0:0:0:
76,46,207655,1,2,0:0:0:0:
89,42,207749,1,0,0:0:0:0:
102,36,207843,2,0,L|191:27,1,85,8|0,0:0|0:0,0:0:0:0:
57,223,208218,2,0,P|31:194|33:136,1,85,10|0,0:0|0:0,0:0:0:0:
194,281,208593,5,14,0:0:0:0:
111,156,208780,1,0,0:0:0:0:
294,192,208968,1,14,0:0:0:0:
44,304,209155,1,0,0:0:0:0:
236,135,209343,5,14,0:0:0:0:
179,334,209530,1,0,0:0:0:0:
131,117,209718,1,14,0:0:0:0:
192,375,209905,1,0,0:0:0:0:
249,281,210093,6,0,L|296:276,1,29.7499990921021,4|0,0:0|0:0,0:0:0:0:
341,208,210280,2,0,L|381:212,1,29.7499990921021,4|0,0:0|0:0,0:0:0:0:
434,331,210468,2,0,L|432:293,1,29.7499990921021,4|0,0:0|0:0,0:0:0:0:
498,224,210655,2,0,L|504:179,1,29.7499990921021,4|0,0:0|0:0,0:0:0:0:
447,65,210843,6,0,L|443:94,1,29.7499990921021,4|0,0:0|0:0,0:0:0:0:
369,181,211030,2,0,L|370:210,1,29.7499990921021,4|0,0:0|0:0,0:0:0:0:
226,55,211218,2,0,L|196:52,1,29.7499990921021,4|0,0:0|0:0,0:0:0:0:
283,167,211405,2,0,L|253:170,1,29.7499990921021,4|0,0:0|0:0,0:0:0:0:
22,38,211593,6,0,B|33:54|70:63|70:63|103:56|131:43|131:43|165:37|205:56,1,187.000005706787,14|8,0:0|0:0,0:0:0:0:
291,259,212155,1,2,0:0:0:0:
275,269,212249,1,2,0:0:0:0:
259,277,212343,2,0,B|241:278|228:281|228:281|168:263,1,93.5000028533936,2|0,0:0|0:0,0:0:0:0:
324,163,212718,2,0,P|364:145|422:154,1,93.5000028533936,10|0,0:0|0:0,0:0:0:0:
486,353,213093,6,0,B|460:309|460:309|447:299|430:293|430:293|389:286|369:258|369:258|377:234|377:234|363:203,1,187.000005706787,6|8,0:0|0:0,0:0:0:0:
426,50,213655,1,2,0:0:0:0:
434,23,213749,1,0,0:0:0:0:
448,3,213843,1,10,0:0:0:0:
491,224,214030,1,0,0:0:0:0:
284,51,214218,2,0,B|252:24|252:24|170:31,1,93.5000028533936,10|0,0:0|0:0,0:0:0:0:
2,164,214593,6,0,B|33:146|48:141|48:141|95:166|149:154,1,140.25000428009,12|0,0:0|0:0,0:0:0:0:
171,163,214968,1,10,0:0:0:0:
287,341,215155,2,8,B|258:347|232:347|232:347|193:327,1,93.5000028533936,6|8,0:0|0:0,0:0:0:0:
399,212,215530,2,8,L|492:223,1,93.5000028533936,6|8,0:0|0:0,0:0:0:0:
399,379,215905,1,4,0:0:0:0:
295,225,216093,5,12,0:0:0:0:
268,187,216186,1,0,0:0:0:0:
261,141,216280,1,0,0:0:0:0:
277,98,216374,1,0,0:0:0:0:
360,64,216468,5,12,0:0:0:0:
327,31,216561,1,0,0:0:0:0:
283,16,216655,1,0,0:0:0:0:
237,21,216749,1,0,0:0:0:0:
185,82,216843,5,12,0:0:0:0:
142,101,216936,1,0,0:0:0:0:
96,100,217030,1,0,0:0:0:0:
54,80,217124,1,0,0:0:0:0:
8,145,217218,5,12,0:0:0:0:
11,171,217311,1,0,0:0:0:0:
14,196,217405,1,0,0:0:0:0:
18,222,217499,1,0,0:0:0:0:
20,246,217593,6,0,B|98:233|98:233|132:247|132:247|221:231,1,187.000005706787,4|8,0:0|0:0,0:0:0:0:
410,348,218155,1,2,0:0:0:0:
387,365,218249,1,2,0:0:0:0:
368,383,218343,2,0,L|262:373,1,93.5000028533936,10|0,0:0|0:0,0:0:0:0:
485,182,218718,2,0,B|501:222|501:222|484:309,1,93.5000028533936,10|0,0:0|0:0,0:0:0:0:
251,62,219093,6,0,B|266:52|266:52|309:60|339:76|339:76|358:72|372:63|372:63|395:76|430:70,1,187.000005706787,14|8,0:0|0:0,0:0:0:0:
81,158,219655,1,2,0:0:0:0:
56,140,219749,1,2,0:0:0:0:
31,111,219843,2,10,P|33:73|76:13,1,93.5000028533936,10|0,0:0|0:0,0:0:0:0:
220,257,220218,2,10,P|218:294|175:354,1,93.5000028533936,10|0,0:0|0:0,0:0:0:0:
81,158,220593,5,14,0:0:0:0:
365,235,220780,1,0,0:0:0:0:
127,277,220968,1,10,0:0:0:0:
268,52,221155,1,0,0:0:0:0:
306,362,221343,5,14,0:0:0:0:
148,85,221530,1,0,0:0:0:0:
334,207,221718,1,10,0:0:0:0:
37,243,221905,1,0,0:0:0:0:
357,39,222093,6,2,L|336:128,1,55.2499974708558,14|2,0:0|0:0,0:0:0:0:
472,308,222280,2,2,L|451:219,1,55.2499974708558,10|2,0:0|0:0,0:0:0:0:
349,29,222468,2,2,L|328:118,1,55.2499974708558,14|2,0:0|0:0,0:0:0:0:
464,298,222655,2,2,L|443:209,1,55.2499974708558,10|2,0:0|0:0,0:0:0:0:
336,209,222843,5,4,0:0:0:0:
291,189,222936,1,0,0:0:0:0:
243,194,223030,1,0,0:0:0:0:
203,223,223124,1,0,0:0:0:0:
183,267,223218,5,4,0:0:0:0:
134,257,223311,1,0,0:0:0:0:
98,221,223405,1,0,0:0:0:0:
87,172,223499,1,0,0:0:0:0:
84,125,223593,6,0,B|126:131|160:99|160:99|215:89|287:128,1,187.000005706787,14|8,0:0|0:0,0:0:0:0:
126,376,224155,1,2,0:0:0:0:
96,346,224249,1,2,0:0:0:0:
83,311,224343,2,0,P|80:280|105:211,1,93.5000028533936,8|0,0:0|0:0,0:0:0:0:
368,366,224718,2,0,L|270:361,1,93.5000028533936,10|0,0:0|0:0,0:0:0:0:
432,67,225093,6,0,B|462:99|462:126|462:126|433:167|434:194|434:194|454:233|442:256,1,187.000005706787,14|8,0:0|0:0,0:0:0:0:
172,92,225655,1,2,0:0:0:0:
146,74,225749,1,2,0:0:0:0:
119,56,225843,1,10,0:0:0:0:
377,0,226030,1,0,0:0:0:0:
187,228,226218,2,0,B|140:212|140:212|56:229,1,93.5000028533936,10|0,0:0|0:0,0:0:0:0:
316,364,226593,6,0,B|343:336|343:336|322:283|328:209,1,140.25000428009,14|0,0:0|0:0,0:0:0:0:
310,204,226968,1,8,0:0:0:0:
100,303,227155,2,0,P|76:301|-1:252,1,93.5000028533936,6|8,0:0|0:0,0:0:0:0:
296,110,227530,2,0,P|320:112|397:161,1,93.5000028533936,6|8,0:0|0:0,0:0:0:0:
209,377,227905,1,4,0:0:0:0:
108,163,228093,5,12,0:0:0:0:
99,119,228186,1,0,0:0:0:0:
113,76,228280,1,0,0:0:0:0:
144,45,228374,1,0,0:0:0:0:
212,10,228468,5,12,0:0:0:0:
258,13,228561,1,0,0:0:0:0:
305,16,228655,1,0,0:0:0:0:
351,19,228749,1,0,0:0:0:0:
431,46,228843,5,12,0:0:0:0:
462,94,228936,1,0,0:0:0:0:
467,152,229030,1,0,0:0:0:0:
444,206,229124,1,0,0:0:0:0:
374,235,229218,5,12,0:0:0:0:
377,262,229311,1,0,0:0:0:0:
380,290,229405,1,0,0:0:0:0:
383,318,229499,1,0,0:0:0:0:
388,351,229593,6,14,B|335:317|335:317|187:338,1,187.000005706787,14|8,0:0|0:0,0:0:0:0:
10,190,230155,1,2,0:0:0:0:
31,164,230249,1,2,0:0:0:0:
49,129,230343,2,0,B|95:130|95:130|176:116,1,93.5000028533936,10|0,0:0|0:0,0:0:0:0:
325,24,230718,2,0,B|279:25|279:25|198:11,1,93.5000028533936,10|0,0:0|0:0,0:0:0:0:
377,256,231093,6,0,B|407:230|414:211|414:211|384:150|417:67,1,187.000005706787,14|8,0:0|0:0,0:0:0:0:
206,293,231655,1,2,0:0:0:0:
221,325,231749,1,2,0:0:0:0:
238,357,231843,1,10,0:0:0:0:
288,129,232030,1,0,0:0:0:0:
120,339,232218,2,0,L|11:330,1,93.5000028533936,10|0,0:0|0:0,0:0:0:0:
85,74,232593,5,14,0:0:0:0:
311,61,232780,1,0,0:0:0:0:
62,102,232968,1,12,0:0:0:0:
333,32,233155,1,0,0:0:0:0:
171,194,233343,5,14,0:0:0:0:
203,0,233530,1,0,0:0:0:0:
249,288,233718,1,12,0:0:0:0:
62,102,233905,1,0,0:0:0:0:
303,282,234093,6,0,L|220:290,1,55.2499974708558,4|0,0:0|0:0,0:0:0:0:
230,110,234280,2,0,L|313:118,1,55.2499974708558,4|0,0:0|0:0,0:0:0:0:
320,267,234468,2,0,L|237:275,1,55.2499974708558,4|0,0:0|0:0,0:0:0:0:
247,95,234655,2,0,L|330:103,1,55.2499974708558,4|0,0:0|0:0,0:0:0:0:
445,173,234843,6,0,L|362:181,1,55.2499974708558,4|0,0:0|0:0,0:0:0:0:
444,63,235030,2,0,L|527:71,1,55.2499974708558,4|0,0:0|0:0,0:0:0:0:
512,283,235218,2,0,L|429:291,1,55.2499974708558,4|0,0:0|0:0,0:0:0:0:
238,182,235405,2,0,L|321:190,1,55.2499974708558,4|0,0:0|0:0,0:0:0:0:
316,355,235593,6,0,P|286:322|145:331,1,170
50,296,236155,2,0,P|88:333|100:377,1,85
167,314,236530,1,0,0:0:0:0:
123,237,236718,2,0,P|85:200|73:156,1,85
160,163,237093,6,0,B|227:173|227:173|270:164|270:164|329:173,1,170
297,325,237655,2,0,B|270:282|270:282|275:235,1,85
425,197,238030,1,0,0:0:0:0:
372,266,238218,2,0,L|397:362,1,85
448,51,238593,5,0,0:0:0:0:
167,66,238987,1,0,0:0:0:0:
277,351,239403,1,0,0:0:0:0:
357,15,239929,1,0,0:0:0:0:
15,254,240412,5,0,0:0:0:0:
83,214,240706,1,0,0:0:0:0:
150,265,241000,1,0,0:0:0:0:
179,251,241294,1,0,0:0:0:0:
268,306,241588,1,0,0:0:0:0:
387,220,241882,1,0,0:0:0:0:
314,155,242176,1,0,0:0:0:0:
443,112,242470,1,0,0:0:0:0:
217,22,242803,5,0,0:0:0:0:
