osu file format v14

[General]
AudioFilename: audio.mp3
AudioLeadIn: 0
PreviewTime: 64089
Countdown: 0
SampleSet: Normal
StackLeniency: 0.7
Mode: 1
LetterboxInBreaks: 0
WidescreenStoryboard: 1

[Editor]
DistanceSpacing: 1.1
BeatDivisor: 4
GridSize: 32
TimelineZoom: 1

[Metadata]
Title:Samayoi no Mei
TitleUnicode:彷徨いの冥
Artist:Shoujo Fractal
ArtistUnicode:少女フラクタル
Creator:Prophecy
Version:Muzukashii
Source:東方Project
Tags:柚木梨沙 Yuzuki Risa Perfect Cherry Blossom Border of Life Nardo Nardoxyribonucleic Touhou F D Flourite Saigyouji Yuyuko 幽雅に咲かせ、墨染の桜 Yuuga ni Sakase, Sumizome no Sakura
BeatmapID:945421
BeatmapSetID:395758

[Difficulty]
HPDrainRate:6
CircleSize:2
OverallDifficulty:5
ApproachRate:0
SliderMultiplier:1.4
SliderTickRate:1

[Events]
//Background and Video events
0,0,"bg7.jpg",0,180
//Break Periods
//Storyboard Layer 0 (Background)
//Storyboard Layer 1 (Fail)
//Storyboard Layer 2 (Pass)
//Storyboard Layer 3 (Foreground)
Sprite,Foreground,Centre,"Lyric\A-1.png",320,240 M,0,2589,,491.7333,290.1334 F,0,2589,3339,0,1 F,0,3339,7089,1 F,0,7089,8589,1,0
Sprite,Foreground,Centre,"Lyric\A-2.png",320,240 M,0,8589,,491.7333,290.1334 F,0,8589,9339,0,1 F,0,9339,13089,1 F,0,13089,14214,1,0
Sprite,Foreground,Centre,"Lyric\B-1.png",320,240 M,0,26589,,491.7333,290.1334 F,0,26589,27339,0,1 F,0,27339,31089,1 F,0,31089,32589,1,0
Sprite,Foreground,Centre,"Lyric\B-2.png",320,240 M,0,32589,,491.7333,290.1334 F,0,32589,33339,0,1 F,0,33339,37089,1 F,0,37089,38589,1,0
Sprite,Foreground,Centre,"Lyric\B-3.png",320,240 M,0,38589,,491.7333,290.1334 F,0,38589,39339,0,1 F,0,39339,43089,1 F,0,43089,44589,1,0
Sprite,Foreground,Centre,"Lyric\B-4.png",320,240 F,0,44589,,0 F,0,45339,49089,1 M,0,49089,,491.7333,290.1334 F,0,49089,50589,1,0
Sprite,Foreground,Centre,"Lyric\C-1.png",320,240 M,0,50589,,491.7333,290.1334 F,0,50589,51339,0,1 F,0,51339,55839,1 F,0,55839,56589,1,0
Sprite,Foreground,Centre,"Lyric\C-2.png",320,240 M,0,56589,,491.7333,290.1334 F,0,56589,57339,0,1 F,0,57339,61089,1 F,0,61089,62589,1,0
Sprite,Foreground,Centre,"Lyric\K-1.png",320,240 F,0,64089,64839,0,1 F,0,64839,68214,1 F,0,68214,69339,1,0 M,0,69339,,491.7333,290.1334
Sprite,Foreground,Centre,"Lyric\K-2.png",320,240 M,0,70089,,491.7333,290.1334 F,0,70089,70839,0,1 F,0,70839,74589,1 F,0,74589,76089,1,0
Sprite,Foreground,Centre,"Lyric\K-3.png",320,240 F,0,76089,76839,0,1 M,0,76839,,491.7333,290.1334 F,0,76839,80589,1 F,0,80589,81714,1,0
Sprite,Foreground,Centre,"Lyric\K-4.png",320,240 M,0,82089,,491.7333,290.1334 F,0,82089,82839,0,1 F,0,82839,86589,1 F,0,86589,88089,1,0
Sprite,Foreground,Centre,"Lyric\E-1.png",320,240 M,0,88089,,321.1636,332.5091 F,0,88089,89589,0,1 F,0,89589,94690,1 F,0,94690,95890,1,0
//Storyboard Sound Samples

[TimingPoints]
2589,375,4,1,0,60,1,0
8589,-100,4,1,0,90,0,0
26589,-100,4,1,0,60,0,0
50589,-100,4,1,0,90,0,1
56589,-100,4,1,0,60,0,0
59589,-100,4,1,0,80,0,0
64089,-100,4,1,0,90,0,1
88089,-100,4,1,0,75,0,0
91080,405.405405405405,4,1,0,60,1,0
91080,-92.5925925925926,4,1,0,60,0,0
91485,-95.2380952380952,4,1,0,60,0,0
91890,500,4,1,0,60,1,8
91890,-80,4,1,0,60,0,8
92390,-82.6446280991736,4,1,0,60,0,8
92890,600,4,1,0,60,1,0
92890,-71.4285714285714,4,1,0,60,0,0
93190,-74.0740740740741,4,1,0,60,0,0
93490,-76.9230769230769,4,1,0,60,0,0
93790,-80,4,1,0,60,0,0
94090,-83.3333333333333,4,1,0,60,0,0
94390,-86.9565217391304,4,1,0,60,0,0
94690,-90.9090909090909,4,1,0,60,0,0
94990,-95.2380952380952,4,1,0,60,0,0
95290,-100,4,1,0,60,0,0

[HitObjects]
256,192,2589,5,0,0:0:0:0:
256,192,3151,1,8,0:0:0:0:
256,192,3714,1,8,0:0:0:0:
256,192,4089,1,0,0:0:0:0:
256,192,4651,1,0,0:0:0:0:
256,192,5214,1,8,0:0:0:0:
256,192,5589,1,8,0:0:0:0:
256,192,5964,1,0,0:0:0:0:
256,192,6339,1,8,0:0:0:0:
256,192,6714,1,0,0:0:0:0:
256,192,7089,1,0,0:0:0:0:
256,192,7276,1,0,0:0:0:0:
256,192,7464,1,8,0:0:0:0:
256,192,7651,1,0,0:0:0:0:
256,192,8026,1,0,0:0:0:0:
256,192,8214,1,8,0:0:0:0:
256,192,8401,1,0,0:0:0:0:
256,192,8589,1,4,0:0:0:0:
256,192,9151,1,0,0:0:0:0:
256,192,9526,1,0,0:0:0:0:
256,192,9714,1,8,0:0:0:0:
256,192,10089,1,4,0:0:0:0:
256,192,10464,1,8,0:0:0:0:
256,192,10651,1,0,0:0:0:0:
256,192,11026,1,0,0:0:0:0:
256,192,11214,1,8,0:0:0:0:
256,192,11589,1,4,0:0:0:0:
256,192,11964,1,8,0:0:0:0:
256,192,12339,1,4,0:0:0:0:
256,192,12714,1,8,0:0:0:0:
256,192,13089,1,8,0:0:0:0:
256,192,13276,1,0,0:0:0:0:
256,192,13370,1,0,0:0:0:0:
256,192,13464,1,0,0:0:0:0:
256,192,13651,1,0,0:0:0:0:
256,192,13839,1,8,0:0:0:0:
256,192,14214,1,0,0:0:0:0:
256,192,14401,1,0,0:0:0:0:
256,192,14589,1,8,0:0:0:0:
256,192,14964,1,8,0:0:0:0:
256,192,15151,1,8,0:0:0:0:
256,192,15526,1,0,0:0:0:0:
256,192,15714,1,8,0:0:0:0:
256,192,15901,1,8,0:0:0:0:
256,192,16089,1,0,0:0:0:0:
256,192,16464,1,8,0:0:0:0:
256,192,16651,1,0,0:0:0:0:
256,192,17026,1,0,0:0:0:0:
256,192,17214,1,8,0:0:0:0:
256,192,17589,1,8,0:0:0:0:
256,192,17776,1,0,0:0:0:0:
256,192,17964,1,8,0:0:0:0:
256,192,18151,1,8,0:0:0:0:
256,192,18338,1,0,0:0:0:0:
256,192,18526,1,8,0:0:0:0:
256,192,18714,1,0,0:0:0:0:
256,192,18901,1,8,0:0:0:0:
256,192,19464,1,8,0:0:0:0:
256,192,19839,1,8,0:0:0:0:
256,192,20026,1,0,0:0:0:0:
256,192,20214,1,8,0:0:0:0:
256,192,20589,1,4,0:0:0:0:
256,192,20964,1,8,0:0:0:0:
256,192,21151,1,0,0:0:0:0:
256,192,21526,1,0,0:0:0:0:
256,192,21714,1,8,0:0:0:0:
256,192,22089,1,12,0:0:0:0:
256,192,22464,1,0,0:0:0:0:
256,192,22839,1,12,0:0:0:0:
256,192,23214,1,8,0:0:0:0:
256,192,23589,1,4,0:0:0:0:
256,192,23964,1,0,0:0:0:0:
256,192,24151,1,12,0:0:0:0:
256,192,24526,1,8,0:0:0:0:
256,192,24714,1,8,0:0:0:0:
256,192,24901,1,0,0:0:0:0:
256,192,24995,1,0,0:0:0:0:
256,192,25089,1,0,0:0:0:0:
256,192,25276,1,0,0:0:0:0:
256,192,25464,1,0,0:0:0:0:
256,192,25745,1,8,0:0:0:0:
256,192,26214,1,8,0:0:0:0:
256,192,26589,1,0,0:0:0:0:
256,192,26964,1,8,0:0:0:0:
256,192,27151,1,0,0:0:0:0:
256,192,27526,1,8,0:0:0:0:
256,192,27901,1,8,0:0:0:0:
256,192,28089,1,0,0:0:0:0:
256,192,28464,1,8,0:0:0:0:
256,192,28839,1,8,0:0:0:0:
256,192,29214,1,8,0:0:0:0:
256,192,29589,1,0,0:0:0:0:
256,192,29964,1,0,0:0:0:0:
256,192,30151,1,8,0:0:0:0:
256,192,30526,1,8,0:0:0:0:
256,192,30901,1,0,0:0:0:0:
256,192,32589,1,8,0:0:0:0:
256,192,32964,1,0,0:0:0:0:
256,192,33151,1,8,0:0:0:0:
256,192,33526,1,8,0:0:0:0:
256,192,33901,1,8,0:0:0:0:
256,192,34089,1,0,0:0:0:0:
256,192,34464,1,8,0:0:0:0:
256,192,34839,1,8,0:0:0:0:
256,192,35214,1,0,0:0:0:0:
256,192,35589,1,8,0:0:0:0:
256,192,35964,1,0,0:0:0:0:
256,192,36151,1,8,0:0:0:0:
256,192,36526,1,8,0:0:0:0:
256,192,36901,1,0,0:0:0:0:
256,192,38589,1,0,0:0:0:0:
256,192,38964,1,8,0:0:0:0:
256,192,39151,1,0,0:0:0:0:
256,192,39526,1,8,0:0:0:0:
256,192,39901,1,8,0:0:0:0:
256,192,40089,1,0,0:0:0:0:
256,192,40464,1,8,0:0:0:0:
256,192,40839,1,8,0:0:0:0:
256,192,41214,1,8,0:0:0:0:
256,192,41589,1,0,0:0:0:0:
256,192,41964,1,0,0:0:0:0:
256,192,42151,1,8,0:0:0:0:
256,192,42526,1,8,0:0:0:0:
256,192,42901,1,0,0:0:0:0:
256,192,44589,1,8,0:0:0:0:
256,192,44964,1,0,0:0:0:0:
256,192,45151,1,8,0:0:0:0:
256,192,45526,1,8,0:0:0:0:
256,192,45901,1,8,0:0:0:0:
256,192,46089,1,0,0:0:0:0:
256,192,46464,1,8,0:0:0:0:
256,192,46839,1,8,0:0:0:0:
256,192,47214,1,0,0:0:0:0:
256,192,47589,1,8,0:0:0:0:
256,192,47964,1,0,0:0:0:0:
256,192,48151,1,8,0:0:0:0:
256,192,48526,1,8,0:0:0:0:
256,192,48901,1,0,0:0:0:0:
256,192,50589,1,4,0:0:0:0:
256,192,50964,1,8,0:0:0:0:
256,192,51151,1,0,0:0:0:0:
256,192,51526,1,0,0:0:0:0:
256,192,51714,1,8,0:0:0:0:
256,192,52089,1,0,0:0:0:0:
256,192,52464,1,8,0:0:0:0:
256,192,52651,1,0,0:0:0:0:
256,192,53026,1,0,0:0:0:0:
256,192,53214,1,8,0:0:0:0:
256,192,53589,1,0,0:0:0:0:
256,192,53964,1,8,0:0:0:0:
256,192,54151,1,0,0:0:0:0:
256,192,54526,1,0,0:0:0:0:
256,192,54714,1,8,0:0:0:0:
256,192,54901,1,0,0:0:0:0:
256,192,55089,1,4,0:0:0:0:
256,192,55464,1,12,0:0:0:0:
256,192,55839,1,12,0:0:0:0:
256,192,56214,1,0,0:0:0:0:
256,192,56401,1,8,0:0:0:0:
256,192,56589,1,12,0:0:0:0:
256,192,57339,1,8,0:0:0:0:
256,192,58089,1,0,0:0:0:0:
256,192,59214,1,8,0:0:0:0:
256,192,59401,1,0,0:0:0:0:
256,192,59589,1,4,0:0:0:0:
256,192,59870,1,12,0:0:0:0:
256,192,60151,1,12,0:0:0:0:
256,192,60339,1,4,0:0:0:0:
256,192,60714,1,0,0:0:0:0:
256,192,61089,1,8,0:0:0:0:
256,192,61464,1,0,0:0:0:0:
256,192,61651,1,8,0:0:0:0:
256,192,62026,1,8,0:0:0:0:
256,192,62120,1,8,0:0:0:0:
256,192,62214,1,8,0:0:0:0:
256,192,62401,1,8,0:0:0:0:
256,192,62589,1,8,0:0:0:0:
256,192,62964,1,8,0:0:0:0:
256,192,63339,1,0,0:0:0:0:
256,192,63714,1,8,0:0:0:0:
256,192,64089,1,4,0:0:0:0:
256,192,64464,1,0,0:0:0:0:
256,192,64651,1,8,0:0:0:0:
256,192,65026,1,0,0:0:0:0:
256,192,65214,1,8,0:0:0:0:
256,192,65401,1,8,0:0:0:0:
256,192,65589,1,0,0:0:0:0:
256,192,65964,1,0,0:0:0:0:
256,192,66151,1,8,0:0:0:0:
256,192,66526,1,0,0:0:0:0:
256,192,66714,1,8,0:0:0:0:
256,192,66901,1,0,0:0:0:0:
256,192,67089,1,12,0:0:0:0:
256,192,67464,1,0,0:0:0:0:
256,192,67651,1,12,0:0:0:0:
256,192,68026,1,0,0:0:0:0:
256,192,68401,1,12,0:0:0:0:
256,192,68964,1,8,0:0:0:0:
256,192,69339,1,0,0:0:0:0:
256,192,69526,1,0,0:0:0:0:
256,192,69714,1,8,0:0:0:0:
256,192,70089,1,4,0:0:0:0:
256,192,70464,1,0,0:0:0:0:
256,192,70651,1,8,0:0:0:0:
256,192,71214,1,8,0:0:0:0:
256,192,71589,1,0,0:0:0:0:
256,192,71964,1,0,0:0:0:0:
256,192,72151,1,8,0:0:0:0:
256,192,72339,1,0,0:0:0:0:
256,192,72526,1,0,0:0:0:0:
256,192,72714,1,8,0:0:0:0:
256,192,73089,1,4,0:0:0:0:
256,192,73464,1,8,0:0:0:0:
256,192,73651,1,0,0:0:0:0:
256,192,73839,1,4,0:0:0:0:
256,192,74214,1,8,0:0:0:0:
256,192,74589,1,4,0:0:0:0:
256,192,74964,1,0,0:0:0:0:
256,192,75151,1,8,0:0:0:0:
256,192,75339,1,8,0:0:0:0:
256,192,75432,1,8,0:0:0:0:
256,192,75526,1,8,0:0:0:0:
256,192,75714,1,0,0:0:0:0:
256,192,75901,1,8,0:0:0:0:
256,192,76089,1,4,0:0:0:0:
256,192,76464,1,0,0:0:0:0:
256,192,76651,1,8,0:0:0:0:
256,192,77026,1,0,0:0:0:0:
256,192,77214,1,8,0:0:0:0:
256,192,77401,1,8,0:0:0:0:
256,192,77589,1,0,0:0:0:0:
256,192,77964,1,0,0:0:0:0:
256,192,78151,1,8,0:0:0:0:
256,192,78526,1,0,0:0:0:0:
256,192,78714,1,8,0:0:0:0:
256,192,78901,1,0,0:0:0:0:
256,192,79089,1,12,0:0:0:0:
256,192,79464,1,8,0:0:0:0:
256,192,79651,1,4,0:0:0:0:
256,192,80026,1,4,0:0:0:0:
256,192,80401,1,12,0:0:0:0:
256,192,80776,1,0,0:0:0:0:
256,192,80964,1,8,0:0:0:0:
256,192,81339,1,0,0:0:0:0:
256,192,81526,1,0,0:0:0:0:
256,192,81714,1,8,0:0:0:0:
256,192,82089,1,4,0:0:0:0:
256,192,82464,1,8,0:0:0:0:
256,192,82651,1,0,0:0:0:0:
256,192,82745,1,0,0:0:0:0:
256,192,82839,1,0,0:0:0:0:
256,192,83026,1,0,0:0:0:0:
256,192,83214,1,8,0:0:0:0:
256,192,83589,1,4,0:0:0:0:
256,192,83964,1,8,0:0:0:0:
256,192,84151,1,0,0:0:0:0:
256,192,84339,1,0,0:0:0:0:
256,192,84526,1,0,0:0:0:0:
256,192,84714,1,8,0:0:0:0:
256,192,85089,1,12,0:0:0:0:
256,192,85464,1,8,0:0:0:0:
256,192,85839,1,0,0:0:0:0:
256,192,86214,1,8,0:0:0:0:
256,192,86589,1,4,0:0:0:0:
256,192,86964,1,0,0:0:0:0:
256,192,87151,1,8,0:0:0:0:
256,192,87339,1,8,0:0:0:0:
256,192,87432,1,8,0:0:0:0:
256,192,87526,1,8,0:0:0:0:
256,192,87714,1,0,0:0:0:0:
256,192,87901,1,8,0:0:0:0:
256,192,88089,1,12,0:0:0:0:
256,192,88651,1,0,0:0:0:0:
256,192,89214,1,8,0:0:0:0:
256,192,89589,1,8,0:0:0:0:
256,192,90151,1,0,0:0:0:0:
256,192,90714,1,8,0:0:0:0:
256,192,91080,1,8,0:0:0:0:
256,192,91485,1,8,0:0:0:0:
256,192,91890,1,0,0:0:0:0:
256,192,92390,1,0,0:0:0:0:
256,192,92890,12,0,95290,0:0:0:0:
