osu file format v14

[General]
AudioFilename: audio.mp3
AudioLeadIn: 0
PreviewTime: 64089
Countdown: 0
SampleSet: Soft
StackLeniency: 0.7
Mode: 0
LetterboxInBreaks: 0
WidescreenStoryboard: 1

[Editor]
Bookmarks: 2964,3714,4464,5214,5964,6714,7464,8214,8964,9714,10464,11214,11964,12714,26964,27714,28464,29214,29964,30714,31464,32214,32964,33714,34464,35214,35964,36714,37464,38214,38964,39714,40464,41214,41964,42714,43464,44214,44964,45714,46464,47214,47964,48714,49464,50214,50964,51714,52464,53214,53964,54714,55464,56214,56964,57714,58464,59214,59964,60714,61464,62214,62964,63714,64464,65214,65964,66714,67464,68214,68964,69714,70464,71214,71964,72714,73464,74214,74964,75714,76464,77214,77964,78714,79464,80214,80964,81714,82464,83214,83964,84714,85464,86214,86964,87714,88464,89214,89964,90714,91480,92369
DistanceSpacing: 1.1
BeatDivisor: 2
GridSize: 16
TimelineZoom: 0.8

[Metadata]
Title:Samayoi no Mei
TitleUnicode:彷徨いの冥
Artist:Shoujo Fractal
ArtistUnicode:少女フラクタル
Creator:Prophecy
Version:Flourite's Easy
Source:東方Project
Tags:柚木梨沙 Yuzuki Risa Perfect Cherry Blossom Border of Life Nardo Nardoxyribonucleic Touhou F D Flourite Saigyouji Yuyuko 幽雅に咲かせ、墨染の桜 Yuuga ni Sakase, Sumizome no Sakura
BeatmapID:946055
BeatmapSetID:395758

[Difficulty]
HPDrainRate:2
CircleSize:3
OverallDifficulty:2
ApproachRate:3
SliderMultiplier:0.8
SliderTickRate:1

[Events]
//Background and Video events
0,0,"bg3.jpg",0,0
//Break Periods
2,14789,25149
//Storyboard Layer 0 (Background)
//Storyboard Layer 1 (Fail)
//Storyboard Layer 2 (Pass)
//Storyboard Layer 3 (Foreground)
Sprite,Foreground,Centre,"Lyric\A-1.png",320,240 M,0,2589,,491.7333,290.1334 F,0,2589,3339,0,1 F,0,3339,7089,1 F,0,7089,8589,1,0
Sprite,Foreground,Centre,"Lyric\A-2.png",320,240 M,0,8589,,491.7333,290.1334 F,0,8589,9339,0,1 F,0,9339,13089,1 F,0,13089,14214,1,0
Sprite,Foreground,Centre,"Lyric\B-1.png",320,240 M,0,26589,,491.7333,290.1334 F,0,26589,27339,0,1 F,0,27339,31089,1 F,0,31089,32589,1,0
Sprite,Foreground,Centre,"Lyric\B-2.png",320,240 M,0,32589,,491.7333,290.1334 F,0,32589,33339,0,1 F,0,33339,37089,1 F,0,37089,38589,1,0
Sprite,Foreground,Centre,"Lyric\B-3.png",320,240 M,0,38589,,491.7333,290.1334 F,0,38589,39339,0,1 F,0,39339,43089,1 F,0,43089,44589,1,0
Sprite,Foreground,Centre,"Lyric\B-4.png",320,240 F,0,44589,,0 F,0,45339,49089,1 M,0,49089,,491.7333,290.1334 F,0,49089,50589,1,0
Sprite,Foreground,Centre,"Lyric\C-1.png",320,240 M,0,50589,,491.7333,290.1334 F,0,50589,51339,0,1 F,0,51339,55839,1 F,0,55839,56589,1,0
Sprite,Foreground,Centre,"Lyric\C-2.png",320,240 M,0,56589,,491.7333,290.1334 F,0,56589,57339,0,1 F,0,57339,61089,1 F,0,61089,62589,1,0
Sprite,Foreground,Centre,"Lyric\K-1.png",320,240 F,0,64089,64839,0,1 F,0,64839,68214,1 F,0,68214,69339,1,0 M,0,69339,,491.7333,290.1334
Sprite,Foreground,Centre,"Lyric\K-2.png",320,240 M,0,70089,,491.7333,290.1334 F,0,70089,70839,0,1 F,0,70839,74589,1 F,0,74589,76089,1,0
Sprite,Foreground,Centre,"Lyric\K-3.png",320,240 F,0,76089,76839,0,1 M,0,76839,,491.7333,290.1334 F,0,76839,80589,1 F,0,80589,81714,1,0
Sprite,Foreground,Centre,"Lyric\K-4.png",320,240 M,0,82089,,491.7333,290.1334 F,0,82089,82839,0,1 F,0,82839,86589,1 F,0,86589,88089,1,0
Sprite,Foreground,Centre,"Lyric\E-1.png",320,240 M,0,88089,,321.1636,332.5091 F,0,88089,89589,0,1 F,0,89589,94690,1 F,0,94690,95890,1,0
//Storyboard Sound Samples

[TimingPoints]
2589,375,4,2,1,45,1,0
8589,-100,4,2,1,75,0,0
26589,-100,4,2,1,45,0,0
50589,-100,4,2,1,75,0,1
56589,-100,4,2,1,45,0,0
59589,-100,4,2,1,65,0,0
64089,-100,4,2,1,75,0,1
88089,-100,4,2,1,60,0,0
91080,405.405405405405,4,2,1,45,1,0
91080,-100,4,2,1,45,0,0
91485,-100,4,2,1,40,0,0
91890,500,4,2,1,35,1,8
91890,-100,4,2,1,35,0,8
92389,-100,4,2,1,30,0,8
92890,600,4,2,1,25,1,0
92890,-100,4,2,1,25,0,0
93490,-100,4,2,1,20,0,0
94090,-100,4,2,1,15,0,0
94690,-100,4,2,1,10,0,0
95290,-100,4,2,1,5,0,0

[Colours]
Combo1 : 244,199,250
Combo2 : 255,0,128
Combo3 : 255,0,255
Combo4 : 255,128,192

[HitObjects]
320,118,2589,6,0,B|367:114|367:114|393:119|393:119|456:114,2,120,2|0|2,0:0|0:0|0:0,0:0:0:0:
254,176,4089,2,0,B|248:237|248:237|263:297,2,120,2|0|2,0:0|0:0|0:0,0:0:0:0:
188,117,5589,6,0,P|129:89|43:157,1,160,2|2,0:0|0:0,0:0:0:0:
19,213,6714,1,0,0:0:0:0:
78,277,7089,2,0,B|105:296|105:296|146:275|190:293|190:293|228:275|271:294|271:294|310:265,1,240,2|0,0:0|0:0,0:0:0:0:
303,185,8589,6,0,B|322:131|383:113|383:113|454:153|516:81,1,240,4|0,0:0|0:0,0:0:0:0:
432,40,10089,2,0,B|416:201|416:201|436:287,1,240,4|0,0:0|0:0,0:0:0:0:
496,339,11589,6,0,P|436:333|391:349,1,80,4|0,0:0|0:0,0:0:0:0:
330,348,12339,2,0,P|265:349|239:337,1,80
256,192,13089,12,4,14589,0:0:0:0:
82,113,26589,6,0,L|254:118,1,160,2|0,0:0|0:0,0:0:0:0:
316,164,27714,1,2,0:0:0:0:
384,218,28089,2,0,P|408:277|395:339,2,120,0|2|0,0:0|0:0|0:0,0:0:0:0:
300,247,29589,6,0,B|221:223|219:280|133:254,1,160,2|0,0:0|0:0,0:0:0:0:
88,188,30714,1,2,0:0:0:0:
174,174,31089,2,0,B|194:131|194:131|182:47,2,120,0|2|0,0:0|0:0|0:0,0:0:0:0:
143,256,32589,6,0,P|205:258|265:182,1,160,2|0,0:0|0:0,0:0:0:0:
316,117,33714,1,2,0:0:0:0:
401,138,34089,2,0,B|447:142|447:142|471:153|471:153|519:145,2,120,0|2|0,0:0|0:0|0:0,0:0:0:0:
359,215,35589,6,0,P|350:278|417:346,1,160,2|0,0:0|0:0,0:0:0:0:
437,260,36714,1,2,0:0:0:0:
465,176,37089,2,0,B|488:134|498:89|440:44|440:44|399:74|324:53,1,240
265,59,38589,6,0,B|219:54|219:54|197:72|197:72|202:135,2,120,2|2|2,0:0|0:0|0:0,0:0:0:0:
309,134,40089,2,0,P|319:193|308:224,1,80,0|2,0:0|0:0,0:0:0:0:
289,296,40839,2,0,P|282:335|299:373,1,80,2|0,0:0|0:0,0:0:0:0:
373,326,41589,6,0,L|503:318,2,120,2|2|2,0:0|0:0|0:0,0:0:0:0:
289,296,43089,2,0,B|152:244|196:335|45:284,1,240,0|2,0:0|0:0,0:0:0:0:
14,209,44589,6,0,B|5:171|5:171|19:73,2,120,2|2|2,0:0|0:0|0:0,0:0:0:0:
101,203,46089,2,0,L|185:199,1,80,0|2,0:0|0:0,0:0:0:0:
253,148,46839,2,0,L|337:152,1,80,2|0,0:0|0:0,0:0:0:0:
404,202,47589,6,0,P|461:208|522:145,2,120,2|2|2,0:0|0:0|0:0,0:0:0:0:
437,120,49089,2,0,B|459:57|413:18|413:18|283:45,1,240,0|2,0:0|0:0,0:0:0:0:
202,64,50589,6,0,B|147:80|147:80|61:53,2,120,4|0|8,0:0|0:0|0:0,0:0:0:0:
262,127,52089,2,0,B|245:186|283:188|258:256,2,120,4|0|8,0:0|0:0|0:0,0:0:0:0:
344,157,53589,6,0,L|435:158,1,80,4|8,0:0|0:0,0:0:0:0:
481,224,54339,2,0,P|494:279|479:315,1,80,0|8,0:0|0:0,0:0:0:0:
411,345,55089,2,0,B|345:359|345:359|219:330,1,160,4|8,0:0|0:0,0:0:0:0:
170,313,56214,1,0,0:0:0:0:
82,322,56589,6,0,P|25:326|29:228,1,160,4|2,0:0|0:0,0:0:0:0:
167,161,58089,2,0,P|234:162|263:52,1,160,2|0,0:0|0:0,0:0:0:0:
260,1,59214,1,8,0:0:0:0:
181,41,59589,6,0,L|88:59,1,80,4|8,0:0|0:0,0:0:0:0:
60,133,60339,2,0,L|153:151,1,80,0|8,0:0|0:0,0:0:0:0:
217,188,61089,2,0,B|234:251|234:251|208:322,2,120,4|0|8,0:0|0:0|0:0,0:0:0:0:
274,120,62589,6,0,B|354:111|354:111|433:140|433:140|511:130|511:130,1,240,2|8,0:0|0:0,0:0:0:0:
492,217,64089,6,0,P|517:302|471:371,1,160,4|0,0:0|0:0,0:0:0:0:
398,377,65214,1,8,0:0:0:0:
313,350,65589,2,0,B|199:332|199:332|142:353,1,160,4|0,0:0|0:0,0:0:0:0:
71,366,66714,1,8,0:0:0:0:
17,296,67089,6,0,P|5:204|97:164,1,200,4|0,0:0|0:0,0:0:0:0:
177,169,68401,2,0,B|227:200|271:173|271:173|314:126|379:153,1,200
423,210,69714,1,8,0:0:0:0:
337,229,70089,6,0,L|306:50,1,160,4|0,0:0|0:0,0:0:0:0:
230,33,71214,1,8,0:0:0:0:
143,47,71589,2,0,B|101:63|64:53|64:53|75:89|57:138,1,160,4|0,0:0|0:0,0:0:0:0:
36,215,72714,1,8,0:0:0:0:
82,289,73089,6,0,P|134:302|172:286,1,80,4|8,0:0|0:0,0:0:0:0:
229,243,73839,2,0,P|267:235|305:248,1,80,0|8,0:0|0:0,0:0:0:0:
366,312,74589,2,0,L|349:132,1,160,4|0,0:0|0:0,0:0:0:0:
271,115,75714,1,8,0:0:0:0:
183,121,76089,6,0,B|66:115|66:115|104:160,1,160,4|0,0:0|0:0,0:0:0:0:
146,218,77214,1,8,0:0:0:0:
230,241,77589,2,0,B|280:239|303:203|303:203|338:131,1,160,4|0,0:0|0:0,0:0:0:0:
396,72,78714,1,8,0:0:0:0:
460,131,79089,6,0,B|452:178|452:178|460:200|460:200|452:256,1,120,4|8,0:0|0:0,0:0:0:0:
426,332,80026,1,8,0:0:0:0:
338,329,80401,2,0,B|273:327|273:327|218:343|218:343|135:339,1,200,4|0,0:0|0:0,0:0:0:0:
65,292,81714,1,8,0:0:0:0:
94,209,82089,6,0,B|200:164|214:247|334:198,1,240,4|8,0:0|0:0,0:0:0:0:
411,172,83589,1,4,0:0:0:0:
274,60,84339,1,4,0:0:0:0:
103,104,85089,6,0,L|113:200,1,80,4|8,0:0|0:0,0:0:0:0:
198,195,85839,2,0,L|188:291,1,80,0|8,0:0|0:0,0:0:0:0:
122,331,86589,2,0,P|210:363|276:248,1,240,4|0,0:0|0:0,0:0:0:0:
310,174,88089,6,0,P|379:158|451:196,2,120,2|0|2,0:0|0:0|0:0,0:0:0:0:
222,185,89589,2,0,B|154:202|154:202|77:187,2,120,2|0|2,0:0|0:0|0:0,0:0:0:0:
256,192,91080,12,0,95290,2:0:0:0:
