osu file format v14

[General]
AudioFilename: audio.mp3
AudioLeadIn: 0
PreviewTime: 64089
Countdown: 0
SampleSet: Soft
StackLeniency: 0.2
Mode: 0
LetterboxInBreaks: 0
WidescreenStoryboard: 1

[Editor]
DistanceSpacing: 2
BeatDivisor: 4
GridSize: 4
TimelineZoom: 1.7

[Metadata]
Title:Samayoi no Mei
TitleUnicode:彷徨いの冥
Artist:Shoujo Fractal
ArtistUnicode:少女フラクタル
Creator:DT-sama
Version:
Source:東方Project
Tags:柚木梨沙 Yuzuki Risa Perfect Cherry Blossom Border of Life Nardo Nardoxyribonucleic Touhou F D Flourite Saigyouji Yuyuko 幽雅に咲かせ、墨染の桜 Yuuga ni Sakase, Sumizome no Sakura
BeatmapID:1280242
BeatmapSetID:605963

[Difficulty]
HPDrainRate:5
CircleSize:4
OverallDifficulty:9
ApproachRate:9.6
SliderMultiplier:1.8
SliderTickRate:1

[Events]
//Background and Video events
0,0,"bg7.jpg",0,0
//Break Periods
//Storyboard Layer 0 (Background)
//Storyboard Layer 1 (Fail)
//Storyboard Layer 2 (Pass)
//Storyboard Layer 3 (Foreground)
//Storyboard Sound Samples

[TimingPoints]
2589,375,4,2,1,45,1,0
8589,-100,4,2,1,75,0,0
22089,-50,4,2,1,75,0,0
23589,-100,4,2,1,75,0,0
26589,-100,4,2,1,45,0,0
50589,-50,4,2,1,75,0,1
56589,-100,4,2,1,45,0,0
59589,-50,4,2,1,45,0,0
60714,-66.6666666666667,4,2,1,45,0,0
64089,-100,4,2,1,75,0,1
88089,-100,4,2,1,60,0,0
91080,405.405405405405,4,2,1,45,1,0
91080,-100,4,2,1,45,0,0
91485,-100,4,2,1,40,0,0
91890,500,4,2,1,35,1,8
91890,-100,4,2,1,35,0,8
92389,-100,4,2,1,30,0,8
92890,600,4,2,1,25,1,0
92890,-100,4,2,1,25,0,0
93490,-100,4,2,1,20,0,0
94090,-100,4,2,1,15,0,0
94690,-100,4,2,1,10,0,0
95290,-100,4,2,1,5,0,0

[Colours]
Combo1 : 244,199,250
Combo2 : 255,0,128
Combo3 : 255,0,255
Combo4 : 255,128,192

[HitObjects]
72,292,2589,5,6,0:0:0:0:
160,276,2776,1,0,0:0:0:0:
216,204,2964,1,0,0:0:0:0:
216,116,3151,1,0,0:0:0:0:
164,44,3714,5,0,0:0:0:0:
264,192,3901,1,0,0:0:0:0:
368,340,4089,5,2,0:0:0:0:
280,324,4276,1,0,0:0:0:0:
224,252,4464,1,0,0:0:0:0:
224,164,4651,1,0,0:0:0:0:
276,92,5214,5,0,0:0:0:0:
176,240,5401,1,0,0:0:0:0:
356,260,5589,6,0,L|356:372,1,90,2|0,0:0|0:0,0:0:0:0:
156,124,5964,6,0,L|156:12,1,90
414,92,6339,6,0,L|324:92,1,90,2|0,0:0|0:0,0:0:0:0:
98,292,6714,6,0,L|188:292,1,90
356,350,7089,6,0,L|152:28,1,360,2|0,0:0|0:0,0:0:0:0:
256,192,8026,12,0,8401,0:0:0:0:
456,76,8589,5,8,0:0:0:0:
452,88,8682,1,0,0:0:0:0:
448,100,8776,1,0,0:0:0:0:
444,112,8870,1,0,0:0:0:0:
440,124,8964,1,0,0:0:0:0:
436,136,9057,1,0,0:0:0:0:
432,148,9151,1,0,0:0:0:0:
428,160,9245,1,0,0:0:0:0:
424,172,9339,5,4,0:0:0:0:
256,28,9714,5,2,0:0:0:0:
256,356,10089,5,8,0:0:0:0:
256,332,10182,1,0,0:0:0:0:
256,308,10276,1,0,0:0:0:0:
256,284,10370,1,0,0:0:0:0:
256,260,10464,1,0,0:0:0:0:
256,236,10557,1,0,0:0:0:0:
256,212,10651,1,0,0:0:0:0:
256,188,10745,1,0,0:0:0:0:
256,164,10839,5,4,0:0:0:0:
256,356,11214,5,10,0:0:0:0:
408,128,11589,5,10,0:0:0:0:
400,148,11682,1,0,0:0:0:0:
392,168,11776,1,0,0:0:0:0:
384,188,11870,1,0,0:0:0:0:
356,264,11964,5,10,0:0:0:0:
312,237,12057,1,0,0:0:0:0:
273,209,12151,1,0,0:0:0:0:
230,182,12245,1,0,0:0:0:0:
132,84,12339,5,10,0:0:0:0:
168,140,12432,1,0,0:0:0:0:
228,104,12526,1,0,0:0:0:0:
196,44,12620,1,0,0:0:0:0:
96,148,12714,5,10,0:0:0:0:
88,236,12807,1,0,0:0:0:0:
148,304,12901,1,0,0:0:0:0:
236,324,12995,1,0,0:0:0:0:
320,292,13089,5,10,0:0:0:0:
344,208,13182,1,0,0:0:0:0:
256,184,13276,1,0,0:0:0:0:
232,272,13370,1,0,0:0:0:0:
320,292,13464,5,10,0:0:0:0:
356,188,13557,1,0,0:0:0:0:
312,84,13651,1,0,0:0:0:0:
208,36,13745,1,0,0:0:0:0:
104,76,13839,1,8,0:0:0:0:
68,180,13932,1,0,0:0:0:0:
112,284,14026,1,0,0:0:0:0:
216,332,14120,1,0,0:0:0:0:
320,292,14214,5,8,0:0:0:0:
368,168,14401,1,0,0:0:0:0:
320,292,14589,5,8,0:0:0:0:
320,292,14682,1,0,0:0:0:0:
320,292,14776,1,0,0:0:0:0:
320,292,14870,1,0,0:0:0:0:
320,292,14964,5,8,0:0:0:0:
280,272,15057,1,0,0:0:0:0:
256,232,15151,1,0,0:0:0:0:
256,188,15245,1,0,0:0:0:0:
256,144,15339,6,0,L|256:64,1,45,8|0,0:0|0:0,0:0:0:0:
384,152,15526,2,0,L|464:152,1,45
376,288,15714,2,0,L|376:368,1,45,8|0,0:0|0:0,0:0:0:0:
248,280,15901,2,0,L|168:280,1,45
256,96,16089,5,8,0:0:0:0:
320,112,16182,1,0,0:0:0:0:
376,152,16276,1,0,0:0:0:0:
400,216,16370,1,0,0:0:0:0:
316,312,16464,5,8,0:0:0:0:
364,280,16557,1,0,0:0:0:0:
328,232,16651,1,0,0:0:0:0:
280,264,16745,1,0,0:0:0:0:
380,352,16839,5,8,0:0:0:0:
444,292,16932,1,0,0:0:0:0:
456,204,17026,1,0,0:0:0:0:
404,132,17120,1,0,0:0:0:0:
344,196,17214,1,8,0:0:0:0:
284,132,17307,1,0,0:0:0:0:
196,120,17401,1,0,0:0:0:0:
124,172,17495,1,0,0:0:0:0:
104,260,17589,5,8,0:0:0:0:
352,364,17776,1,0,0:0:0:0:
460,116,17964,1,2,0:0:0:0:
212,12,18151,1,0,0:0:0:0:
460,260,18339,5,8,0:0:0:0:
212,364,18526,1,0,0:0:0:0:
104,116,18714,1,2,0:0:0:0:
352,12,18901,1,0,0:0:0:0:
212,364,19089,5,8,0:0:0:0:
212,296,19182,1,8,0:0:0:0:
212,228,19276,1,8,0:0:0:0:
212,160,19370,1,8,0:0:0:0:
212,92,19464,1,2,0:0:0:0:
328,24,19651,5,8,0:0:0:0:
328,92,19744,1,8,0:0:0:0:
328,160,19838,1,8,0:0:0:0:
328,228,19932,1,8,0:0:0:0:
328,296,20026,1,4,0:0:0:0:
76,156,20214,1,8,0:0:0:0:
328,24,20401,1,0,0:0:0:0:
328,296,20589,5,8,0:0:0:0:
252,312,20682,1,0,0:0:0:0:
180,280,20776,1,0,0:0:0:0:
156,208,20870,1,0,0:0:0:0:
188,136,20964,1,8,0:0:0:0:
264,120,21057,1,0,0:0:0:0:
336,152,21151,1,0,0:0:0:0:
360,224,21245,1,0,0:0:0:0:
328,296,21339,5,8,0:0:0:0:
308,276,21432,1,0,0:0:0:0:
288,256,21526,1,0,0:0:0:0:
268,236,21620,1,0,0:0:0:0:
248,216,21714,5,8,0:0:0:0:
180,160,21807,1,0,0:0:0:0:
100,204,21901,1,0,0:0:0:0:
124,292,21995,1,0,0:0:0:0:
212,300,22089,6,0,B|252:292|284:324|284:324|292:272|272:236|272:236|312:236|336:264|336:264|424:244|484:168|452:-16,1,540,4|0,0:0|0:0,0:0:0:0:
456,17,22839,5,8,0:0:0:0:
24,360,23214,1,2,0:0:0:0:
452,312,23589,5,8,0:0:0:0:
364,312,23682,1,0,0:0:0:0:
288,264,23776,1,0,0:0:0:0:
248,184,23870,1,0,0:0:0:0:
240,96,23964,5,4,0:0:0:0:
24,360,24151,1,2,0:0:0:0:
432,192,24526,5,8,0:0:0:0:
16,24,24714,1,2,0:0:0:0:
216,316,25089,5,10,0:0:0:0:
292,268,25182,1,0,0:0:0:0:
244,192,25276,1,0,0:0:0:0:
168,240,25370,1,0,0:0:0:0:
108,328,25464,5,10,0:0:0:0:
0,300,25557,1,0,0:0:0:0:
0,188,25652,1,0,0:0:0:0:
104,148,25745,1,0,0:0:0:0:
172,236,25838,5,4,0:0:0:0:
472,276,26589,5,6,0:0:0:0:
412,208,26776,1,0,0:0:0:0:
324,196,26964,1,0,0:0:0:0:
248,240,27151,1,0,0:0:0:0:
460,56,27526,5,2,0:0:0:0:
460,56,27714,1,0,0:0:0:0:
460,56,27901,1,0,0:0:0:0:
404,116,28089,5,6,0:0:0:0:
48,168,28464,1,0,0:0:0:0:
336,384,28839,1,2,0:0:0:0:
460,56,29214,1,2,0:0:0:0:
460,56,29401,1,2,0:0:0:0:
460,56,29589,5,4,0:0:0:0:
380,92,29776,1,0,0:0:0:0:
352,176,29964,1,0,0:0:0:0:
276,220,30151,1,2,0:0:0:0:
380,92,30526,5,2,0:0:0:0:
352,176,30713,1,0,0:0:0:0:
276,220,30901,1,2,0:0:0:0:
60,80,31370,1,0,0:0:0:0:
60,80,31464,1,0,0:0:0:0:
192,112,31651,1,2,0:0:0:0:
220,200,31839,1,0,0:0:0:0:
296,248,32026,1,0,0:0:0:0:
480,104,32214,5,2,0:0:0:0:
348,116,32401,1,0,0:0:0:0:
296,248,32589,5,4,0:0:0:0:
12,212,32964,5,2,0:0:0:0:
296,248,33151,1,4,0:0:0:0:
412,120,33526,1,2,0:0:0:0:
236,80,33714,1,0,0:0:0:0:
296,248,33901,1,0,0:0:0:0:
412,120,34089,5,4,0:0:0:0:
164,76,34464,5,2,0:0:0:0:
152,164,34651,1,0,0:0:0:0:
164,76,34839,1,2,0:0:0:0:
164,76,35026,1,0,0:0:0:0:
212,236,35214,1,2,0:0:0:0:
164,76,35401,1,0,0:0:0:0:
296,248,35589,5,4,0:0:0:0:
456,48,35964,5,2,0:0:0:0:
296,248,36151,1,0,0:0:0:0:
128,188,36526,5,2,0:0:0:0:
296,248,36714,1,0,0:0:0:0:
448,156,36901,1,2,0:0:0:0:
40,312,37370,5,0,0:0:0:0:
40,312,37464,1,0,0:0:0:0:
128,188,37651,1,2,0:0:0:0:
208,232,37839,1,0,0:0:0:0:
292,196,38026,1,0,0:0:0:0:
432,364,38214,5,2,0:0:0:0:
300,332,38401,1,0,0:0:0:0:
292,196,38589,5,4,0:0:0:0:
100,384,38964,5,2,0:0:0:0:
292,196,39151,1,0,0:0:0:0:
280,40,39526,5,2,0:0:0:0:
204,92,39714,1,0,0:0:0:0:
192,180,39901,1,0,0:0:0:0:
116,232,40089,5,4,0:0:0:0:
408,276,40464,5,2,0:0:0:0:
332,148,40651,1,0,0:0:0:0:
492,48,40839,5,2,0:0:0:0:
412,92,41026,1,0,0:0:0:0:
416,184,41214,1,2,0:0:0:0:
344,236,41401,1,0,0:0:0:0:
256,228,41589,5,4,0:0:0:0:
36,344,41964,5,2,0:0:0:0:
320,140,42151,1,0,0:0:0:0:
320,344,42526,1,2,0:0:0:0:
200,284,42714,1,0,0:0:0:0:
148,160,42901,1,2,0:0:0:0:
424,56,43370,5,0,0:0:0:0:
424,56,43464,1,0,0:0:0:0:
324,308,43651,1,2,0:0:0:0:
236,232,43839,1,0,0:0:0:0:
228,116,44026,1,0,0:0:0:0:
424,56,44214,1,2,0:0:0:0:
368,156,44401,1,0,0:0:0:0:
252,132,44589,5,4,0:0:0:0:
496,348,44964,5,2,0:0:0:0:
252,132,45151,1,0,0:0:0:0:
52,340,45526,5,2,0:0:0:0:
188,324,45714,1,0,0:0:0:0:
268,216,45901,1,0,0:0:0:0:
228,88,46089,5,4,0:0:0:0:
492,368,46464,1,2,0:0:0:0:
488,80,46651,1,2,0:0:0:0:
368,140,46839,1,2,0:0:0:0:
300,256,47026,5,0,0:0:0:0:
424,308,47214,1,0,0:0:0:0:
300,256,47401,1,0,0:0:0:0:
224,144,47589,5,4,0:0:0:0:
16,364,47964,5,2,0:0:0:0:
224,144,48151,1,0,0:0:0:0:
400,332,48526,5,2,0:0:0:0:
224,288,48714,1,0,0:0:0:0:
252,112,48901,1,2,0:0:0:0:
256,192,49089,12,0,50401,0:0:0:0:
144,124,50589,6,8,P|248:212|448:112,1,360
436,135,51151,1,2,0:0:0:0:
56,144,51526,6,0,L|56:324,1,180,4|0,0:0|0:0,0:0:0:0:
464,316,52089,6,0,L|368:180,2,90,8|2|8,0:0|0:0|0:0,0:0:0:0:
256,340,52464,6,0,L|256:152,1,180,8|0,0:0|0:0,0:0:0:0:
256,160,53026,1,0,0:0:0:0:
256,340,53214,1,2,0:0:0:0:
432,128,53589,6,8,P|320:76|132:208,1,360
136,193,54151,1,0,0:0:0:0:
400,352,54339,5,2,0:0:0:0:
284,208,54526,2,0,L|180:100,1,90
108,52,54714,2,8,P|62:147|-6:192,1,180
396,44,55089,6,0,P|448:136|520:176,1,180,4|0,0:0|0:0,0:0:0:0:
107,52,55464,6,0,P|194:-9|226:-85,1,180,4|0,0:0|0:0,0:0:0:0:
336,360,55839,6,0,P|164:375|113:561,1,360,4|0,0:0|0:0,0:0:0:0:
256,192,56589,5,4,0:0:0:0:
256,192,56682,12,0,58089,0:0:0:0:
256,192,58464,12,0,59214,0:0:0:0:
292,164,59589,6,0,L|368:240,1,90,2|0,0:0|0:0,0:0:0:0:
200,256,59776,6,0,P|224:296|276:332,1,90,8|0,0:0|0:0,0:0:0:0:
456,132,59964,2,0,P|433:93|398:64,1,90,8|0,0:0|0:0,0:0:0:0:
112,116,60151,6,0,P|72:208|-8:248,1,180,8|0,0:0|0:0,0:0:0:0:
464,348,60526,1,2,0:0:0:0:
464,348,60714,6,0,L|224:164,1,270.000010299683,10|0,0:0|0:0,0:0:0:0:
256,192,61276,12,0,62589,0:0:0:0:
248,352,64089,5,10,0:0:0:0:
308,324,64182,1,0,0:0:0:0:
340,264,64276,1,0,0:0:0:0:
340,196,64370,1,0,0:0:0:0:
304,140,64464,5,8,0:0:0:0:
224,184,64557,1,0,0:0:0:0:
136,164,64651,1,0,0:0:0:0:
84,92,64745,1,0,0:0:0:0:
132,16,64839,5,8,0:0:0:0:
185,89,64932,1,0,0:0:0:0:
176,177,65026,1,0,0:0:0:0:
109,239,65120,1,0,0:0:0:0:
136,44,65214,5,8,0:0:0:0:
176,99,65307,1,0,0:0:0:0:
169,165,65401,1,0,0:0:0:0:
119,211,65495,1,0,0:0:0:0:
20,252,65589,5,10,0:0:0:0:
88,244,65682,1,0,0:0:0:0:
100,312,65776,1,0,0:0:0:0:
32,328,65870,1,0,0:0:0:0:
48,176,65964,5,8,0:0:0:0:
124,132,66057,1,0,0:0:0:0:
212,152,66151,1,0,0:0:0:0:
268,224,66245,1,0,0:0:0:0:
292,312,66339,1,8,0:0:0:0:
368,356,66432,1,0,0:0:0:0:
456,336,66526,1,0,0:0:0:0:
512,264,66620,1,0,0:0:0:0:
496,176,66714,5,10,0:0:0:0:
24,28,67089,5,10,0:0:0:0:
256,196,67276,1,0,0:0:0:0:
24,28,67464,1,2,0:0:0:0:
500,380,67651,5,0,0:0:0:0:
24,28,68026,5,8,0:0:0:0:
252,192,68401,5,10,0:0:0:0:
255,338,68589,5,0,0:0:0:0:
359,295,68683,1,0,0:0:0:0:
402,192,68777,1,0,0:0:0:0:
359,88,68870,1,0,0:0:0:0:
256,45,68964,1,8,0:0:0:0:
152,88,69058,1,0,0:0:0:0:
109,192,69152,1,0,0:0:0:0:
152,295,69245,1,0,0:0:0:0:
255,338,69339,5,8,0:0:0:0:
256,300,69432,1,0,0:0:0:0:
256,260,69526,1,0,0:0:0:0:
256,220,69620,1,0,0:0:0:0:
256,180,69714,6,0,L|256:104,3,45,8|0|0|0,0:0|0:0|0:0|0:0,0:0:0:0:
376,84,70089,5,10,0:0:0:0:
396,148,70182,1,0,0:0:0:0:
380,212,70276,1,0,0:0:0:0:
320,244,70370,1,0,0:0:0:0:
192,256,70464,5,10,0:0:0:0:
180,280,70557,1,0,0:0:0:0:
72,296,70651,1,2,0:0:0:0:
60,320,70744,1,0,0:0:0:0:
48,200,70839,5,10,0:0:0:0:
60,176,70932,1,0,0:0:0:0:
148,168,71026,1,2,0:0:0:0:
160,144,71119,1,0,0:0:0:0:
172,120,71214,6,0,L|204:48,3,45,10|0|0|0,0:0|0:0|0:0|0:0,0:0:0:0:
288,200,71589,5,10,0:0:0:0:
300,224,71682,1,0,0:0:0:0:
420,264,71776,1,2,0:0:0:0:
408,240,71869,1,0,0:0:0:0:
420,120,71964,5,10,0:0:0:0:
432,144,72057,1,0,0:0:0:0:
332,112,72151,1,2,0:0:0:0:
320,88,72244,1,0,0:0:0:0:
308,64,72339,6,0,L|276:-8,3,45,10|0|0|0,0:0|0:0|0:0|0:0,0:0:0:0:
232,104,72714,5,8,0:0:0:0:
220,172,72807,1,0,0:0:0:0:
208,240,72901,1,0,0:0:0:0:
192,304,72995,1,0,0:0:0:0:
176,368,73089,5,10,0:0:0:0:
196,356,73182,1,0,0:0:0:0:
216,344,73276,1,0,0:0:0:0:
236,332,73370,1,0,0:0:0:0:
320,208,73464,5,8,0:0:0:0:
300,273,73557,1,0,0:0:0:0:
232,256,73651,1,0,0:0:0:0:
246,191,73745,1,0,0:0:0:0:
312,360,73839,5,8,0:0:0:0:
224,344,73932,1,0,0:0:0:0:
168,276,74026,1,0,0:0:0:0:
168,184,74120,1,0,0:0:0:0:
268,44,74214,5,8,0:0:0:0:
192,88,74307,1,0,0:0:0:0:
236,168,74401,1,0,0:0:0:0:
316,124,74495,1,0,0:0:0:0:
104,44,74589,5,10,0:0:0:0:
36,132,74682,1,0,0:0:0:0:
48,244,74776,1,0,0:0:0:0:
132,320,74870,1,0,0:0:0:0:
244,328,74964,1,8,0:0:0:0:
348,292,75057,1,0,0:0:0:0:
348,180,75151,1,0,0:0:0:0:
240,144,75245,1,0,0:0:0:0:
176,236,75339,5,8,0:0:0:0:
512,384,75526,1,0,0:0:0:0:
96,372,75714,1,8,0:0:0:0:
512,0,75901,1,0,0:0:0:0:
208,164,76089,5,10,0:0:0:0:
208,164,76182,1,0,0:0:0:0:
208,164,76276,1,0,0:0:0:0:
208,164,76370,1,0,0:0:0:0:
256,224,76464,5,10,0:0:0:0:
272,208,76557,1,0,0:0:0:0:
268,124,76651,5,0,0:0:0:0:
252,108,76744,1,0,0:0:0:0:
168,104,76839,5,10,0:0:0:0:
152,120,76932,1,0,0:0:0:0:
156,204,77026,5,0,0:0:0:0:
172,220,77119,1,0,0:0:0:0:
232,288,77214,5,10,0:0:0:0:
344,304,77307,1,0,0:0:0:0:
444,248,77401,1,8,0:0:0:0:
472,140,77495,1,0,0:0:0:0:
428,36,77589,5,10,0:0:0:0:
396,68,77682,1,0,0:0:0:0:
360,96,77776,1,0,0:0:0:0:
324,124,77870,1,0,0:0:0:0:
220,232,77964,5,10,0:0:0:0:
268,183,78057,1,0,0:0:0:0:
220,135,78151,1,0,0:0:0:0:
169,181,78245,1,0,0:0:0:0:
208,52,78339,5,10,0:0:0:0:
144,36,78432,1,0,0:0:0:0:
84,64,78526,1,0,0:0:0:0:
60,128,78620,1,0,0:0:0:0:
72,292,78714,5,10,0:0:0:0:
160,268,78808,1,0,0:0:0:0:
136,180,78902,1,0,0:0:0:0:
48,204,78995,1,0,0:0:0:0:
72,292,79089,5,10,0:0:0:0:
256,120,79276,1,0,0:0:0:0:
48,204,79464,1,8,0:0:0:0:
464,36,79651,5,2,0:0:0:0:
16,352,80026,5,8,0:0:0:0:
256,192,80401,5,2,0:0:0:0:
257,46,80589,5,0,0:0:0:0:
153,89,80683,1,0,0:0:0:0:
110,192,80777,1,0,0:0:0:0:
153,296,80870,1,0,0:0:0:0:
256,339,80964,1,8,0:0:0:0:
360,296,81058,1,0,0:0:0:0:
403,192,81152,1,0,0:0:0:0:
360,89,81245,1,0,0:0:0:0:
257,46,81339,5,8,0:0:0:0:
256,84,81432,1,0,0:0:0:0:
256,124,81526,1,0,0:0:0:0:
256,164,81620,1,0,0:0:0:0:
256,204,81714,6,0,L|256:280,3,45,8|0|0|0,0:0|0:0|0:0|0:0,0:0:0:0:
256,360,82089,5,10,0:0:0:0:
128,316,82182,1,0,0:0:0:0:
76,192,82276,1,0,0:0:0:0:
128,68,82370,1,0,0:0:0:0:
256,24,82464,5,8,0:0:0:0:
256,68,82557,1,0,0:0:0:0:
256,112,82651,1,0,0:0:0:0:
256,156,82745,1,0,0:0:0:0:
256,200,82839,5,8,0:0:0:0:
256,200,83214,5,10,0:0:0:0:
256,360,83589,5,10,0:0:0:0:
384,316,83682,1,0,0:0:0:0:
436,192,83776,1,0,0:0:0:0:
384,68,83870,1,0,0:0:0:0:
256,24,83964,5,8,0:0:0:0:
256,68,84057,1,0,0:0:0:0:
256,112,84151,1,0,0:0:0:0:
256,156,84245,1,0,0:0:0:0:
256,200,84339,5,8,0:0:0:0:
256,200,84714,5,10,0:0:0:0:
40,40,85089,5,8,0:0:0:0:
36,128,85182,1,0,0:0:0:0:
80,204,85276,1,0,0:0:0:0:
168,220,85370,1,0,0:0:0:0:
184,48,85464,5,8,0:0:0:0:
208,112,85557,1,0,0:0:0:0:
148,140,85651,1,0,0:0:0:0:
120,76,85745,1,0,0:0:0:0:
280,72,85839,5,10,0:0:0:0:
304,108,85932,1,0,0:0:0:0:
328,144,86026,1,0,0:0:0:0:
352,180,86120,1,0,0:0:0:0:
376,280,86214,5,8,0:0:0:0:
308,272,86308,1,0,0:0:0:0:
256,228,86402,1,0,0:0:0:0:
244,160,86495,1,0,0:0:0:0:
420,84,86589,5,8,0:0:0:0:
464,188,86682,1,0,0:0:0:0:
416,292,86776,1,8,0:0:0:0:
304,312,86870,1,0,0:0:0:0:
216,244,86964,1,10,0:0:0:0:
160,148,87057,1,0,0:0:0:0:
48,148,87151,1,8,0:0:0:0:
12,256,87245,1,0,0:0:0:0:
80,348,87339,5,10,0:0:0:0:
188,328,87432,1,0,0:0:0:0:
248,232,87526,1,8,0:0:0:0:
228,120,87620,1,0,0:0:0:0:
128,68,87714,5,10,0:0:0:0:
52,148,87807,1,8,0:0:0:0:
120,236,87901,1,8,0:0:0:0:
204,160,87995,1,8,0:0:0:0:
128,68,88089,5,14,0:0:0:0:
