osu file format v14

[General]
AudioFilename: sanaeee.mp3
AudioLeadIn: 0
PreviewTime: 57778
Countdown: 0
SampleSet: Soft
StackLeniency: 0.7
Mode: 0
LetterboxInBreaks: 0
WidescreenStoryboard: 0

[Editor]
Bookmarks: 52622,92934
DistanceSpacing: 1
BeatDivisor: 4
GridSize: 32
TimelineZoom: 2.2

[Metadata]
Title:Hatenaki Kaze no Kiseki sae Shouto VER.(Doujin Anime PV_VER.)
TitleUnicode:果てなき風の軌跡さえ ショートVER.(同人アニメPV_VER.)
Artist:Shoujo Fractal
ArtistUnicode:少女フラクタル
Creator:Santtu
Version:Normal
Source:東方風神録 ~ Mountain of Faith.
Tags:Touhou Project Sanae Kochiya Kotiya ふうじんろく fuujinroku HiZuMi かませ虎 天宮みや Amamiya Miya ikuo music video mv 漩涡uzumaki
BeatmapID:1274133
BeatmapSetID:524568

[Difficulty]
HPDrainRate:3
CircleSize:3.3
OverallDifficulty:4
ApproachRate:4
SliderMultiplier:0.999999999999999
SliderTickRate:1

[Events]
//Background and Video events
Video,-250,"sanaeeeeeeeeeeeeeeeee.avi"
0,0,"sanaeeeeeeee.jpg",0,0
//Break Periods
//Storyboard Layer 0 (Background)
//Storyboard Layer 1 (Fail)
//Storyboard Layer 2 (Pass)
//Storyboard Layer 3 (Foreground)
//Storyboard Sound Samples

[TimingPoints]
122,375,4,2,1,55,1,0
16622,-100,4,2,1,90,0,1
28622,-100,4,2,1,80,0,0
66122,-100,4,2,1,90,0,1
72028,-100,4,2,1,90,0,0
72122,-100,4,2,1,90,0,1
76903,-100,4,1,1,90,0,1
77090,-100,4,2,1,90,0,1
78122,-100,4,2,1,80,0,0
79622,-100,4,2,1,90,0,1
81403,-100,4,1,1,90,0,1
81590,-100,4,2,1,90,0,1
84028,-100,4,2,1,90,0,0
84122,-100,4,2,1,90,0,1
90122,-100,4,2,1,90,0,0
92934,-100,4,2,1,15,0,0

[Colours]
Combo1 : 255,255,91
Combo2 : 100,255,100
Combo3 : 74,156,255
Combo4 : 245,71,98

[HitObjects]
114,313,1622,6,0,B|118:253|93:217|93:217|108:163,1,150,2|0,0:0|0:0,0:0:0:0:
133,126,2372,2,0,L|252:107,1,99.9999999999999,2|0,0:0|0:0,0:0:0:0:
317,162,3122,1,2,0:0:0:0:
394,99,3497,2,0,P|401:39|389:-4,2,99.9999999999999,2|2|2,0:0|0:0|0:0,0:0:0:0:
458,175,4622,6,0,P|475:236|440:342,1,150,2|0,0:0|0:0,0:0:0:0:
414,346,5372,2,0,L|294:335,1,99.9999999999999,2|2,0:0|0:0,0:0:0:0:
215,350,6122,2,0,P|220:300|248:259,1,99.9999999999999,2|2,0:0|0:0,0:0:0:0:
323,193,6872,2,0,P|281:165|232:160,1,99.9999999999999,2|2,0:0|0:0,0:0:0:0:
139,197,7622,6,0,B|82:221|82:221|36:178|73:103,1,150,2|0,0:0|0:0,0:0:0:0:
70,91,8372,2,0,P|128:90|189:55,1,99.9999999999999,2|0,0:0|0:0,0:0:0:0:
247,15,9122,1,2,0:0:0:0:
330,71,9497,2,0,P|352:122|355:172,2,99.9999999999999,2|2|2,0:0|0:0|0:0,0:0:0:0:
342,22,10434,6,0,L|502:39,1,150,2|2,0:0|0:0,0:0:0:0:
509,136,11372,2,0,P|456:165|391:170,1,99.9999999999999,2|2,0:0|0:0,0:0:0:0:
318,157,12122,2,0,P|269:166|226:192,1,99.9999999999999,2|2,0:0|0:0,0:0:0:0:
174,277,12872,2,0,L|167:360,2,74.9999999999999,2|2|2,0:0|0:0|0:0,0:0:0:0:
150,232,13622,5,2,0:0:0:0:
256,192,13809,12,2,15872,0:0:0:0:
215,167,16622,6,0,L|226:58,1,99.9999999999999,4|8,0:0|0:0,0:0:0:0:
320,35,17372,2,0,L|331:144,1,99.9999999999999,0|12,0:0|0:1,0:0:0:0:
404,202,18122,1,0,0:0:0:0:
494,160,18497,1,8,0:0:0:0:
511,61,18872,2,0,L|394:42,1,99.9999999999999,0|8,0:0|0:0,0:0:0:0:
326,95,19622,5,0,0:0:0:0:
255,166,19997,2,0,P|245:216|258:272,2,99.9999999999999,8|0|12,0:0|0:0|0:1,0:0:0:0:
216,73,21122,1,0,0:0:0:0:
117,53,21497,2,0,P|28:80|10:104,2,99.9999999999999,8|0|8,0:0|0:0|0:0,0:0:0:0:
98,151,22622,6,0,L|87:255,1,99.9999999999999,0|8,0:0|0:0,0:0:0:0:
75,350,23372,1,0,0:0:0:0:
174,362,23747,1,12,0:1:0:0:
186,262,24122,2,0,P|236:227|284:223,1,99.9999999999999,0|8,0:0|0:0,0:0:0:0:
371,242,24872,1,0,0:0:0:0:
453,298,25247,1,8,0:0:0:0:
494,206,25622,6,0,P|499:154|479:98,1,99.9999999999999,4|8,0:0|0:0,0:0:0:0:
407,45,26372,2,0,L|488:16,2,74.9999999999999
360,62,27122,2,0,B|372:160|372:160|355:208,1,150,4|8,0:0|0:0,0:0:0:0:
275,335,28247,1,8,0:0:0:0:
178,355,28622,6,0,P|108:335|19:366,1,150,4|0,0:0|0:0,0:0:0:0:
12,310,29372,2,0,L|2:188,1,99.9999999999999,2|2,0:0|0:0,0:0:0:0:
51,122,30122,2,0,B|78:99|78:99|138:103|194:46,1,150,2|0,0:0|0:0,0:0:0:0:
223,31,30872,2,0,P|249:87|242:136,1,99.9999999999999,2|2,0:0|0:0,0:0:0:0:
205,215,31622,6,0,B|304:236|304:236|363:201,2,150,2|2|2,0:0|0:0|0:0,0:0:0:0:
126,152,33122,2,0,P|185:116|235:120,2,99.9999999999999,2|0|2,0:0|0:0|0:0,0:0:0:0:
79,241,34247,1,2,0:0:0:0:
122,330,34622,6,0,P|176:361|280:325,1,150,2|0,0:0|0:0,0:0:0:0:
296,312,35372,2,0,L|312:202,1,99.9999999999999,2|2,0:0|0:0,0:0:0:0:
407,234,36122,2,0,L|421:398,2,150,2|2|2,0:0|0:0|0:0,0:0:0:0:
463,151,37622,6,0,P|455:93|426:47,1,99.9999999999999,2|2,0:0|0:0,0:0:0:0:
335,41,38372,2,0,L|241:34,2,74.9999999999999,2|2|2,0:0|0:0|0:0,0:0:0:0:
360,84,39122,2,0,P|352:135|312:186,1,99.9999999999999,2|0,0:0|0:0,0:0:0:0:
225,181,39872,2,0,P|184:148|160:88,1,99.9999999999999,2|0,0:0|0:0,0:0:0:0:
93,35,40622,6,0,P|116:107|80:178,1,150,4|0,0:0|0:0,0:0:0:0:
46,202,41372,2,0,L|71:321,1,99.9999999999999,2|2,0:0|0:0,0:0:0:0:
155,345,42122,2,0,B|188:319|188:319|304:332,1,150,2|0,0:0|0:0,0:0:0:0:
344,336,42872,2,0,P|369:292|372:243,1,99.9999999999999,2|2,0:0|0:0,0:0:0:0:
332,152,43622,6,0,B|282:177|276:229|276:229|246:219|220:227,2,150,2|2|2,0:0|0:0|0:0,0:0:0:0:
418,101,45122,2,0,P|438:66|426:-3,2,99.9999999999999,2|0|2,0:0|0:0|0:0,0:0:0:0:
339,38,46247,1,2,0:0:0:0:
259,98,46622,6,0,P|175:108|107:68,1,150,2|0,0:0|0:0,0:0:0:0:
77,50,47372,2,0,L|63:154,1,99.9999999999999,2|2,0:0|0:0,0:0:0:0:
58,248,48122,2,0,B|99:268|99:268|205:239,1,150,2|0,0:0|0:0,0:0:0:0:
247,226,48872,2,0,L|236:349,1,99.9999999999999,2|2,0:0|0:0,0:0:0:0:
332,359,49622,6,0,L|321:236,1,99.9999999999999,2|2,0:0|0:0,0:0:0:0:
405,202,50372,2,0,P|456:208|485:222,2,74.9999999999999,2|2|2,0:0|0:0|0:0,0:0:0:0:
371,164,51122,2,0,P|320:137|294:83,2,99.9999999999999,2|0|2,0:0|0:0|0:0,0:0:0:0:
451,104,52247,1,2,0:0:0:0:
421,8,52622,6,0,L|307:18,1,99.9999999999999,4|8,0:0|0:0,0:0:0:0:
280,45,53184,2,0,L|180:36,1,99.9999999999999,2|2,0:0|0:0,0:0:0:0:
134,55,53747,1,8,0:0:0:0:
61,123,54122,2,0,P|58:176|78:226,1,99.9999999999999,0|8,0:0|0:0,0:0:0:0:
114,248,54684,2,0,L|222:225,1,99.9999999999999,2|2,0:0|0:0,0:0:0:0:
253,199,55247,1,8,0:0:0:0:
336,144,55622,6,0,P|396:170|444:166,1,99.9999999999999,4|8,0:0|0:0,0:0:0:0:
461,207,56184,2,0,P|435:267|439:315,1,99.9999999999999,2|2,0:0|0:0,0:0:0:0:
398,334,56747,1,8,0:0:0:0:
306,373,57122,2,0,L|189:360,1,99.9999999999999,0|8,0:0|0:0,0:0:0:0:
152,277,57872,1,2,0:0:0:0:
171,178,58247,1,10,0:0:0:0:
79,136,58622,6,0,P|76:82|112:27,1,99.9999999999999,4|8,0:1|0:0,0:0:0:0:
193,17,59372,2,0,L|278:7,2,74.9999999999999,2|2|2,0:0|0:0|0:0,0:0:0:0:
180,65,60122,2,0,P|196:117|238:167,1,99.9999999999999,4|8,0:0|0:0,0:0:0:0:
318,182,60872,2,0,L|423:142,1,99.9999999999999,0|8,0:0|0:0,0:0:0:0:
492,204,61622,6,0,L|505:269,2,50,4|0|8,0:0|0:0|0:0,0:0:0:0:
493,103,62372,2,0,L|506:38,2,50,4|0|8,0:0|0:0|0:0,0:0:0:0:
403,58,63122,6,0,P|337:63|279:139,1,150,6|0,0:1|0:0,0:0:0:0:
304,167,63872,2,0,L|317:268,1,99.9999999999999,2|2,0:0|0:0,0:0:0:0:
249,340,64622,2,0,P|183:335|125:259,1,150,6|0,0:1|0:0,0:0:0:0:
150,231,65372,2,0,L|163:130,1,99.9999999999999,2|2,0:0|0:0,0:0:0:0:
239,65,66122,6,0,P|294:67|348:34,1,99.9999999999999,4|8,0:0|0:0,0:0:0:0:
424,5,66872,2,0,L|438:103,1,99.9999999999999,0|12,0:0|0:1,0:0:0:0:
380,185,67622,2,0,P|429:190|484:235,2,99.9999999999999,0|8|0,0:0|0:0|0:0,0:0:0:0:
287,222,68747,1,12,0:1:0:0:
264,319,69122,6,0,P|199:331|152:310,1,99.9999999999999,0|8,0:0|0:0,0:0:0:0:
96,251,69872,2,0,L|101:142,1,99.9999999999999,0|12,0:0|0:1,0:0:0:0:
152,65,70622,2,0,P|222:54|268:113,1,150,4|2,0:0|0:0,0:0:0:0:
196,178,71559,2,0,P|138:157|94:150,1,99.9999999999999,2|0,0:0|0:0,0:0:0:0:
53,167,72122,6,0,P|32:225|25:269,1,99.9999999999999,4|8,0:0|0:0,0:0:0:0:
74,349,72872,2,0,P|122:340|171:350,1,99.9999999999999,0|12,0:0|0:1,0:0:0:0:
246,284,73622,2,0,P|219:224|180:189,2,99.9999999999999,0|8|0,0:0|0:0|0:0,0:0:0:0:
276,379,74747,1,12,0:1:0:0:
309,341,74934,6,0,P|354:316|421:318,1,99.9999999999999
451,321,75497,1,8,0:0:0:0:
502,235,75872,2,0,P|499:173|482:130,1,99.9999999999999,0|12,0:0|0:1,0:0:0:0:
426,57,76622,2,0,P|368:84|354:176,1,150
366,209,77372,1,0,0:1:0:0:
292,277,77747,1,12,0:1:0:0:
195,251,78122,6,0,P|136:233|40:254,1,150,2|0,0:0|0:0,0:0:0:0:
9,220,78872,2,0,P|2:175|93:139,1,150,2|0,0:0|0:0,0:0:0:0:
128,154,79622,5,4,0:0:0:0:
189,75,79997,1,8,0:0:0:0:
275,123,80372,2,0,P|319:99|368:102,1,99.9999999999999,0|12,0:0|0:1,0:0:0:0:
456,149,81122,2,0,P|406:217|335:192,1,150
300,200,81872,2,0,P|271:248|273:299,1,99.9999999999999,0|12,0:0|0:1,0:0:0:0:
192,352,82622,6,0,P|112:353|48:297,1,150,4|2,0:0|0:0,0:0:0:0:
43,213,83559,2,0,P|61:172|60:115,1,99.9999999999999,2|0,0:0|0:0,0:0:0:0:
82,72,84122,6,0,L|184:107,1,99.9999999999999,4|8,0:0|0:0,0:0:0:0:
260,49,84872,2,0,P|300:74|319:142,1,99.9999999999999,0|12,0:0|0:1,0:0:0:0:
359,213,85622,2,0,P|397:206|455:151,2,99.9999999999999,4|8|0,0:0|0:0|0:0,0:0:0:0:
259,199,86747,1,12,0:1:0:0:
190,272,87122,6,0,P|160:204|169:162,1,99.9999999999999,4|8,0:0|0:0,0:0:0:0:
213,95,87872,2,0,B|241:79|241:79|310:82,1,99.9999999999999,4|12,0:0|0:1,0:0:0:0:
384,147,88622,2,0,P|389:202|371:248,1,99.9999999999999,4|8,0:0|0:0,0:0:0:0:
299,309,89372,2,0,L|389:335,2,74.9999999999999,2|2|2,0:0|0:0|0:0,0:0:0:0:
251,292,90122,5,4,0:0:0:0:
256,192,90309,12,0,92934,0:0:0:0:
