osu file format v14

[General]
AudioFilename: sanaeee.mp3
AudioLeadIn: 0
PreviewTime: 57778
Countdown: 0
SampleSet: Soft
StackLeniency: 0.7
Mode: 0
LetterboxInBreaks: 0
WidescreenStoryboard: 0

[Editor]
Bookmarks: 92934
DistanceSpacing: 2
BeatDivisor: 4
GridSize: 32
TimelineZoom: 2.6

[Metadata]
Title:Hatenaki Kaze no Kiseki sae Shouto VER.(Doujin Anime PV_VER.)
TitleUnicode:果てなき風の軌跡さえ ショートVER.(同人アニメPV_VER.)
Artist:Shoujo Fractal
ArtistUnicode:少女フラクタル
Creator:Santtu
Version:Fractal
Source:東方風神録 ~ Mountain of Faith.
Tags:Touhou Project Sanae Kochiya Kotiya ふうじんろく fuujinroku HiZuMi かませ虎 天宮みや Amamiya Miya ikuo music video mv 漩涡uzumaki
BeatmapID:1115453
BeatmapSetID:524568

[Difficulty]
HPDrainRate:6
CircleSize:4.2
OverallDifficulty:8.5
ApproachRate:9.2
SliderMultiplier:1.75
SliderTickRate:1

[Events]
//Background and Video events
Video,-250,"sanaeeeeeeeeeeeeeeeee.avi"
0,0,"sanaeeeeeeee.jpg",0,0
//Break Periods
//Storyboard Layer 0 (Background)
//Storyboard Layer 1 (Fail)
//Storyboard Layer 2 (Pass)
//Storyboard Layer 3 (Foreground)
//Storyboard Sound Samples

[TimingPoints]
122,375,4,2,1,55,1,0
1622,-133.333333333333,4,2,1,55,0,0
15122,-133.333333333333,4,2,1,40,0,0
15497,-133.333333333333,4,2,1,50,0,0
15872,-66.6666666666667,4,2,1,60,0,0
16247,-66.6666666666667,4,2,1,70,0,0
16622,-100,4,2,1,90,0,1
26653,-58.8235294117647,4,2,1,90,0,1
26934,-50,4,2,1,90,0,1
28247,-66.6666666666667,4,2,1,90,0,1
28622,-133.333333333333,4,2,1,80,0,0
51872,-66.6666666666667,4,2,1,80,0,0
52247,-100,4,2,1,80,0,0
52622,-100,4,2,1,80,0,0
58247,-66.6666666666667,4,2,1,80,0,0
58622,-83.3333333333333,4,2,1,90,0,0
61622,-83.3333333333333,4,2,1,100,0,0
63122,-83.3333333333333,4,2,1,80,0,0
65372,-100,4,2,1,80,0,0
66122,-76.9230769230769,4,2,1,90,0,1
70622,-62.5,4,2,1,90,0,1
70903,-66.6666666666667,4,2,1,90,0,1
71184,-71.4285714285714,4,2,1,90,0,1
71559,-76.9230769230769,4,2,1,90,0,1
72028,-76.9230769230769,4,2,1,90,0,0
72122,-76.9230769230769,4,2,1,90,0,1
77747,-66.6666666666667,4,2,1,90,0,1
78122,-100,4,2,1,80,0,0
79622,-76.9230769230769,4,2,1,90,0,1
82622,-62.5,4,2,1,90,0,1
82903,-66.6666666666667,4,2,1,90,0,1
83184,-71.4285714285714,4,2,1,90,0,1
83559,-76.9230769230769,4,2,1,90,0,1
84028,-76.9230769230769,4,2,1,90,0,0
84122,-76.9230769230769,4,2,1,90,0,1
88622,-71.4285714285714,4,2,1,90,0,1
88997,-66.6666666666667,4,2,1,90,0,1
89372,-55.5555555555556,4,2,1,90,0,1
90122,-55.5555555555556,4,2,1,90,0,0
90215,-100,4,2,1,40,0,0
92934,-100,4,2,1,15,0,0

[Colours]
Combo1 : 255,255,91
Combo2 : 100,255,100
Combo3 : 74,156,255
Combo4 : 245,71,98

[HitObjects]
336,184,1622,6,0,P|323:235|371:309,1,131.25000500679,2|0,0:0|0:0,0:0:0:0:
406,230,2184,1,0,0:0:0:0:
244,268,2372,2,0,P|240:196|280:124,1,131.25000500679,2|0,0:0|0:0,0:0:0:0:
318,78,2934,1,0,0:0:0:0:
66,152,3122,6,0,L|153:157,1,65.6250025033952,2|0,0:0|0:0,0:0:0:0:
65,276,3497,2,0,L|-22:281,1,65.6250025033952,2|0,0:0|0:0,0:0:0:0:
152,242,3872,2,0,P|158:294|151:323,1,65.6250025033952,2|0,0:0|0:0,0:0:0:0:
66,152,4247,2,0,P|60:100|84:44,1,98.4375037550928,2|0,0:0|0:0,0:0:0:0:
100,36,4622,6,0,P|138:72|267:22,1,196.875007510186,2|0,0:0|0:0,0:0:0:0:
333,113,5372,2,0,L|328:187,1,65.6250025033952,2|0,0:0|0:0,0:0:0:0:
208,268,5747,2,0,L|203:194,1,65.6250025033952,2|0,0:0|0:0,0:0:0:0:
427,168,6122,6,0,L|301:182,1,98.4375037550928,2|0,0:0|0:0,0:0:0:0:
296,184,6497,2,0,L|292:263,1,65.6250025033952,2|0,0:0|0:0,0:0:0:0:
465,353,6872,2,0,P|394:312|286:372,1,196.875007510186,2|0,0:0|0:0,0:0:0:0:
94,268,7622,6,0,L|104:60,1,196.875007510186,2|0,0:0|0:0,0:0:0:0:
191,115,8372,2,0,L|201:323,1,196.875007510186,2|0,0:0|0:0,0:0:0:0:
111,204,9122,6,0,L|187:216,1,65.6250025033952,2|0,0:0|0:0,0:0:0:0:
368,259,9497,2,0,L|292:271,1,65.6250025033952,2|0,0:0|0:0,0:0:0:0:
161,131,9872,2,0,P|171:83|192:53,1,65.6250025033952,2|0,0:0|0:0,0:0:0:0:
317,158,10247,1,2,0:0:0:0:
216,290,10434,2,0,P|167:301|123:288,2,65.6250025033952
175,214,10997,5,2,0:0:0:0:
133,375,11184,1,0,0:0:0:0:
317,304,11372,2,0,P|311:252|300:230,1,65.6250025033952,2|0,0:0|0:0,0:0:0:0:
186,114,11747,2,0,P|192:62|224:25,1,98.4375037550928,2|0,0:0|0:0,0:0:0:0:
252,22,12122,6,0,L|322:30,1,65.6250025033952,2|0,0:0|0:0,0:0:0:0:
121,56,12497,2,0,L|51:64,1,65.6250025033952,2|0,0:0|0:0,0:0:0:0:
213,181,12872,2,0,B|211:244|211:244|193:279,2,98.4375037550928,2|2|2,0:0|0:0|0:0,0:0:0:0:
68,202,13622,6,0,L|156:213,1,65.6250025033952,2|0,0:0|0:0,0:0:0:0:
213,181,13997,1,0,0:0:0:0:
6,148,14184,1,0,0:0:0:0:
80,344,14372,2,0,L|88:278,1,65.6250025033952,2|0,0:0|0:0,0:0:0:0:
213,181,14747,2,0,L|202:102,1,65.6250025033952
338,26,15122,5,2,3:2:0:0:
335,58,15215,1,0,3:2:0:0:
325,90,15309,1,0,3:2:0:0:
311,119,15403,1,0,3:2:0:0:
327,165,15497,5,0,3:2:0:0:
330,197,15590,1,0,3:2:0:0:
339,229,15684,1,0,3:2:0:0:
354,258,15778,1,0,3:2:0:0:
339,305,15872,6,0,L|337:347,15,32.8125012516976,2|0|0|0|0|0|0|0|0|0|0|0|0|0|0|0,3:2|3:2|3:2|3:2|3:2|3:2|3:2|3:2|3:2|3:2|3:2|3:2|3:2|3:2|3:2|3:2,3:2:0:0:
326,371,16622,5,6,0:0:0:0:
119,274,16809,1,0,0:0:0:0:
119,274,16903,1,0,0:0:0:0:
119,274,16997,1,10,0:0:0:0:
306,144,17184,1,0,0:0:0:0:
207,330,17372,5,2,0:0:0:0:
207,102,17559,1,0,0:0:0:0:
404,216,17747,1,14,0:1:0:0:
207,330,17934,1,0,0:0:0:0:
344,85,18122,5,2,0:0:0:0:
121,130,18309,1,0,0:0:0:0:
121,130,18403,1,0,0:0:0:0:
121,130,18497,1,10,0:0:0:0:
271,300,18684,1,0,0:0:0:0:
220,32,18872,5,2,0:0:0:0:
191,292,19059,1,0,0:0:0:0:
148,64,19247,2,0,P|175:54|199:55,1,43.75,10|0,0:0|0:0,0:0:0:0:
154,198,19434,2,0,P|127:208|103:207,1,43.75
258,144,19622,5,2,0:0:0:0:
24,114,19809,1,0,0:0:0:0:
24,114,19903,1,0,0:0:0:0:
24,114,19997,1,10,0:0:0:0:
113,331,20184,1,0,0:0:0:0:
154,198,20372,5,2,0:0:0:0:
30,367,20559,1,0,0:0:0:0:
259,306,20747,1,14,0:1:0:0:
69,217,20934,1,0,0:0:0:0:
219,57,21122,5,2,0:0:0:0:
161,285,21309,1,0,0:0:0:0:
161,285,21403,1,0,0:0:0:0:
161,285,21497,1,10,0:0:0:0:
388,225,21684,1,0,0:0:0:0:
140,136,21872,5,2,0:0:0:0:
257,330,22059,1,0,0:0:0:0:
301,133,22247,2,0,P|304:89|318:67,1,43.75,10|0,0:0|0:0,0:0:0:0:
429,192,22434,2,0,P|389:211|363:210,1,43.75
422,50,22622,5,2,0:0:0:0:
292,236,22809,1,0,0:0:0:0:
292,236,22903,1,0,0:0:0:0:
292,236,22997,1,10,0:0:0:0:
196,30,23184,1,0,0:0:0:0:
417,178,23372,5,2,0:0:0:0:
190,162,23559,1,0,0:0:0:0:
312,12,23747,2,0,L|304:99,1,87.5,14|0,0:1|0:0,0:0:0:0:
171,318,24122,5,2,0:0:0:0:
111,89,24309,1,0,0:0:0:0:
111,89,24403,1,0,0:0:0:0:
111,89,24497,1,10,0:0:0:0:
338,149,24684,1,0,0:0:0:0:
87,228,24872,5,2,0:0:0:0:
237,46,25059,1,0,0:0:0:0:
327,264,25247,2,0,P|345:275|366:282,1,43.75,10|0,0:0|0:0,0:0:0:0:
443,155,25434,2,0,P|422:162|403:173,1,43.75
486,300,25622,5,6,0:0:0:0:
287,157,25809,1,0,0:0:0:0:
287,157,25903,1,0,0:0:0:0:
287,157,25997,1,10,0:0:0:0:
162,367,26184,1,0,0:0:0:0:
127,67,26372,6,0,P|133:111|121:152,1,87.5,2|0,0:0|0:0,0:0:0:0:
51,105,26653,6,0,L|199:119,1,148.750002837181,2|0,0:0|0:0,0:0:0:0:
275,200,26934,6,0,L|187:191,1,87.5,2|0,0:0|0:0,0:0:0:0:
55,183,27122,6,0,P|46:257|117:335,1,175,6|0,0:0|0:0,0:0:0:0:
457,201,27403,2,0,P|466:127|395:49,1,175,10|0,0:0|0:0,0:0:0:0:
142,234,27684,6,0,P|210:260|308:242,1,175,6|0,0:0|0:0,0:0:0:0:
370,150,27965,2,0,P|302:124|204:142,1,175,10|0,0:0|0:0,0:0:0:0:
365,375,28247,6,0,L|369:310,1,65.6250025033952,6|0,0:0|0:0,0:0:0:0:
476,233,28434,2,0,L|479:167,1,65.6250025033952,2|0,0:0|0:0,0:0:0:0:
431,46,28622,6,0,B|367:51|329:23|329:23|282:19,1,131.25000500679,4|2,0:0|0:0,0:0:0:0:
219,10,29184,1,0,0:0:0:0:
158,69,29372,2,0,P|141:115|147:164,2,98.4375037550928,0|2|2,0:0|0:0|0:0,0:0:0:0:
238,191,30122,6,0,P|212:233|113:253,1,131.25000500679,0|2,0:0|0:0,0:0:0:0:
59,224,30684,1,0,0:0:0:0:
136,338,30872,2,0,L|258:341,2,98.4375037550928,0|2|2,0:0|0:0|0:0,0:0:0:0:
147,163,31622,6,0,P|90:133|27:146,1,131.25000500679,0|2,0:0|0:0,0:0:0:0:
136,338,32184,2,0,P|192:368|255:355,1,131.25000500679
59,275,32747,2,0,P|44:303|38:335,1,65.6250025033952,2|0,0:0|0:0,0:0:0:0:
203,285,33122,5,0,0:0:0:0:
224,202,33309,1,0,0:0:0:0:
221,116,33497,1,2,0:0:0:0:
187,37,33684,1,0,0:0:0:0:
136,105,33872,5,0,0:0:0:0:
272,48,34059,1,0,0:0:0:0:
150,158,34247,1,2,0:0:0:0:
297,159,34434,1,0,0:0:0:0:
151,246,34622,6,0,P|92:222|67:135,1,131.25000500679,0|2,0:0|0:0,0:0:0:0:
150,158,35184,1,0,0:0:0:0:
45,285,35372,2,0,P|43:333|63:377,2,98.4375037550928,0|2|2,0:0|0:0|0:0,0:0:0:0:
126,313,36122,6,0,B|173:315|206:350|206:350|248:335,1,131.25000500679,0|2,0:0|0:0,0:0:0:0:
321,298,36684,2,0,P|351:251|338:162,2,131.25000500679,0|2|2,0:0|0:0|0:0,0:0:0:0:
237,181,37622,6,0,L|242:62,1,98.4375037550928
245,50,37997,2,0,L|324:42,1,65.6250025033952,2|0,0:0|0:0,0:0:0:0:
148,117,38372,2,0,L|69:109,1,65.6250025033952
66,109,38653,1,0,0:0:0:0:
49,108,38747,1,2,0:0:0:0:
135,201,38934,1,0,0:0:0:0:
98,39,39122,5,0,0:0:0:0:
38,193,39309,1,0,0:0:0:0:
75,353,39497,1,2,0:0:0:0:
135,201,39684,1,0,0:0:0:0:
6,281,39872,1,0,0:0:0:0:
155,294,40059,1,0,0:0:0:0:
38,193,40247,1,2,0:0:0:0:
75,353,40434,1,0,0:0:0:0:
223,355,40622,6,0,L|353:343,1,131.25000500679,4|2,0:1|0:0,0:0:0:0:
413,282,41184,1,0,0:0:0:0:
482,330,41372,2,0,P|498:285|488:238,2,98.4375037550928,0|2|2,0:0|0:0|0:0,0:0:0:0:
342,239,42122,6,0,L|343:97,1,131.25000500679,0|2,0:0|0:0,0:0:0:0:
304,31,42684,1,0,0:0:0:0:
229,73,42872,2,0,P|145:71|112:54,2,98.4375037550928,0|2|2,0:0|0:0|0:0,0:0:0:0:
431,25,43622,6,0,P|434:89|389:134,1,131.25000500679,0|2,0:0|0:0,0:0:0:0:
304,145,44184,2,0,P|325:192|418:209,1,131.25000500679
356,57,44747,2,0,L|290:64,1,65.6250025033952,2|0,0:0|0:0,0:0:0:0:
139,112,45122,5,0,0:0:0:0:
110,192,45309,1,0,0:0:0:0:
130,275,45497,1,2,0:0:0:0:
211,298,45684,1,0,0:0:0:0:
190,215,45872,5,0,0:0:0:0:
149,359,46059,1,0,0:0:0:0:
44,251,46247,1,2,0:0:0:0:
149,359,46434,1,0,0:0:0:0:
106,188,46622,6,0,B|105:97|105:97|130:57,1,131.25000500679,4|2,0:1|0:0,0:0:0:0:
200,20,47184,1,0,0:0:0:0:
270,67,47372,2,0,P|315:70|371:39,2,98.4375037550928,0|2|2,0:0|0:0|0:0,0:0:0:0:
220,196,48122,6,0,P|299:210|366:192,1,131.25000500679,0|2,0:0|0:0,0:0:0:0:
415,146,48684,1,0,0:0:0:0:
482,279,48872,2,0,P|489:328|431:363,1,98.4375037550928
415,350,49247,2,0,P|384:342|351:345,1,65.6250025033952,2|0,0:0|0:0,0:0:0:0:
133,329,49622,6,0,L|136:202,1,98.4375037550928
209,134,49997,2,0,L|207:199,1,65.6250025033952,2|0,0:0|0:0,0:0:0:0:
33,159,50372,2,0,L|131:156,2,98.4375037550928,0|2|2,0:0|0:0|0:0,0:0:0:0:
136,29,51122,5,0,3:2:0:0:
144,60,51215,1,0,3:2:0:0:
146,93,51309,1,0,3:2:0:0:
141,125,51403,1,0,3:2:0:0:
131,157,51497,1,2,3:2:0:0:
124,188,51590,1,0,3:2:0:0:
122,221,51684,1,0,3:2:0:0:
127,254,51778,1,0,3:2:0:0:
136,284,51872,6,0,L|140:323,1,32.8125012516976,0|0,3:2|3:2,3:2:0:0:
160,306,51965,2,0,L|175:341,1,32.8125012516976,0|0,3:2|3:2,3:2:0:0:
191,316,52059,2,0,L|217:343,1,32.8125012516976,0|0,3:2|3:2,3:2:0:0:
223,309,52153,2,0,L|257:325,1,32.8125012516976,0|0,3:2|3:2,3:2:0:0:
247,288,52247,5,2,3:2:0:0:
293,259,52340,1,0,3:2:0:0:
347,253,52434,1,0,3:2:0:0:
401,261,52528,1,0,3:2:0:0:
450,285,52622,6,0,B|464:308|464:308|488:235|449:148,1,175,4|8,0:0|0:0,0:0:0:0:
341,54,53184,2,0,B|327:31|327:31|303:104|342:191,1,175,2|2,0:0|0:0,0:0:0:0:
433,75,53747,1,8,0:0:0:0:
206,56,53934,1,0,0:0:0:0:
311,258,54122,6,0,P|250:308|168:243,1,175,0|8,0:0|0:0,0:0:0:0:
402,146,54684,2,0,P|420:205|387:331,1,175,2|2,0:0|0:0,0:0:0:0:
242,237,55247,1,8,0:0:0:0:
497,183,55434,1,0,0:0:0:0:
395,56,55622,6,0,L|221:81,1,175,4|8,0:0|0:0,0:0:0:0:
40,202,56184,2,0,B|127:228|127:228|210:204,1,175,2|2,0:0|0:0,0:0:0:0:
126,35,56747,2,0,P|107:88|116:123,1,87.5,8|0,0:0|0:0,0:0:0:0:
378,296,57122,6,0,P|388:233|341:162,1,131.25,4|0,0:1|0:0,0:0:0:0:
329,141,57497,2,0,L|238:149,1,87.5,8|2,0:0|0:0,0:0:0:0:
220,151,57778,1,0,0:0:0:0:
198,153,57872,1,0,0:0:0:0:
75,340,58059,1,2,3:2:0:0:
84,320,58152,1,0,3:2:0:0:
90,299,58247,2,0,L|86:256,3,32.8125012516976,8|0|0|0,3:2|3:2|3:2|3:2,3:2:0:0:
19,185,58434,2,0,L|25:147,3,32.8125012516976,0|0|0|0,3:2|3:2|3:2|3:2,3:2:0:0:
92,61,58622,6,0,B|101:31|101:31|134:50|102:111|133:166,1,157.499995193482,4|0,0:1|0:0,0:0:0:0:
142,177,58997,1,8,0:0:0:0:
334,71,59184,1,0,0:0:0:0:
359,280,59372,2,0,P|291:257|255:196,1,104.999996795654
259,209,59653,1,0,0:0:0:0:
256,182,59747,1,8,0:0:0:0:
456,198,59934,1,0,0:0:0:0:
360,0,60122,6,0,L|339:173,1,157.499995193482,4|0,0:0|0:0,0:0:0:0:
350,191,60497,1,8,0:0:0:0:
142,162,60684,1,0,0:0:0:0:
268,330,60872,2,0,P|270:261|255:225,1,104.999996795654
239,208,61153,1,0,0:0:0:0:
220,189,61247,1,8,0:0:0:0:
75,341,61434,1,0,0:0:0:0:
392,306,61622,5,4,0:0:0:0:
86,252,61809,1,0,0:0:0:0:
286,14,61997,1,8,0:0:0:0:
243,347,62184,5,0,0:0:0:0:
243,347,62278,1,0,0:0:0:0:
243,347,62372,1,4,0:0:0:0:
138,56,62559,1,0,0:0:0:0:
444,110,62746,1,8,0:0:0:0:
69,143,62934,1,0,0:0:0:0:
461,219,63122,6,0,B|417:232|384:212|384:212|347:226|347:226|330:213|311:213,2,157.499995193482,4|4|4,0:1|0:1|0:1,0:1:0:0:
272,101,63872,6,0,P|228:128|200:172,1,104.999996795654,4|0,0:1|0:0,0:1:0:0:
341,332,64247,2,0,L|333:395,2,52.4999983978272,2|0|0,3:2|3:0|3:0,0:0:0:0:
391,278,64528,1,0,3:0:0:0:
396,270,64622,6,0,P|449:275|430:357,2,157.499995193482,4|4|4,0:1|0:1|0:1,0:1:0:0:
186,325,65372,1,4,0:1:0:0:
142,319,65465,1,0,0:0:0:0:
103,301,65559,1,0,0:0:0:0:
73,270,65653,1,0,0:0:0:0:
55,230,65747,2,0,L|71:157,1,43.75,2|0,0:0|0:0,0:0:0:0:
146,21,65934,2,0,L|162:94,1,43.75,2|2,0:0|0:0,0:0:0:0:
215,220,66122,6,0,P|279:221|331:182,1,113.749994792938,4|0,0:0|0:0,0:0:0:0:
339,174,66403,1,0,0:0:0:0:
348,147,66497,1,8,0:0:0:0:
272,20,66684,1,0,0:0:0:0:
97,103,66872,2,0,L|89:229,1,113.749994792938
227,353,67247,2,0,L|220:174,1,170.624992189408,12|0,0:1|0:0,0:0:0:0:
218,142,67622,6,0,P|256:103|315:92,1,113.749994792938
340,97,67903,1,0,0:0:0:0:
367,105,67997,1,8,0:0:0:0:
512,235,68185,1,0,0:0:0:0:
311,217,68372,1,0,0:0:0:0:
485,112,68560,1,0,0:0:0:0:
404,301,68747,2,0,P|343:334|262:326,1,113.749994792938,12|0,0:1|0:0,0:0:0:0:
109,201,69122,6,0,P|31:207|111:268,1,227.499989585877,0|8,0:0|0:0,0:0:0:0:
203,142,69684,1,0,0:0:0:0:
287,341,69872,2,0,P|315:283|298:209,1,113.749994792938
302,208,70153,1,0,0:0:0:0:
289,182,70247,1,12,0:1:0:0:
127,49,70434,2,0,L|196:37,1,56.8749973964692
379,18,70622,6,0,P|413:77|402:145,1,140,4|0,0:0|0:0,0:0:0:0:
192,174,70903,6,0,P|226:114|287:92,1,131.25000500679,4|0,0:0|0:0,0:0:0:0:
427,242,71184,6,4,P|358:241|310:200,1,122.499996261597,4|0,0:0|0:0,0:0:0:0:
493,56,71559,2,0,L|504:179,1,113.749994792938,4|0,0:0|3:0,0:0:0:0:
441,347,71934,5,0,3:0:0:0:
441,347,72028,1,0,3:0:0:0:
441,347,72122,2,0,P|371:328|259:371,1,170.624992189408,4|0,0:0|0:0,0:0:0:0:
239,363,72497,2,0,P|151:352|121:330,1,113.749994792938,8|0,0:0|0:0,0:0:0:0:
96,137,72872,1,0,0:0:0:0:
202,269,73059,1,0,0:0:0:0:
202,269,73153,1,0,0:0:0:0:
202,269,73247,1,12,0:1:0:0:
34,298,73434,1,0,0:0:0:0:
189,91,73622,6,0,P|238:116|263:166,1,113.749994792938
2,197,73997,2,0,L|17:85,1,113.749994792938,8|0,0:0|0:0,0:0:0:0:
33,47,74278,1,0,0:0:0:0:
33,47,74372,2,0,B|58:17|58:17|152:17,1,113.749994792938
330,66,74747,1,12,0:1:0:0:
205,197,74934,6,0,P|181:146|188:90,2,113.749994792938
220,221,75403,1,0,0:0:0:0:
242,238,75497,1,8,0:0:0:0:
330,66,75684,1,0,0:0:0:0:
461,182,75872,2,0,P|383:186|321:147,1,113.749994792938
481,286,76247,2,0,P|382:288|275:244,1,170.624992189408,12|0,0:1|0:0,0:0:0:0:
279,246,76622,5,0,0:0:0:0:
178,68,76809,1,0,0:0:0:0:
178,68,76903,1,0,0:0:0:0:
178,68,76997,1,8,0:0:0:0:
86,250,77184,1,0,0:0:0:0:
250,137,77372,5,0,3:2:0:0:
201,166,77465,1,0,3:2:0:0:
173,215,77559,1,0,3:2:0:0:
171,271,77653,1,0,3:2:0:0:
196,321,77747,2,0,L|241:330,3,32.8125012516976,12|0|0|0,3:1|3:2|3:2|3:2,3:2:0:0:
324,378,77934,2,0,L|368:369,3,32.8125012516976,0|0|0|0,3:2|3:2|3:2|3:2,3:2:0:0:
470,316,78122,5,6,0:1:0:0:
450,142,78309,1,0,0:0:0:0:
450,142,78403,1,2,0:0:0:0:
386,304,78590,1,0,0:0:0:0:
386,304,78684,1,2,0:0:0:0:
210,112,78872,5,2,0:0:0:0:
230,286,79059,1,0,0:0:0:0:
230,286,79153,1,2,0:0:0:0:
294,124,79340,1,0,0:0:0:0:
294,124,79434,1,2,0:0:0:0:
329,267,79622,5,4,0:0:0:0:
143,158,79809,1,0,0:0:0:0:
143,158,79903,1,0,0:0:0:0:
142,158,79997,2,0,P|134:213|148:268,1,113.749994792938,8|0,0:0|0:0,0:0:0:0:
245,87,80372,1,0,0:0:0:0:
63,83,80559,1,0,0:0:0:0:
238,214,80747,2,0,P|143:207|54:237,1,170.624992189408,12|0,0:1|0:0,0:0:0:0:
42,255,81122,5,0,0:0:0:0:
260,371,81309,1,0,0:0:0:0:
260,371,81403,1,0,0:0:0:0:
260,371,81497,2,0,L|270:315,1,56.8749973964692,8|0,0:0|0:0,0:0:0:0:
393,209,81684,2,0,L|403:265,1,56.8749973964692
280,44,81872,2,0,P|302:105|417:77,1,170.624992189408
422,77,82247,1,12,0:1:0:0:
187,50,82434,1,0,0:0:0:0:
217,292,82622,6,0,P|242:194|226:140,1,140,4|0,0:0|0:0,0:0:0:0:
30,135,82903,6,0,P|102:205|157:218,1,131.25000500679,4|0,0:0|0:0,0:0:0:0:
259,50,83184,6,0,P|161:77|122:118,1,122.499996261597,4|0,0:0|0:0,0:0:0:0:
26,293,83559,2,0,L|148:305,1,113.749994792938,4|0,0:0|3:0,0:0:0:0:
399,226,83934,5,0,3:0:0:0:
399,226,84028,1,0,3:0:0:0:
399,226,84122,2,0,L|215:205,1,170.624992189408,4|0,0:0|0:0,0:0:0:0:
190,198,84497,1,8,0:0:0:0:
261,69,84684,1,0,0:0:0:0:
283,296,84872,1,0,0:0:0:0:
391,97,85059,1,0,0:0:0:0:
391,97,85153,1,0,0:0:0:0:
391,97,85247,1,12,0:1:0:0:
153,97,85434,1,0,0:0:0:0:
125,102,85528,1,0,0:0:0:0:
96,106,85622,6,0,P|64:162|83:236,1,113.749994792938,4|0,0:0|0:0,0:0:0:0:
416,278,85997,2,0,P|448:222|429:148,1,113.749994792938,8|0,0:0|0:0,0:0:0:0:
262,14,86372,1,0,0:0:0:0:
345,202,86559,1,0,0:0:0:0:
345,202,86653,1,0,0:0:0:0:
345,202,86747,1,12,0:1:0:0:
410,8,86934,2,0,L|418:73,1,56.8749973964692
246,131,87122,6,0,P|223:198|311:317,1,227.499989585877,4|8,0:0|0:0,0:0:0:0:
307,315,87872,1,4,0:0:0:0:
362,63,88059,1,0,0:0:0:0:
187,251,88247,1,12,0:1:0:0:
176,195,88341,1,0,0:0:0:0:
164,138,88434,1,0,0:0:0:0:
154,82,88528,1,0,0:0:0:0:
144,26,88622,6,0,P|95:93|164:138,1,183.749994392395,4|0,0:0|0:0,0:0:0:0:
372,42,88997,6,0,B|394:20|394:20|459:108|340:194,1,196.875007510186,4|0,0:0|0:0,0:0:0:0:
113,261,89372,6,0,B|146:288|184:289|184:289|266:256|266:305|350:273,2,236.249992790222,4|4|4,0:0|0:0|0:0,0:0:0:0:
479,202,90122,5,6,0:0:0:0:
256,192,90215,12,0,92934,0:0:0:0:
