osu file format v14

[General]
AudioFilename: audio.mp3
AudioLeadIn: 0
PreviewTime: 87570
Countdown: 0
SampleSet: Soft
StackLeniency: 0.2
Mode: 0
LetterboxInBreaks: 0
WidescreenStoryboard: 1

[Editor]
DistanceSpacing: 0.9
BeatDivisor: 4
GridSize: 4
TimelineZoom: 4.499998

[Metadata]
Title:Reminiscing
TitleUnicode:Reminiscing
Artist:Shoujo
ArtistUnicode:Shoujo
Creator:Shishou
Version:Memories
Source:
Tags:
BeatmapID:1192181
BeatmapSetID:466401

[Difficulty]
HPDrainRate:6
CircleSize:3
OverallDifficulty:8.4
ApproachRate:9.5
SliderMultiplier:1.7
SliderTickRate:1

[Events]
//Background and Video events
0,0,"everlasting_summer_girl_anime_grass_104869_3840x2400.jpg",0,0
//Break Periods
2,176227,196760
2,309256,312045
//Storyboard Layer 0 (Background)
//Storyboard Layer 1 (Fail)
//Storyboard Layer 2 (Pass)
//Storyboard Layer 3 (Foreground)
//Storyboard Layer 4 (Overlay)
//Storyboard Sound Samples

[TimingPoints]
485,342.857142857143,4,2,1,70,1,0
19685,-133.333333333333,4,2,1,70,0,0
20027,-71.4285714285714,4,2,1,70,0,0
20285,-71.4285714285714,4,2,1,5,0,0
20370,-133.333333333333,4,2,1,70,0,0
20713,-71.4285714285714,4,2,1,70,0,0
20885,-71.4285714285714,4,2,1,5,0,0
21056,-200,4,2,1,70,0,0
22427,-90.9090909090909,4,2,1,70,0,1
44370,-111.111111111111,4,2,2,70,0,0
49856,-153.846153846153,4,2,2,70,0,0
53970,-111.111111111111,4,2,2,70,0,0
66313,-200,4,2,3,70,0,0
66313,-200,4,2,3,70,0,0
77285,-100,4,2,5,70,0,0
86885,-181.818181818181,4,2,4,70,0,0
87913,-71.4285714285714,4,2,5,70,0,0
88256,-83.3333333333333,4,2,4,70,0,1
98542,-83.3333333333333,4,2,4,70,0,0
99227,-100,4,2,6,70,0,1
104713,-100,4,2,5,70,0,1
108827,-166.666666666667,4,2,3,70,0,0
109856,-71.4285714285714,4,2,1,70,0,0
110199,-83.3333333333333,4,2,1,70,0,1
114999,-133.333333333333,4,2,1,70,0,0
115385,-83.3333333333333,4,2,1,70,0,1
120485,-133.333333333333,4,2,1,70,0,0
121170,-83.3333333333333,4,2,1,70,0,1
125970,-133.333333333333,4,2,1,70,0,1
126656,-83.3333333333333,4,2,1,70,0,1
130770,-133.333333333333,4,2,1,70,0,0
130942,-133.333333333333,4,2,1,6,0,0
131627,-133.333333333333,4,2,5,70,0,0
132485,-83.3333333333333,4,2,1,70,0,1
142256,-133.333333333333,4,2,1,70,0,0
142770,-133.333333333333,4,2,1,5,0,0
143113,-83.3333333333333,4,2,1,70,0,1
145256,-83.3333333333333,4,2,5,70,0,1
145513,-83.3333333333333,4,2,1,70,0,1
145685,-83.3333333333333,4,2,5,70,0,1
145856,-83.3333333333333,4,2,1,70,0,1
147056,-83.3333333333333,4,2,5,70,0,1
147570,-83.3333333333333,4,2,1,70,0,1
148085,-83.3333333333333,4,2,5,70,0,1
148599,-133.333333333333,4,2,5,70,0,1
148942,-83.3333333333333,4,2,1,70,0,1
149113,-83.3333333333333,4,2,5,70,0,1
149285,-83.3333333333333,4,2,1,70,0,1
149456,-83.3333333333333,4,2,5,70,0,1
149627,-83.3333333333333,4,2,1,70,0,1
149799,-83.3333333333333,4,2,5,70,0,1
150313,-83.3333333333333,4,2,1,70,0,1
150485,-83.3333333333333,4,2,5,70,0,1
150999,-83.3333333333333,4,2,1,70,0,1
151342,-83.3333333333333,4,2,5,70,0,1
151685,-83.3333333333333,4,2,1,70,0,1
151770,-83.3333333333333,4,2,5,70,0,1
152370,-83.3333333333333,4,2,1,70,0,1
152456,-83.3333333333333,4,2,5,70,0,0
153742,-83.3333333333333,4,2,2,70,0,0
161970,-83.3333333333333,4,2,6,70,0,0
162313,-83.3333333333333,4,2,2,70,0,0
164370,-166.666666666667,4,2,5,70,0,0
164713,-111.111111111111,4,2,5,70,0,0
165056,-83.3333333333333,4,2,2,70,0,0
167456,-133.333333333333,4,2,5,70,0,0
167799,-83.3333333333333,4,2,2,70,0,0
170199,-125,4,2,2,70,0,0
170542,-83.3333333333333,4,2,2,70,0,0
172770,-83.3333333333333,4,2,6,70,0,0
173285,-83.3333333333333,4,2,2,70,0,0
174656,-200,4,2,2,70,0,0
199342,-100,4,2,2,70,0,0
208942,-200,4,2,2,70,0,0
210313,-100,4,2,6,70,0,0
211685,-90.9090909090909,4,2,6,70,0,0
215799,-83.3333333333333,4,2,6,70,0,0
220427,-166.666666666667,4,2,6,70,0,0
220942,-83.3333333333333,4,2,1,70,0,0
221285,-83.3333333333333,4,2,1,70,0,1
231485,-83.3333333333333,4,2,1,5,0,1
231570,-133.333333333333,4,2,1,70,0,1
231913,-83.3333333333333,4,2,1,70,0,1
241856,-111.111111111111,4,2,1,70,0,0
241942,-111.111111111111,4,2,1,5,0,0
242027,-111.111111111111,4,2,1,70,0,0
242113,-111.111111111111,4,2,1,5,0,0
242199,-111.111111111111,4,2,1,70,0,0
242285,-111.111111111111,4,2,1,5,0,0
242370,-111.111111111111,4,2,1,70,0,0
242456,-111.111111111111,4,2,1,5,0,0
242542,-111.111111111111,4,2,1,70,0,0
242713,-100,4,2,1,70,0,0
243570,-83.3333333333333,4,2,1,70,0,1
252827,-100,4,2,1,70,0,0
253513,-166.666666666667,4,2,1,70,0,0
254199,-83.3333333333333,4,2,1,70,0,1
256170,-83.3333333333333,4,2,5,70,0,1
256256,-83.3333333333333,4,2,1,70,0,1
256342,-83.3333333333333,4,2,5,70,0,1
256599,-83.3333333333333,4,2,1,70,0,1
256699,-83.3333333333333,4,2,1,70,0,1
256770,-83.3333333333333,4,2,5,70,0,1
256942,-83.3333333333333,4,2,1,70,0,1
257285,-83.3333333333333,4,2,1,70,0,1
258142,-83.3333333333333,4,2,5,70,0,1
258313,-83.3333333333333,4,2,1,70,0,1
259685,-181.818181818181,4,2,1,70,0,0
260027,-83.3333333333333,4,2,1,70,0,1
260285,-83.3333333333333,4,2,5,70,0,1
260713,-83.3333333333333,4,2,1,70,0,1
260885,-83.3333333333333,4,2,5,70,0,1
261056,-83.3333333333333,4,2,1,70,0,1
261227,-83.3333333333333,4,2,5,70,0,1
261399,-83.3333333333333,4,2,1,70,0,1
261570,-83.3333333333333,4,2,5,70,0,1
262085,-83.3333333333333,4,2,1,70,0,1
262427,-83.3333333333333,4,2,5,70,0,1
262770,-83.3333333333333,4,2,1,70,0,1
262856,-83.3333333333333,4,2,5,70,0,1
263456,-83.3333333333333,4,2,1,70,0,1
263542,-83.3333333333333,4,2,5,70,0,1
263799,-83.3333333333333,4,2,1,70,0,0
265170,-83.3333333333333,4,2,1,70,0,1
267656,-83.3333333333333,4,2,6,70,0,1
267913,-83.3333333333333,4,2,1,70,0,1
273142,-83.3333333333333,4,2,6,70,0,1
273399,-83.3333333333333,4,2,1,70,0,1
274770,-83.3333333333333,4,2,1,70,0,0
276142,-83.3333333333333,4,2,1,70,0,1
278285,-83.3333333333333,4,2,5,70,0,1
278542,-83.3333333333333,4,2,1,70,0,1
278713,-83.3333333333333,4,2,5,70,0,1
278885,-83.3333333333333,4,2,1,70,0,1
287113,-100,4,2,1,70,0,0
307685,-166.666666666667,4,2,1,70,0,0
318142,-166.666666666667,4,2,1,5,0,0

[HitObjects]
115,40,485,6,0,P|101:106|129:183,1,127.5,6|0,0:0|0:0,0:0:0:0:
144,202,827,2,0,P|152:247|133:302,1,85,10|0,0:0|0:0,0:0:0:0:
224,345,1170,2,0,P|276:352|314:342,1,85,2|0,0:0|0:0,0:0:0:0:
388,290,1427,1,0,0:0:0:0:
388,290,1513,2,0,L|401:183,1,85,10|0,0:0|0:0,0:0:0:0:
359,64,1856,1,2,0:0:0:0:
450,142,2027,1,0,0:0:0:0:
311,143,2199,6,0,L|207:136,1,85,10|0,0:0|0:0,0:0:0:0:
81,87,2542,1,2,0:0:0:0:
181,42,2713,1,0,0:0:0:0:
126,175,2885,2,0,L|114:217,3,42.5,10|0|0|0,0:0|0:0|0:0|0:0,0:0:0:0:
120,257,3227,2,0,P|161:271|216:252,1,85,2|0,0:0|0:0,0:0:0:0:
364,166,3570,2,0,P|378:127|367:83,1,85,10|0,0:0|0:0,0:0:0:0:
444,209,3913,2,0,P|462:143|435:31,1,170,2|10,0:0|0:0,0:0:0:0:
344,16,4427,1,0,0:0:0:0:
231,77,4599,6,0,P|216:122|241:164,1,85,2|0,0:0|0:0,0:0:0:0:
207,256,4942,2,0,P|148:263|111:250,1,85,10|0,0:0|0:0,0:0:0:0:
47,187,5199,1,0,0:0:0:0:
47,187,5285,2,0,P|43:121|65:82,1,85,2|0,0:0|0:0,0:0:0:0:
124,256,5627,2,0,P|128:310|110:355,1,85,10|0,0:0|0:0,0:0:0:0:
226,159,5970,6,0,B|317:144|317:144|421:171,1,170,2|10,0:0|0:0,0:0:0:0:
454,245,6485,1,0,0:0:0:0:
419,83,6656,2,0,L|323:60,1,85,2|0,0:0|0:0,0:0:0:0:
226,158,6999,2,0,L|309:178,1,85,10|0,0:0|0:0,0:0:0:0:
334,220,7256,1,0,0:0:0:0:
334,220,7342,6,0,P|344:275|327:318,1,85,2|0,0:0|0:0,0:0:0:0:
226,158,7685,2,0,P|222:100|241:62,1,85,10|0,0:0|0:0,0:0:0:0:
319,9,8027,1,2,0:0:0:0:
370,95,8199,1,0,0:0:0:0:
232,76,8370,1,10,0:0:0:0:
213,93,8456,1,0,0:0:0:0:
191,108,8542,1,0,0:0:0:0:
171,122,8627,1,0,0:0:0:0:
146,138,8713,6,0,L|146:240,1,85,2|0,0:0|0:0,0:0:0:0:
272,324,9056,2,0,L|272:171,1,127.5,10|0,0:0|0:0,0:0:0:0:
303,158,9399,2,0,L|417:159,1,85,2|0,0:0|0:0,0:0:0:0:
257,51,9742,2,0,L|156:53,1,85,10|0,0:0|0:0,0:0:0:0:
108,168,10085,6,0,L|109:204,1,21.25
24,80,10256,6,0,L|23:35,1,42.5
36,223,10427,2,0,P|27:258|47:320,1,85
68,322,10685,1,0,0:0:0:0:
106,335,10770,2,0,L|212:336,1,85
226,327,11027,1,2,0:0:0:0:
254,309,11113,2,0,L|354:309,1,85,2|2,0:0|0:0,0:0:0:0:
433,287,11370,1,0,0:0:0:0:
433,287,11456,6,0,B|445:204|445:204|416:94,1,170,6|10,0:0|0:0,0:0:0:0:
354,21,11970,1,0,0:0:0:0:
286,102,12142,2,0,L|239:118,3,42.5,2|0|0|0,0:0|0:0|0:0|0:0,0:0:0:0:
209,108,12485,2,0,L|111:138,1,85,10|0,0:0|0:0,0:0:0:0:
26,91,12827,2,0,P|15:43|36:-5,1,85,2|0,0:0|0:0,0:0:0:0:
127,132,13170,2,0,P|138:184|108:242,1,85,10|0,0:0|0:0,0:0:0:0:
81,351,13513,1,2,0:0:0:0:
46,239,13685,1,0,0:0:0:0:
197,347,13856,5,10,0:0:0:0:
222,347,13942,1,0,0:0:0:0:
247,347,14027,1,0,0:0:0:0:
272,347,14113,1,0,0:0:0:0:
297,345,14199,2,0,L|300:219,1,85,2|0,0:0|0:0,0:0:0:0:
366,136,14542,2,0,P|411:130|454:142,1,85,10|0,0:0|0:0,0:0:0:0:
299,260,14885,2,0,P|251:266|199:256,1,85,2|0,0:0|0:0,0:0:0:0:
105,173,15227,1,10,0:0:0:0:
204,117,15399,1,0,0:0:0:0:
34,237,15570,6,0,P|7:153|58:85,1,170,2|10,0:0|0:0,0:0:0:0:
160,36,16085,1,0,0:0:0:0:
160,36,16170,1,0,0:0:0:0:
160,36,16256,2,0,L|183:55,1,21.25,10|0,0:0|0:0,0:0:0:0:
259,159,16427,2,0,L|277:100,1,42.5
385,57,16599,6,0,L|414:32,7,21.25,10|2|2|2|2|2|2|2,0:0|0:0|0:0|0:0|0:0|0:0|0:0|0:0,0:0:0:0:
452,50,16942,6,0,L|451:144,1,85,6|0,0:0|0:0,0:0:0:0:
483,174,17199,1,0,0:0:0:0:
483,174,17285,2,0,P|489:219|468:267,1,85,10|0,0:0|0:0,0:0:0:0:
293,194,17627,2,0,P|284:143|306:89,1,85,2|0,0:0|0:0,0:0:0:0:
455,25,17970,2,0,B|412:23|412:23|366:39|366:39|319:33,1,127.5,10|4,0:0|0:0,0:0:0:0:
290,32,18313,5,6,0:0:0:0:
163,184,18485,1,0,0:0:0:0:
163,184,18570,1,0,0:0:0:0:
163,184,18656,1,10,0:0:0:0:
140,16,18827,1,0,0:0:0:0:
45,133,18999,6,0,L|34:183,3,42.5,2|0|0|0,0:0|0:0|0:0|0:0,0:0:0:0:
56,189,19342,1,10,0:0:0:0:
51,213,19427,1,0,0:0:0:0:
46,238,19513,1,0,0:0:0:0:
41,263,19599,1,0,0:0:0:0:
37,288,19685,6,0,L|159:311,1,95.6250036478044,6|0,0:0|0:0,0:0:0:0:
237,309,20027,2,0,P|207:254|324:221,1,178.499994552612,10|0,0:0|0:0,0:0:0:0:
377,188,20370,6,0,L|276:191,1,95.6250036478044,6|0,0:0|0:0,0:0:0:0:
193,100,20713,2,0,L|339:96,1,118.999996368408,10|0,0:0|0:0,0:0:0:0:
95,2,21056,6,0,B|140:41|140:41|67:121|183:158|88:220,1,255,4|2,0:0|0:0,0:0:0:0:
144,336,22256,1,2,0:0:0:0:
281,348,22427,6,0,L|399:344,1,93.5000028533936,6|0,0:0|0:0,0:0:0:0:
461,263,22770,2,0,P|468:201|453:165,1,93.5000028533936,10|0,0:0|0:0,0:0:0:0:
362,39,23113,1,2,0:0:0:0:
484,80,23285,1,0,0:0:0:0:
336,149,23456,2,0,L|235:144,1,93.5000028533936,10|0,0:0|0:0,0:0:0:0:
83,120,23799,2,0,P|64:78|78:34,1,93.5000028533936,2|0,0:0|0:0,0:0:0:0:
208,178,24142,2,0,P|219:222|207:267,1,93.5000028533936,10|0,0:0|0:0,0:0:0:0:
43,295,24485,1,2,0:0:0:0:
123,215,24656,1,0,0:0:0:0:
227,311,24827,6,0,L|277:313,3,46.7500014266968,10|0|0|0,0:0|0:0|0:0|0:0,0:0:0:0:
320,276,25170,2,0,B|372:288|372:288|419:276,1,93.5000028533936,2|0,0:0|0:0,0:0:0:0:
500,176,25513,2,0,P|512:110|476:66,1,93.5000028533936,10|0,0:0|0:0,0:0:0:0:
379,20,25856,2,0,L|254:20,1,93.5000028533936,2|0,0:0|0:0,0:0:0:0:
128,140,26199,2,0,L|242:140,1,93.5000028533936,10|0,0:0|0:0,0:0:0:0:
53,56,26542,6,0,P|20:98|70:227,1,187.000005706787,2|10,0:0|0:0,0:0:0:0:
160,309,27056,1,0,0:0:0:0:
298,231,27227,2,0,P|306:174|289:133,1,93.5000028533936,2|0,0:0|0:0,0:0:0:0:
251,337,27570,2,0,P|297:348|352:333,1,93.5000028533936,10|0,0:0|0:0,0:0:0:0:
416,120,27913,6,0,B|371:94|371:94|229:94,1,187.000005706787,2|10,0:0|0:0,0:0:0:0:
109,205,28427,1,0,0:0:0:0:
264,48,28599,2,0,L|357:49,1,93.5000028533936,2|0,0:0|0:0,0:0:0:0:
500,184,28942,2,0,P|512:236|486:285,1,93.5000028533936,10|0,0:0|0:0,0:0:0:0:
305,242,29285,1,2,0:0:0:0:
392,156,29456,1,0,0:0:0:0:
365,332,29627,6,0,P|310:345|266:324,1,93.5000028533936,10|0,0:0|0:0,0:0:0:0:
159,170,29970,1,2,0:0:0:0:
159,170,30142,1,0,0:0:0:0:
83,314,30313,2,0,L|18:313,1,46.7500014266968,10|0,0:0|0:0,0:0:0:0:
177,263,30485,2,0,L|231:263,1,46.7500014266968
70,179,30656,2,0,B|64:125|64:125|69:76,1,93.5000028533936,2|0,0:0|0:0,0:0:0:0:
217,38,30999,2,0,P|263:25|318:47,1,93.5000028533936,10|0,0:0|0:0,0:0:0:0:
402,203,31342,1,2,0:0:0:0:
288,148,31513,1,0,0:0:0:0:
470,125,31685,2,0,P|497:186|475:285,1,140.25000428009,10|0,0:0|0:0,0:0:0:0:
456,301,32027,6,0,L|323:307,1,93.5000028533936
239,356,32370,1,8,0:0:0:0:
183,152,32542,1,0,0:0:0:0:
183,152,32627,1,0,0:0:0:0:
183,152,32713,1,8,0:0:0:0:
383,197,32885,1,8,0:0:0:0:
188,273,33056,5,8,0:0:0:0:
171,289,33142,1,0,0:0:0:0:
153,303,33227,1,0,0:0:0:0:
135,318,33313,1,0,0:0:0:0:
116,332,33399,6,0,L|102:209,1,93.5000028533936,6|0,0:0|0:0,0:0:0:0:
172,59,33742,2,0,L|183:158,1,93.5000028533936,10|0,0:0|0:0,0:0:0:0:
188,273,34085,2,0,P|242:285|300:270,1,93.5000028533936,2|0,0:0|0:0,0:0:0:0:
417,204,34427,2,0,P|426:149|408:92,1,93.5000028533936,10|0,0:0|0:0,0:0:0:0:
399,64,34685,1,0,0:0:0:0:
399,64,34770,1,2,0:0:0:0:
265,208,34942,1,0,0:0:0:0:
182,52,35113,2,0,L|83:49,1,93.5000028533936,10|0,0:0|0:0,0:0:0:0:
8,182,35456,1,2,0:0:0:0:
8,182,35542,1,2,0:0:0:0:
8,182,35627,1,0,0:0:0:0:
134,284,35799,1,10,0:0:0:0:
166,283,35885,1,2,0:0:0:0:
198,281,35970,1,2,0:0:0:0:
230,282,36056,1,2,0:0:0:0:
255,300,36142,6,0,L|387:295,1,93.5000028533936,2|0,0:0|0:0,0:0:0:0:
427,192,36485,2,0,P|436:128|415:88,1,93.5000028533936,10|0,0:0|0:0,0:0:0:0:
255,211,36827,2,0,P|243:266|269:318,1,93.5000028533936,2|0,0:0|0:0,0:0:0:0:
441,287,37170,1,10,0:0:0:0:
313,107,37342,1,0,0:0:0:0:
313,107,37427,1,0,0:0:0:0:
313,107,37513,6,0,P|255:96|207:110,1,93.5000028533936,2|0,0:0|0:0,0:0:0:0:
96,282,37856,1,10,0:0:0:0:
8,67,38027,1,0,0:0:0:0:
8,67,38113,1,0,0:0:0:0:
8,67,38199,1,10,0:0:0:0:
181,47,38370,1,0,0:0:0:0:
181,47,38456,2,0,L|337:41,1,140.25000428009,10|8,0:0|0:0,0:0:0:0:
363,59,38799,1,0,0:0:0:0:
363,59,38885,5,14,0:0:0:0:
457,215,39056,1,0,0:0:0:0:
476,53,39227,1,10,0:0:0:0:
294,212,39399,1,0,0:0:0:0:
294,212,39485,1,0,0:0:0:0:
294,212,39570,1,10,0:0:0:0:
471,120,39742,1,0,0:0:0:0:
347,301,39913,1,10,0:0:0:0:
240,90,40085,1,0,0:0:0:0:
147,278,40256,5,10,0:0:0:0:
326,131,40427,1,0,0:0:0:0:
114,30,40599,1,10,0:0:0:0:
268,240,40770,1,0,0:0:0:0:
250,29,40942,1,10,0:0:0:0:
88,262,41113,2,0,L|76:301,3,23.3750007133484
103,214,41285,2,0,L|43:213,3,46.7500014266968,10|0|0|0,0:0|0:0|0:0|0:0,0:0:0:0:
322,153,41627,6,0,L|321:212,3,46.7500014266968,14|0|0|0,0:0|0:0|0:0|0:0,0:0:0:0:
199,295,41970,2,0,L|200:236,3,46.7500014266968,14|0|0|0,0:0|0:0|0:0|0:0,0:0:0:0:
235,125,42313,1,10,0:0:0:0:
191,107,42399,1,0,0:0:0:0:
144,110,42485,1,0,0:0:0:0:
102,129,42570,1,0,0:0:0:0:
73,166,42656,2,0,P|37:158|11:170,1,46.7500014266968,10|0,0:0|0:0,0:0:0:0:
113,297,42827,2,0,P|135:305|162:301,1,46.7500014266968
295,190,42999,5,0,0:0:0:0:
256,192,43085,12,4,44370,0:0:0:0:
231,296,44885,5,0,0:0:0:0:
231,296,45056,2,0,L|254:134,1,152.999995330811,8|0,0:0|0:0,0:0:0:0:
155,105,45742,2,0,P|105:127|35:112,2,114.749996498108
230,40,46427,1,0,0:0:0:0:
230,40,46513,1,0,0:0:0:0:
230,40,46599,1,0,0:0:0:0:
230,40,46685,1,0,0:0:0:0:
230,40,46770,2,0,P|286:34|330:50,1,76.4999976654053,8|0,0:0|0:0,0:0:0:0:
419,132,47113,6,0,P|458:94|386:45,1,152.999995330811
335,129,47627,1,0,0:0:0:0:
335,129,47799,2,0,P|326:183|346:234,1,76.4999976654053
350,245,48056,1,0,0:0:0:0:
350,245,48142,2,0,P|356:284|352:329,1,76.4999976654053,8|0,0:0|0:0,0:0:0:0:
257,342,48485,6,0,P|204:351|148:333,1,76.4999976654053
150,322,48742,1,0,0:0:0:0:
150,322,48827,2,0,L|150:228,1,76.4999976654053,8|0,0:0|0:0,0:0:0:0:
103,169,49170,1,0,0:0:0:0:
171,115,49342,1,0,0:0:0:0:
171,115,49427,1,0,0:0:0:0:
171,115,49513,2,0,P|210:109|268:126,1,76.4999976654053,8|0,0:0|0:0,0:0:0:0:
324,195,49856,6,0,P|300:276|337:353,1,165.749992412568
385,264,50542,2,0,P|403:229|366:104,1,165.749992412568,8|0,0:0|0:0,0:0:0:0:
305,37,51227,2,0,L|404:27,2,82.8749962062838
215,75,51913,1,0,0:0:0:0:
196,87,51999,1,0,0:0:0:0:
176,98,52085,1,0,0:0:0:0:
156,108,52170,1,0,0:0:0:0:
136,118,52256,2,0,L|137:197,1,55.2499974708558,8|0,0:0|0:0,0:0:0:0:
217,235,52599,6,0,P|271:225|339:245,1,110.499994941712
268,324,53113,2,0,P|210:332|142:308,1,110.499994941712
90,275,53627,2,0,L|85:202,1,55.2499974708558,8|0,0:0|0:0,0:0:0:0:
40,138,53970,5,0,0:0:0:0:
115,87,54142,1,0,0:0:0:0:
115,87,54227,1,0,0:0:0:0:
115,87,54313,2,0,P|158:81|206:96,1,76.4999976654053,8|0,0:0|0:0,0:0:0:0:
235,103,54570,1,0,0:0:0:0:
235,103,54656,6,0,L|344:105,1,76.4999976654053
416,171,54999,1,8,0:0:0:0:
416,171,55085,1,0,0:0:0:0:
416,171,55170,1,0,0:0:0:0:
416,171,55256,1,0,0:0:0:0:
416,171,55342,6,0,P|423:220|389:285,1,114.749996498108
347,309,55685,2,0,L|259:311,1,76.4999976654053,8|0,0:0|0:0,0:0:0:0:
198,256,56027,2,0,P|185:208|201:173,1,76.4999976654053
270,328,56370,2,0,L|125:335,1,114.749996498108,8|0,0:0|0:0,0:0:0:0:
122,300,56713,6,0,P|96:211|126:140,1,152.999995330811,0|8,0:0|0:0,0:0:0:0:
191,82,57227,1,0,0:0:0:0:
191,82,57313,2,0,L|288:81,1,76.4999976654053,0|8,0:0|0:0,0:0:0:0:
343,206,57656,1,0,0:0:0:0:
343,206,57742,2,0,P|335:244|342:286,1,76.4999976654053,8|0,0:0|0:0,0:0:0:0:
420,76,58085,6,0,P|348:51|270:75,1,152.999995330811,0|8,0:0|0:0,0:0:0:0:
145,205,58599,1,0,0:0:0:0:
273,145,58770,1,0,0:0:0:0:
169,66,58942,1,0,0:0:0:0:
169,66,59027,1,0,0:0:0:0:
169,66,59113,2,0,L|75:69,1,76.4999976654053,8|0,0:0|0:0,0:0:0:0:
17,151,59456,6,0,P|12:204|22:233,1,76.4999976654053
136,360,59799,1,8,0:0:0:0:
13,322,59970,1,0,0:0:0:0:
147,259,60142,2,0,L|244:260,1,76.4999976654053
363,224,60485,2,0,L|375:172,1,38.2499988327027,8|0,0:0|0:0,0:0:0:0:
287,322,60656,2,0,L|275:374,1,38.2499988327027
421,293,60827,6,0,L|459:134,1,152.999995330811,0|8,0:0|0:0,0:0:0:0:
396,35,61342,1,0,0:0:0:0:
396,35,61427,1,0,0:0:0:0:
396,35,61513,2,0,P|343:54|309:53,1,76.4999976654053
192,144,61856,2,0,P|186:191|207:238,1,76.4999976654053,8|0,0:0|0:0,0:0:0:0:
350,328,62199,5,0,0:0:0:0:
278,226,62370,1,0,0:0:0:0:
218,330,62542,2,0,L|84:337,1,114.749996498108,8|0,0:0|0:0,0:0:0:0:
61,324,62885,2,0,P|53:276|61:232,1,76.4999976654053
46,141,63227,2,0,L|70:81,1,38.2499988327027,8|0,0:0|0:0,0:0:0:0:
185,113,63399,2,0,L|160:180,1,38.2499988327027
141,33,63570,2,0,P|189:18|257:45,1,114.749996498108
278,73,63913,2,0,L|375:73,1,76.4999976654053,8|0,0:0|0:0,0:0:0:0:
472,152,64256,5,0,0:0:0:0:
462,185,64342,1,0,0:0:0:0:
454,218,64427,1,0,0:0:0:0:
439,249,64513,1,0,0:0:0:0:
429,282,64599,2,0,L|400:370,1,76.4999976654053,8|0,0:0|0:0,0:0:0:0:
184,180,64942,1,0,0:0:0:0:
275,340,65113,1,0,0:0:0:0:
306,193,65285,1,8,0:0:0:0:
155,328,65456,1,0,0:0:0:0:
40,232,65627,5,0,0:0:0:0:
31,206,65713,1,0,0:0:0:0:
27,179,65799,1,0,0:0:0:0:
26,152,65885,1,0,0:0:0:0:
31,126,65970,1,8,0:0:0:0:
38,100,66056,1,0,0:0:0:0:
53,77,66142,1,0,0:0:0:0:
223,44,66313,6,0,L|321:39,1,85,4|0,0:0|0:0,0:0:0:0:
407,83,66999,2,0,P|416:136|402:179,1,85
368,244,67685,6,0,L|455:283,1,85
361,327,68370,2,0,L|283:292,1,85
230,238,68885,1,0,0:0:0:0:
230,238,69056,6,0,P|238:176|220:147,2,85
181,297,69913,1,0,0:0:0:0:
138,236,70085,2,0,P|126:178|140:144,1,85
179,63,70770,1,0,0:0:0:0:
277,38,71113,1,0,0:0:0:0:
371,88,71456,1,0,0:0:0:0:
388,76,71627,1,0,0:0:0:0:
402,63,71799,6,0,L|394:164,1,85
465,198,72485,2,0,L|459:284,1,85
386,355,73170,2,0,P|350:362|291:349,1,85
250,271,73856,2,0,P|261:228|241:184,1,85
155,136,74542,2,0,P|178:116|234:76,2,85
69,159,75399,1,0,0:0:0:0:
69,159,75570,2,0,P|59:215|79:256,1,85
107,332,76256,5,0,0:0:0:0:
191,303,76599,1,0,0:0:0:0:
274,341,76942,1,0,0:0:0:0:
395,254,77285,6,0,P|411:209|395:163,1,85,6|0,0:0|0:0,0:0:0:0:
260,67,77627,1,2,0:0:0:0:
316,195,77799,1,0,0:0:0:0:
413,77,77970,1,2,0:0:0:0:
246,269,78142,1,0,0:0:0:0:
214,72,78313,1,2,0:0:0:0:
395,254,78485,1,0,0:0:0:0:
180,53,78656,6,0,P|111:40|33:74,1,127.5,2|0,0:0|0:0,0:0:0:0:
21,148,78999,2,0,L|25:242,1,85,2|0,0:0|0:0,0:0:0:0:
137,309,79342,1,2,0:0:0:0:
27,336,79513,1,0,0:0:0:0:
172,204,79685,2,0,L|282:202,1,85,2|0,0:0|0:0,0:0:0:0:
296,200,79942,1,0,0:0:0:0:
296,200,80027,6,0,L|388:200,1,85,2|0,0:0|0:0,0:0:0:0:
492,116,80370,2,0,P|505:67|490:25,1,85,2|0,0:0|0:0,0:0:0:0:
359,15,80713,2,0,L|250:15,1,85,2|0,0:0|0:0,0:0:0:0:
200,167,81056,1,2,0:0:0:0:
250,71,81227,1,0,0:0:0:0:
108,60,81399,2,0,P|92:114|108:157,1,85,2|0,0:0|0:0,0:0:0:0:
110,179,81656,1,0,0:0:0:0:
110,179,81742,2,0,L|114:274,1,85,2|0,0:0|0:0,0:0:0:0:
150,360,82085,2,0,P|224:312|327:341,1,170,2|2,0:0|0:0,0:0:0:0:
424,338,82599,1,0,0:0:0:0:
382,92,82770,5,6,0:0:0:0:
245,233,82942,1,2,0:0:0:0:
225,102,83113,1,10,0:0:0:0:
386,234,83285,1,2,0:0:0:0:
281,49,83456,5,2,0:0:0:0:
128,189,83627,1,2,0:0:0:0:
180,32,83799,1,10,0:0:0:0:
289,184,83970,1,2,0:0:0:0:
77,58,84142,5,2,0:0:0:0:
306,145,84313,1,2,0:0:0:0:
130,225,84485,1,10,0:0:0:0:
242,63,84656,1,2,0:0:0:0:
244,254,84827,5,2,0:0:0:0:
45,153,84999,1,2,0:0:0:0:
355,315,85170,2,0,P|364:252|342:214,1,85,10|2,0:0|0:0,0:0:0:0:
299,56,85513,6,0,L|248:55,1,42.5,2|2,0:0|0:0,0:0:0:0:
421,146,85685,6,0,L|474:145,1,42.5,2|2,0:0|0:0,0:0:0:0:
232,224,85856,1,10,0:0:0:0:
206,225,85942,1,2,0:0:0:0:
180,225,86027,1,2,0:0:0:0:
154,226,86113,1,2,0:0:0:0:
128,225,86199,2,0,L|130:275,1,42.5,2|2,0:0|0:0,0:0:0:0:
21,303,86370,2,2,L|22:345,1,42.5
221,79,86542,1,10,0:0:0:0:
187,83,86627,1,2,0:0:0:0:
153,85,86713,1,2,0:0:0:0:
118,87,86799,1,2,0:0:0:0:
80,90,86885,6,0,L|78:283,1,187.000005706787,4|0,0:0|0:0,0:0:0:0:
218,344,87827,1,2,0:0:0:0:
218,344,87913,2,0,P|283:356|366:330,1,118.999996368408,8|2,0:0|0:0,0:0:0:0:
454,317,88256,6,0,P|478:249|445:136,1,152.999995330811,6|2,0:0|0:0,0:0:0:0:
448,130,88599,2,0,P|414:136|379:125,1,50.9999984436036,8|0,0:0|0:0,0:0:0:0:
339,41,88770,2,0,P|367:36|405:47,1,50.9999984436036
264,111,88942,2,0,L|206:112,3,50.9999984436036,0|0|2|0,0:0|0:0|0:0|0:0,0:0:0:0:
191,80,89285,1,8,0:0:0:0:
157,57,89370,1,0,0:0:0:0:
112,57,89456,1,0,0:0:0:0:
73,70,89542,1,0,0:0:0:0:
50,103,89627,6,0,L|46:210,1,101.999996887207,2|0,0:0|0:0,0:0:0:0:
119,360,89970,2,0,P|140:364|173:356,3,50.9999984436036,8|0|2|8,0:0|0:0|0:0|0:0,0:0:0:0:
209,360,90313,1,0,0:0:0:0:
248,327,90399,1,0,0:0:0:0:
298,320,90485,1,2,0:0:0:0:
347,329,90570,1,0,0:0:0:0:
389,357,90656,6,0,L|413:257,1,101.999996887207,8|2,0:0|0:0,0:0:0:0:
349,57,90999,2,0,L|324:156,1,101.999996887207,2|0,0:0|0:0,0:0:0:0:
285,181,91256,1,0,0:0:0:0:
285,181,91342,2,0,L|216:134,3,50.9999984436036,8|0|2|0,0:0|0:0|0:0|0:0,0:0:0:0:
221,108,91685,2,0,L|181:73,3,50.9999984436036,0|2|2|0,0:0|0:0|0:0|0:0,0:0:0:0:
135,85,92027,2,0,P|116:140|128:191,1,101.999996887207,8|2,0:0|0:0,0:0:0:0:
64,298,92370,2,0,P|96:314|163:304,1,101.999996887207,0|2,0:0|0:0,0:0:0:0:
195,284,92627,5,0,0:0:0:0:
228,260,92713,1,8,0:0:0:0:
267,250,92799,1,2,0:0:0:0:
306,259,92885,1,0,0:0:0:0:
337,283,92970,1,2,0:0:0:0:
373,300,93056,1,0,0:0:0:0:
413,306,93142,1,2,0:0:0:0:
450,291,93227,1,0,0:0:0:0:
484,268,93313,1,2,0:0:0:0:
501,231,93399,6,0,P|516:175|497:135,1,101.999996887207,8|2,0:0|0:0,0:0:0:0:
412,113,93656,1,0,0:0:0:0:
412,113,93742,2,0,L|294:106,1,101.999996887207,2|0,0:0|0:0,0:0:0:0:
197,275,94085,1,8,0:0:0:0:
258,25,94256,1,2,0:0:0:0:
258,25,94342,1,2,0:0:0:0:
258,25,94427,1,0,0:0:0:0:
77,110,94599,1,2,0:0:0:0:
324,217,94770,1,8,0:0:0:0:
147,24,94942,1,0,0:0:0:0:
23,180,95113,6,0,L|8:253,3,50.9999984436036,2|0|0|0,0:0|0:0|0:0|0:0,0:0:0:0:
82,330,95456,2,0,L|94:280,3,50.9999984436036,8|0|2|8,0:0|0:0|0:0|0:0,0:0:0:0:
212,330,95799,1,0,0:0:0:0:
239,306,95885,1,0,0:0:0:0:
273,298,95970,1,2,0:0:0:0:
306,310,96056,1,0,0:0:0:0:
336,329,96142,6,0,L|478:328,1,101.999996887207,8|0,0:0|0:0,0:0:0:0:
488,264,96399,1,0,0:0:0:0:
488,264,96485,2,0,L|499:208,3,50.9999984436036,2|0|0|0,0:0|0:0|0:0|0:0,0:0:0:0:
478,181,96827,2,0,L|485:75,1,101.999996887207,8|0,0:0|0:0,0:0:0:0:
458,40,97085,1,2,0:0:0:0:
417,19,97170,1,0,0:0:0:0:
371,13,97256,1,0,0:0:0:0:
325,21,97342,1,2,0:0:0:0:
292,51,97427,1,0,0:0:0:0:
251,35,97513,6,0,L|168:37,3,50.9999984436036,8|0|0|0,0:0|0:0|0:0|0:0,0:0:0:0:
125,162,97856,2,0,P|113:215|127:264,1,101.999996887207,2|2,0:0|0:0,0:0:0:0:
172,296,98113,1,2,0:0:0:0:
172,296,98199,1,8,0:0:0:0:
309,336,98370,1,0,0:0:0:0:
393,266,98542,6,0,L|427:215,1,50.9999984436036,2|0,0:0|0:0,0:0:0:0:
406,123,98713,2,0,L|372:161,1,50.9999984436036
257,68,98885,1,8,0:0:0:0:
257,68,98970,1,0,0:0:0:0:
257,68,99056,2,0,L|219:66,3,25.4999992218018
197,75,99227,6,0,P|205:132|181:162,1,85,14|0,0:0|0:0,0:0:0:0:
13,238,99570,1,10,0:0:0:0:
76,106,99742,1,0,0:0:0:0:
173,276,99913,2,0,P|224:280|274:263,1,85,10|0,0:0|0:0,0:0:0:0:
77,229,100256,2,0,P|62:271|76:318,1,85,10|0,0:0|0:0,0:0:0:0:
215,361,100599,6,0,L|394:353,1,170,10|10,0:0|0:0,0:0:0:0:
469,290,101113,1,0,0:0:0:0:
469,290,101199,2,0,P|484:237|482:203,1,85,10|8,0:0|0:0,0:0:0:0:
415,86,101542,1,0,0:0:0:0:
415,86,101627,2,0,L|327:86,1,85,10|8,0:0|0:0,0:0:0:0:
292,97,101885,1,8,0:0:0:0:
292,97,101970,5,10,0:0:0:0:
83,206,102142,1,0,0:0:0:0:
167,24,102313,1,10,0:0:0:0:
281,213,102485,1,0,0:0:0:0:
10,85,102656,1,10,0:0:0:0:
178,203,102827,1,0,0:0:0:0:
265,25,102999,1,10,0:0:0:0:
20,209,103170,1,8,0:0:0:0:
20,209,103256,1,8,0:0:0:0:
20,209,103342,6,0,P|13:254|26:335,1,127.5,10|0,0:0|0:0,0:0:0:0:
80,346,103685,2,0,L|180:345,1,85,10|0,0:0|0:0,0:0:0:0:
280,346,104027,2,8,L|341:333,1,42.5
405,227,104199,1,0,0:0:0:0:
405,227,104285,2,0,P|415:187|410:125,1,85,8|8,0:0|0:0,0:0:0:0:
399,116,104542,1,8,0:0:0:0:
376,97,104627,1,0,0:0:0:0:
343,84,104713,5,14,0:0:0:0:
186,256,104885,1,0,0:0:0:0:
229,13,105056,1,10,0:0:0:0:
39,151,105227,1,0,0:0:0:0:
39,151,105313,1,0,0:0:0:0:
39,151,105399,5,10,0:0:0:0:
301,277,105570,1,0,0:0:0:0:
172,70,105742,1,10,0:0:0:0:
60,296,105913,1,2,0:0:0:0:
60,296,105999,1,2,0:0:0:0:
60,296,106085,1,14,0:0:0:0:
362,310,106256,1,0,0:0:0:0:
265,85,106427,2,0,P|264:129|264:169,1,85,10|0,0:0|0:0,0:0:0:0:
111,361,106770,1,8,0:0:0:0:
265,85,106942,2,8,L|245:117,3,21.25
252,137,107113,2,0,L|222:171,3,42.5,10|0|8|0,0:0|0:0|0:0|0:0,0:0:0:0:
180,263,107456,6,0,L|143:304,3,42.5,14|0|8|0,0:0|0:0|0:0|0:0,0:0:0:0:
87,253,107799,2,0,L|57:289,3,42.5,10|0|8|0,0:0|0:0|0:0|0:0,0:0:0:0:
78,204,108099,1,0,0:0:0:0:
78,204,108142,2,0,L|121:163,3,42.5,14|0|8|0,0:0|0:0|0:0|0:0,0:0:0:0:
110,56,108485,2,0,L|67:94,3,42.5,10|0|8|0,0:0|0:0|0:0|0:0,0:0:0:0:
113,99,108827,6,0,L|226:90,1,101.999996887207
315,107,109513,2,0,L|368:108,1,50.9999984436036
384,99,109770,1,0,0:0:0:0:
413,82,109856,2,0,P|429:142|407:207,1,118.999996368408,10|0,0:0|0:0,0:0:0:0:
348,331,110199,6,0,P|292:342|240:318,1,101.999996887207,6|0,0:0|0:0,0:0:0:0:
145,152,110542,2,0,P|184:143|255:160,1,101.999996887207,10|0,0:0|0:0,0:0:0:0:
51,327,110885,2,0,B|72:282|47:253|47:253|69:261|69:261|50:213|66:161,1,203.999993774414,2|10,0:0|0:0,0:0:0:0:
256,67,111399,1,0,0:0:0:0:
375,203,111570,6,0,P|438:220|481:198,1,101.999996887207,2|0,0:0|0:0,0:0:0:0:
223,58,111913,6,0,P|160:41|117:63,1,101.999996887207,10|0,0:0|0:0,0:0:0:0:
249,322,112256,2,0,B|331:323|331:323|371:302|371:302|462:303,1,203.999993774414,2|10,0:0|0:0,0:0:0:0:
480,203,112770,1,0,0:0:0:0:
480,203,112942,2,0,P|492:134|465:79,1,127.499996109009,2|0,0:0|0:0,0:0:0:0:
283,176,113285,2,0,P|274:219|293:276,1,101.999996887207,10|0,0:0|0:0,0:0:0:0:
469,84,113627,6,0,P|406:52|270:82,1,203.999993774414,2|10,0:0|0:0,0:0:0:0:
72,170,114142,1,0,0:0:0:0:
72,170,114227,1,0,0:0:0:0:
72,170,114313,1,2,0:0:0:0:
146,48,114485,1,0,0:0:0:0:
226,231,114656,2,0,P|242:183|222:138,1,101.999996887207,10|0,0:0|0:0,0:0:0:0:
211,331,114999,6,0,L|338:323,1,127.500004863739,2|10,0:0|0:0,0:0:0:0:
359,325,115427,1,0,0:0:0:0:
378,329,115513,1,0,0:0:0:0:
397,334,115599,1,0,0:0:0:0:
416,339,115685,2,0,P|436:276|420:229,1,101.999996887207,2|0,0:0|0:0,0:0:0:0:
283,166,116027,1,10,0:0:0:0:
428,61,116199,1,0,0:0:0:0:
260,62,116370,6,0,B|215:85|190:59|190:59|168:29|168:29|112:18|67:36,1,203.999993774414,2|10,0:0|0:0,0:0:0:0:
11,207,116885,1,0,0:0:0:0:
191,350,117056,2,0,P|236:361|303:339,1,101.999996887207,2|0,0:0|0:0,0:0:0:0:
244,165,117399,2,0,P|198:153|132:175,1,101.999996887207,10|0,0:0|0:0,0:0:0:0:
191,350,117742,2,0,L|415:335,1,203.999993774414,2|10,0:0|0:0,0:0:0:0:
319,221,118256,1,0,0:0:0:0:
470,154,118427,2,0,P|489:104|458:47,1,101.999996887207,2|0,0:0|0:0,0:0:0:0:
260,176,118770,2,0,P|241:223|272:280,1,101.999996887207,10|0,0:0|0:0,0:0:0:0:
364,18,119113,2,0,B|310:13|310:13|256:35|256:35|142:29,1,203.999993774414,2|10,0:0|0:0,0:0:0:0:
139,144,119627,1,0,0:0:0:0:
0,107,119799,2,0,P|-14:159|14:220,1,101.999996887207,2|0,0:0|0:0,0:0:0:0:
137,254,120142,1,10,0:0:0:0:
0,318,120313,1,0,0:0:0:0:
137,254,120485,2,0,L|273:260,1,127.500004863739
289,255,120913,1,0,0:0:0:0:
314,251,120999,1,0,0:0:0:0:
339,247,121085,1,0,0:0:0:0:
363,242,121170,6,0,P|379:185|355:125,1,101.999996887207,6|0,0:0|0:0,0:0:0:0:
299,25,121513,1,10,0:0:0:0:
421,56,121685,1,0,0:0:0:0:
260,181,121856,6,0,L|150:181,1,101.999996887207,2|0,0:0|0:0,0:0:0:0:
44,81,122199,1,10,0:0:0:0:
212,62,122370,1,0,0:0:0:0:
90,275,122542,2,0,L|192:275,1,101.999996887207,2|0,0:0|0:0,0:0:0:0:
320,209,122885,1,10,0:0:0:0:
144,128,123056,1,0,0:0:0:0:
275,315,123227,2,0,L|276:210,1,101.999996887207,2|0,0:0|0:0,0:0:0:0:
419,55,123570,5,10,0:0:0:0:
406,88,123656,1,0,0:0:0:0:
392,121,123742,1,0,0:0:0:0:
378,153,123827,1,0,0:0:0:0:
362,185,123913,2,0,L|244:185,1,101.999996887207,2|0,0:0|0:0,0:0:0:0:
83,78,124256,1,10,0:0:0:0:
174,273,124427,1,0,0:0:0:0:
243,78,124599,1,2,0:0:0:0:
25,188,124770,1,0,0:0:0:0:
277,258,124942,6,0,P|338:270|397:251,1,101.999996887207,10|0,0:0|0:0,0:0:0:0:
462,155,125285,2,0,P|475:105|362:53,1,152.999995330811,2|0,0:0|0:0,0:0:0:0:
357,32,125627,2,0,B|272:14|272:14|163:22,1,152.999995330811,10|0,0:0|0:0,0:0:0:0:
130,50,125970,6,0,L|112:184,1,127.500004863739,2|10,0:0|0:0,0:0:0:0:
113,205,126399,1,0,0:0:0:0:
107,233,126485,1,0,0:0:0:0:
102,261,126570,1,0,0:0:0:0:
96,294,126656,6,0,B|151:305|151:305|206:297,1,101.999996887207,6|0,0:0|0:0,0:0:0:0:
417,169,126999,2,0,B|362:158|362:158|307:166,1,101.999996887207,10|0,0:0|0:0,0:0:0:0:
417,307,127342,1,2,0:0:0:0:
499,127,127513,1,0,0:0:0:0:
393,61,127685,1,10,0:0:0:0:
293,242,127856,1,0,0:0:0:0:
261,45,128027,6,0,P|205:32|155:47,1,101.999996887207,6|0,0:0|0:0,0:0:0:0:
33,182,128370,2,0,P|82:194|144:175,1,101.999996887207,10|0,0:0|0:0,0:0:0:0:
293,242,128713,1,2,0:0:0:0:
222,316,128885,1,0,0:0:0:0:
434,246,129056,1,10,0:0:0:0:
373,315,129227,1,0,0:0:0:0:
327,40,129399,5,6,0:0:0:0:
148,187,129570,1,0,0:0:0:0:
445,168,129742,1,10,0:0:0:0:
269,358,129913,1,0,0:0:0:0:
234,68,130085,5,6,0:0:0:0:
251,247,130256,1,0,0:0:0:0:
29,82,130427,1,10,0:0:0:0:
96,284,130599,1,0,0:0:0:0:
344,43,130770,6,0,L|419:39,1,63.7500024318696,4|0,0:0|0:0,0:0:0:0:
448,180,131627,2,8,L|459:204,3,15.9375006079674
428,226,131799,2,8,L|415:269,4,31.8750012159348,8|8|8|0|2,0:0|0:0|0:0|0:0|0:0,0:0:0:0:
270,331,132485,6,0,L|145:327,1,101.999996887207,14|0,0:0|0:0,0:0:0:0:
48,237,132827,2,0,P|31:172|55:133,1,101.999996887207,2|0,0:0|0:0,0:0:0:0:
149,37,133170,2,0,P|203:27|261:45,1,101.999996887207,10|0,0:0|0:0,0:0:0:0:
363,179,133513,2,0,P|309:189|251:171,1,101.999996887207,2|0,0:0|0:0,0:0:0:0:
490,75,133856,2,0,P|503:133|481:179,1,101.999996887207,10|0,0:0|0:0,0:0:0:0:
228,280,134199,2,0,P|215:222|237:176,1,101.999996887207,2|0,0:0|0:0,0:0:0:0:
375,82,134542,1,10,0:0:0:0:
370,282,134713,1,0,0:0:0:0:
230,73,134885,6,0,P|177:65|120:80,1,101.999996887207,2|0,0:0|0:0,0:0:0:0:
57,223,135227,2,0,P|110:231|167:216,1,101.999996887207,10|0,0:0|0:0,0:0:0:0:
252,32,135570,1,2,0:0:0:0:
352,262,135742,1,0,0:0:0:0:
352,262,135827,1,0,0:0:0:0:
352,262,135913,2,0,P|380:200|345:124,1,152.999995330811,10|0,0:0|0:0,0:0:0:0:
320,103,136256,6,0,L|218:100,1,101.999996887207,2|0,0:0|0:0,0:0:0:0:
169,87,136513,1,0,0:0:0:0:
169,87,136599,1,10,0:0:0:0:
7,282,136770,1,0,0:0:0:0:
195,224,136942,1,2,0:0:0:0:
35,171,137113,1,0,0:0:0:0:
194,337,137285,2,0,P|250:349|305:331,1,101.999996887207,10|0,0:0|0:0,0:0:0:0:
413,297,137627,6,0,P|431:252|400:148,1,152.999995330811,2|0,0:0|0:0,0:0:0:0:
372,109,137970,2,0,L|395:9,1,101.999996887207,10|0,0:0|0:0,0:0:0:0:
239,65,138313,2,0,L|215:164,1,101.999996887207,2|0,0:0|0:0,0:0:0:0:
197,202,138570,1,0,0:0:0:0:
197,202,138656,2,0,B|150:210|150:210|74:195,1,101.999996887207,10|0,0:0|0:0,0:0:0:0:
239,65,138999,6,0,B|286:60|286:60|351:72,1,101.999996887207,2|0,0:0|0:0,0:0:0:0:
439,226,139342,1,10,0:0:0:0:
294,161,139513,1,0,0:0:0:0:
294,161,139599,1,0,0:0:0:0:
294,161,139685,1,2,0:0:0:0:
454,83,139856,1,0,0:0:0:0:
282,265,140027,2,0,L|170:263,1,101.999996887207,10|0,0:0|0:0,0:0:0:0:
61,154,140370,2,0,P|48:107|77:44,1,101.999996887207,2|0,0:0|0:0,0:0:0:0:
167,355,140713,6,0,L|331:355,1,152.999995330811,10|0,0:0|0:0,0:0:0:0:
363,338,141056,2,0,P|396:281|397:224,1,101.999996887207,2|0,0:0|0:0,0:0:0:0:
352,44,141399,1,10,0:0:0:0:
461,130,141570,1,0,0:0:0:0:
297,146,141742,2,0,L|185:141,1,101.999996887207,2|0,0:0|0:0,0:0:0:0:
73,63,142085,1,10,0:0:0:0:
118,230,142256,6,0,L|317:240,1,191.250007295609
447,88,143113,5,6,0:0:0:0:
193,198,143285,1,0,0:0:0:0:
455,303,143456,1,10,0:0:0:0:
307,70,143627,1,0,0:0:0:0:
136,323,143799,2,0,P|92:331|32:316,1,101.999996887207,2|0,0:0|0:0,0:0:0:0:
345,73,144142,2,0,P|389:65|449:80,1,101.999996887207,10|0,0:0|0:0,0:0:0:0:
181,19,144485,5,2,0:0:0:0:
300,294,144656,1,0,0:0:0:0:
35,93,144827,1,10,0:0:0:0:
368,143,144999,1,0,0:0:0:0:
66,336,145170,1,2,0:0:0:0:
66,336,145256,1,8,0:0:0:0:
66,336,145342,1,0,0:0:0:0:
261,152,145513,1,10,0:0:0:0:
0,230,145685,1,10,0:0:0:0:
229,67,145856,6,0,P|276:58|342:72,1,101.999996887207,2|0,0:0|0:0,0:0:0:0:
479,248,146199,2,0,P|432:257|366:243,1,101.999996887207,10|0,0:0|0:0,0:0:0:0:
203,97,146542,2,0,P|196:156|213:213,1,101.999996887207,2|0,0:0|0:0,0:0:0:0:
354,322,146885,1,8,0:0:0:0:
480,202,147056,1,8,0:0:0:0:
480,202,147142,1,8,0:0:0:0:
480,202,147227,6,0,P|499:142|477:46,1,152.999995330811
424,38,147570,2,0,L|312:35,1,101.999996887207,10|0,0:0|0:0,0:0:0:0:
213,162,147913,1,2,0:0:0:0:
94,63,148085,2,8,L|72:-3,3,50.9999984436036
30,136,148427,1,0,0:0:0:0:
30,171,148513,1,0,0:0:0:0:
33,210,148599,2,0,L|25:316,1,95.6250036478044
58,337,148942,6,0,P|102:348|167:338,1,101.999996887207,14|8,0:0|0:0,0:0:0:0:
195,329,149199,1,8,0:0:0:0:
195,329,149285,1,2,0:0:0:0:
424,130,149456,1,8,0:0:0:0:
165,94,149627,1,10,0:0:0:0:
375,342,149799,1,8,0:0:0:0:
291,91,149970,6,0,L|177:80,1,101.999996887207,2|8,0:0|0:0,0:0:0:0:
106,241,150313,1,10,0:0:0:0:
180,20,150485,1,8,0:0:0:0:
262,247,150656,1,2,0:0:0:0:
32,163,150827,2,0,L|23:204,3,25.4999992218018,8|8|8|8,0:0|0:0|0:0|0:0,0:0:0:0:
25,217,150999,2,0,L|18:331,1,101.999996887207,10|0,0:0|0:0,0:0:0:0:
186,300,151342,5,14,0:0:0:0:
222,316,151427,1,8,0:0:0:0:
262,323,151513,1,8,0:0:0:0:
302,316,151599,1,8,0:0:0:0:
339,300,151685,2,8,L|403:264,3,50.9999984436036,14|8|8|8,0:0|0:0|0:0|0:0,0:0:0:0:
409,243,152027,5,14,0:0:0:0:
423,204,152113,1,8,0:0:0:0:
420,163,152199,1,8,0:0:0:0:
410,123,152285,1,8,0:0:0:0:
389,88,152370,2,8,L|352:40,3,50.9999984436036,14|8|8|8,0:0|0:0|0:0|0:0,0:0:0:0:
317,53,152713,6,0,L|279:52,1,25.4999992218018
177,159,152885,2,0,L|211:159,1,25.4999992218018
257,297,153056,1,0,0:0:0:0:
63,131,153227,1,0,0:0:0:0:
63,131,153313,1,0,0:0:0:0:
63,131,153399,1,0,0:0:0:0:
299,173,153570,1,0,0:0:0:0:
135,317,153742,2,0,L|21:320,1,101.999996887207,8|0,0:0|0:0,0:0:0:0:
299,173,154085,6,0,L|468:173,1,152.999995330811,4|0,0:0|0:0,0:0:0:0:
476,140,154427,2,0,P|483:103|465:41,1,101.999996887207,8|0,0:0|0:0,0:0:0:0:
434,31,154685,1,0,0:0:0:0:
403,24,154770,2,0,L|288:26,1,101.999996887207
122,64,155113,1,8,0:0:0:0:
299,173,155285,1,0,0:0:0:0:
107,251,155456,6,0,P|86:301|186:279,1,203.999993774414,0|8,0:0|0:0,0:0:0:0:
300,75,155970,1,0,0:0:0:0:
300,75,156056,1,8,0:0:0:0:
300,75,156142,2,0,L|419:69,1,101.999996887207
363,253,156485,1,8,0:0:0:0:
475,150,156656,1,0,0:0:0:0:
450,306,156827,6,0,B|425:354|425:354|259:340,1,203.999993774414,4|8,0:0|0:0,0:0:0:0:
200,214,157342,1,0,0:0:0:0:
200,214,157427,1,8,0:0:0:0:
200,214,157513,1,0,0:0:0:0:
373,124,157685,1,0,0:0:0:0:
81,280,157856,2,0,P|60:227|96:173,1,101.999996887207,8|0,0:0|0:0,0:0:0:0:
249,27,158199,5,0,0:0:0:0:
278,247,158370,1,0,0:0:0:0:
74,65,158542,1,8,0:0:0:0:
381,123,158713,1,0,0:0:0:0:
144,39,158885,1,0,0:0:0:0:
231,283,159056,1,0,0:0:0:0:
381,123,159227,2,0,L|398:104,7,25.4999992218018,8|0|0|0|0|0|0|0,0:0|0:0|0:0|0:0|0:0|0:0|0:0|0:0,0:0:0:0:
430,93,159570,6,0,L|423:201,1,101.999996887207,4|0,0:0|0:0,0:0:0:0:
341,369,159913,1,8,0:0:0:0:
300,114,160085,1,0,0:0:0:0:
300,114,160170,1,0,0:0:0:0:
300,114,160256,1,0,0:0:0:0:
483,316,160427,1,0,0:0:0:0:
353,176,160599,1,8,0:0:0:0:
219,320,160770,1,0,0:0:0:0:
409,193,160942,6,0,P|425:141|407:85,1,101.999996887207
192,30,161285,1,8,0:0:0:0:
391,12,161456,1,0,0:0:0:0:
391,12,161542,1,8,0:0:0:0:
391,12,161627,1,0,0:0:0:0:
279,230,161799,1,0,0:0:0:0:
163,100,161970,5,8,0:0:0:0:
122,93,162056,1,8,0:0:0:0:
82,102,162142,1,8,0:0:0:0:
45,119,162227,1,8,0:0:0:0:
20,155,162313,6,0,L|19:269,1,101.999996887207
210,325,162656,1,8,0:0:0:0:
54,365,162827,1,0,0:0:0:0:
54,365,162913,1,0,0:0:0:0:
54,365,162999,1,0,0:0:0:0:
224,210,163170,2,0,L|331:208,1,101.999996887207,0|8,0:0|0:0,0:0:0:0:
475,354,163513,1,0,0:0:0:0:
475,187,163685,2,0,B|485:133|485:133|469:82,1,101.999996887207
240,25,164027,2,0,B|230:79|230:79|246:130,1,101.999996887207,8|0,0:0|0:0,0:0:0:0:
274,280,164370,6,0,L|361:278,1,76.4999976654053
379,258,164713,2,0,P|399:203|373:148,1,114.749996498108,8|0,0:0|0:0,0:0:0:0:
220,69,165056,6,0,L|104:71,1,101.999996887207,4|0,0:0|0:0,0:0:0:0:
99,291,165399,1,8,0:0:0:0:
253,190,165570,1,0,0:0:0:0:
253,190,165656,1,0,0:0:0:0:
253,190,165742,1,0,0:0:0:0:
117,73,165913,2,0,P|79:71|21:106,1,101.999996887207,0|8,0:0|0:0,0:0:0:0:
186,322,166256,1,0,0:0:0:0:
0,208,166427,1,0,0:0:0:0:
221,100,166599,1,0,0:0:0:0:
61,297,166770,1,8,0:0:0:0:
281,368,166942,1,0,0:0:0:0:
281,368,167027,1,8,0:0:0:0:
281,368,167113,6,0,L|400:362,1,101.999996887207
425,263,167456,2,0,L|437:141,1,111.562504255772,8|0,0:0|0:0,0:0:0:0:
434,119,167799,2,0,P|389:104|325:125,1,101.999996887207
171,209,168142,1,8,0:0:0:0:
219,12,168313,1,0,0:0:0:0:
219,12,168399,1,0,0:0:0:0:
219,12,168485,1,0,0:0:0:0:
345,287,168656,1,0,0:0:0:0:
117,115,168827,5,8,0:0:0:0:
88,144,168913,1,0,0:0:0:0:
70,181,168999,1,0,0:0:0:0:
67,221,169085,1,8,0:0:0:0:
86,256,169170,2,0,L|194:253,1,101.999996887207
392,97,169513,2,0,L|276:101,1,101.999996887207,8|0,0:0|0:0,0:0:0:0:
152,149,169856,2,0,P|136:198|163:244,1,101.999996887207
424,289,170199,6,0,L|422:203,1,68,8|0,0:0|0:0,0:0:0:0:
415,165,170456,1,0,0:0:0:0:
386,136,170542,2,0,L|273:140,1,101.999996887207,4|0,0:0|0:0,0:0:0:0:
159,240,170885,2,0,P|135:193|152:149,1,101.999996887207,8|0,0:0|0:0,0:0:0:0:
228,302,171142,1,0,0:0:0:0:
228,302,171227,2,0,P|198:328|135:326,1,101.999996887207
47,253,171570,2,0,L|42:88,1,152.999995330811,8|0,0:0|0:0,0:0:0:0:
116,28,171913,6,0,P|165:19|225:27,1,101.999996887207,4|0,0:0|0:0,0:0:0:0:
352,178,172256,1,8,0:0:0:0:
224,48,172427,1,0,0:0:0:0:
224,48,172513,1,8,0:0:0:0:
224,48,172599,1,0,0:0:0:0:
386,89,172770,2,0,L|418:39,1,50.9999984436036
432,207,172942,2,0,L|471:247,1,50.9999984436036,8|0,0:0|0:0,0:0:0:0:
305,240,173113,2,0,L|267:295,1,50.9999984436036,8|0,0:0|0:0,0:0:0:0:
261,327,173285,6,8,L|140:327,1,101.999996887207,4|0,0:0|0:0,0:0:0:0:
69,237,173627,2,0,P|54:170|72:122,1,101.999996887207,8|0,0:0|0:0,0:0:0:0:
83,108,173885,1,0,0:0:0:0:
117,88,173970,2,0,P|161:77|219:100,1,101.999996887207,4|0,0:0|0:0,0:0:0:0:
354,205,174313,2,0,L|411:217,1,50.9999984436036,8|0,0:0|0:0,0:0:0:0:
356,102,174485,2,0,L|397:72,1,50.9999984436036
226,293,174656,6,0,B|217:322|140:336|140:336|94:281|175:199,1,255,4|0,0:0|0:0,0:0:0:0:
311,96,176027,1,4,0:0:0:0:
256,192,197285,12,10,198656,0:0:0:0:
164,47,198827,5,8,0:0:0:0:
273,64,198999,2,8,L|303:63,1,21.25
382,90,199170,2,8,L|408:89,1,21.25
264,216,199342,6,0,P|220:226|179:206,1,85,6|0,0:0|0:0,0:0:0:0:
368,146,199685,2,0,P|411:132|453:150,1,85,2|0,0:0|0:0,0:0:0:0:
338,346,200027,2,0,L|338:248,1,85,2|0,0:0|0:0,0:0:0:0:
208,280,200370,2,0,L|119:280,1,85,2|0,0:0|0:0,0:0:0:0:
52,195,200713,2,0,B|42:155|42:155|54:95,1,85,2|0,0:0|0:0,0:0:0:0:
144,100,201056,2,0,B|156:68|156:68|212:31,1,85,2|0,0:0|0:0,0:0:0:0:
260,104,201399,2,0,B|286:85|286:85|351:71,1,85,2|0,0:0|0:0,0:0:0:0:
414,154,201742,1,2,0:0:0:0:
452,66,201913,1,0,0:0:0:0:
333,178,202085,6,0,B|325:215|325:215|334:264,1,85,2|0,0:0|0:0,0:0:0:0:
439,332,202427,2,0,B|454:298|454:298|434:244,1,85,2|0,0:0|0:0,0:0:0:0:
250,252,202770,2,0,L|156:258,1,85,2|0,0:0|0:0,0:0:0:0:
76,148,203113,2,0,P|55:209|95:269,1,127.5,2|0,0:0|0:0,0:0:0:0:
165,257,203456,2,0,L|166:158,1,85,2|0,0:0|0:0,0:0:0:0:
219,46,203799,2,0,P|252:73|268:120,1,85,2|0,0:0|0:0,0:0:0:0:
341,199,204142,6,0,L|441:188,1,85,2|0,0:0|0:0,0:0:0:0:
348,247,204399,2,0,L|245:255,1,85,2|0,0:0|0:0,0:0:0:0:
158,322,204656,1,2,0:0:0:0:
66,220,204827,6,0,P|48:180|71:135,1,85,2|0,0:0|0:0,0:0:0:0:
173,53,205170,2,0,L|261:56,1,85,2|0,0:0|0:0,0:0:0:0:
415,176,205513,1,2,0:0:0:0:
292,163,205685,1,0,0:0:0:0:
292,163,205770,1,0,0:0:0:0:
292,163,205856,1,2,0:0:0:0:
432,86,206027,1,0,0:0:0:0:
306,264,206199,5,2,0:0:0:0:
274,277,206285,1,0,0:0:0:0:
241,284,206370,1,0,0:0:0:0:
206,282,206456,1,0,0:0:0:0:
173,271,206542,2,0,L|157:176,1,85,2|0,0:0|0:0,0:0:0:0:
211,78,206885,2,0,P|256:69|300:83,1,85,2|0,0:0|0:0,0:0:0:0:
356,167,207227,2,0,P|350:195|369:264,1,85,2|0,0:0|0:0,0:0:0:0:
476,297,207485,1,0,0:0:0:0:
476,297,207570,6,0,P|498:227|460:127,1,170,2|2,0:0|0:0,0:0:0:0:
368,45,208085,1,0,0:0:0:0:
250,82,208256,2,0,P|208:128|145:115,1,127.5,2|0,0:0|0:0,0:0:0:0:
96,132,208599,2,0,P|55:225|78:259,1,148.75,2|0,0:0|0:0,0:0:0:0:
102,293,208942,6,0,B|126:278|159:284|159:284|190:320|190:320|234:257|330:296,1,255,6|0,0:0|0:0,0:0:0:0:
434,231,210313,6,0,P|446:175|436:151,1,85,14|0,0:0|0:0,0:0:0:0:
330,40,210656,2,0,B|318:87|318:87|336:133,1,85,8|0,0:0|0:0,0:0:0:0:
276,232,210999,2,8,P|235:240|190:229,1,85,8|0,0:0|0:0,0:0:0:0:
105,130,211342,2,0,P|92:86|105:44,1,85,8|0,0:0|0:0,0:0:0:0:
245,67,211599,1,0,0:0:0:0:
277,88,211685,6,0,L|390:83,1,93.5000028533936,14|0,0:0|0:0,0:0:0:0:
448,165,212027,2,0,P|466:208|448:259,1,93.5000028533936,8|0,0:0|0:0,0:0:0:0:
435,283,212285,1,8,0:0:0:0:
292,350,212456,1,8,0:0:0:0:
178,230,212627,1,0,0:0:0:0:
178,230,212713,1,8,0:0:0:0:
320,194,212885,1,8,0:0:0:0:
294,218,212970,1,8,0:0:0:0:
271,237,213056,6,0,L|165:229,1,93.5000028533936,6|0,0:0|0:0,0:0:0:0:
55,255,213399,2,0,P|44:305|61:346,1,93.5000028533936,8|0,0:0|0:0,0:0:0:0:
108,176,213742,2,0,L|121:83,1,93.5000028533936,8|0,0:0|0:0,0:0:0:0:
289,91,214085,2,0,P|293:149|339:108,1,140.25000428009,14|0,0:0|0:0,0:0:0:0:
197,143,214427,2,0,P|233:213|346:224,1,187.000005706787,6|8,0:0|0:0,0:0:0:0:
415,308,214942,1,0,0:0:0:0:
430,195,215113,2,0,L|440:89,1,93.5000028533936,14|0,0:0|0:0,0:0:0:0:
412,60,215370,1,0,0:0:0:0:
412,60,215456,6,0,L|418:26,7,23.3750007133484
297,32,215799,5,6,0:0:0:0:
151,262,215970,1,0,0:0:0:0:
82,32,216142,1,0,0:0:0:0:
268,229,216313,6,0,L|286:211,4,25.4999992218018,0|0|0|0|6,0:0|0:0|0:0|0:0|0:0,0:0:0:0:
52,286,216656,1,0,0:0:0:0:
257,111,216827,1,0,0:0:0:0:
48,132,216999,6,0,L|31:110,3,25.4999992218018
76,183,217170,1,6,0:0:0:0:
339,28,217342,1,0,0:0:0:0:
126,207,217513,1,0,0:0:0:0:
312,295,217685,1,0,0:0:0:0:
454,90,217856,5,6,0:0:0:0:
194,142,218027,6,0,L|159:132,4,25.4999992218018
9,36,218370,1,0,0:0:0:0:
97,191,218542,5,6,0:0:0:0:
133,207,218627,1,0,0:0:0:0:
171,221,218713,1,0,0:0:0:0:
199,250,218799,1,0,0:0:0:0:
221,284,218885,1,6,0:0:0:0:
228,323,218970,1,0,0:0:0:0:
259,296,219056,2,0,L|287:325,1,25.4999992218018
280,250,219142,2,0,L|324:269,1,25.4999992218018
291,217,219227,1,6,0:0:0:0:
326,196,219313,1,0,0:0:0:0:
365,183,219399,1,0,0:0:0:0:
405,178,219485,1,0,0:0:0:0:
440,196,219570,1,6,0:0:0:0:
448,320,219699,5,2,0:0:0:0:
448,320,219785,1,2,0:0:0:0:
317,302,219913,2,0,L|248:317,3,67.9999979248048,2|0|0|0,0:0|0:0|0:0|0:0,0:0:0:0:
220,227,220427,2,0,L|228:97,1,127.499996109009
105,178,220942,2,0,P|78:227|50:156,1,169.999994812012,8|0,0:0|0:0,0:0:0:0:
150,26,221285,6,0,B|196:12|196:12|256:29,1,101.999996887207,6|0,0:0|0:0,0:0:0:0:
410,167,221627,2,0,B|358:181|358:181|312:167,1,101.999996887207,10|0,0:0|0:0,0:0:0:0:
119,54,221970,1,2,0:0:0:0:
193,247,222142,1,0,0:0:0:0:
279,55,222313,1,10,0:0:0:0:
43,174,222485,1,0,0:0:0:0:
224,324,222656,6,0,P|269:342|336:311,1,101.999996887207,2|0,0:0|0:0,0:0:0:0:
388,140,222999,2,0,P|343:122|276:153,1,101.999996887207,10|0,0:0|0:0,0:0:0:0:
90,336,223342,2,0,P|163:311|142:191,1,203.999993774414,2|10,0:0|0:0,0:0:0:0:
70,75,223856,1,0,0:0:0:0:
271,22,224027,2,0,L|382:27,1,101.999996887207,2|0,0:0|0:0,0:0:0:0:
257,204,224370,2,0,L|146:199,1,101.999996887207,10|0,0:0|0:0,0:0:0:0:
444,114,224713,2,0,P|399:164|454:287,1,203.999993774414,2|10,0:0|0:0,0:0:0:0:
282,341,225227,1,0,0:0:0:0:
124,57,225399,5,2,0:0:0:0:
292,246,225570,1,0,0:0:0:0:
293,76,225742,1,10,0:0:0:0:
59,260,225913,1,0,0:0:0:0:
327,64,226085,2,0,B|379:56|379:56|434:67,1,101.999996887207,2|0,0:0|0:0,0:0:0:0:
127,121,226427,2,0,L|64:122,1,50.9999984436036,10|0,0:0|0:0,0:0:0:0:
237,229,226599,2,0,L|296:228,1,50.9999984436036
114,308,226770,6,0,P|89:220|151:143,1,152.999995330811,2|0,0:0|0:0,0:0:0:0:
127,121,227113,2,0,L|261:119,1,101.999996887207,10|0,0:0|0:0,0:0:0:0:
406,266,227456,2,0,L|272:268,1,101.999996887207,2|0,0:0|0:0,0:0:0:0:
163,331,227799,1,10,0:0:0:0:
32,185,227970,1,0,0:0:0:0:
209,79,228142,6,0,B|291:82|291:82|340:105|340:105|421:104,1,203.999993774414,2|10,0:0|0:0,0:0:0:0:
481,253,228656,1,0,0:0:0:0:
310,337,228827,2,0,P|252:349|198:330,1,101.999996887207,2|0,0:0|0:0,0:0:0:0:
136,154,229170,2,0,P|176:197|187:253,1,101.999996887207,10|0,0:0|0:0,0:0:0:0:
342,40,229513,6,0,P|298:91|311:222,1,203.999993774414,2|10,0:0|0:0,0:0:0:0:
404,140,230027,1,0,0:0:0:0:
191,56,230199,2,0,P|132:48|77:67,1,101.999996887207,2|0,0:0|0:0,0:0:0:0:
19,256,230542,2,0,L|177:248,1,152.999995330811,10|0,0:0|0:0,0:0:0:0:
225,252,230885,2,0,L|221:353,1,101.999996887207,2|0,0:0|0:0,0:0:0:0:
333,77,231227,2,0,B|288:106|288:106|190:85,1,152.999995330811,10|0,0:0|0:0,0:0:0:0:
169,50,231570,2,0,L|65:46,1,95.6250036478044
51,169,231913,6,0,L|43:221,1,50.9999984436036
126,330,232085,6,0,L|118:278,1,50.9999984436036
207,175,232256,2,0,P|253:166|316:182,1,101.999996887207,6|0,0:0|0:0,0:0:0:0:
381,322,232599,2,0,P|335:331|272:315,1,101.999996887207,10|0,0:0|0:0,0:0:0:0:
409,73,232942,1,2,0:0:0:0:
297,239,233113,1,0,0:0:0:0:
249,54,233285,1,10,0:0:0:0:
428,197,233456,1,0,0:0:0:0:
174,273,233627,6,0,P|110:285|66:257,1,101.999996887207,2|0,0:0|0:0,0:0:0:0:
331,149,233970,2,0,P|395:137|439:165,1,101.999996887207,10|0,0:0|0:0,0:0:0:0:
97,131,234313,1,2,0:0:0:0:
270,261,234485,1,0,0:0:0:0:
193,80,234656,1,10,0:0:0:0:
78,269,234827,1,0,0:0:0:0:
257,340,234999,6,0,P|306:354|365:336,1,101.999996887207,2|0,0:0|0:0,0:0:0:0:
412,166,235342,2,0,P|360:203|360:250,1,101.999996887207,10|0,0:0|0:0,0:0:0:0:
230,13,235685,1,2,0:0:0:0:
253,175,235856,1,0,0:0:0:0:
369,27,236027,1,10,0:0:0:0:
126,99,236199,1,0,0:0:0:0:
290,301,236370,5,2,0:0:0:0:
244,97,236542,1,0,0:0:0:0:
425,214,236713,1,10,0:0:0:0:
163,201,236885,1,0,0:0:0:0:
397,102,237056,1,2,0:0:0:0:
301,334,237227,1,0,0:0:0:0:
183,58,237399,5,10,0:0:0:0:
150,41,237485,1,0,0:0:0:0:
115,33,237570,1,0,0:0:0:0:
80,42,237656,1,0,0:0:0:0:
47,56,237742,6,0,L|48:172,1,101.999996887207,6|0,0:0|0:0,0:0:0:0:
162,330,238085,2,0,P|220:341|275:323,1,101.999996887207,10|0,0:0|0:0,0:0:0:0:
309,115,238427,1,2,0:0:0:0:
420,294,238599,1,0,0:0:0:0:
488,106,238770,1,10,0:0:0:0:
278,266,238942,1,0,0:0:0:0:
134,89,239113,6,0,B|89:49|89:49|55:39|18:63|11:92|35:132,1,152.999995330811,6|0,0:0|0:0,0:0:0:0:
44,176,239456,2,0,L|156:177,1,101.999996887207,10|0,0:0|0:0,0:0:0:0:
406,247,239799,1,2,0:0:0:0:
428,213,239885,1,0,0:0:0:0:
439,174,239970,1,0,0:0:0:0:
426,135,240056,1,0,0:0:0:0:
401,102,240142,6,0,L|300:98,1,101.999996887207,10|0,0:0|0:0,0:0:0:0:
173,251,240485,1,6,0:0:0:0:
130,23,240656,1,0,0:0:0:0:
46,334,240827,1,10,0:0:0:0:
11,31,240999,1,0,0:0:0:0:
173,251,241170,5,6,0:0:0:0:
130,23,241342,1,0,0:0:0:0:
46,334,241513,1,10,0:0:0:0:
11,31,241685,1,0,0:0:0:0:
256,315,241856,6,0,L|300:311,1,38.2499988327027
246,241,242027,6,0,L|290:237,1,38.2499988327027
238,165,242199,6,0,L|282:161,1,38.2499988327027
228,84,242370,6,0,L|272:80,1,38.2499988327027
395,295,242542,1,0,0:0:0:0:
395,295,242627,1,0,0:0:0:0:
395,295,242713,6,0,L|404:259,4,21.25,2|2|2|2|2,0:0|0:0|0:0|0:0|0:0,0:0:0:0:
432,188,242970,1,2,0:0:0:0:
379,117,243099,1,2,0:0:0:0:
297,66,243227,1,2,0:0:0:0:
225,213,243570,6,0,P|173:254|172:186,1,152.999995330811,14|0,0:0|0:0,0:0:0:0:
62,115,243913,2,0,L|68:221,1,101.999996887207,2|0,0:0|0:0,0:0:0:0:
165,338,244256,2,0,P|208:359|260:335,1,101.999996887207,10|0,0:0|0:0,0:0:0:0:
440,115,244599,5,2,0:0:0:0:
273,295,244770,1,0,0:0:0:0:
272,107,244942,1,10,0:0:0:0:
434,283,245113,1,0,0:0:0:0:
181,233,245285,2,0,P|127:247|62:222,1,101.999996887207,2|0,0:0|0:0,0:0:0:0:
288,65,245627,2,0,P|342:51|407:76,1,101.999996887207,10|0,0:0|0:0,0:0:0:0:
138,66,245970,5,2,0:0:0:0:
300,213,246142,1,0,0:0:0:0:
301,29,246313,1,10,0:0:0:0:
128,199,246485,1,0,0:0:0:0:
432,129,246656,5,2,0:0:0:0:
238,163,246827,1,0,0:0:0:0:
194,37,246999,2,0,L|352:35,1,152.999995330811,10|0,0:0|0:0,0:0:0:0:
397,68,247342,6,0,P|410:110|389:168,1,101.999996887207,2|0,0:0|0:0,0:0:0:0:
210,250,247685,2,0,P|192:203|205:155,1,101.999996887207,10|0,0:0|0:0,0:0:0:0:
397,315,248027,1,2,0:0:0:0:
281,147,248199,1,0,0:0:0:0:
270,320,248370,1,10,0:0:0:0:
421,181,248542,1,0,0:0:0:0:
222,328,248713,6,0,P|151:349|52:294,1,152.999995330811,2|0,0:0|0:0,0:0:0:0:
54,276,249056,2,0,B|39:222|39:222|53:177,1,101.999996887207,10|0,0:0|0:0,0:0:0:0:
143,45,249399,1,2,0:0:0:0:
244,163,249570,2,0,P|196:172|138:150,1,101.999996887207,0|10,0:0|0:0,0:0:0:0:
345,86,249913,1,0,0:0:0:0:
408,247,250085,2,0,L|405:319,1,50.9999984436036,2|0,0:0|0:0,0:0:0:0:
479,146,250256,2,0,L|482:74,1,50.9999984436036
306,263,250427,2,0,L|188:254,1,101.999996887207,10|0,0:0|0:0,0:0:0:0:
277,336,250685,1,0,0:0:0:0:
277,336,250770,2,0,L|160:329,1,101.999996887207,2|0,0:0|0:0,0:0:0:0:
97,248,251113,2,0,P|75:195|112:141,1,101.999996887207,10|0,0:0|0:0,0:0:0:0:
241,64,251456,6,0,B|291:44|336:77|336:77|370:52|370:52|418:52|438:87,1,203.999993774414,2|10,0:0|0:0,0:0:0:0:
482,188,251970,5,0,0:0:0:0:
446,316,252142,2,0,P|397:327|347:313,1,101.999996887207,2|0,0:0|0:0,0:0:0:0:
244,155,252485,2,0,L|224:330,1,152.999995330811,10|0,0:0|0:0,0:0:0:0:
218,49,252827,6,0,L|123:69,1,85,6|0,0:0|0:0,0:0:0:0:
47,141,253085,2,0,L|138:155,1,85,6|0,0:0|0:0,0:0:0:0:
213,139,253342,1,6,0:0:0:0:
354,21,253513,6,0,P|388:3|383:50,1,101.999996887207,2|2,0:0|0:0,0:0:0:0:
203,77,254199,5,6,0:0:0:0:
343,277,254370,1,0,0:0:0:0:
372,47,254542,1,10,0:0:0:0:
197,247,254713,1,0,0:0:0:0:
156,40,254885,6,0,P|89:32|40:56,1,101.999996887207,2|0,0:0|0:0,0:0:0:0:
316,224,255227,6,0,P|383:232|432:208,1,101.999996887207,10|0,0:0|0:0,0:0:0:0:
252,144,255485,1,0,0:0:0:0:
252,144,255570,6,0,P|208:195|202:250,1,101.999996887207,2|0,0:0|0:0,0:0:0:0:
455,110,255913,1,10,0:0:0:0:
282,41,256085,1,0,0:0:0:0:
282,41,256170,1,8,0:0:0:0:
282,41,256256,1,2,0:0:0:0:
282,41,256342,2,0,B|250:21|250:21|167:38,1,101.999996887207,8|0,0:0|0:0,0:0:0:0:
133,55,256599,1,10,0:0:0:0:
236,199,256770,1,8,0:0:0:0:
33,212,256942,6,0,B|20:268|20:268|46:318,1,101.999996887207,2|0,0:0|0:0,0:0:0:0:
288,292,257285,2,0,B|301:236|301:236|275:186,1,101.999996887207,10|0,0:0|0:0,0:0:0:0:
20,123,257627,2,0,B|79:116|79:116|129:143|129:143|208:138,1,152.999995330811,2|0,0:0|0:0,0:0:0:0:
210,105,257970,1,10,0:0:0:0:
376,239,258142,1,8,0:0:0:0:
376,239,258227,1,8,0:0:0:0:
376,239,258313,5,2,0:0:0:0:
195,69,258485,2,0,L|119:64,1,50.9999984436036
283,29,258656,1,10,0:0:0:0:
324,308,258827,1,0,0:0:0:0:
474,101,258999,6,0,B|417:102|417:102|375:121|375:121|297:120,1,152.999995330811,2|0,0:0|0:0,0:0:0:0:
286,154,259342,2,0,L|217:154,1,50.9999984436036,8|0,0:0|0:0,0:0:0:0:
111,258,259513,2,0,L|162:258,1,50.9999984436036
306,106,259685,2,0,L|215:107,1,70.1250021400452
186,56,260027,6,0,P|130:44|75:61,1,101.999996887207,14|0,0:0|0:0,0:0:0:0:
47,97,260285,1,8,0:0:0:0:
47,97,260370,1,2,0:0:0:0:
205,306,260542,1,8,0:0:0:0:
345,102,260713,2,0,L|461:100,1,101.999996887207,10|8,0:0|0:0,0:0:0:0:
150,223,261056,1,2,0:0:0:0:
253,21,261227,1,8,0:0:0:0:
394,208,261399,2,0,P|412:259|381:314,1,101.999996887207,10|8,0:0|0:0,0:0:0:0:
105,338,261742,1,2,0:0:0:0:
69,95,261913,1,8,0:0:0:0:
69,95,261999,1,0,0:0:0:0:
69,95,262085,2,0,L|181:91,1,101.999996887207,8|0,0:0|0:0,0:0:0:0:
392,37,262427,6,8,L|459:34,1,50.9999984436036,14|8,0:0|0:0,0:0:0:0:
257,142,262599,2,8,L|190:145,1,50.9999984436036
415,218,262770,2,8,L|482:215,1,50.9999984436036,8|8,0:0|0:0,0:0:0:0:
278,323,262942,2,8,L|211:326,1,50.9999984436036
249,24,263113,6,8,L|198:26,1,50.9999984436036,14|8,0:0|0:0,0:0:0:0:
20,134,263285,2,8,L|70:131,1,50.9999984436036
279,206,263456,2,8,L|228:208,1,50.9999984436036,8|8,0:0|0:0,0:0:0:0:
41,316,263628,2,8,L|91:313,1,50.9999984436036
314,172,263799,6,0,L|421:168,1,101.999996887207,4|0,0:0|0:0,0:0:0:0:
311,41,264142,1,0,0:0:0:0:
117,124,264313,6,0,L|218:120,1,101.999996887207
200,32,264656,1,0,0:0:0:0:
17,189,264827,1,0,0:0:0:0:
56,30,264999,1,0,0:0:0:0:
157,263,265170,6,0,P|184:211|219:288,1,152.999995330811,6|0,0:0|0:0,0:0:0:0:
248,312,265513,2,0,B|300:326|300:326|347:313,1,101.999996887207,10|0,0:0|0:0,0:0:0:0:
489,235,265856,2,0,P|498:160|466:119,1,101.999996887207,2|0,0:0|0:0,0:0:0:0:
345,74,266199,2,0,L|221:78,1,101.999996887207,10|0,0:0|0:0,0:0:0:0:
33,168,266542,2,0,B|103:167|103:167|141:191|141:191|241:192,1,203.999993774414,2|10,0:0|0:0,0:0:0:0:
354,318,267056,1,0,0:0:0:0:
339,197,267227,2,0,P|287:175|244:196,1,101.999996887207,2|0,0:0|0:0,0:0:0:0:
460,235,267570,5,10,0:0:0:0:
460,235,267656,1,8,0:0:0:0:
460,235,267742,1,8,0:0:0:0:
460,235,267827,1,8,0:0:0:0:
460,235,267913,2,0,P|467:182|459:128,1,101.999996887207,2|0,0:0|0:0,0:0:0:0:
308,40,268256,2,0,P|253:24|210:46,1,101.999996887207,10|0,0:0|0:0,0:0:0:0:
168,158,268599,2,0,P|223:174|266:152,1,101.999996887207,2|0,0:0|0:0,0:0:0:0:
158,24,268942,1,10,0:0:0:0:
33,127,269113,1,0,0:0:0:0:
306,166,269285,6,0,P|343:92|271:30,1,152.999995330811,2|0,0:0|0:0,0:0:0:0:
248,42,269627,2,0,L|110:40,1,101.999996887207,10|0,0:0|0:0,0:0:0:0:
166,204,269970,2,0,P|216:168|228:101,1,101.999996887207,2|0,0:0|0:0,0:0:0:0:
25,161,270313,2,0,P|16:221|56:277,1,101.999996887207,10|0,0:0|0:0,0:0:0:0:
219,316,270656,6,0,B|277:326|305:303|305:303|342:321|342:321|366:308|421:318,1,203.999993774414,2|10,0:0|0:0,0:0:0:0:
482,175,271170,1,0,0:0:0:0:
349,61,271342,2,0,P|286:51|243:61,1,101.999996887207,2|0,0:0|0:0,0:0:0:0:
145,179,271685,2,0,P|208:189|251:179,1,101.999996887207,10|0,0:0|0:0,0:0:0:0:
68,104,272027,2,0,P|37:145|72:251,1,152.999995330811,2|0,0:0|0:0,0:0:0:0:
98,279,272370,1,10,0:0:0:0:
233,369,272542,1,0,0:0:0:0:
354,273,272713,2,0,P|405:258|466:287,1,101.999996887207,2|0,0:0|0:0,0:0:0:0:
259,35,273056,1,8,0:0:0:0:
228,40,273142,1,8,0:0:0:0:
199,46,273227,1,8,0:0:0:0:
169,52,273313,1,8,0:0:0:0:
139,59,273399,6,0,B|128:114|128:114|143:164,1,101.999996887207,2|0,0:0|0:0,0:0:0:0:
420,221,273742,2,0,B|431:166|431:166|416:116,1,101.999996887207,10|0,0:0|0:0,0:0:0:0:
174,263,274085,2,0,L|67:263,1,101.999996887207,2|0,0:0|0:0,0:0:0:0:
315,122,274427,2,0,L|422:122,1,101.999996887207,10|0,0:0|0:0,0:0:0:0:
305,205,274685,1,0,0:0:0:0:
305,205,274770,6,0,L|294:330,1,101.999996887207,2|0,0:0|0:0,0:0:0:0:
178,103,275113,1,8,0:0:0:0:
416,62,275285,1,0,0:0:0:0:
446,61,275370,1,0,0:0:0:0:
476,61,275456,1,8,0:0:0:0:
445,337,275627,1,8,0:0:0:0:
193,214,275799,1,8,0:0:0:0:
162,214,275885,1,0,0:0:0:0:
131,214,275970,1,0,0:0:0:0:
100,214,276056,1,0,0:0:0:0:
69,214,276142,6,0,B|64:156|64:156|77:97,1,101.999996887207,6|0,0:0|0:0,0:0:0:0:
412,129,276485,2,0,B|417:187|417:187|404:246,1,101.999996887207,10|0,0:0|0:0,0:0:0:0:
193,29,276827,2,0,B|251:23|251:23|310:36,1,101.999996887207,6|0,0:0|0:0,0:0:0:0:
266,298,277170,2,0,B|207:303|207:303|148:290,1,101.999996887207,10|0,0:0|0:0,0:0:0:0:
42,45,277513,2,0,P|69:104|52:167,1,101.999996887207,2|0,0:0|0:0,0:0:0:0:
77,336,277856,2,0,P|50:277|67:214,1,101.999996887207,10|0,0:0|0:0,0:0:0:0:
242,106,278199,5,0,0:0:0:0:
242,106,278285,1,8,0:0:0:0:
242,106,278370,1,0,0:0:0:0:
276,295,278542,1,10,0:0:0:0:
436,146,278713,1,8,0:0:0:0:
436,146,278799,1,8,0:0:0:0:
436,146,278885,6,0,P|449:70|431:40,1,101.999996887207,2|0,0:0|0:0,0:0:0:0:
397,34,279227,2,0,L|255:30,1,101.999996887207,10|0,0:0|0:0,0:0:0:0:
129,87,279570,2,0,P|154:138|138:192,1,101.999996887207,2|0,0:0|0:0,0:0:0:0:
65,316,279913,2,0,P|110:301|190:323,1,101.999996887207,10|0,0:0|0:0,0:0:0:0:
210,327,280170,1,0,0:0:0:0:
210,327,280256,2,0,P|285:297|377:348,1,152.999995330811
386,330,280599,2,0,L|501:316,1,101.999996887207,10|0,0:0|0:0,0:0:0:0:
430,215,280942,2,0,P|440:158|412:104,1,101.999996887207,2|0,0:0|0:0,0:0:0:0:
399,93,281199,1,0,0:0:0:0:
365,81,281285,2,0,L|253:91,1,101.999996887207,10|0,0:0|0:0,0:0:0:0:
237,233,281627,5,6,0:0:0:0:
158,334,281799,1,0,0:0:0:0:
88,111,281970,1,10,0:0:0:0:
191,151,282142,2,0,L|154:200,1,50.9999984436036
66,306,282313,5,0,0:0:0:0:
22,186,282485,1,0,0:0:0:0:
163,51,282656,1,10,0:0:0:0:
258,173,282827,1,0,0:0:0:0:
383,90,282999,1,2,0:0:0:0:
271,20,283170,1,0,0:0:0:0:
341,205,283342,2,0,P|362:260|342:313,1,101.999996887207,10|0,0:0|0:0,0:0:0:0:
186,339,283685,2,0,L|78:335,1,101.999996887207,2|0,0:0|0:0,0:0:0:0:
47,320,283942,1,0,0:0:0:0:
18,292,284027,2,0,P|9:233|26:183,1,101.999996887207,10|0,0:0|0:0,0:0:0:0:
130,58,284370,5,6,0:0:0:0:
166,85,284456,1,0,0:0:0:0:
204,110,284542,1,0,0:0:0:0:
247,123,284627,1,0,0:0:0:0:
293,123,284713,1,10,0:0:0:0:
337,111,284799,1,0,0:0:0:0:
378,90,284885,1,0,0:0:0:0:
397,49,284970,1,0,0:0:0:0:
442,43,285056,6,0,P|449:116|455:135,3,50.9999984436036,8|0|8|0,0:0|0:0|0:0|0:0,0:0:0:0:
418,131,285399,1,10,0:0:0:0:
425,176,285485,1,0,0:0:0:0:
414,219,285570,1,0,0:0:0:0:
341,327,285742,6,0,P|339:263|234:307,1,203.999993774414,6|0,0:0|0:0,0:0:0:0:
59,340,286427,1,0,0:0:0:0:
144,135,286599,1,0,0:0:0:0:
144,135,286685,1,0,0:0:0:0:
144,135,286770,1,8,0:0:0:0:
258,190,286942,1,8,0:0:0:0:
258,190,287027,1,0,0:0:0:0:
258,190,287113,6,0,L|352:170,1,85,2|0,0:0|0:0,0:0:0:0:
385,277,287456,2,0,L|446:199,1,85,10|0,0:0|0:0,0:0:0:0:
414,71,287799,2,0,P|369:86|313:74,1,85,2|0,0:0|0:0,0:0:0:0:
265,28,288142,2,0,P|212:20|156:41,1,85,10|0,0:0|0:0,0:0:0:0:
90,104,288485,2,0,P|78:153|114:210,1,85,2|0,0:0|0:0,0:0:0:0:
191,209,288827,2,0,P|206:256|189:301,1,85,10|0,0:0|0:0,0:0:0:0:
92,335,289170,1,2,0:0:0:0:
92,335,289342,1,0,0:0:0:0:
276,300,289513,5,10,0:0:0:0:
305,324,289599,1,0,0:0:0:0:
343,327,289685,1,0,0:0:0:0:
380,318,289770,1,0,0:0:0:0:
403,287,289856,6,0,L|407:165,1,85,2|0,0:0|0:0,0:0:0:0:
402,86,290199,2,0,P|349:75|300:97,1,85,10|0,0:0|0:0,0:0:0:0:
176,186,290542,2,0,P|220:201|260:187,1,85,2|0,0:0|0:0,0:0:0:0:
148,70,290885,2,0,L|39:67,1,85,10|0,0:0|0:0,0:0:0:0:
101,252,291227,6,0,B|158:279|158:279|263:263,1,170,2|10,0:0|0:0,0:0:0:0:
457,243,291742,1,0,0:0:0:0:
457,243,291913,2,0,L|473:147,1,85,2|0,0:0|0:0,0:0:0:0:
357,184,292256,2,0,L|374:83,1,85,10|0,0:0|0:0,0:0:0:0:
255,89,292599,6,0,P|213:53|122:109,1,170,0|10,0:0|0:0,0:0:0:0:
202,166,293113,1,0,0:0:0:0:
113,222,293285,2,0,P|108:270|126:323,1,85,2|0,0:0|0:0,0:0:0:0:
209,342,293627,2,0,L|311:334,1,85,10|0,0:0|0:0,0:0:0:0:
380,280,293970,2,0,P|398:228|379:170,1,85,2|0,0:0|0:0,0:0:0:0:
335,110,294313,2,0,P|388:91|443:104,1,85,10|0,0:0|0:0,0:0:0:0:
294,189,294656,2,0,L|129:171,1,127.5
138,149,294999,5,10,0:0:0:0:
99,149,295085,1,0,0:0:0:0:
64,163,295170,1,0,0:0:0:0:
41,193,295256,1,0,0:0:0:0:
33,230,295342,6,0,P|35:299|46:321,1,85,2|0,0:0|0:0,0:0:0:0:
136,352,295685,2,0,L|231:343,1,85,10|0,0:0|0:0,0:0:0:0:
258,253,296027,2,0,L|351:269,1,85,2|0,0:0|0:0,0:0:0:0:
436,349,296370,1,10,0:0:0:0:
437,250,296542,1,0,0:0:0:0:
391,142,296713,6,0,L|418:129,1,21.25
236,123,296885,2,0,L|204:106,1,21.25
307,46,297056,1,0,0:0:0:0:
284,231,297227,1,0,0:0:0:0:
79,70,297399,1,0,0:0:0:0:
202,31,297570,1,0,0:0:0:0:
202,31,297656,1,0,0:0:0:0:
202,31,297742,1,0,0:0:0:0:
175,209,297913,1,0,0:0:0:0:
336,112,298085,6,0,B|387:87|387:87|418:135|397:208,1,170,6|10,0:0|0:0,0:0:0:0:
334,281,298599,1,0,0:0:0:0:
225,228,298770,2,0,L|128:218,1,85,2|0,0:0|0:0,0:0:0:0:
60,138,299113,2,0,P|50:93|76:55,1,85,10|0,0:0|0:0,0:0:0:0:
174,108,299456,2,0,B|243:96|243:96|352:112,1,170,2|10,0:0|0:0,0:0:0:0:
447,49,299970,1,0,0:0:0:0:
448,162,300142,2,0,P|459:207|440:254,1,85,2|0,0:0|0:0,0:0:0:0:
329,326,300485,5,10,0:0:0:0:
291,318,300570,1,0,0:0:0:0:
253,311,300656,1,0,0:0:0:0:
215,305,300742,1,0,0:0:0:0:
178,295,300827,2,0,L|175:193,1,85,2|0,0:0|0:0,0:0:0:0:
257,154,301170,2,8,P|303:164|356:145,1,85,10|0,0:0|0:0,0:0:0:0:
287,68,301513,2,0,L|189:64,1,85,2|0,0:0|0:0,0:0:0:0:
105,92,301856,2,0,P|89:141|109:184,1,85,10|0,0:0|0:0,0:0:0:0:
158,250,302199,6,0,P|190:238|214:313,1,127.5,2|0,0:0|0:0,0:0:0:0:
250,331,302542,2,0,L|345:327,1,85,8|0,0:0|0:0,0:0:0:0:
433,279,302885,2,0,P|446:231|423:192,1,85,2|0,0:0|0:0,0:0:0:0:
423,171,303142,1,0,0:0:0:0:
423,171,303227,1,10,0:0:0:0:
355,66,303399,1,0,0:0:0:0:
252,117,303570,6,0,P|199:95|77:97,2,170,6|10|2,0:0|0:0|0:0,0:0:0:0:
247,218,304427,1,0,0:0:0:0:
354,180,304599,2,0,L|448:160,1,85,10|0,0:0|0:0,0:0:0:0:
344,304,304942,2,0,P|299:325|177:303,2,170,6|10|0,0:0|0:0|0:0,0:0:0:0:
381,278,305713,1,0,0:0:0:0:
381,278,305799,1,0,0:0:0:0:
437,162,305970,2,0,P|449:123|434:82,1,85,10|0,0:0|0:0,0:0:0:0:
201,222,306313,5,6,0:0:0:0:
339,45,306485,1,0,0:0:0:0:
311,267,306656,1,10,0:0:0:0:
158,25,306827,2,0,L|134:66,1,42.5
37,241,306999,1,6,0:0:0:0:
225,151,307170,1,0,0:0:0:0:
40,109,307342,1,10,0:0:0:0:
180,297,307513,1,0,0:0:0:0:
349,245,307685,6,0,P|399:230|446:263,2,101.999996887207
266,148,308542,2,0,L|270:129,4,12.7499996109009,0|0|0|0|10,0:0|0:0|0:0|0:0|0:0,0:0:0:0:
410,67,309056,5,6,0:0:0:0:
256,192,312570,12,0,318142,0:0:0:0:
