osu file format v14

[General]
AudioFilename: Shoujo - Reminiscing.mp3
AudioLeadIn: 0
PreviewTime: 87972
Countdown: 0
SampleSet: Soft
StackLeniency: 0.7
Mode: 3
LetterboxInBreaks: 0
SpecialStyle: 0
WidescreenStoryboard: 0

[Editor]
DistanceSpacing: 1.1
BeatDivisor: 4
GridSize: 4
TimelineZoom: 2.4

[Metadata]
Title:Reminiscing
TitleUnicode:Reminiscing
Artist:Shoujo
ArtistUnicode:Shoujo
Creator:Reba
Version:Memories
Source:
Tags:bastard pop terrorists 17 electronic makina happy hardcore
BeatmapID:1038482
BeatmapSetID:487074

[Difficulty]
HPDrainRate:8.4
CircleSize:4
OverallDifficulty:8.2
ApproachRate:5
SliderMultiplier:1.4
SliderTickRate:1

[Events]
//Background and Video events
0,0,"Reminiscing BG.jpg",0,0
//Break Periods
//Storyboard Layer 0 (Background)
//Storyboard Layer 1 (Fail)
//Storyboard Layer 2 (Pass)
//Storyboard Layer 3 (Foreground)
//Storyboard Sound Samples

[TimingPoints]
544,342.857142857143,4,2,1,20,1,0
109915,-50,4,2,1,20,0,0
110086,-500,4,2,1,20,0,0
110258,-100,4,2,1,20,0,0
131858,-200,4,2,1,20,0,0
131915,-66.6666666666667,4,2,1,20,0,0
131972,-200,4,2,1,20,0,0
132029,-66.6666666666667,4,2,1,20,0,0
132086,-200,4,2,1,20,0,0
132144,-66.6666666666667,4,2,1,20,0,0
132201,-200,4,2,1,20,0,0
132458,-66.6666666666667,4,2,1,20,0,0
132544,-100,4,2,1,20,0,0
148658,-200,4,2,1,20,0,0
148915,-66.6666666666667,4,2,1,20,0,0
149001,-100,4,2,1,20,0,0
156544,-66.6666666666667,4,2,1,20,0,0
156629,-200,4,2,1,20,0,0
156715,-66.6666666666667,4,2,1,20,0,0
156801,-200,4,2,1,20,0,0
156886,-100,4,2,1,20,0,0
159286,-66.6666666666667,4,2,1,20,0,0
159372,-200,4,2,1,20,0,0
159458,-66.6666666666667,4,2,1,20,0,0
159544,-200,4,2,1,20,0,0
159629,-100,4,2,1,20,0,0
164772,-66.6666666666667,4,2,1,20,0,0
164858,-200,4,2,1,20,0,0
164944,-66.6666666666667,4,2,1,20,0,0
165029,-200,4,2,1,20,0,0
165115,-100,4,2,1,20,0,0
167515,-1000,4,2,1,20,0,0
167772,-66.6666666666667,4,2,1,20,0,0
167858,-100,4,2,1,20,0,0
175058,-111.111111111111,4,2,1,20,0,0
175401,-117.647058823529,4,2,1,20,0,0
175744,-125,4,2,1,20,0,0
176086,-133.333333333333,4,2,1,20,0,0
198029,-1000,4,2,1,20,0,0
198201,-100,4,2,1,20,0,0
198372,-1000,4,2,1,20,0,0
198544,-100,4,2,1,20,0,0
219629,-200,4,2,1,20,0,0
219686,-66.6666666666667,4,2,1,20,0,0
219744,-200,4,2,1,20,0,0
219801,-66.6666666666667,4,2,1,20,0,0
219858,-200,4,2,1,20,0,0
219915,-66.6666666666667,4,2,1,20,0,0
219972,-100,4,2,1,20,0,0
221001,-50,4,2,1,20,0,0
221172,-500,4,2,1,20,0,0
221344,-100,4,2,1,20,0,0
231715,-133.333333333333,4,2,1,20,0,0
231972,-125,4,2,1,20,0,0
232058,-117.647058823529,4,2,1,20,0,0
232144,-111.111111111111,4,2,1,20,0,0
232229,-105.263157894737,4,2,1,20,0,0
232315,-100,4,2,1,20,0,0
242944,-200,4,2,1,20,0,0
243001,-66.6666666666667,4,2,1,20,0,0
243058,-200,4,2,1,20,0,0
243115,-66.6666666666667,4,2,1,20,0,0
243172,-200,4,2,1,20,0,0
243229,-66.6666666666667,4,2,1,20,0,0
243286,-200,4,2,1,20,0,0
243544,-66.6666666666667,4,2,1,20,0,0
243629,-100,4,2,1,20,0,0
252886,-66.6666666666667,4,2,1,20,0,0
253015,-200,4,2,1,20,0,0
253144,-66.6666666666667,4,2,1,20,0,0
253272,-200,4,2,1,20,0,0
253401,-66.6666666666667,4,2,1,20,0,0
253486,-200,4,2,1,20,0,0
253572,-66.6666666666667,4,2,1,20,0,0
253744,-200,4,2,1,20,0,0
254172,-66.6666666666667,4,2,1,20,0,0
254258,-100,4,2,1,20,0,0
259744,-200,4,2,1,20,0,0
260001,-66.6666666666667,4,2,1,20,0,0
260086,-100,4,2,1,20,0,0
292658,-200,4,2,1,20,0,0
292829,-100,4,2,1,20,0,0
309115,422.535211267606,4,2,1,20,1,0
309115,-108.190476190476,4,2,1,20,0,0
310593,459.770114942529,4,2,1,20,1,0
310593,-99.4285714285714,4,2,1,20,0,0
310822,422.535211267606,4,2,1,20,1,0
310822,-108.190476190476,4,2,1,20,0,0
311033,375,4,2,1,20,1,0
311033,-121.904761904762,4,2,1,20,0,0
311220,500,4,2,1,20,1,0
311220,-91.4285714285714,4,2,1,20,0,0
311470,461.538461538462,4,2,1,20,1,0
311470,-99.0476190476189,4,2,1,20,0,0
312162,476.190476190476,4,2,1,20,1,0
312162,-96,4,2,1,20,0,0
312638,375,4,2,1,20,1,0
312638,-121.904761904762,4,2,1,20,0,0
312825,346.820809248555,4,2,1,20,1,0
312825,-131.809523809524,4,2,1,20,0,0
313171,461.538461538462,4,2,1,20,1,0
313171,-99.0476190476189,4,2,1,20,0,0
313401,517.241379310345,4,2,1,20,1,0
313401,-88.3809523809524,4,2,1,20,0,0
313659,526.315789473684,4,2,1,20,1,0
313659,-86.8571428571429,4,2,1,20,0,0
314185,845.070422535211,4,2,1,20,1,0
314185,-54.0952380952381,4,2,1,20,0,0
314607,444.444444444444,4,2,1,20,1,0
314607,-102.857142857143,4,2,1,20,0,0

[HitObjects]
448,192,544,5,0,0:0:0:30:CrashR.wav
64,192,544,1,0,0:0:0:30:BaSS.wav
320,192,544,1,0,0:0:0:0:
192,192,629,1,0,0:0:0:0:
320,192,715,1,0,0:0:0:0:
448,192,801,1,0,0:0:0:0:
64,192,886,1,0,0:0:0:0:
192,192,886,1,0,0:0:0:30:KicK.wav
448,192,972,1,0,0:0:0:0:
64,192,1058,1,0,0:0:0:0:
320,192,1144,1,0,0:0:0:0:
64,192,1229,1,0,0:0:0:30:BaSS.wav
192,192,1272,1,0,0:0:0:0:
320,192,1315,1,0,0:0:0:0:
448,192,1358,1,0,0:0:0:0:
64,192,1401,1,0,0:0:0:0:
192,192,1444,1,0,0:0:0:0:
320,192,1486,1,0,0:0:0:0:
448,192,1529,1,0,0:0:0:0:
64,192,1572,1,0,0:0:0:30:KicK.wav
192,192,1615,1,0,0:0:0:0:
320,192,1658,1,0,0:0:0:0:
448,192,1701,1,0,0:0:0:0:
64,192,1744,1,0,0:0:0:0:
192,192,1786,1,0,0:0:0:0:
320,192,1829,1,0,0:0:0:0:
448,192,1872,1,0,0:0:0:0:
192,192,1915,1,0,0:0:0:0:
64,192,1915,1,0,0:0:0:30:BaSS.wav
320,192,2001,1,0,0:0:0:0:
448,192,2086,1,0,0:0:0:0:
64,192,2172,1,0,0:0:0:0:
448,192,2258,1,0,0:0:0:30:KicK.wav
320,192,2258,1,0,0:0:0:0:
192,192,2344,1,0,0:0:0:0:
64,192,2429,1,0,0:0:0:0:
320,192,2515,1,0,0:0:0:0:
448,192,2601,1,0,0:0:0:0:
64,192,2601,1,0,0:0:0:30:BaSS.wav
192,192,2686,1,0,0:0:0:0:
320,192,2772,1,0,0:0:0:0:
192,192,2858,1,0,0:0:0:0:
64,192,2944,1,0,0:0:0:0:
448,192,2944,1,0,0:0:0:30:KicK.wav
192,192,3029,1,0,0:0:0:0:
320,192,3029,1,0,0:0:0:0:
64,192,3115,1,0,0:0:0:0:
448,192,3115,1,0,0:0:0:0:
192,192,3201,1,0,0:0:0:0:
320,192,3201,1,0,0:0:0:0:
448,192,3286,1,0,0:0:0:30:BaSS.wav
64,192,3286,128,0,3372:0:0:0:0:
320,192,3372,1,0,0:0:0:0:
192,192,3458,1,0,0:0:0:0:
64,192,3458,128,0,3544:0:0:0:0:
320,192,3544,1,0,0:0:0:0:
448,192,3629,1,0,0:0:0:0:
64,192,3629,1,0,0:0:0:30:KicK.wav
192,192,3715,1,0,0:0:0:0:
320,192,3801,1,0,0:0:0:0:
448,192,3886,1,0,0:0:0:0:
192,192,3972,1,0,0:0:0:0:
64,192,3972,1,0,0:0:0:30:BaSS.wav
448,192,4058,1,0,0:0:0:0:
320,192,4144,1,0,0:0:0:0:
192,192,4229,1,0,0:0:0:0:
320,192,4315,1,0,0:0:0:0:
64,192,4315,1,0,0:0:0:30:KicK.wav
448,192,4401,1,0,0:0:0:0:
192,192,4486,1,0,0:0:0:0:
320,192,4486,1,0,0:0:0:0:
448,192,4572,1,0,0:0:0:0:
192,192,4658,1,0,0:0:0:30:BaSS.wav
64,192,4658,128,0,5001:0:0:0:0:
320,192,4744,1,0,0:0:0:0:
448,192,4829,1,0,0:0:0:0:
192,192,4915,1,0,0:0:0:0:
320,192,5001,1,0,0:0:0:0:
448,192,5001,1,0,0:0:0:30:KicK.wav
64,192,5086,1,0,0:0:0:0:
192,192,5172,1,0,0:0:0:0:
320,192,5258,1,0,0:0:0:0:
448,192,5344,1,0,0:0:0:0:
64,192,5344,1,0,0:0:0:30:BaSS.wav
320,192,5429,1,0,0:0:0:0:
192,192,5515,1,0,0:0:0:0:
64,192,5515,1,0,0:0:0:0:
320,192,5601,1,0,0:0:0:0:
64,192,5686,1,0,0:0:0:30:KicK.wav
448,192,5686,1,0,0:0:0:0:
320,192,5772,1,0,0:0:0:0:
192,192,5858,1,0,0:0:0:0:
64,192,5944,1,0,0:0:0:0:
320,192,6029,1,0,0:0:0:30:BaSS.wav
448,192,6029,128,0,6201:0:0:0:0:
64,192,6115,1,0,0:0:0:0:
192,192,6201,1,0,0:0:0:0:
320,192,6286,1,0,0:0:0:0:
64,192,6372,128,0,6544:0:0:0:0:
448,192,6372,1,0,0:0:0:30:KicK.wav
192,192,6458,1,0,0:0:0:0:
320,192,6544,1,0,0:0:0:0:
64,192,6629,1,0,0:0:0:0:
320,192,6715,1,0,0:0:0:30:BaSS.wav
192,192,6715,1,0,0:0:0:0:
448,192,6801,1,0,0:0:0:0:
64,192,6886,128,0,6972:0:0:0:0:
320,192,6886,1,0,0:0:0:0:
192,192,6972,1,0,0:0:0:0:
448,192,7058,1,0,0:0:0:30:KicK.wav
64,192,7058,128,0,7229:0:0:0:0:
320,192,7144,1,0,0:0:0:0:
192,192,7229,1,0,0:0:0:0:
320,192,7315,1,0,0:0:0:0:
448,192,7401,1,0,0:0:0:30:BaSS.wav
64,192,7401,128,0,7744:0:0:0:0:
192,192,7486,1,0,0:0:0:0:
320,192,7572,1,0,0:0:0:0:
448,192,7658,1,0,0:0:0:0:
320,192,7744,1,0,0:0:0:30:KicK.wav
192,192,7744,1,0,0:0:0:0:
64,192,7829,1,0,0:0:0:0:
192,192,7915,1,0,0:0:0:0:
448,192,7915,128,0,8001:0:0:0:0:
320,192,8001,1,0,0:0:0:0:
448,192,8086,128,0,8429:0:0:0:0:
64,192,8086,1,0,0:0:0:30:BaSS.wav
320,192,8172,1,0,0:0:0:0:
64,192,8258,1,0,0:0:0:0:
320,192,8344,1,0,0:0:0:0:
192,192,8429,1,0,0:0:0:0:
64,192,8429,1,0,0:0:0:30:KicK.wav
448,192,8515,1,0,0:0:0:0:
320,192,8515,1,0,0:0:0:0:
192,192,8601,1,0,0:0:0:0:
64,192,8601,1,0,0:0:0:0:
448,192,8686,1,0,0:0:0:0:
320,192,8686,1,0,0:0:0:0:
192,192,8772,1,0,0:0:0:30:BaSS.wav
64,192,8772,1,0,0:0:0:0:
320,192,8858,1,0,0:0:0:0:
64,192,8944,128,0,9029:0:0:0:0:
448,192,8944,1,0,0:0:0:0:
192,192,9029,1,0,0:0:0:0:
320,192,9115,1,0,0:0:0:30:KicK.wav
448,192,9115,128,0,9286:0:0:0:0:
64,192,9201,1,0,0:0:0:0:
320,192,9286,1,0,0:0:0:0:
192,192,9372,1,0,0:0:0:0:
64,192,9458,1,0,0:0:0:0:
448,192,9458,1,0,0:0:0:30:BaSS.wav
320,192,9544,128,0,9629:0:0:0:0:
192,192,9544,1,0,0:0:0:0:
64,192,9629,1,0,0:0:0:0:
320,192,9715,128,0,9801:0:0:0:0:
192,192,9715,1,0,0:0:0:0:
448,192,9801,1,0,0:0:0:30:KicK.wav
64,192,9801,128,0,9972:0:0:0:0:
192,192,9886,1,0,0:0:0:0:
448,192,9972,1,0,0:0:0:0:
320,192,10058,1,0,0:0:0:0:
64,192,10144,128,0,10229:0:0:0:0:
192,192,10144,128,0,10229:0:0:0:0:
64,192,10315,128,0,10401:0:0:0:0:
192,192,10315,128,0,10401:0:0:0:0:
192,192,10486,128,0,10572:0:0:0:0:
320,192,10486,128,0,10572:0:0:0:0:
320,192,10658,128,0,10744:0:0:0:0:
192,192,10658,128,0,10744:0:0:0:0:
448,192,10829,128,0,10915:0:0:0:0:
320,192,10829,128,0,10915:0:0:0:0:
448,192,11001,128,0,11086:0:0:0:0:
320,192,11001,128,0,11086:0:0:0:0:
64,192,11086,1,0,0:0:0:30:BaSS.wav
192,192,11172,128,0,11258:0:0:0:0:
320,192,11172,128,0,11258:0:0:0:0:
448,192,11172,1,0,0:0:0:30:BaSS.wav
448,192,11344,1,0,0:0:0:30:BaSS.wav
192,192,11344,128,0,11429:0:0:0:0:
64,192,11344,128,0,11429:0:0:0:0:
320,192,11429,1,0,0:0:0:30:BaSS.wav
448,192,11515,1,0,0:0:0:0:
192,192,11515,1,0,0:0:0:30:BaSS.wav
64,192,11515,1,0,0:0:0:30:CrashR.wav
320,192,11601,1,0,0:0:0:0:
192,192,11686,1,0,0:0:0:0:
64,192,11772,1,0,0:0:0:0:
448,192,11858,1,0,0:0:0:30:KicK.wav
320,192,11858,1,0,0:0:0:0:
192,192,11944,1,0,0:0:0:0:
64,192,12029,1,0,0:0:0:0:
192,192,12115,1,0,0:0:0:0:
320,192,12201,1,0,0:0:0:30:BaSS.wav
448,192,12244,1,0,0:0:0:0:
192,192,12286,1,0,0:0:0:0:
64,192,12329,1,0,0:0:0:0:
320,192,12372,1,0,0:0:0:0:
448,192,12415,1,0,0:0:0:0:
192,192,12458,1,0,0:0:0:0:
64,192,12501,1,0,0:0:0:0:
320,192,12544,1,0,0:0:0:30:KicK.wav
448,192,12586,1,0,0:0:0:0:
192,192,12629,1,0,0:0:0:0:
64,192,12672,1,0,0:0:0:0:
320,192,12715,1,0,0:0:0:0:
448,192,12758,1,0,0:0:0:0:
192,192,12801,1,0,0:0:0:0:
64,192,12844,1,0,0:0:0:0:
320,192,12886,1,0,0:0:0:0:
448,192,12886,1,0,0:0:0:30:BaSS.wav
192,192,12972,1,0,0:0:0:0:
64,192,13058,1,0,0:0:0:0:
320,192,13144,1,0,0:0:0:0:
192,192,13229,1,0,0:0:0:0:
64,192,13229,1,0,0:0:0:30:KicK.wav
448,192,13315,1,0,0:0:0:0:
320,192,13401,1,0,0:0:0:0:
64,192,13486,1,0,0:0:0:0:
192,192,13572,1,0,0:0:0:0:
448,192,13572,1,0,0:0:0:30:BaSS.wav
320,192,13658,1,0,0:0:0:0:
192,192,13744,1,0,0:0:0:0:
64,192,13829,1,0,0:0:0:0:
448,192,13915,1,0,0:0:0:30:KicK.wav
320,192,13915,1,0,0:0:0:0:
192,192,14001,1,0,0:0:0:0:
64,192,14001,1,0,0:0:0:0:
448,192,14086,1,0,0:0:0:0:
320,192,14086,1,0,0:0:0:0:
192,192,14172,1,0,0:0:0:0:
64,192,14172,1,0,0:0:0:0:
320,192,14258,1,0,0:0:0:30:BaSS.wav
448,192,14258,128,0,14344:0:0:0:0:
192,192,14344,1,0,0:0:0:0:
64,192,14429,1,0,0:0:0:0:
448,192,14429,128,0,14515:0:0:0:0:
320,192,14515,1,0,0:0:0:0:
448,192,14601,1,0,0:0:0:30:KicK.wav
64,192,14601,1,0,0:0:0:0:
192,192,14686,1,0,0:0:0:0:
320,192,14772,1,0,0:0:0:0:
192,192,14858,1,0,0:0:0:0:
64,192,14944,1,0,0:0:0:30:BaSS.wav
448,192,14944,1,0,0:0:0:0:
320,192,15029,1,0,0:0:0:0:
192,192,15115,1,0,0:0:0:0:
448,192,15201,1,0,0:0:0:0:
320,192,15286,1,0,0:0:0:0:
64,192,15286,1,0,0:0:0:30:KicK.wav
192,192,15372,1,0,0:0:0:0:
320,192,15458,1,0,0:0:0:0:
448,192,15544,1,0,0:0:0:0:
192,192,15629,1,0,0:0:0:30:BaSS.wav
64,192,15629,128,0,15972:0:0:0:0:
320,192,15715,1,0,0:0:0:0:
448,192,15801,1,0,0:0:0:0:
192,192,15886,1,0,0:0:0:0:
320,192,15972,1,0,0:0:0:0:
448,192,15972,1,0,0:0:0:30:KicK.wav
64,192,16058,1,0,0:0:0:0:
320,192,16144,1,0,0:0:0:0:
192,192,16229,1,0,0:0:0:0:
448,192,16315,1,0,0:0:0:0:
64,192,16315,1,0,0:0:0:30:BaSS.wav
320,192,16401,1,0,0:0:0:0:
64,192,16486,1,0,0:0:0:0:
320,192,16572,1,0,0:0:0:30:BaSS.wav
192,192,16572,1,0,0:0:0:0:
64,192,16658,1,0,0:0:0:0:
448,192,16658,1,0,0:0:0:30:KicK.wav
192,192,16744,1,0,0:0:0:0:
448,192,16829,1,0,0:0:0:30:BaSS.wav
320,192,16872,1,0,0:0:0:30:BaSS.wav
64,192,16915,1,0,0:0:0:30:BaSS.wav
192,192,16958,1,0,0:0:0:30:BaSS.wav
448,192,17001,1,0,0:0:0:30:BaSS.wav
320,192,17001,1,0,0:0:0:30:CrashR.wav
64,192,17001,1,0,0:0:0:0:
192,192,17086,1,0,0:0:0:0:
320,192,17172,1,0,0:0:0:0:
192,192,17258,1,0,0:0:0:0:
64,192,17344,1,0,0:0:0:30:KicK.wav
448,192,17344,1,0,0:0:0:0:
320,192,17429,1,0,0:0:0:0:
192,192,17515,128,0,17686:0:0:0:0:
320,192,17601,1,0,0:0:0:0:
448,192,17686,1,0,0:0:0:30:BaSS.wav
64,192,17686,1,0,0:0:0:0:
192,192,17772,1,0,0:0:0:0:
448,192,17858,1,0,0:0:0:0:
320,192,17944,1,0,0:0:0:0:
192,192,18029,1,0,0:0:0:0:
64,192,18029,1,0,0:0:0:30:KicK.wav
320,192,18115,1,0,0:0:0:0:
448,192,18201,1,0,0:0:0:0:
192,192,18286,1,0,0:0:0:0:
320,192,18372,1,0,0:0:0:0:
448,192,18372,1,0,0:0:0:30:BaSS.wav
64,192,18372,128,0,18715:0:0:0:0:
192,192,18458,1,0,0:0:0:0:
448,192,18544,1,0,0:0:0:0:
320,192,18629,1,0,0:0:0:0:
448,192,18715,1,0,0:0:0:30:KicK.wav
192,192,18715,1,0,0:0:0:0:
64,192,18801,1,0,0:0:0:0:
320,192,18886,1,0,0:0:0:0:
192,192,18972,1,0,0:0:0:0:
64,192,19058,1,0,0:0:0:30:BaSS.wav
448,192,19058,128,0,19401:0:0:0:0:
320,192,19144,1,0,0:0:0:0:
64,192,19229,1,0,0:0:0:0:
320,192,19315,1,0,0:0:0:0:
64,192,19401,1,0,0:0:0:30:KicK.wav
192,192,19401,1,0,0:0:0:0:
320,192,19486,1,0,0:0:0:0:
448,192,19486,1,0,0:0:0:0:
64,192,19572,1,0,0:0:0:0:
192,192,19572,1,0,0:0:0:0:
320,192,19658,1,0,0:0:0:0:
448,192,19658,1,0,0:0:0:0:
192,192,19744,1,0,0:0:0:0:
64,192,19744,1,0,0:0:0:30:BaSS.wav
448,192,19744,1,0,0:0:0:30:CrashR.wav
320,192,19915,1,0,0:0:0:0:
192,192,20086,1,0,0:0:0:30:KicK.wav
64,192,20086,128,0,20258:0:0:0:0:
320,192,20258,1,0,0:0:0:0:
448,192,20429,1,0,0:0:0:30:CrashR.wav
192,192,20429,1,0,0:0:0:0:
64,192,20429,1,0,0:0:0:30:BaSS.wav
320,192,20515,1,0,0:0:0:0:
320,192,20686,1,0,0:0:0:0:
448,192,20772,128,0,20944:0:0:0:0:
64,192,20772,1,0,0:0:0:30:KicK.wav
192,192,20944,1,0,0:0:0:0:
192,192,21115,1,0,0:0:0:30:BaSS.wav
64,192,21115,128,0,22144:0:0:0:0:
448,192,21115,128,0,21201:0:0:0:30:CrashR.wav
320,192,21201,128,0,21286:0:0:0:0:
192,192,21286,128,0,21372:0:0:0:0:
192,192,21501,128,0,22144:0:0:0:0:
448,192,21972,1,0,0:0:0:0:
320,192,22058,1,0,0:0:0:0:
448,192,22144,1,0,0:0:0:0:
448,192,22258,1,0,0:0:0:0:
192,192,22315,1,0,0:0:0:0:
64,192,22315,1,0,0:0:0:30:BaSS.wav
448,192,22372,1,0,0:0:0:0:
448,192,22486,1,0,0:0:0:0:
192,192,22486,1,0,0:0:0:30:CrashR.wav
64,192,22486,1,0,0:0:0:30:BaSS.wav
320,192,22572,1,0,0:0:0:0:
192,192,22658,1,0,0:0:0:0:
64,192,22744,1,0,0:0:0:0:
448,192,22829,1,0,0:0:0:30:KicK.wav
320,192,22829,1,0,0:0:0:0:
64,192,22915,1,0,0:0:0:0:
320,192,23001,1,0,0:0:0:0:
64,192,23086,1,0,0:0:0:0:
448,192,23172,1,0,0:0:0:30:BaSS.wav
320,192,23215,1,0,0:0:0:0:
192,192,23258,1,0,0:0:0:0:
64,192,23301,1,0,0:0:0:0:
448,192,23344,1,0,0:0:0:0:
320,192,23386,1,0,0:0:0:0:
192,192,23429,1,0,0:0:0:0:
64,192,23472,1,0,0:0:0:0:
448,192,23515,1,0,0:0:0:30:KicK.wav
320,192,23558,1,0,0:0:0:0:
64,192,23601,1,0,0:0:0:0:
192,192,23644,1,0,0:0:0:0:
448,192,23686,1,0,0:0:0:0:
320,192,23729,1,0,0:0:0:0:
64,192,23772,1,0,0:0:0:0:
192,192,23815,1,0,0:0:0:0:
448,192,23858,1,0,0:0:0:30:BaSS.wav
320,192,23858,1,0,0:0:0:0:
192,192,23944,1,0,0:0:0:0:
64,192,24029,1,0,0:0:0:0:
320,192,24115,1,0,0:0:0:0:
448,192,24201,1,0,0:0:0:30:KicK.wav
192,192,24201,1,0,0:0:0:0:
64,192,24286,1,0,0:0:0:0:
320,192,24372,1,0,0:0:0:0:
448,192,24458,1,0,0:0:0:0:
192,192,24544,1,0,0:0:0:0:
64,192,24544,1,0,0:0:0:30:BaSS.wav
320,192,24629,1,0,0:0:0:0:
448,192,24715,1,0,0:0:0:0:
192,192,24801,1,0,0:0:0:0:
448,192,24886,1,0,0:0:0:30:KicK.wav
64,192,24886,1,0,0:0:0:0:
192,192,24972,1,0,0:0:0:0:
320,192,24972,1,0,0:0:0:0:
448,192,25058,1,0,0:0:0:0:
64,192,25058,1,0,0:0:0:0:
192,192,25144,1,0,0:0:0:0:
320,192,25144,1,0,0:0:0:0:
448,192,25229,1,0,0:0:0:30:BaSS.wav
64,192,25229,128,0,25315:0:0:0:0:
320,192,25315,1,0,0:0:0:0:
192,192,25401,128,0,25486:0:0:0:0:
320,192,25486,1,0,0:0:0:0:
448,192,25572,1,0,0:0:0:30:KicK.wav
64,192,25572,1,0,0:0:0:0:
192,192,25658,1,0,0:0:0:0:
320,192,25744,1,0,0:0:0:0:
64,192,25829,1,0,0:0:0:0:
448,192,25915,1,0,0:0:0:30:BaSS.wav
320,192,25915,1,0,0:0:0:0:
192,192,26001,1,0,0:0:0:0:
64,192,26086,1,0,0:0:0:0:
320,192,26172,1,0,0:0:0:0:
448,192,26258,1,0,0:0:0:30:KicK.wav
192,192,26258,1,0,0:0:0:0:
64,192,26344,1,0,0:0:0:0:
320,192,26429,1,0,0:0:0:0:
192,192,26515,1,0,0:0:0:0:
64,192,26601,128,0,26944:0:0:0:0:
448,192,26601,1,0,0:0:0:30:BaSS.wav
320,192,26686,1,0,0:0:0:0:
192,192,26772,1,0,0:0:0:0:
448,192,26858,1,0,0:0:0:0:
320,192,26944,1,0,0:0:0:30:KicK.wav
192,192,26944,1,0,0:0:0:0:
64,192,27029,1,0,0:0:0:0:
448,192,27115,1,0,0:0:0:0:
192,192,27201,1,0,0:0:0:0:
320,192,27286,1,0,0:0:0:0:
448,192,27286,1,0,0:0:0:30:BaSS.wav
64,192,27372,1,0,0:0:0:0:
320,192,27458,1,0,0:0:0:0:
192,192,27544,1,0,0:0:0:0:
64,192,27629,1,0,0:0:0:30:KicK.wav
448,192,27629,1,0,0:0:0:0:
320,192,27715,1,0,0:0:0:0:
192,192,27801,1,0,0:0:0:0:
320,192,27886,1,0,0:0:0:0:
448,192,27972,1,0,0:0:0:30:BaSS.wav
64,192,27972,1,0,0:0:0:0:
192,192,28058,1,0,0:0:0:0:
320,192,28144,1,0,0:0:0:0:
64,192,28229,1,0,0:0:0:0:
192,192,28315,1,0,0:0:0:0:
448,192,28315,1,0,0:0:0:30:KicK.wav
320,192,28401,1,0,0:0:0:0:
64,192,28486,128,0,28658:0:0:0:0:
192,192,28572,1,0,0:0:0:0:
448,192,28658,1,0,0:0:0:30:BaSS.wav
320,192,28658,1,0,0:0:0:0:
64,192,28744,1,0,0:0:0:0:
320,192,28829,1,0,0:0:0:0:
192,192,28915,1,0,0:0:0:0:
64,192,29001,1,0,0:0:0:30:KicK.wav
448,192,29001,1,0,0:0:0:0:
320,192,29086,1,0,0:0:0:0:
192,192,29172,1,0,0:0:0:0:
64,192,29258,1,0,0:0:0:0:
448,192,29344,1,0,0:0:0:30:BaSS.wav
320,192,29344,1,0,0:0:0:0:
64,192,29429,1,0,0:0:0:0:
192,192,29515,1,0,0:0:0:0:
448,192,29601,1,0,0:0:0:0:
320,192,29686,1,0,0:0:0:0:
64,192,29686,1,0,0:0:0:30:KicK.wav
192,192,29772,1,0,0:0:0:0:
448,192,29858,1,0,0:0:0:0:
320,192,29944,1,0,0:0:0:0:
192,192,30029,1,0,0:0:0:0:
64,192,30029,1,0,0:0:0:30:BaSS.wav
320,192,30115,1,0,0:0:0:0:
448,192,30201,1,0,0:0:0:0:
192,192,30286,1,0,0:0:0:0:
64,192,30372,1,0,0:0:0:0:
320,192,30372,1,0,0:0:0:30:KicK.wav
192,192,30458,1,0,0:0:0:0:
448,192,30458,1,0,0:0:0:0:
64,192,30544,1,0,0:0:0:0:
320,192,30544,1,0,0:0:0:0:
192,192,30629,1,0,0:0:0:0:
448,192,30629,1,0,0:0:0:0:
320,192,30715,1,0,0:0:0:30:BaSS.wav
64,192,30715,128,0,30801:0:0:0:0:
448,192,30801,1,0,0:0:0:0:
192,192,30886,128,0,30972:0:0:0:0:
320,192,30972,1,0,0:0:0:0:
448,192,31058,1,0,0:0:0:30:KicK.wav
64,192,31058,1,0,0:0:0:0:
192,192,31144,1,0,0:0:0:0:
320,192,31229,1,0,0:0:0:0:
192,192,31315,1,0,0:0:0:0:
64,192,31401,1,0,0:0:0:30:BaSS.wav
448,192,31401,1,0,0:0:0:0:
320,192,31486,1,0,0:0:0:0:
64,192,31572,1,0,0:0:0:0:
320,192,31658,1,0,0:0:0:0:
64,192,31744,1,0,0:0:0:30:KicK.wav
192,192,31744,1,0,0:0:0:0:
448,192,31829,1,0,0:0:0:0:
64,192,31915,1,0,0:0:0:0:
192,192,32001,1,0,0:0:0:0:
448,192,32086,128,0,32258:0:0:0:0:
320,192,32086,128,0,32258:0:0:0:0:
64,192,32258,1,0,0:0:0:0:
320,192,32344,128,0,32429:0:0:0:0:
192,192,32344,128,0,32429:0:0:0:0:
64,192,32429,1,0,0:0:0:0:
448,192,32429,1,0,0:0:0:30:Snare.wav
448,192,32601,1,0,0:0:0:30:Snare.wav
64,192,32601,1,0,0:0:0:0:
320,192,32686,1,0,0:0:0:30:Snare.wav
192,192,32686,1,0,0:0:0:0:
448,192,32772,1,0,0:0:0:30:Snare.wav
64,192,32772,1,0,0:0:0:0:
320,192,32944,1,0,0:0:0:30:Snare.wav
192,192,32944,1,0,0:0:0:0:
192,192,33115,1,0,0:0:0:30:Snare.wav
64,192,33115,1,0,0:0:0:0:
320,192,33201,1,0,0:0:0:30:Snare.wav
448,192,33201,1,0,0:0:0:0:
192,192,33286,1,0,0:0:0:30:Snare.wav
64,192,33286,1,0,0:0:0:0:
320,192,33372,1,0,0:0:0:30:Snare.wav
448,192,33372,1,0,0:0:0:0:
192,192,33458,1,0,0:0:0:0:
64,192,33458,1,0,0:0:0:30:BaSS.wav
448,192,33458,1,0,0:0:0:30:CrashR.wav
320,192,33544,1,0,0:0:0:0:
192,192,33629,1,0,0:0:0:0:
448,192,33715,1,0,0:0:0:0:
320,192,33801,1,0,0:0:0:0:
64,192,33801,1,0,0:0:0:30:KicK.wav
192,192,33886,1,0,0:0:0:0:
448,192,33972,1,0,0:0:0:0:
320,192,34058,1,0,0:0:0:0:
64,192,34144,1,0,0:0:0:30:BaSS.wav
192,192,34186,1,0,0:0:0:0:
320,192,34229,1,0,0:0:0:0:
448,192,34272,1,0,0:0:0:0:
64,192,34315,1,0,0:0:0:0:
192,192,34358,1,0,0:0:0:0:
320,192,34401,1,0,0:0:0:0:
448,192,34444,1,0,0:0:0:0:
64,192,34486,1,0,0:0:0:30:KicK.wav
192,192,34529,1,0,0:0:0:0:
448,192,34572,1,0,0:0:0:0:
320,192,34615,1,0,0:0:0:0:
64,192,34658,1,0,0:0:0:0:
192,192,34701,1,0,0:0:0:0:
448,192,34744,1,0,0:0:0:0:
320,192,34786,1,0,0:0:0:0:
64,192,34829,1,0,0:0:0:30:BaSS.wav
192,192,34829,1,0,0:0:0:0:
320,192,34915,1,0,0:0:0:0:
448,192,35001,1,0,0:0:0:0:
192,192,35086,1,0,0:0:0:0:
64,192,35172,1,0,0:0:0:30:KicK.wav
448,192,35172,1,0,0:0:0:0:
320,192,35258,1,0,0:0:0:0:
192,192,35344,1,0,0:0:0:0:
320,192,35429,1,0,0:0:0:30:Snare.wav
448,192,35429,1,0,0:0:0:0:
64,192,35515,1,0,0:0:0:30:BaSS.wav
192,192,35515,1,0,0:0:0:0:
448,192,35601,1,0,0:0:0:0:
320,192,35601,1,0,0:0:0:30:Snare.wav
192,192,35686,1,0,0:0:0:0:
320,192,35772,1,0,0:0:0:0:
448,192,35858,1,0,0:0:0:0:
64,192,35858,1,0,0:0:0:30:KicK.wav
192,192,35944,1,0,0:0:0:0:
320,192,35944,1,0,0:0:0:0:
448,192,36029,1,0,0:0:0:0:
64,192,36029,1,0,0:0:0:30:Snare.wav
192,192,36115,1,0,0:0:0:0:
320,192,36115,1,0,0:0:0:0:
64,192,36201,1,0,0:0:0:0:
448,192,36201,1,0,0:0:0:30:BaSS.wav
192,192,36286,1,0,0:0:0:0:
320,192,36372,1,0,0:0:0:0:
64,192,36458,1,0,0:0:0:0:
448,192,36544,1,0,0:0:0:30:KicK.wav
320,192,36544,1,0,0:0:0:0:
192,192,36629,1,0,0:0:0:0:
64,192,36715,1,0,0:0:0:0:
320,192,36801,1,0,0:0:0:0:
448,192,36886,1,0,0:0:0:0:
64,192,36886,1,0,0:0:0:30:BaSS.wav
192,192,36972,1,0,0:0:0:0:
320,192,37058,1,0,0:0:0:0:
64,192,37144,1,0,0:0:0:0:
448,192,37229,1,0,0:0:0:30:KicK.wav
320,192,37229,1,0,0:0:0:0:
192,192,37315,1,0,0:0:0:0:
64,192,37401,1,0,0:0:0:30:Snare.wav
448,192,37401,1,0,0:0:0:0:
320,192,37486,1,0,0:0:0:0:
192,192,37486,1,0,0:0:0:30:Snare.wav
64,192,37572,1,0,0:0:0:30:BaSS.wav
448,192,37572,1,0,0:0:0:0:
320,192,37658,1,0,0:0:0:0:
192,192,37744,1,0,0:0:0:0:
448,192,37829,1,0,0:0:0:0:
320,192,37915,1,0,0:0:0:0:
64,192,37915,1,0,0:0:0:30:KicK.wav
192,192,38001,1,0,0:0:0:0:
320,192,38086,1,0,0:0:0:0:
448,192,38172,1,0,0:0:0:0:
192,192,38258,1,0,0:0:0:30:BaSS.wav
64,192,38258,1,0,0:0:0:0:
448,192,38429,1,0,0:0:0:0:
320,192,38429,1,0,0:0:0:30:Snare.wav
192,192,38515,1,0,0:0:0:0:
64,192,38515,1,0,0:0:0:30:BaSS.wav
192,192,38686,1,0,0:0:0:0:
64,192,38686,1,0,0:0:0:30:Snare.wav
320,192,38772,1,0,0:0:0:0:
448,192,38772,1,0,0:0:0:30:BaSS.wav
192,192,38858,1,0,0:0:0:0:
64,192,38858,1,0,0:0:0:30:Snare.wav
64,192,38944,1,0,0:0:0:30:CrashR.wav
320,192,38944,1,0,0:0:0:0:
448,192,38944,1,0,0:0:0:30:BaSS.wav
64,192,39115,1,0,0:0:0:30:Snare.wav
320,192,39115,1,0,0:0:0:0:
192,192,39286,1,0,0:0:0:0:
448,192,39286,1,0,0:0:0:0:
64,192,39286,1,0,0:0:0:30:KicK.wav
448,192,39458,1,0,0:0:0:30:Snare.wav
320,192,39544,1,0,0:0:0:30:Snare.wav
192,192,39629,1,0,0:0:0:0:
64,192,39629,1,0,0:0:0:30:BaSS.wav
192,192,39801,1,0,0:0:0:30:Snare.wav
320,192,39801,1,0,0:0:0:0:
448,192,39972,1,0,0:0:0:0:
320,192,39972,1,0,0:0:0:30:KicK.wav
64,192,39972,1,0,0:0:0:0:
64,192,40144,1,0,0:0:0:30:Snare.wav
192,192,40144,1,0,0:0:0:0:
320,192,40315,1,0,0:0:0:0:
448,192,40315,1,0,0:0:0:30:BaSS.wav
192,192,40486,1,0,0:0:0:0:
64,192,40486,1,0,0:0:0:30:Snare.wav
448,192,40658,5,0,0:0:0:30:KicK.wav
64,192,40658,1,0,0:0:0:0:
320,192,40658,1,0,0:0:0:0:
320,192,40829,1,0,0:0:0:30:Snare.wav
192,192,40829,1,0,0:0:0:0:
192,192,41001,1,0,0:0:0:0:
64,192,41001,1,0,0:0:0:30:BaSS.wav
320,192,41172,1,0,0:0:0:30:Snare.wav
192,192,41258,1,0,0:0:0:30:Snare.wav
320,192,41301,1,0,0:0:0:30:Snare.wav
448,192,41344,5,0,0:0:0:0:
64,192,41344,1,0,0:0:0:30:KicK.wav
320,192,41429,1,0,0:0:0:0:
192,192,41515,1,0,0:0:0:30:Snare.wav
64,192,41515,1,0,0:0:0:0:
320,192,41601,1,0,0:0:0:0:
64,192,41686,1,0,0:0:0:30:BaSS.wav
192,192,41686,1,0,0:0:0:30:CrashR.wav
448,192,41686,1,0,0:0:0:0:
320,192,41772,1,0,0:0:0:30:Snare.wav
448,192,41772,1,0,0:0:0:0:
192,192,41858,1,0,0:0:0:30:Snare.wav
64,192,41858,1,0,0:0:0:0:
320,192,41944,1,0,0:0:0:30:Snare.wav
448,192,41944,1,0,0:0:0:0:
192,192,42029,1,0,0:0:0:30:Snare.wav
64,192,42029,1,0,0:0:0:0:
320,192,42115,1,0,0:0:0:30:Snare.wav
448,192,42115,1,0,0:0:0:0:
192,192,42201,1,0,0:0:0:30:Snare.wav
64,192,42201,1,0,0:0:0:0:
320,192,42286,1,0,0:0:0:30:Snare.wav
64,192,42372,1,0,0:0:0:0:
448,192,42372,1,0,0:0:0:30:Snare.wav
320,192,42458,1,0,0:0:0:30:Snare.wav
192,192,42458,1,0,0:0:0:0:
64,192,42544,1,0,0:0:0:0:
448,192,42544,1,0,0:0:0:30:Snare.wav
320,192,42629,1,0,0:0:0:30:Snare.wav
192,192,42629,1,0,0:0:0:0:
64,192,42715,1,0,0:0:0:0:
448,192,42715,1,0,0:0:0:30:Snare.wav
320,192,42801,1,0,0:0:0:30:Snare.wav
192,192,42801,1,0,0:0:0:0:
64,192,42886,1,0,0:0:0:0:
448,192,42886,1,0,0:0:0:30:Snare.wav
320,192,42972,1,0,0:0:0:30:Snare.wav
192,192,42972,1,0,0:0:0:0:
448,192,43401,128,0,44086:0:0:0:0:
64,192,44086,128,0,44429:0:0:0:0:
320,192,44429,1,0,0:0:0:30:CrashR.wav
192,192,44429,1,0,0:0:0:30:BaSS.wav
448,192,44429,128,0,44944:0:0:0:0:
192,192,44944,1,0,0:0:0:0:
64,192,44944,1,0,0:0:0:30:BaSS.wav
64,192,45115,1,0,0:0:0:30:Snare.wav
320,192,45115,1,0,0:0:0:0:
448,192,45115,1,0,0:0:0:0:
192,192,45629,1,0,0:0:0:0:
64,192,45629,1,0,0:0:0:30:BaSS.wav
320,192,45801,128,0,45972:0:0:0:0:
448,192,45801,1,0,0:0:0:30:BaSS.wav
192,192,46058,128,0,46229:0:0:0:0:
448,192,46058,1,0,0:0:0:30:BaSS.wav
64,192,46315,128,0,46486:0:0:0:0:
448,192,46315,1,0,0:0:0:30:BaSS.wav
192,192,46658,1,0,0:0:0:30:BaSS.wav
320,192,46658,1,0,0:0:0:0:
320,192,46829,1,0,0:0:0:30:Snare.wav
448,192,46829,1,0,0:0:0:0:
64,192,46829,1,0,0:0:0:0:
64,192,47172,128,0,47686:0:0:0:0:
448,192,47172,1,0,0:0:0:30:BaSS.wav
448,192,47686,128,0,47858:0:0:0:0:
192,192,47686,1,0,0:0:0:30:BaSS.wav
320,192,48029,1,0,0:0:0:30:BaSS.wav
192,192,48115,1,0,0:0:0:30:BaSS.wav
320,192,48201,1,0,0:0:0:0:
448,192,48201,1,0,0:0:0:0:
64,192,48201,1,0,0:0:0:30:Snare.wav
448,192,48544,128,0,49229:0:0:0:0:
192,192,48544,1,0,0:0:0:30:BaSS.wav
192,192,48801,1,0,0:0:0:30:BaSS.wav
320,192,48886,1,0,0:0:0:30:Snare.wav
64,192,48886,1,0,0:0:0:0:
192,192,49144,1,0,0:0:0:30:BaSS.wav
64,192,49229,128,0,49915:0:0:0:0:
192,192,49401,1,0,0:0:0:30:BaSS.wav
320,192,49572,1,0,0:0:0:30:Snare.wav
448,192,49572,1,0,0:0:0:0:
192,192,49744,1,0,0:0:0:30:BaSS.wav
192,192,49915,1,0,0:0:0:30:BaSS.wav
448,192,49915,128,0,50429:0:0:0:0:
320,192,50429,1,0,0:0:0:0:
64,192,50429,1,0,0:0:0:30:BaSS.wav
192,192,50601,1,0,0:0:0:0:
64,192,50601,1,0,0:0:0:30:Snare.wav
448,192,50601,1,0,0:0:0:0:
192,192,51115,1,0,0:0:0:30:BaSS.wav
320,192,51115,1,0,0:0:0:0:
448,192,51286,128,0,51458:0:0:0:0:
64,192,51286,1,0,0:0:0:30:BaSS.wav
320,192,51544,128,0,51715:0:0:0:0:
64,192,51544,1,0,0:0:0:30:BaSS.wav
192,192,51801,128,0,51972:0:0:0:0:
64,192,51801,1,0,0:0:0:30:BaSS.wav
448,192,51972,1,0,0:0:0:0:
320,192,52015,1,0,0:0:0:0:
64,192,52058,1,0,0:0:0:0:
192,192,52101,1,0,0:0:0:0:
448,192,52144,1,0,0:0:0:30:BaSS.wav
320,192,52186,1,0,0:0:0:0:
64,192,52229,1,0,0:0:0:0:
192,192,52272,1,0,0:0:0:0:
448,192,52315,1,0,0:0:0:30:Snare.wav
320,192,52358,1,0,0:0:0:0:
64,192,52401,1,0,0:0:0:0:
192,192,52444,1,0,0:0:0:0:
448,192,52486,1,0,0:0:0:0:
320,192,52529,1,0,0:0:0:0:
64,192,52572,1,0,0:0:0:0:
192,192,52615,1,0,0:0:0:0:
320,192,52658,1,0,0:0:0:30:BaSS.wav
448,192,52658,128,0,53172:0:0:0:0:
192,192,53172,1,0,0:0:0:30:BaSS.wav
64,192,53172,1,0,0:0:0:0:
192,192,53515,1,0,0:0:0:30:BaSS.wav
64,192,53515,1,0,0:0:0:0:
64,192,53686,1,0,0:0:0:0:
320,192,53686,1,0,0:0:0:30:Snare.wav
448,192,53686,1,0,0:0:0:0:
64,192,54029,128,0,54715:0:0:0:0:
320,192,54029,1,0,0:0:0:30:BaSS.wav
320,192,54286,1,0,0:0:0:30:BaSS.wav
192,192,54372,1,0,0:0:0:30:Snare.wav
448,192,54372,1,0,0:0:0:0:
320,192,54629,1,0,0:0:0:30:BaSS.wav
448,192,54715,128,0,55401:0:0:0:0:
320,192,54886,1,0,0:0:0:30:BaSS.wav
192,192,55058,1,0,0:0:0:0:
64,192,55058,1,0,0:0:0:30:Snare.wav
320,192,55229,1,0,0:0:0:30:BaSS.wav
192,192,55315,1,0,0:0:0:30:BaSS.wav
64,192,55401,128,0,56086:0:0:0:0:
320,192,55401,1,0,0:0:0:30:BaSS.wav
192,192,55572,1,0,0:0:0:0:
448,192,55744,1,0,0:0:0:30:Snare.wav
320,192,55744,1,0,0:0:0:0:
192,192,55829,1,0,0:0:0:30:BaSS.wav
448,192,55915,1,0,0:0:0:0:
192,192,56001,1,0,0:0:0:30:BaSS.wav
320,192,56086,1,0,0:0:0:0:
320,192,56258,128,0,56429:0:0:0:0:
64,192,56258,1,0,0:0:0:30:BaSS.wav
192,192,56429,1,0,0:0:0:0:
64,192,56429,1,0,0:0:0:30:Snare.wav
448,192,56429,1,0,0:0:0:0:
320,192,56601,128,0,56772:0:0:0:0:
64,192,56772,128,0,57458:0:0:0:0:
448,192,56772,1,0,0:0:0:30:BaSS.wav
192,192,56944,1,0,0:0:0:0:
448,192,57115,1,0,0:0:0:30:Snare.wav
320,192,57115,1,0,0:0:0:0:
320,192,57286,1,0,0:0:0:0:
192,192,57372,1,0,0:0:0:30:BaSS.wav
448,192,57458,1,0,0:0:0:0:
64,192,57544,1,0,0:0:0:0:
320,192,57544,1,0,0:0:0:30:Snare.wav
192,192,57629,1,0,0:0:0:0:
448,192,57629,1,0,0:0:0:30:BaSS.wav
192,192,57801,1,0,0:0:0:0:
64,192,57801,1,0,0:0:0:30:Snare.wav
448,192,57801,1,0,0:0:0:0:
320,192,57972,1,0,0:0:0:0:
192,192,57972,1,0,0:0:0:30:BaSS.wav
448,192,58144,128,0,58829:0:0:0:0:
64,192,58144,1,0,0:0:0:30:BaSS.wav
320,192,58315,1,0,0:0:0:0:
64,192,58486,1,0,0:0:0:30:Snare.wav
192,192,58486,1,0,0:0:0:0:
320,192,58658,1,0,0:0:0:30:BaSS.wav
64,192,58829,1,0,0:0:0:0:
192,192,58915,1,0,0:0:0:0:
320,192,58915,1,0,0:0:0:30:BaSS.wav
448,192,59001,1,0,0:0:0:0:
320,192,59086,1,0,0:0:0:30:BaSS.wav
448,192,59172,1,0,0:0:0:0:
192,192,59172,1,0,0:0:0:0:
64,192,59172,1,0,0:0:0:30:Snare.wav
192,192,59344,1,0,0:0:0:0:
64,192,59344,1,0,0:0:0:30:BaSS.wav
448,192,59515,128,0,60201:0:0:0:0:
320,192,59515,1,0,0:0:0:0:
64,192,59686,1,0,0:0:0:30:BaSS.wav
320,192,59858,1,0,0:0:0:0:
192,192,59858,1,0,0:0:0:30:Snare.wav
64,192,59944,1,0,0:0:0:30:BaSS.wav
320,192,60029,1,0,0:0:0:0:
192,192,60115,1,0,0:0:0:30:BaSS.wav
64,192,60201,1,0,0:0:0:0:
320,192,60286,1,0,0:0:0:0:
64,192,60372,1,0,0:0:0:30:BaSS.wav
192,192,60372,1,0,0:0:0:0:
320,192,60458,1,0,0:0:0:0:
448,192,60544,1,0,0:0:0:0:
192,192,60544,1,0,0:0:0:0:
64,192,60544,1,0,0:0:0:30:Snare.wav
320,192,60629,1,0,0:0:0:0:
448,192,60715,1,0,0:0:0:30:BaSS.wav
192,192,60715,1,0,0:0:0:0:
320,192,60801,1,0,0:0:0:0:
64,192,60886,128,0,61572:0:0:0:0:
448,192,60886,1,0,0:0:0:30:BaSS.wav
192,192,61058,1,0,0:0:0:0:
448,192,61229,1,0,0:0:0:0:
320,192,61229,1,0,0:0:0:30:Snare.wav
192,192,61315,1,0,0:0:0:30:BaSS.wav
448,192,61401,1,0,0:0:0:0:
320,192,61486,1,0,0:0:0:30:BaSS.wav
192,192,61572,1,0,0:0:0:0:
64,192,61744,1,0,0:0:0:30:BaSS.wav
320,192,61744,1,0,0:0:0:0:
320,192,61915,1,0,0:0:0:0:
448,192,61915,1,0,0:0:0:0:
64,192,61915,1,0,0:0:0:30:Snare.wav
192,192,62086,1,0,0:0:0:0:
64,192,62258,128,0,62944:0:0:0:0:
448,192,62258,1,0,0:0:0:30:BaSS.wav
192,192,62429,1,0,0:0:0:0:
448,192,62601,1,0,0:0:0:30:Snare.wav
320,192,62601,1,0,0:0:0:0:
192,192,62772,1,0,0:0:0:0:
320,192,62858,1,0,0:0:0:30:BaSS.wav
448,192,62944,1,0,0:0:0:0:
192,192,63029,1,0,0:0:0:0:
448,192,63115,1,0,0:0:0:30:BaSS.wav
320,192,63115,1,0,0:0:0:0:
192,192,63201,1,0,0:0:0:0:
448,192,63286,1,0,0:0:0:0:
64,192,63286,1,0,0:0:0:30:Snare.wav
320,192,63286,1,0,0:0:0:0:
64,192,63372,1,0,0:0:0:0:
320,192,63372,1,0,0:0:0:30:Snare.wav
448,192,63372,1,0,0:0:0:0:
192,192,63458,1,0,0:0:0:30:BaSS.wav
64,192,63544,1,0,0:0:0:0:
448,192,63629,128,0,64315:0:0:0:0:
320,192,63629,1,0,0:0:0:30:BaSS.wav
320,192,63801,1,0,0:0:0:0:
192,192,63972,1,0,0:0:0:0:
64,192,63972,1,0,0:0:0:30:Snare.wav
320,192,64144,1,0,0:0:0:30:BaSS.wav
64,192,64315,128,0,65001:0:0:0:0:
192,192,64315,1,0,0:0:0:0:
448,192,64401,1,0,0:0:0:30:BaSS.wav
192,192,64486,1,0,0:0:0:0:
448,192,64572,1,0,0:0:0:30:BaSS.wav
320,192,64658,1,0,0:0:0:0:
192,192,64658,1,0,0:0:0:30:Snare.wav
320,192,64829,1,0,0:0:0:30:BaSS.wav
448,192,65001,128,0,65686:0:0:0:0:
192,192,65001,1,0,0:0:0:30:BaSS.wav
320,192,65172,1,0,0:0:0:30:BaSS.wav
64,192,65344,1,0,0:0:0:30:Snare.wav
192,192,65344,1,0,0:0:0:0:
320,192,65515,1,0,0:0:0:30:BaSS.wav
64,192,65686,1,0,0:0:0:0:
192,192,65686,1,0,0:0:0:30:BaSS.wav
320,192,65772,1,0,0:0:0:30:BaSS.wav
448,192,65772,1,0,0:0:0:0:
192,192,65858,1,0,0:0:0:30:BaSS.wav
64,192,65858,1,0,0:0:0:0:
320,192,65944,1,0,0:0:0:30:BaSS.wav
448,192,65944,1,0,0:0:0:0:
448,192,66029,1,0,0:0:0:0:
192,192,66029,1,0,0:0:0:30:Snare.wav
64,192,66029,1,0,0:0:0:0:
320,192,66201,1,0,0:0:0:30:BaSS.wav
192,192,66201,1,0,0:0:0:0:
448,192,66372,128,0,67744:0:0:0:0:
192,192,66372,1,0,0:0:0:30:CrashR.wav
320,192,66372,1,0,0:0:0:30:BaSS.wav
64,192,66372,128,0,66544:0:0:0:0:
192,192,66715,128,0,66886:0:0:0:0:
320,192,67058,128,0,67229:0:0:0:0:
192,192,67401,128,0,67572:0:0:0:0:
320,192,67744,128,0,67915:0:0:0:0:
64,192,67744,128,0,69115:0:0:0:0:
448,192,68086,128,0,68258:0:0:0:0:
320,192,68429,128,0,68601:0:0:0:0:
192,192,68772,128,0,68944:0:0:0:0:
320,192,68944,1,0,0:0:0:0:
448,192,69115,128,0,70486:0:0:0:0:
192,192,69115,128,0,69286:0:0:0:0:
64,192,69286,128,0,69458:0:0:0:0:
320,192,69458,128,0,69629:0:0:0:0:
192,192,69629,128,0,69801:0:0:0:0:
64,192,69801,128,0,69972:0:0:0:0:
320,192,69972,128,0,70144:0:0:0:0:
192,192,70144,128,0,70315:0:0:0:0:
64,192,70486,128,0,71172:0:0:0:0:
320,192,70486,128,0,70658:0:0:0:0:
448,192,70829,1,0,0:0:0:0:
192,192,71172,128,0,71858:0:0:0:0:
448,192,71172,1,0,0:0:0:0:
448,192,71515,128,0,71686:0:0:0:0:
320,192,71686,128,0,71858:0:0:0:0:
448,192,71858,128,0,73229:0:0:0:0:
64,192,71858,128,0,72201:0:0:0:0:
192,192,72201,128,0,72372:0:0:0:0:
320,192,72372,128,0,72544:0:0:0:0:
192,192,72544,128,0,72715:0:0:0:0:
64,192,72715,128,0,72886:0:0:0:0:
320,192,72886,128,0,73058:0:0:0:0:
192,192,73058,128,0,73229:0:0:0:0:
64,192,73229,128,0,74601:0:0:0:0:
448,192,73401,128,0,73572:0:0:0:0:
320,192,73572,128,0,73744:0:0:0:0:
192,192,73744,128,0,73915:0:0:0:0:
448,192,73915,128,0,74086:0:0:0:0:
320,192,74086,128,0,74258:0:0:0:0:
192,192,74258,128,0,74429:0:0:0:0:
320,192,74429,128,0,74601:0:0:0:0:
448,192,74601,128,0,75972:0:0:0:0:
192,192,74944,128,0,75115:0:0:0:0:
320,192,75115,128,0,75286:0:0:0:0:
64,192,75286,128,0,75458:0:0:0:0:
320,192,75458,128,0,75629:0:0:0:0:
64,192,75629,128,0,75801:0:0:0:0:
320,192,75972,128,0,76658:0:0:0:0:
64,192,75972,128,0,76144:0:0:0:0:
64,192,76315,1,0,0:0:0:0:
192,192,76658,128,0,77001:0:0:0:0:
448,192,76658,1,0,0:0:0:0:
448,192,77001,128,0,77172:0:0:0:0:
64,192,77172,128,0,77344:0:0:0:0:
320,192,77344,1,0,0:0:0:30:BaSS.wav
192,192,77344,1,0,0:0:0:30:CrashR.wav
448,192,77344,128,0,77686:0:0:0:0:
64,192,77686,128,0,78029:0:0:0:0:
320,192,77686,1,0,0:0:0:30:BaSS.wav
448,192,78029,128,0,78372:0:0:0:0:
192,192,78029,1,0,0:0:0:30:BaSS.wav
64,192,78372,128,0,78544:0:0:0:0:
320,192,78372,1,0,0:0:0:30:BaSS.wav
192,192,78544,128,0,78715:0:0:0:0:
320,192,78715,128,0,79058:0:0:0:0:
448,192,78715,1,0,0:0:0:30:BaSS.wav
64,192,79058,128,0,79401:0:0:0:0:
448,192,79058,1,0,0:0:0:30:BaSS.wav
320,192,79401,1,0,0:0:0:30:BaSS.wav
448,192,79572,128,0,79744:0:0:0:0:
320,192,79744,128,0,79915:0:0:0:0:
64,192,79744,1,0,0:0:0:30:BaSS.wav
192,192,79915,128,0,80086:0:0:0:0:
64,192,80086,128,0,80344:0:0:0:0:
448,192,80086,1,0,0:0:0:30:BaSS.wav
320,192,80344,128,0,80601:0:0:0:0:
64,192,80429,1,0,0:0:0:30:BaSS.wav
192,192,80601,1,0,0:0:0:0:
448,192,80772,128,0,81029:0:0:0:0:
64,192,80772,1,0,0:0:0:30:BaSS.wav
192,192,81029,128,0,81286:0:0:0:0:
448,192,81115,1,0,0:0:0:30:BaSS.wav
320,192,81286,1,0,0:0:0:0:
64,192,81458,128,0,81801:0:0:0:0:
448,192,81458,1,0,0:0:0:30:BaSS.wav
320,192,81629,1,0,0:0:0:0:
192,192,81715,1,0,0:0:0:0:
448,192,81801,1,0,0:0:0:30:BaSS.wav
320,192,81801,1,0,0:0:0:0:
192,192,81972,128,0,82144:0:0:0:0:
64,192,82144,128,0,82486:0:0:0:0:
448,192,82144,1,0,0:0:0:30:BaSS.wav
448,192,82486,128,0,82658:0:0:0:0:
192,192,82486,1,0,0:0:0:30:BaSS.wav
64,192,82658,128,0,82829:0:0:0:0:
448,192,82829,1,0,0:0:0:30:CrashR.wav
320,192,82829,1,0,0:0:0:30:BaSS.wav
192,192,82829,1,0,0:0:0:0:
192,192,83001,1,0,0:0:0:30:BaSS.wav
64,192,83001,1,0,0:0:0:0:
448,192,83172,1,0,0:0:0:0:
320,192,83172,1,0,0:0:0:0:
64,192,83172,1,0,0:0:0:30:Snare.wav
192,192,83344,1,0,0:0:0:30:BaSS.wav
64,192,83344,1,0,0:0:0:0:
448,192,83515,1,0,0:0:0:0:
192,192,83515,1,0,0:0:0:30:BaSS.wav
64,192,83686,1,0,0:0:0:0:
320,192,83686,1,0,0:0:0:30:BaSS.wav
448,192,83858,1,0,0:0:0:30:Snare.wav
64,192,83858,1,0,0:0:0:0:
192,192,83858,1,0,0:0:0:0:
320,192,84029,1,0,0:0:0:30:BaSS.wav
448,192,84029,1,0,0:0:0:0:
192,192,84201,1,0,0:0:0:30:BaSS.wav
64,192,84201,1,0,0:0:0:0:
320,192,84372,1,0,0:0:0:30:BaSS.wav
448,192,84372,1,0,0:0:0:0:
448,192,84544,1,0,0:0:0:0:
64,192,84544,1,0,0:0:0:0:
192,192,84544,1,0,0:0:0:30:Snare.wav
448,192,84715,1,0,0:0:0:30:BaSS.wav
320,192,84715,1,0,0:0:0:0:
320,192,84886,1,0,0:0:0:0:
64,192,84886,1,0,0:0:0:30:BaSS.wav
192,192,85058,1,0,0:0:0:0:
448,192,85058,1,0,0:0:0:30:BaSS.wav
320,192,85229,1,0,0:0:0:0:
64,192,85229,1,0,0:0:0:30:Snare.wav
448,192,85229,1,0,0:0:0:0:
192,192,85401,1,0,0:0:0:30:BaSS.wav
448,192,85401,1,0,0:0:0:0:
64,192,85572,1,0,0:0:0:0:
192,192,85572,1,0,0:0:0:30:BaSS.wav
320,192,85658,1,0,0:0:0:30:BaSS.wav
448,192,85658,1,0,0:0:0:0:
192,192,85744,1,0,0:0:0:30:BaSS.wav
64,192,85744,1,0,0:0:0:0:
320,192,85829,1,0,0:0:0:30:BaSS.wav
448,192,85829,1,0,0:0:0:0:
64,192,85915,1,0,0:0:0:0:
192,192,85915,1,0,0:0:0:30:Snare.wav
448,192,86001,1,0,0:0:0:0:
320,192,86001,1,0,0:0:0:30:BaSS.wav
192,192,86086,1,0,0:0:0:30:BaSS.wav
64,192,86086,1,0,0:0:0:0:
320,192,86172,1,0,0:0:0:30:BaSS.wav
64,192,86258,1,0,0:0:0:0:
448,192,86258,1,0,0:0:0:30:BaSS.wav
192,192,86344,1,0,0:0:0:0:
320,192,86344,1,0,0:0:0:30:BaSS.wav
448,192,86429,1,0,0:0:0:0:
64,192,86429,1,0,0:0:0:30:BaSS.wav
192,192,86515,1,0,0:0:0:30:BaSS.wav
320,192,86515,1,0,0:0:0:0:
448,192,86601,1,0,0:0:0:30:Snare.wav
64,192,86601,1,0,0:0:0:0:
192,192,86686,1,0,0:0:0:0:
320,192,86686,1,0,0:0:0:30:BaSS.wav
448,192,86772,1,0,0:0:0:30:BaSS.wav
64,192,86772,1,0,0:0:0:0:
192,192,86858,1,0,0:0:0:30:BaSS.wav
320,192,86858,1,0,0:0:0:0:
64,192,86944,1,0,0:0:0:30:BaSS.wav
448,192,86944,128,0,87629:0:0:0:0:
192,192,87886,1,0,0:0:0:30:BaSS.wav
448,192,87972,1,0,0:0:0:0:
320,192,87972,1,0,0:0:0:30:Snare.wav
64,192,87972,1,0,0:0:0:0:
192,192,88144,1,0,0:0:0:0:
320,192,88144,1,0,0:0:0:30:BaSS.wav
192,192,88315,1,0,0:0:0:30:BaSS.wav
64,192,88315,1,0,0:0:0:0:
448,192,88315,128,0,88486:0:0:0:0:
320,192,88486,1,0,0:0:0:0:
192,192,88658,1,0,0:0:0:0:
64,192,88658,1,0,0:0:0:30:Snare.wav
448,192,88658,128,0,88829:0:0:0:0:
320,192,88744,1,0,0:0:0:30:BaSS.wav
192,192,88829,1,0,0:0:0:0:
64,192,88915,1,0,0:0:0:30:BaSS.wav
320,192,88915,1,0,0:0:0:0:
448,192,89001,128,0,89172:0:0:0:0:
192,192,89172,1,0,0:0:0:30:BaSS.wav
64,192,89172,1,0,0:0:0:0:
64,192,89344,128,0,89515:0:0:0:0:
448,192,89344,1,0,0:0:0:30:Snare.wav
320,192,89344,1,0,0:0:0:0:
192,192,89515,1,0,0:0:0:0:
448,192,89686,128,0,89858:0:0:0:0:
64,192,89686,1,0,0:0:0:30:BaSS.wav
192,192,89858,1,0,0:0:0:0:
64,192,90029,128,0,90201:0:0:0:0:
448,192,90029,1,0,0:0:0:30:Snare.wav
320,192,90029,1,0,0:0:0:0:
320,192,90201,1,0,0:0:0:30:BaSS.wav
192,192,90201,1,0,0:0:0:0:
64,192,90286,1,0,0:0:0:0:
448,192,90286,1,0,0:0:0:30:Snare.wav
192,192,90372,128,0,90544:0:0:0:0:
320,192,90544,1,0,0:0:0:30:BaSS.wav
448,192,90544,1,0,0:0:0:0:
448,192,90715,128,0,90886:0:0:0:0:
192,192,90715,1,0,0:0:0:30:Snare.wav
64,192,90715,1,0,0:0:0:0:
320,192,90886,1,0,0:0:0:30:BaSS.wav
192,192,90886,1,0,0:0:0:0:
448,192,91058,1,0,0:0:0:30:BaSS.wav
64,192,91058,128,0,91229:0:0:0:0:
192,192,91229,1,0,0:0:0:0:
448,192,91401,128,0,91572:0:0:0:0:
320,192,91401,1,0,0:0:0:30:Snare.wav
64,192,91401,1,0,0:0:0:0:
192,192,91572,1,0,0:0:0:30:BaSS.wav
64,192,91572,1,0,0:0:0:0:
320,192,91744,128,0,91915:0:0:0:0:
64,192,91829,1,0,0:0:0:30:BaSS.wav
192,192,91829,1,0,0:0:0:0:
448,192,91915,1,0,0:0:0:0:
320,192,92001,1,0,0:0:0:30:BaSS.wav
64,192,92001,1,0,0:0:0:0:
192,192,92086,128,0,92258:0:0:0:0:
448,192,92086,1,0,0:0:0:30:Snare.wav
320,192,92258,1,0,0:0:0:30:BaSS.wav
448,192,92258,1,0,0:0:0:0:
64,192,92429,128,0,92601:0:0:0:0:
192,192,92601,1,0,0:0:0:30:BaSS.wav
320,192,92601,1,0,0:0:0:0:
64,192,92772,1,0,0:0:0:0:
448,192,92772,1,0,0:0:0:30:Snare.wav
320,192,92858,1,0,0:0:0:30:BaSS.wav
192,192,92858,1,0,0:0:0:0:
64,192,92944,1,0,0:0:0:0:
320,192,93029,1,0,0:0:0:0:
448,192,93029,1,0,0:0:0:30:BaSS.wav
64,192,93115,1,0,0:0:0:0:
192,192,93158,1,0,0:0:0:0:
320,192,93201,1,0,0:0:0:0:
448,192,93244,1,0,0:0:0:0:
192,192,93286,1,0,0:0:0:30:BaSS.wav
64,192,93286,1,0,0:0:0:0:
320,192,93329,1,0,0:0:0:0:
448,192,93372,1,0,0:0:0:0:
64,192,93415,1,0,0:0:0:0:
192,192,93458,1,0,0:0:0:0:
320,192,93458,1,0,0:0:0:30:Snare.wav
448,192,93501,1,0,0:0:0:0:
64,192,93544,1,0,0:0:0:0:
192,192,93586,1,0,0:0:0:0:
320,192,93629,1,0,0:0:0:0:
448,192,93629,1,0,0:0:0:30:BaSS.wav
64,192,93672,1,0,0:0:0:0:
192,192,93715,1,0,0:0:0:0:
320,192,93758,1,0,0:0:0:0:
64,192,93801,128,0,93972:0:0:0:0:
448,192,93801,1,0,0:0:0:30:BaSS.wav
320,192,93972,1,0,0:0:0:0:
448,192,94144,128,0,94315:0:0:0:0:
192,192,94144,1,0,0:0:0:30:Snare.wav
64,192,94144,1,0,0:0:0:0:
320,192,94229,1,0,0:0:0:30:BaSS.wav
64,192,94315,1,0,0:0:0:0:
192,192,94401,1,0,0:0:0:30:BaSS.wav
320,192,94401,1,0,0:0:0:0:
64,192,94486,128,0,94658:0:0:0:0:
320,192,94658,1,0,0:0:0:0:
448,192,94658,1,0,0:0:0:30:BaSS.wav
192,192,94829,128,0,95001:0:0:0:0:
64,192,94829,1,0,0:0:0:30:Snare.wav
448,192,94829,1,0,0:0:0:0:
320,192,95001,1,0,0:0:0:0:
192,192,95172,1,0,0:0:0:0:
64,192,95172,1,0,0:0:0:30:BaSS.wav
320,192,95344,1,0,0:0:0:0:
448,192,95515,128,0,95686:0:0:0:0:
192,192,95515,1,0,0:0:0:30:Snare.wav
64,192,95515,1,0,0:0:0:0:
320,192,95686,1,0,0:0:0:30:BaSS.wav
64,192,95686,1,0,0:0:0:0:
192,192,95772,1,0,0:0:0:0:
448,192,95772,1,0,0:0:0:30:Snare.wav
64,192,95858,128,0,96029:0:0:0:0:
448,192,96029,1,0,0:0:0:0:
192,192,96029,1,0,0:0:0:30:BaSS.wav
448,192,96201,128,0,96372:0:0:0:0:
320,192,96201,1,0,0:0:0:0:
64,192,96201,1,0,0:0:0:30:Snare.wav
192,192,96372,1,0,0:0:0:0:
64,192,96372,1,0,0:0:0:30:BaSS.wav
192,192,96544,1,0,0:0:0:0:
64,192,96544,1,0,0:0:0:30:BaSS.wav
320,192,96715,1,0,0:0:0:0:
448,192,96886,128,0,97229:0:0:0:0:
64,192,96886,1,0,0:0:0:30:Snare.wav
320,192,97058,128,0,97229:0:0:0:0:
192,192,97058,1,0,0:0:0:30:BaSS.wav
64,192,97229,128,0,97401:0:0:0:0:
448,192,97315,1,0,0:0:0:30:BaSS.wav
192,192,97401,128,0,97572:0:0:0:0:
320,192,97486,1,0,0:0:0:30:BaSS.wav
448,192,97572,128,0,97915:0:0:0:0:
64,192,97572,1,0,0:0:0:30:Snare.wav
320,192,97744,128,0,97915:0:0:0:0:
192,192,97744,1,0,0:0:0:30:BaSS.wav
64,192,97915,128,0,98086:0:0:0:0:
320,192,98086,1,0,0:0:0:0:
192,192,98086,1,0,0:0:0:30:BaSS.wav
192,192,98172,1,0,0:0:0:30:BaSS.wav
320,192,98172,1,0,0:0:0:0:
448,192,98258,1,0,0:0:0:0:
64,192,98258,1,0,0:0:0:0:
320,192,98258,1,0,0:0:0:30:Snare.wav
192,192,98429,1,0,0:0:0:0:
64,192,98429,1,0,0:0:0:30:BaSS.wav
448,192,98601,128,0,98686:0:0:0:0:
320,192,98601,128,0,98686:0:0:0:0:
448,192,98772,128,0,98858:0:0:0:0:
320,192,98772,128,0,98858:0:0:0:0:
448,192,98944,1,0,0:0:0:30:Snare.wav
64,192,98944,1,0,0:0:0:0:
192,192,98944,1,0,0:0:0:0:
448,192,99115,1,0,0:0:0:0:
320,192,99158,1,0,0:0:0:0:
64,192,99201,1,0,0:0:0:0:
192,192,99244,1,0,0:0:0:0:
448,192,99286,1,0,0:0:0:30:BaSS.wav
320,192,99286,1,0,0:0:0:30:CrashR.wav
64,192,99286,1,0,0:0:0:0:
192,192,99458,1,0,0:0:0:0:
64,192,99629,128,0,99801:0:0:0:0:
448,192,99629,1,0,0:0:0:30:BaSS.wav
320,192,99801,1,0,0:0:0:0:
192,192,99972,128,0,100144:0:0:0:0:
64,192,99972,1,0,0:0:0:30:BaSS.wav
448,192,100144,1,0,0:0:0:0:
320,192,100315,128,0,100486:0:0:0:0:
192,192,100315,1,0,0:0:0:30:BaSS.wav
64,192,100486,1,0,0:0:0:0:
448,192,100658,128,0,100829:0:0:0:0:
320,192,100658,1,0,0:0:0:30:BaSS.wav
192,192,100829,1,0,0:0:0:0:
64,192,101001,128,0,101172:0:0:0:0:
448,192,101001,1,0,0:0:0:30:BaSS.wav
192,192,101172,1,0,0:0:0:0:
320,192,101258,1,0,0:0:0:30:Snare.wav
64,192,101258,1,0,0:0:0:0:
448,192,101344,128,0,101515:0:0:0:0:
192,192,101344,1,0,0:0:0:30:BaSS.wav
320,192,101429,1,0,0:0:0:30:Snare.wav
64,192,101429,1,0,0:0:0:0:
192,192,101515,1,0,0:0:0:0:
320,192,101601,1,0,0:0:0:30:Snare.wav
448,192,101601,1,0,0:0:0:0:
64,192,101686,128,0,101858:0:0:0:0:
192,192,101686,1,0,0:0:0:30:BaSS.wav
320,192,101858,1,0,0:0:0:30:Snare.wav
448,192,101858,1,0,0:0:0:0:
320,192,101944,1,0,0:0:0:0:
192,192,101944,1,0,0:0:0:30:Snare.wav
448,192,102029,128,0,102201:0:0:0:0:
64,192,102029,1,0,0:0:0:30:BaSS.wav
320,192,102201,1,0,0:0:0:0:
448,192,102286,128,0,102458:0:0:0:0:
192,192,102372,1,0,0:0:0:30:BaSS.wav
64,192,102372,1,0,0:0:0:0:
448,192,102544,128,0,102715:0:0:0:0:
64,192,102715,128,0,102886:0:0:0:0:
320,192,102715,1,0,0:0:0:30:BaSS.wav
192,192,102886,1,0,0:0:0:0:
64,192,102972,128,0,103144:0:0:0:0:
320,192,103058,1,0,0:0:0:0:
448,192,103058,1,0,0:0:0:30:BaSS.wav
64,192,103229,128,0,103401:0:0:0:0:
192,192,103229,1,0,0:0:0:30:Snare.wav
448,192,103401,128,0,103572:0:0:0:0:
320,192,103401,1,0,0:0:0:30:Snare.wav
192,192,103572,1,0,0:0:0:0:
64,192,103658,128,0,103829:0:0:0:0:
320,192,103744,1,0,0:0:0:30:Snare.wav
448,192,103744,1,0,0:0:0:0:
448,192,103915,128,0,104001:0:0:0:0:
448,192,104086,1,0,0:0:0:0:
64,192,104086,1,0,0:0:0:30:Snare.wav
320,192,104258,1,0,0:0:0:30:Snare.wav
448,192,104258,1,0,0:0:0:0:
192,192,104344,1,0,0:0:0:30:Snare.wav
64,192,104344,1,0,0:0:0:0:
320,192,104429,1,0,0:0:0:30:BaSS.wav
448,192,104515,1,0,0:0:0:30:Snare.wav
192,192,104515,1,0,0:0:0:0:
320,192,104601,1,0,0:0:0:30:Snare.wav
64,192,104601,1,0,0:0:0:0:
192,192,104686,1,0,0:0:0:30:BaSS.wav
448,192,104772,1,0,0:0:0:30:BaSS.wav
64,192,104772,1,0,0:0:0:30:CrashR.wav
320,192,104772,1,0,0:0:0:0:
448,192,104944,1,0,0:0:0:30:BaSS.wav
192,192,104944,1,0,0:0:0:0:
448,192,105115,1,0,0:0:0:0:
320,192,105115,1,0,0:0:0:0:
64,192,105115,1,0,0:0:0:30:KicK.wav
64,192,105286,1,0,0:0:0:30:BaSS.wav
192,192,105286,1,0,0:0:0:0:
320,192,105372,1,0,0:0:0:30:Snare.wav
448,192,105458,1,0,0:0:0:0:
64,192,105458,1,0,0:0:0:30:BaSS.wav
320,192,105629,1,0,0:0:0:0:
192,192,105629,1,0,0:0:0:30:BaSS.wav
64,192,105801,1,0,0:0:0:30:KicK.wav
320,192,105801,1,0,0:0:0:0:
448,192,105801,1,0,0:0:0:0:
320,192,105972,1,0,0:0:0:0:
64,192,105972,1,0,0:0:0:30:BaSS.wav
448,192,106144,1,0,0:0:0:30:KicK.wav
320,192,106144,1,0,0:0:0:0:
192,192,106144,1,0,0:0:0:0:
64,192,106144,1,0,0:0:0:30:CrashR.wav
448,192,106315,1,0,0:0:0:30:BaSS.wav
320,192,106315,1,0,0:0:0:0:
448,192,106486,1,0,0:0:0:0:
192,192,106486,1,0,0:0:0:30:KicK.wav
64,192,106486,1,0,0:0:0:0:
320,192,106658,1,0,0:0:0:30:BaSS.wav
192,192,106658,1,0,0:0:0:0:
448,192,106829,1,0,0:0:0:30:KicK.wav
320,192,106829,1,0,0:0:0:0:
64,192,106829,1,0,0:0:0:0:
192,192,107001,1,0,0:0:0:30:BaSS.wav
64,192,107001,1,0,0:0:0:0:
448,192,107086,1,0,0:0:0:30:BaSS.wav
320,192,107129,1,0,0:0:0:30:BaSS.wav
192,192,107172,1,0,0:0:0:30:BaSS.wav
64,192,107172,1,0,0:0:0:0:
320,192,107286,1,0,0:0:0:0:
448,192,107286,1,0,0:0:0:30:BaSS.wav
320,192,107401,1,0,0:0:0:0:
448,192,107401,1,0,0:0:0:30:BaSS.wav
448,192,107515,1,0,0:0:0:30:BaSS.wav
64,192,107515,1,0,0:0:0:30:CrashR.wav
192,192,107515,1,0,0:0:0:0:
320,192,107515,1,0,0:0:0:0:
192,192,107601,1,0,0:0:0:0:
64,192,107601,1,0,0:0:0:30:BaSS.wav
320,192,107686,1,0,0:0:0:0:
448,192,107686,1,0,0:0:0:30:BaSS.wav
192,192,107772,1,0,0:0:0:0:
64,192,107772,1,0,0:0:0:30:BaSS.wav
320,192,107858,1,0,0:0:0:0:
448,192,107858,1,0,0:0:0:30:BaSS.wav
192,192,107944,1,0,0:0:0:0:
64,192,107944,1,0,0:0:0:30:BaSS.wav
320,192,108029,1,0,0:0:0:0:
448,192,108029,1,0,0:0:0:30:BaSS.wav
64,192,108115,1,0,0:0:0:30:BaSS.wav
192,192,108158,1,0,0:0:0:30:BaSS.wav
320,192,108201,1,0,0:0:0:30:CrashR.wav
448,192,108201,1,0,0:0:0:30:BaSS.wav
192,192,108286,1,0,0:0:0:0:
64,192,108286,1,0,0:0:0:30:BaSS.wav
320,192,108372,1,0,0:0:0:0:
448,192,108372,1,0,0:0:0:30:BaSS.wav
192,192,108458,1,0,0:0:0:0:
64,192,108458,1,0,0:0:0:30:BaSS.wav
320,192,108544,1,0,0:0:0:0:
448,192,108544,1,0,0:0:0:30:BaSS.wav
192,192,108629,1,0,0:0:0:0:
64,192,108629,1,0,0:0:0:30:BaSS.wav
320,192,108715,1,0,0:0:0:0:
448,192,108715,1,0,0:0:0:30:BaSS.wav
64,192,108801,1,0,0:0:0:30:BaSS.wav
192,192,108801,1,0,0:0:0:0:
320,192,108886,128,0,108972:0:0:0:0:
448,192,108886,128,0,108972:0:0:0:0:
320,192,109058,128,0,109229:0:0:0:0:
448,192,109058,128,0,109229:0:0:0:0:
192,192,109229,1,0,0:0:0:0:
64,192,109229,1,0,0:0:0:0:
192,192,109401,128,0,109444:0:0:0:0:
320,192,109401,128,0,109444:0:0:0:0:
448,192,109572,128,0,109744:0:0:0:0:
64,192,109572,128,0,109744:0:0:0:0:
320,192,109744,1,0,0:0:0:0:
192,192,109829,1,0,0:0:0:0:
448,192,109915,1,0,0:0:0:30:CrashR.wav
320,192,109915,1,0,0:0:0:0:
64,192,109915,1,0,0:0:0:30:Snare.wav
320,192,110258,1,0,0:0:0:30:CrashR.wav
64,192,110258,1,0,0:0:0:30:BaSS.wav
192,192,110258,1,0,0:0:0:0:
448,192,110258,128,0,110429:0:0:0:0:
320,192,110429,1,0,0:0:0:0:
64,192,110601,128,0,110772:0:0:0:0:
192,192,110601,1,0,0:0:0:0:
448,192,110601,1,0,0:0:0:30:KicK.wav
320,192,110772,1,0,0:0:0:0:
448,192,110858,1,0,0:0:0:0:
192,192,110944,1,0,0:0:0:0:
320,192,110944,1,0,0:0:0:30:BaSS.wav
64,192,111029,128,0,111286:0:0:0:0:
448,192,111115,1,0,0:0:0:0:
192,192,111286,128,0,111458:0:0:0:0:
448,192,111286,1,0,0:0:0:30:KicK.wav
320,192,111286,1,0,0:0:0:0:
320,192,111458,128,0,111629:0:0:0:0:
448,192,111629,128,0,111801:0:0:0:0:
64,192,111629,1,0,0:0:0:30:BaSS.wav
192,192,111801,1,0,0:0:0:0:
64,192,111972,128,0,112144:0:0:0:0:
320,192,111972,1,0,0:0:0:0:
448,192,111972,1,0,0:0:0:30:KicK.wav
448,192,112144,1,0,0:0:0:0:
192,192,112229,1,0,0:0:0:0:
320,192,112315,1,0,0:0:0:0:
448,192,112315,1,0,0:0:0:30:BaSS.wav
64,192,112401,128,0,112658:0:0:0:0:
320,192,112486,1,0,0:0:0:0:
192,192,112658,1,0,0:0:0:0:
448,192,112658,1,0,0:0:0:0:
320,192,112658,1,0,0:0:0:30:KicK.wav
64,192,112744,1,0,0:0:0:0:
448,192,112829,128,0,113001:0:0:0:0:
320,192,113001,128,0,113172:0:0:0:0:
64,192,113001,1,0,0:0:0:30:BaSS.wav
192,192,113172,128,0,113344:0:0:0:0:
64,192,113344,128,0,113515:0:0:0:0:
448,192,113344,1,0,0:0:0:30:KicK.wav
320,192,113344,1,0,0:0:0:0:
320,192,113515,1,0,0:0:0:0:
448,192,113601,1,0,0:0:0:0:
192,192,113686,1,0,0:0:0:30:BaSS.wav
320,192,113686,1,0,0:0:0:0:
64,192,113772,128,0,114029:0:0:0:0:
448,192,113858,1,0,0:0:0:0:
192,192,114029,128,0,114201:0:0:0:0:
448,192,114029,1,0,0:0:0:30:KicK.wav
320,192,114029,1,0,0:0:0:0:
320,192,114201,128,0,114372:0:0:0:0:
448,192,114372,128,0,114544:0:0:0:0:
64,192,114372,1,0,0:0:0:30:BaSS.wav
192,192,114544,1,0,0:0:0:0:
64,192,114715,128,0,114886:0:0:0:0:
448,192,114715,1,0,0:0:0:30:KicK.wav
192,192,114715,1,0,0:0:0:0:
320,192,114886,1,0,0:0:0:0:
64,192,114972,1,0,0:0:0:0:
448,192,115058,1,0,0:0:0:30:BaSS.wav
320,192,115058,1,0,0:0:0:0:
64,192,115144,128,0,115401:0:0:0:0:
448,192,115229,1,0,0:0:0:0:
448,192,115401,5,0,0:0:0:30:KicK.wav
320,192,115401,1,0,0:0:0:0:
192,192,115401,1,0,0:0:0:0:
64,192,115486,1,0,0:0:0:0:
448,192,115572,1,0,0:0:0:0:
320,192,115658,1,0,0:0:0:0:
64,192,115744,1,0,0:0:0:30:BaSS.wav
192,192,115744,1,0,0:0:0:0:
320,192,115915,1,0,0:0:0:0:
448,192,116086,128,0,116258:0:0:0:0:
64,192,116086,1,0,0:0:0:30:KicK.wav
320,192,116086,1,0,0:0:0:0:
192,192,116258,1,0,0:0:0:0:
320,192,116344,1,0,0:0:0:0:
192,192,116429,1,0,0:0:0:0:
64,192,116429,1,0,0:0:0:30:BaSS.wav
448,192,116515,128,0,116772:0:0:0:0:
64,192,116601,1,0,0:0:0:0:
320,192,116772,128,0,116944:0:0:0:0:
64,192,116772,1,0,0:0:0:30:KicK.wav
192,192,116772,1,0,0:0:0:0:
192,192,116944,128,0,117115:0:0:0:0:
64,192,117115,128,0,117286:0:0:0:0:
448,192,117115,1,0,0:0:0:30:BaSS.wav
320,192,117286,1,0,0:0:0:0:
448,192,117458,128,0,117629:0:0:0:0:
192,192,117458,1,0,0:0:0:30:KicK.wav
320,192,117458,1,0,0:0:0:0:
64,192,117629,1,0,0:0:0:0:
192,192,117715,1,0,0:0:0:0:
320,192,117801,1,0,0:0:0:0:
64,192,117801,1,0,0:0:0:30:BaSS.wav
448,192,117886,128,0,118144:0:0:0:0:
192,192,117972,1,0,0:0:0:0:
320,192,118144,128,0,118315:0:0:0:0:
64,192,118144,1,0,0:0:0:30:KicK.wav
192,192,118144,1,0,0:0:0:0:
192,192,118315,128,0,118486:0:0:0:0:
64,192,118486,128,0,118658:0:0:0:0:
448,192,118486,1,0,0:0:0:30:BaSS.wav
320,192,118658,128,0,118829:0:0:0:0:
448,192,118829,128,0,119001:0:0:0:0:
192,192,118829,1,0,0:0:0:0:
64,192,118829,1,0,0:0:0:30:KicK.wav
320,192,119001,1,0,0:0:0:0:
448,192,119086,1,0,0:0:0:0:
64,192,119172,1,0,0:0:0:30:BaSS.wav
320,192,119172,1,0,0:0:0:0:
448,192,119258,128,0,119515:0:0:0:0:
192,192,119344,1,0,0:0:0:0:
320,192,119515,128,0,119686:0:0:0:0:
64,192,119515,1,0,0:0:0:30:KicK.wav
192,192,119515,1,0,0:0:0:0:
192,192,119686,128,0,119858:0:0:0:0:
64,192,119858,128,0,120029:0:0:0:0:
448,192,119858,1,0,0:0:0:30:BaSS.wav
192,192,120029,1,0,0:0:0:0:
448,192,120201,128,0,120372:0:0:0:0:
320,192,120201,1,0,0:0:0:0:
64,192,120201,1,0,0:0:0:30:KicK.wav
64,192,120372,1,0,0:0:0:0:
320,192,120458,1,0,0:0:0:0:
448,192,120629,128,0,120886:0:0:0:0:
192,192,120886,5,0,0:0:0:0:
64,192,120972,1,0,0:0:0:0:
320,192,121058,1,0,0:0:0:0:
192,192,121144,1,0,0:0:0:0:
448,192,121229,1,0,0:0:0:30:BaSS.wav
64,192,121229,1,0,0:0:0:30:CrashR.wav
320,192,121229,1,0,0:0:0:0:
320,192,121401,1,0,0:0:0:0:
192,192,121572,128,0,121744:0:0:0:0:
448,192,121572,1,0,0:0:0:30:KicK.wav
64,192,121572,1,0,0:0:0:0:
320,192,121744,1,0,0:0:0:0:
64,192,121829,1,0,0:0:0:0:
320,192,121915,1,0,0:0:0:0:
448,192,121915,1,0,0:0:0:30:BaSS.wav
192,192,122001,128,0,122258:0:0:0:0:
448,192,122086,1,0,0:0:0:0:
64,192,122258,128,0,122429:0:0:0:0:
320,192,122258,1,0,0:0:0:0:
448,192,122258,1,0,0:0:0:30:KicK.wav
448,192,122429,128,0,122601:0:0:0:0:
320,192,122601,128,0,122772:0:0:0:0:
64,192,122601,1,0,0:0:0:30:BaSS.wav
448,192,122772,1,0,0:0:0:0:
192,192,122944,128,0,123115:0:0:0:0:
320,192,122944,1,0,0:0:0:0:
448,192,122944,1,0,0:0:0:30:KicK.wav
64,192,123115,1,0,0:0:0:0:
320,192,123201,1,0,0:0:0:0:
448,192,123286,1,0,0:0:0:0:
64,192,123286,1,0,0:0:0:30:BaSS.wav
192,192,123372,128,0,123629:0:0:0:0:
448,192,123458,1,0,0:0:0:0:
64,192,123629,1,0,0:0:0:0:
448,192,123629,1,0,0:0:0:30:KicK.wav
320,192,123629,1,0,0:0:0:0:
192,192,123715,1,0,0:0:0:0:
320,192,123801,128,0,123972:0:0:0:0:
64,192,123972,128,0,124144:0:0:0:0:
448,192,123972,1,0,0:0:0:30:BaSS.wav
448,192,124144,128,0,124315:0:0:0:0:
192,192,124315,128,0,124486:0:0:0:0:
64,192,124315,1,0,0:0:0:30:KicK.wav
320,192,124315,1,0,0:0:0:0:
320,192,124486,1,0,0:0:0:0:
448,192,124572,1,0,0:0:0:0:
320,192,124658,1,0,0:0:0:0:
64,192,124658,1,0,0:0:0:30:BaSS.wav
192,192,124744,128,0,125001:0:0:0:0:
448,192,124829,1,0,0:0:0:0:
320,192,125001,128,0,125172:0:0:0:0:
64,192,125001,1,0,0:0:0:30:KicK.wav
448,192,125001,1,0,0:0:0:0:
448,192,125172,128,0,125344:0:0:0:0:
64,192,125344,128,0,125515:0:0:0:0:
320,192,125344,1,0,0:0:0:30:BaSS.wav
448,192,125515,1,0,0:0:0:0:
192,192,125686,128,0,125858:0:0:0:0:
64,192,125686,1,0,0:0:0:0:
448,192,125686,1,0,0:0:0:30:KicK.wav
320,192,125858,1,0,0:0:0:0:
64,192,125944,1,0,0:0:0:0:
320,192,126029,1,0,0:0:0:0:
448,192,126029,1,0,0:0:0:30:BaSS.wav
192,192,126115,128,0,126372:0:0:0:0:
448,192,126201,1,0,0:0:0:0:
320,192,126372,1,0,0:0:0:0:
64,192,126372,1,0,0:0:0:30:KicK.wav
448,192,126458,1,0,0:0:0:0:
192,192,126544,1,0,0:0:0:0:
320,192,126629,1,0,0:0:0:0:
448,192,126715,1,0,0:0:0:30:CrashR.wav
192,192,126715,1,0,0:0:0:0:
64,192,126715,1,0,0:0:0:30:BaSS.wav
192,192,126886,1,0,0:0:0:0:
320,192,127058,128,0,127229:0:0:0:0:
64,192,127058,1,0,0:0:0:30:KicK.wav
448,192,127058,1,0,0:0:0:0:
448,192,127229,1,0,0:0:0:0:
320,192,127315,1,0,0:0:0:0:
192,192,127401,1,0,0:0:0:0:
64,192,127401,1,0,0:0:0:30:BaSS.wav
320,192,127486,128,0,127744:0:0:0:0:
448,192,127572,1,0,0:0:0:0:
64,192,127744,128,0,127915:0:0:0:0:
192,192,127744,1,0,0:0:0:0:
448,192,127744,1,0,0:0:0:30:KicK.wav
448,192,127915,128,0,128086:0:0:0:0:
192,192,128086,128,0,128258:0:0:0:0:
64,192,128086,1,0,0:0:0:30:BaSS.wav
320,192,128086,1,0,0:0:0:30:CrashR.wav
448,192,128258,1,0,0:0:0:0:
320,192,128429,128,0,128601:0:0:0:0:
64,192,128429,1,0,0:0:0:30:KicK.wav
192,192,128429,1,0,0:0:0:0:
448,192,128601,1,0,0:0:0:0:
192,192,128686,1,0,0:0:0:0:
448,192,128772,1,0,0:0:0:30:BaSS.wav
64,192,128772,1,0,0:0:0:0:
320,192,128858,128,0,129115:0:0:0:0:
192,192,128944,1,0,0:0:0:0:
64,192,129115,1,0,0:0:0:30:KicK.wav
448,192,129115,1,0,0:0:0:0:
192,192,129115,1,0,0:0:0:0:
320,192,129201,1,0,0:0:0:0:
192,192,129286,128,0,129458:0:0:0:0:
448,192,129458,128,0,129629:0:0:0:0:
64,192,129458,1,0,0:0:0:30:BaSS.wav
320,192,129458,1,0,0:0:0:30:CrashR.wav
192,192,129629,1,0,0:0:0:0:
64,192,129801,128,0,129972:0:0:0:0:
448,192,129801,1,0,0:0:0:30:KicK.wav
320,192,129801,1,0,0:0:0:0:
320,192,129972,1,0,0:0:0:0:
448,192,130058,1,0,0:0:0:0:
64,192,130144,1,0,0:0:0:30:CrashR.wav
320,192,130144,1,0,0:0:0:0:
192,192,130144,1,0,0:0:0:30:BaSS.wav
448,192,130229,128,0,130486:0:0:0:0:
64,192,130315,1,0,0:0:0:0:
320,192,130486,1,0,0:0:0:0:
192,192,130486,1,0,0:0:0:0:
64,192,130486,1,0,0:0:0:30:KicK.wav
448,192,130658,1,0,0:0:0:0:
192,192,130829,5,0,0:0:0:0:
448,192,130829,1,0,0:0:0:30:CrashR.wav
64,192,130829,1,0,0:0:0:30:BaSS.wav
320,192,130829,1,0,0:0:0:0:
448,192,131258,128,0,131429:0:0:0:0:
320,192,131344,128,0,131429:0:0:0:0:
64,192,131429,128,0,131601:0:0:0:0:
192,192,131515,128,0,131601:0:0:0:0:
448,192,131601,128,0,131686:0:0:0:0:
64,192,131686,1,0,0:0:0:30:BaSS.wav
192,192,131729,1,0,0:0:0:30:BaSS.wav
320,192,131772,1,0,0:0:0:30:BaSS.wav
448,192,131815,1,0,0:0:0:30:BaSS.wav
192,192,131858,1,0,0:0:0:30:BaSS.wav
64,192,131858,1,0,0:0:0:0:
192,192,131972,1,0,0:0:0:30:BaSS.wav
64,192,131972,1,0,0:0:0:0:
192,192,132086,1,0,0:0:0:30:BaSS.wav
64,192,132086,1,0,0:0:0:0:
192,192,132201,128,0,132458:0:0:0:30:BaSS.wav
64,192,132201,128,0,132458:0:0:0:0:
320,192,132544,1,0,0:0:0:30:BaSS.wav
64,192,132544,1,0,0:0:0:30:CrashR.wav
448,192,132544,128,0,132715:0:0:0:0:
192,192,132715,1,0,0:0:0:0:
320,192,132886,128,0,133058:0:0:0:0:
64,192,132886,1,0,0:0:0:30:BaSS.wav
448,192,133058,1,0,0:0:0:0:
192,192,133229,128,0,133401:0:0:0:0:
64,192,133229,1,0,0:0:0:30:KicK.wav
320,192,133229,1,0,0:0:0:0:
448,192,133401,1,0,0:0:0:0:
64,192,133572,128,0,133744:0:0:0:0:
320,192,133572,1,0,0:0:0:30:BaSS.wav
192,192,133744,1,0,0:0:0:0:
64,192,133915,1,0,0:0:0:30:KicK.wav
448,192,133915,128,0,134086:0:0:0:0:
192,192,133915,1,0,0:0:0:0:
320,192,134086,1,0,0:0:0:0:
64,192,134258,128,0,134429:0:0:0:0:
192,192,134258,1,0,0:0:0:30:BaSS.wav
320,192,134429,1,0,0:0:0:0:
448,192,134601,128,0,134772:0:0:0:0:
64,192,134601,1,0,0:0:0:30:KicK.wav
320,192,134601,1,0,0:0:0:0:
192,192,134772,1,0,0:0:0:0:
64,192,134944,128,0,135115:0:0:0:0:
448,192,134944,1,0,0:0:0:30:BaSS.wav
192,192,135115,128,0,135286:0:0:0:0:
320,192,135286,128,0,135458:0:0:0:0:
64,192,135286,1,0,0:0:0:30:KicK.wav
448,192,135286,1,0,0:0:0:0:
448,192,135458,128,0,135629:0:0:0:0:
192,192,135629,128,0,135801:0:0:0:0:
64,192,135629,1,0,0:0:0:30:BaSS.wav
320,192,135801,128,0,135972:0:0:0:0:
448,192,135972,128,0,136144:0:0:0:0:
64,192,135972,1,0,0:0:0:30:KicK.wav
192,192,135972,1,0,0:0:0:0:
192,192,136144,1,0,0:0:0:0:
448,192,136315,128,0,136486:0:0:0:0:
320,192,136315,1,0,0:0:0:30:BaSS.wav
64,192,136486,1,0,0:0:0:0:
448,192,136658,1,0,0:0:0:30:KicK.wav
320,192,136658,1,0,0:0:0:0:
64,192,136658,1,0,0:0:0:0:
192,192,136829,1,0,0:0:0:0:
64,192,137001,1,0,0:0:0:0:
448,192,137001,1,0,0:0:0:30:BaSS.wav
320,192,137172,1,0,0:0:0:0:
64,192,137344,128,0,137515:0:0:0:0:
192,192,137344,1,0,0:0:0:0:
448,192,137344,1,0,0:0:0:30:KicK.wav
448,192,137515,128,0,137686:0:0:0:0:
64,192,137686,128,0,138029:0:0:0:0:
192,192,137686,1,0,0:0:0:30:BaSS.wav
320,192,137858,1,0,0:0:0:0:
448,192,138029,128,0,138201:0:0:0:0:
192,192,138029,1,0,0:0:0:30:KicK.wav
320,192,138029,1,0,0:0:0:0:
320,192,138201,128,0,138372:0:0:0:0:
192,192,138372,128,0,138544:0:0:0:0:
448,192,138372,1,0,0:0:0:30:BaSS.wav
64,192,138544,128,0,138715:0:0:0:0:
320,192,138715,128,0,138886:0:0:0:0:
448,192,138715,1,0,0:0:0:0:
192,192,138715,1,0,0:0:0:30:KicK.wav
64,192,138886,128,0,139058:0:0:0:0:
320,192,139058,1,0,0:0:0:0:
192,192,139058,1,0,0:0:0:30:BaSS.wav
448,192,139229,128,0,139401:0:0:0:0:
64,192,139401,128,0,139572:0:0:0:0:
192,192,139401,1,0,0:0:0:30:KicK.wav
320,192,139401,1,0,0:0:0:0:
320,192,139572,128,0,139744:0:0:0:0:
192,192,139744,128,0,139915:0:0:0:0:
448,192,139744,1,0,0:0:0:30:BaSS.wav
64,192,139915,128,0,140086:0:0:0:0:
320,192,140086,128,0,140258:0:0:0:0:
192,192,140086,1,0,0:0:0:30:KicK.wav
448,192,140086,1,0,0:0:0:0:
448,192,140258,128,0,140429:0:0:0:0:
64,192,140429,1,0,0:0:0:30:BaSS.wav
192,192,140429,1,0,0:0:0:0:
320,192,140601,1,0,0:0:0:0:
64,192,140772,128,0,141115:0:0:0:0:
448,192,140772,1,0,0:0:0:30:KicK.wav
320,192,140772,1,0,0:0:0:0:
192,192,140944,128,0,141286:0:0:0:0:
320,192,141115,128,0,141458:0:0:0:0:
448,192,141115,1,0,0:0:0:30:BaSS.wav
448,192,141286,128,0,141629:0:0:0:0:
192,192,141458,128,0,141801:0:0:0:0:
64,192,141458,1,0,0:0:0:30:KicK.wav
64,192,141629,128,0,141972:0:0:0:0:
448,192,141801,128,0,141972:0:0:0:0:
320,192,141801,1,0,0:0:0:30:BaSS.wav
192,192,141972,1,0,0:0:0:0:
320,192,142144,1,0,0:0:0:0:
448,192,142144,1,0,0:0:0:0:
64,192,142144,1,0,0:0:0:30:KicK.wav
448,192,142315,1,0,0:0:0:0:
64,192,142486,1,0,0:0:0:0:
192,192,142529,1,0,0:0:0:0:
320,192,142572,1,0,0:0:0:0:
448,192,142615,1,0,0:0:0:0:
64,192,142658,1,0,0:0:0:0:
192,192,142701,1,0,0:0:0:0:
320,192,142744,1,0,0:0:0:0:
448,192,142786,1,0,0:0:0:0:
64,192,142829,1,0,0:0:0:0:
192,192,142872,1,0,0:0:0:0:
320,192,142915,1,0,0:0:0:0:
448,192,142958,1,0,0:0:0:0:
64,192,143001,1,0,0:0:0:0:
192,192,143044,1,0,0:0:0:0:
320,192,143086,1,0,0:0:0:0:
448,192,143129,1,0,0:0:0:0:
192,192,143172,1,0,0:0:0:0:
64,192,143172,1,0,0:0:0:30:BaSS.wav
320,192,143344,1,0,0:0:0:0:
448,192,143515,1,0,0:0:0:30:KicK.wav
64,192,143515,1,0,0:0:0:0:
192,192,143515,1,0,0:0:0:0:
448,192,143686,1,0,0:0:0:0:
320,192,143858,1,0,0:0:0:0:
64,192,143858,1,0,0:0:0:30:BaSS.wav
320,192,144029,1,0,0:0:0:0:
192,192,144201,1,0,0:0:0:0:
64,192,144201,1,0,0:0:0:0:
448,192,144201,1,0,0:0:0:30:KicK.wav
192,192,144372,1,0,0:0:0:0:
448,192,144544,1,0,0:0:0:30:BaSS.wav
64,192,144544,1,0,0:0:0:0:
64,192,144715,1,0,0:0:0:0:
192,192,144886,1,0,0:0:0:30:KicK.wav
448,192,144886,1,0,0:0:0:0:
320,192,144886,1,0,0:0:0:0:
64,192,145058,1,0,0:0:0:0:
192,192,145144,1,0,0:0:0:30:Snare.wav
320,192,145229,1,0,0:0:0:30:BaSS.wav
448,192,145229,1,0,0:0:0:0:
192,192,145315,1,0,0:0:0:30:Snare.wav
64,192,145315,1,0,0:0:0:0:
448,192,145401,1,0,0:0:0:0:
64,192,145572,1,0,0:0:0:30:KicK.wav
192,192,145572,1,0,0:0:0:0:
448,192,145572,1,0,0:0:0:0:
64,192,145744,1,0,0:0:0:30:Snare.wav
320,192,145744,1,0,0:0:0:0:
192,192,145915,1,0,0:0:0:0:
64,192,145915,1,0,0:0:0:30:BaSS.wav
320,192,146086,1,0,0:0:0:0:
448,192,146258,1,0,0:0:0:0:
64,192,146258,1,0,0:0:0:30:KicK.wav
192,192,146258,1,0,0:0:0:0:
192,192,146429,1,0,0:0:0:0:
320,192,146601,1,0,0:0:0:0:
448,192,146601,1,0,0:0:0:30:BaSS.wav
192,192,146772,1,0,0:0:0:0:
320,192,146944,1,0,0:0:0:0:
448,192,146944,1,0,0:0:0:0:
64,192,146944,1,0,0:0:0:30:KicK.wav
448,192,147115,5,0,0:0:0:30:Snare.wav
64,192,147115,1,0,0:0:0:0:
320,192,147201,1,0,0:0:0:30:Snare.wav
192,192,147201,1,0,0:0:0:0:
448,192,147286,1,0,0:0:0:30:BaSS.wav
64,192,147286,1,0,0:0:0:0:
192,192,147458,1,0,0:0:0:0:
320,192,147629,1,0,0:0:0:0:
448,192,147629,1,0,0:0:0:0:
64,192,147629,1,0,0:0:0:30:KicK.wav
448,192,147801,1,0,0:0:0:0:
320,192,147972,1,0,0:0:0:30:BaSS.wav
64,192,147972,1,0,0:0:0:0:
192,192,148144,5,0,0:0:0:0:
448,192,148144,1,0,0:0:0:30:Snare.wav
320,192,148229,1,0,0:0:0:30:Snare.wav
64,192,148229,1,0,0:0:0:0:
192,192,148315,1,0,0:0:0:0:
448,192,148315,1,0,0:0:0:30:KicK.wav
320,192,148401,1,0,0:0:0:30:Snare.wav
64,192,148401,1,0,0:0:0:0:
192,192,148486,1,0,0:0:0:0:
448,192,148486,1,0,0:0:0:30:Snare.wav
64,192,148572,1,0,0:0:0:0:
320,192,148572,1,0,0:0:0:30:Snare.wav
448,192,148658,128,0,149001:0:0:0:0:
320,192,149001,1,0,0:0:0:0:
192,192,149001,1,0,0:0:0:30:CrashR.wav
64,192,149001,1,0,0:0:0:30:KicK.wav
448,192,149172,1,0,0:0:0:0:
320,192,149172,1,0,0:0:0:30:Snare.wav
320,192,149258,1,0,0:0:0:0:
192,192,149258,1,0,0:0:0:30:Snare.wav
192,192,149344,1,0,0:0:0:0:
64,192,149344,1,0,0:0:0:30:BaSS.wav
320,192,149515,1,0,0:0:0:0:
64,192,149515,1,0,0:0:0:30:Snare.wav
448,192,149686,1,0,0:0:0:0:
320,192,149686,1,0,0:0:0:0:
64,192,149686,1,0,0:0:0:30:KicK.wav
320,192,149858,1,0,0:0:0:0:
192,192,149858,1,0,0:0:0:30:Snare.wav
192,192,150029,1,0,0:0:0:0:
64,192,150029,1,0,0:0:0:30:BaSS.wav
320,192,150201,1,0,0:0:0:30:Snare.wav
448,192,150201,1,0,0:0:0:0:
448,192,150372,1,0,0:0:0:0:
192,192,150372,1,0,0:0:0:0:
64,192,150372,1,0,0:0:0:30:KicK.wav
192,192,150544,1,0,0:0:0:30:Snare.wav
320,192,150544,1,0,0:0:0:0:
192,192,150715,1,0,0:0:0:0:
64,192,150715,1,0,0:0:0:30:BaSS.wav
448,192,150886,1,0,0:0:0:0:
320,192,150886,1,0,0:0:0:30:Snare.wav
64,192,150972,1,0,0:0:0:30:Snare.wav
192,192,151015,1,0,0:0:0:30:Snare.wav
320,192,151058,1,0,0:0:0:30:KicK.wav
448,192,151058,1,0,0:0:0:0:
192,192,151229,1,0,0:0:0:0:
64,192,151229,1,0,0:0:0:30:Snare.wav
192,192,151401,5,0,0:0:0:30:CrashR.wav
64,192,151486,1,0,0:0:0:30:Snare.wav
320,192,151486,1,0,0:0:0:0:
192,192,151572,1,0,0:0:0:30:Snare.wav
448,192,151572,1,0,0:0:0:0:
320,192,151658,1,0,0:0:0:0:
64,192,151658,1,0,0:0:0:30:Snare.wav
192,192,151744,1,0,0:0:0:30:CrashR.wav
448,192,151829,1,0,0:0:0:0:
64,192,151829,1,0,0:0:0:30:Snare.wav
320,192,151915,1,0,0:0:0:0:
192,192,151915,1,0,0:0:0:30:Snare.wav
448,192,152001,1,0,0:0:0:0:
64,192,152001,1,0,0:0:0:30:Snare.wav
320,192,152086,1,0,0:0:0:30:CrashR.wav
192,192,152172,1,0,0:0:0:30:Snare.wav
64,192,152172,1,0,0:0:0:0:
320,192,152258,1,0,0:0:0:30:Snare.wav
448,192,152258,1,0,0:0:0:0:
192,192,152344,1,0,0:0:0:30:Snare.wav
64,192,152344,1,0,0:0:0:0:
320,192,152429,1,0,0:0:0:30:Snare.wav
448,192,152429,1,0,0:0:0:0:
192,192,152515,1,0,0:0:0:30:Snare.wav
64,192,152515,1,0,0:0:0:0:
320,192,152601,1,0,0:0:0:30:Snare.wav
448,192,152601,1,0,0:0:0:0:
192,192,152686,1,0,0:0:0:30:Snare.wav
64,192,152686,1,0,0:0:0:0:
320,192,152772,128,0,152858:0:0:0:0:
448,192,152772,128,0,152858:0:0:0:30:BaSS.wav
320,192,152944,128,0,153029:0:0:0:0:
448,192,152944,128,0,153029:0:0:0:0:
320,192,153115,128,0,153201:0:0:0:0:
192,192,153115,128,0,153201:0:0:0:0:
64,192,153286,128,0,153372:0:0:0:0:
448,192,153286,128,0,153372:0:0:0:0:
64,192,153458,128,0,153544:0:0:0:0:
192,192,153458,128,0,153544:0:0:0:0:
192,192,153629,128,0,153715:0:0:0:0:
320,192,153629,128,0,153715:0:0:0:0:
320,192,153801,128,0,153886:0:0:0:0:
448,192,153801,128,0,153886:0:0:0:0:
64,192,153801,1,0,0:0:0:30:Snare.wav
192,192,153972,1,0,0:0:0:0:
64,192,153972,1,0,0:0:0:30:BaSS.wav
320,192,154144,1,0,0:0:0:30:CrashR.wav
64,192,154144,1,0,0:0:0:30:BaSS.wav
448,192,154144,128,0,155515:0:0:0:0:
320,192,154315,1,0,0:0:0:0:
192,192,154486,1,0,0:0:0:30:Snare.wav
64,192,154486,1,0,0:0:0:0:
320,192,154572,1,0,0:0:0:30:BaSS.wav
64,192,154658,1,0,0:0:0:0:
320,192,154744,1,0,0:0:0:30:BaSS.wav
64,192,154829,1,0,0:0:0:0:
192,192,155001,1,0,0:0:0:30:BaSS.wav
320,192,155172,1,0,0:0:0:0:
64,192,155172,1,0,0:0:0:30:Snare.wav
320,192,155344,1,0,0:0:0:0:
64,192,155515,128,0,156544:0:0:0:0:
192,192,155515,1,0,0:0:0:30:BaSS.wav
192,192,155686,1,0,0:0:0:0:
448,192,155858,1,0,0:0:0:30:Snare.wav
320,192,155858,1,0,0:0:0:0:
192,192,156029,1,0,0:0:0:30:BaSS.wav
448,192,156115,1,0,0:0:0:0:
320,192,156115,1,0,0:0:0:30:Snare.wav
192,192,156201,1,0,0:0:0:0:
320,192,156372,1,0,0:0:0:30:BaSS.wav
448,192,156544,1,0,0:0:0:0:
192,192,156544,1,0,0:0:0:30:Snare.wav
320,192,156715,1,0,0:0:0:0:
192,192,156715,1,0,0:0:0:30:BaSS.wav
448,192,156886,128,0,158258:0:0:0:0:
64,192,156886,1,0,0:0:0:30:BaSS.wav
320,192,157058,1,0,0:0:0:0:
192,192,157229,1,0,0:0:0:0:
64,192,157229,1,0,0:0:0:30:Snare.wav
320,192,157401,1,0,0:0:0:30:BaSS.wav
64,192,157572,1,0,0:0:0:0:
320,192,157658,1,0,0:0:0:30:BaSS.wav
64,192,157744,1,0,0:0:0:0:
320,192,157829,1,0,0:0:0:30:BaSS.wav
192,192,157915,1,0,0:0:0:30:Snare.wav
64,192,157915,1,0,0:0:0:0:
320,192,158086,1,0,0:0:0:30:BaSS.wav
64,192,158258,128,0,158944:0:0:0:0:
192,192,158258,1,0,0:0:0:0:
448,192,158429,1,0,0:0:0:30:BaSS.wav
320,192,158601,1,0,0:0:0:0:
192,192,158601,1,0,0:0:0:30:Snare.wav
448,192,158686,1,0,0:0:0:30:BaSS.wav
192,192,158772,1,0,0:0:0:0:
320,192,158858,1,0,0:0:0:30:BaSS.wav
448,192,158944,128,0,159286:0:0:0:0:
192,192,159115,1,0,0:0:0:30:BaSS.wav
64,192,159286,1,0,0:0:0:30:Snare.wav
320,192,159286,1,0,0:0:0:0:
320,192,159458,1,0,0:0:0:30:BaSS.wav
192,192,159458,1,0,0:0:0:0:
64,192,159629,128,0,161001:0:0:0:0:
448,192,159629,1,0,0:0:0:30:BaSS.wav
320,192,159801,1,0,0:0:0:0:
192,192,159972,1,0,0:0:0:30:Snare.wav
448,192,159972,1,0,0:0:0:0:
320,192,160058,1,0,0:0:0:30:BaSS.wav
448,192,160144,1,0,0:0:0:0:
192,192,160229,1,0,0:0:0:30:BaSS.wav
448,192,160315,1,0,0:0:0:0:
320,192,160486,1,0,0:0:0:30:BaSS.wav
448,192,160658,1,0,0:0:0:0:
192,192,160658,1,0,0:0:0:30:Snare.wav
320,192,160829,1,0,0:0:0:0:
192,192,161001,128,0,162029:0:0:0:0:
448,192,161001,1,0,0:0:0:30:BaSS.wav
64,192,161172,1,0,0:0:0:0:
448,192,161344,1,0,0:0:0:30:Snare.wav
320,192,161344,1,0,0:0:0:0:
64,192,161515,1,0,0:0:0:30:BaSS.wav
320,192,161601,1,0,0:0:0:30:Snare.wav
448,192,161601,1,0,0:0:0:0:
64,192,161686,1,0,0:0:0:0:
320,192,161858,1,0,0:0:0:30:BaSS.wav
448,192,162029,1,0,0:0:0:30:Snare.wav
64,192,162029,1,0,0:0:0:0:
320,192,162115,1,0,0:0:0:0:
192,192,162201,1,0,0:0:0:30:BaSS.wav
320,192,162286,1,0,0:0:0:0:
64,192,162372,128,0,163744:0:0:0:0:
448,192,162372,1,0,0:0:0:30:BaSS.wav
192,192,162544,1,0,0:0:0:0:
448,192,162715,1,0,0:0:0:0:
320,192,162715,1,0,0:0:0:30:Snare.wav
192,192,162886,1,0,0:0:0:30:BaSS.wav
448,192,163058,1,0,0:0:0:0:
192,192,163144,1,0,0:0:0:30:BaSS.wav
448,192,163229,1,0,0:0:0:0:
192,192,163315,1,0,0:0:0:30:BaSS.wav
320,192,163401,1,0,0:0:0:30:Snare.wav
448,192,163401,1,0,0:0:0:0:
192,192,163572,1,0,0:0:0:30:BaSS.wav
448,192,163744,128,0,164258:0:0:0:0:
320,192,163915,1,0,0:0:0:30:BaSS.wav
192,192,164086,1,0,0:0:0:30:Snare.wav
64,192,164086,1,0,0:0:0:0:
320,192,164172,1,0,0:0:0:30:BaSS.wav
64,192,164258,1,0,0:0:0:0:
320,192,164344,1,0,0:0:0:30:BaSS.wav
64,192,164429,128,0,164515:0:0:0:0:
192,192,164515,128,0,164601:0:0:0:0:
320,192,164601,128,0,164686:0:0:0:0:
448,192,164772,1,0,0:0:0:0:
64,192,164772,1,0,0:0:0:30:Snare.wav
320,192,164944,1,0,0:0:0:0:
192,192,164944,1,0,0:0:0:30:BaSS.wav
448,192,165115,128,0,166486:0:0:0:0:
64,192,165115,1,0,0:0:0:30:BaSS.wav
192,192,165115,1,0,0:0:0:30:CrashR.wav
320,192,165286,1,0,0:0:0:0:
192,192,165458,1,0,0:0:0:30:Snare.wav
64,192,165458,1,0,0:0:0:0:
320,192,165544,1,0,0:0:0:30:BaSS.wav
64,192,165629,1,0,0:0:0:0:
320,192,165715,1,0,0:0:0:30:BaSS.wav
64,192,165801,1,0,0:0:0:0:
192,192,165972,1,0,0:0:0:30:BaSS.wav
320,192,166144,1,0,0:0:0:30:Snare.wav
64,192,166144,1,0,0:0:0:0:
192,192,166315,1,0,0:0:0:0:
320,192,166486,128,0,167172:0:0:0:0:
64,192,166486,1,0,0:0:0:30:BaSS.wav
192,192,166658,1,0,0:0:0:0:
448,192,166829,1,0,0:0:0:30:Snare.wav
64,192,166829,1,0,0:0:0:0:
192,192,167001,1,0,0:0:0:30:BaSS.wav
448,192,167086,1,0,0:0:0:30:Snare.wav
64,192,167086,1,0,0:0:0:0:
192,192,167172,128,0,167515:0:0:0:0:
320,192,167344,1,0,0:0:0:30:BaSS.wav
448,192,167515,1,0,0:0:0:30:Snare.wav
64,192,167515,1,0,0:0:0:0:
64,192,167858,128,0,169229:0:0:0:0:
448,192,167858,1,0,0:0:0:30:CrashR.wav
320,192,167858,1,0,0:0:0:30:BaSS.wav
192,192,168029,1,0,0:0:0:0:
448,192,168201,1,0,0:0:0:30:Snare.wav
320,192,168201,1,0,0:0:0:0:
192,192,168372,1,0,0:0:0:30:BaSS.wav
448,192,168544,1,0,0:0:0:0:
192,192,168629,1,0,0:0:0:30:BaSS.wav
448,192,168715,1,0,0:0:0:0:
192,192,168801,1,0,0:0:0:30:BaSS.wav
320,192,168886,1,0,0:0:0:30:Snare.wav
448,192,168886,1,0,0:0:0:0:
192,192,169058,1,0,0:0:0:30:BaSS.wav
448,192,169144,1,0,0:0:0:0:
192,192,169229,128,0,169915:0:0:0:0:
64,192,169401,1,0,0:0:0:30:BaSS.wav
448,192,169572,1,0,0:0:0:0:
320,192,169572,1,0,0:0:0:30:Snare.wav
64,192,169658,1,0,0:0:0:30:BaSS.wav
448,192,169744,1,0,0:0:0:0:
64,192,169829,1,0,0:0:0:30:BaSS.wav
320,192,169915,128,0,170258:0:0:0:0:
64,192,170086,1,0,0:0:0:30:BaSS.wav
448,192,170258,1,0,0:0:0:0:
192,192,170258,1,0,0:0:0:30:Snare.wav
192,192,170429,1,0,0:0:0:30:BaSS.wav
320,192,170515,1,0,0:0:0:30:BaSS.wav
448,192,170601,128,0,171972:0:0:0:0:
192,192,170601,1,0,0:0:0:30:CrashR.wav
64,192,170601,1,0,0:0:0:30:BaSS.wav
320,192,170772,1,0,0:0:0:0:
192,192,170944,1,0,0:0:0:30:Snare.wav
64,192,170944,1,0,0:0:0:0:
320,192,171029,1,0,0:0:0:30:BaSS.wav
192,192,171115,1,0,0:0:0:0:
320,192,171201,1,0,0:0:0:30:BaSS.wav
192,192,171286,1,0,0:0:0:0:
320,192,171458,1,0,0:0:0:30:BaSS.wav
192,192,171629,1,0,0:0:0:30:Snare.wav
64,192,171629,1,0,0:0:0:0:
320,192,171801,1,0,0:0:0:0:
64,192,171972,128,0,172658:0:0:0:0:
192,192,171972,1,0,0:0:0:30:BaSS.wav
320,192,171972,1,0,0:0:0:30:CrashR.wav
448,192,172144,1,0,0:0:0:0:
320,192,172315,1,0,0:0:0:30:Snare.wav
192,192,172315,1,0,0:0:0:0:
448,192,172486,1,0,0:0:0:30:BaSS.wav
192,192,172572,1,0,0:0:0:0:
320,192,172572,1,0,0:0:0:30:Snare.wav
448,192,172658,128,0,173001:0:0:0:0:
64,192,172829,1,0,0:0:0:30:BaSS.wav
64,192,173001,1,0,0:0:0:30:Snare.wav
320,192,173001,1,0,0:0:0:0:
448,192,173086,1,0,0:0:0:0:
192,192,173172,1,0,0:0:0:30:BaSS.wav
320,192,173258,1,0,0:0:0:0:
64,192,173344,128,0,174629:0:0:0:0:
192,192,173344,1,0,0:0:0:30:BaSS.wav
448,192,173344,1,0,0:0:0:30:CrashR.wav
320,192,173515,1,0,0:0:0:0:
448,192,173686,1,0,0:0:0:0:
192,192,173686,1,0,0:0:0:30:Snare.wav
192,192,173858,1,0,0:0:0:30:BaSS.wav
448,192,174029,1,0,0:0:0:0:
192,192,174115,1,0,0:0:0:30:BaSS.wav
448,192,174201,1,0,0:0:0:0:
192,192,174286,1,0,0:0:0:30:BaSS.wav
320,192,174372,1,0,0:0:0:30:Snare.wav
448,192,174372,1,0,0:0:0:0:
192,192,174544,1,0,0:0:0:30:BaSS.wav
448,192,174715,1,0,0:0:0:30:BaSS.wav
64,192,174715,1,0,0:0:0:30:CrashR.wav
320,192,174715,128,0,174801:0:0:0:0:
192,192,174801,128,0,174886:0:0:0:0:
64,192,174886,128,0,174972:0:0:0:0:
64,192,175058,128,0,175744:0:0:0:0:
192,192,175744,128,0,175915:0:0:0:0:
320,192,175915,128,0,176086:0:0:0:0:
192,192,176086,128,0,177458:0:0:0:0:
448,192,176086,128,0,180201:0:0:0:30:BaSS.wav
64,192,176086,128,0,178829:0:0:0:30:CrashR.wav
320,192,177458,128,0,180886:0:0:0:0:
192,192,178829,128,0,181572:0:0:0:0:
64,192,180201,128,0,182858:0:0:0:0:
448,192,180886,128,0,184315:0:0:0:0:
320,192,181572,128,0,185686:0:0:0:0:
64,192,182944,128,0,183629:0:0:0:0:
192,192,183629,128,0,187058:0:0:0:0:
64,192,184315,128,0,188429:0:0:0:0:
448,192,185686,128,0,189801:0:0:0:0:
320,192,187058,128,0,190486:0:0:0:0:
192,192,188429,128,0,191172:0:0:0:0:
64,192,189801,128,0,192544:0:0:0:0:
448,192,190486,128,0,193915:0:0:0:0:
320,192,191172,128,0,194601:0:0:0:0:
192,192,192544,128,0,194601:0:0:0:0:
64,192,193915,128,0,194601:0:0:0:0:
64,192,194772,128,0,195286:0:0:0:0:
192,192,194772,128,0,196658:0:0:0:0:
320,192,194772,128,0,198029:0:0:0:0:
448,192,195286,128,0,198029:0:0:0:0:
64,192,196658,128,0,198029:0:0:0:0:
448,192,198715,1,0,0:0:0:30:Snare.wav
64,192,198715,1,0,0:0:0:0:
320,192,198715,1,0,0:0:0:0:
448,192,198886,5,0,0:0:0:30:Snare.wav
320,192,198886,1,0,0:0:0:0:
64,192,198886,1,0,0:0:0:0:
64,192,199058,1,0,0:0:0:30:Snare.wav
192,192,199058,1,0,0:0:0:0:
448,192,199144,1,0,0:0:0:0:
320,192,199144,1,0,0:0:0:30:Snare.wav
192,192,199229,1,0,0:0:0:0:
64,192,199229,1,0,0:0:0:30:Snare.wav
448,192,199315,1,0,0:0:0:0:
320,192,199315,1,0,0:0:0:30:Snare.wav
448,192,199401,1,0,0:0:0:30:CrashR.wav
320,192,199401,1,0,0:0:0:0:
64,192,199401,1,0,0:0:0:30:BaSS.wav
192,192,199401,1,0,0:0:0:0:
192,192,199572,128,0,199744:0:0:0:0:
64,192,199744,1,0,0:0:0:30:BaSS.wav
448,192,199744,1,0,0:0:0:0:
320,192,199915,128,0,200086:0:0:0:0:
64,192,200086,1,0,0:0:0:30:BaSS.wav
192,192,200086,1,0,0:0:0:0:
448,192,200258,128,0,200429:0:0:0:0:
64,192,200429,1,0,0:0:0:30:BaSS.wav
320,192,200429,1,0,0:0:0:0:
448,192,200515,1,0,0:0:0:0:
192,192,200601,128,0,200772:0:0:0:0:
448,192,200772,1,0,0:0:0:0:
64,192,200772,1,0,0:0:0:30:BaSS.wav
320,192,200944,128,0,201115:0:0:0:0:
448,192,201115,1,0,0:0:0:30:BaSS.wav
192,192,201115,1,0,0:0:0:0:
64,192,201286,128,0,201458:0:0:0:0:
448,192,201458,1,0,0:0:0:30:BaSS.wav
320,192,201458,1,0,0:0:0:0:
192,192,201629,128,0,201801:0:0:0:0:
448,192,201801,1,0,0:0:0:30:BaSS.wav
64,192,201801,1,0,0:0:0:0:
192,192,201886,1,0,0:0:0:0:
448,192,201972,128,0,202144:0:0:0:0:
192,192,202058,1,0,0:0:0:0:
320,192,202144,1,0,0:0:0:0:
64,192,202144,1,0,0:0:0:30:BaSS.wav
192,192,202315,128,0,202486:0:0:0:0:
320,192,202486,1,0,0:0:0:0:
448,192,202486,1,0,0:0:0:30:BaSS.wav
64,192,202658,128,0,202829:0:0:0:0:
320,192,202829,1,0,0:0:0:30:BaSS.wav
192,192,202829,1,0,0:0:0:0:
448,192,203001,128,0,203172:0:0:0:0:
320,192,203172,1,0,0:0:0:0:
192,192,203172,1,0,0:0:0:30:BaSS.wav
64,192,203344,128,0,203515:0:0:0:0:
192,192,203515,1,0,0:0:0:0:
448,192,203515,1,0,0:0:0:30:BaSS.wav
320,192,203686,128,0,203858:0:0:0:0:
192,192,203858,1,0,0:0:0:0:
64,192,203858,1,0,0:0:0:30:BaSS.wav
448,192,204029,128,0,204201:0:0:0:0:
192,192,204201,1,0,0:0:0:30:BaSS.wav
320,192,204201,1,0,0:0:0:0:
448,192,204372,128,0,204544:0:0:0:0:
192,192,204458,1,0,0:0:0:0:
64,192,204458,1,0,0:0:0:30:BaSS.wav
192,192,204715,1,0,0:0:0:30:BaSS.wav
448,192,204715,128,0,204886:0:0:0:0:
320,192,204715,1,0,0:0:0:0:
64,192,204886,1,0,0:0:0:30:BaSS.wav
192,192,204886,1,0,0:0:0:0:
320,192,205058,128,0,205229:0:0:0:0:
64,192,205229,1,0,0:0:0:30:BaSS.wav
448,192,205229,1,0,0:0:0:0:
192,192,205401,128,0,205572:0:0:0:0:
64,192,205572,1,0,0:0:0:30:BaSS.wav
448,192,205572,1,0,0:0:0:0:
448,192,205744,128,0,205915:0:0:0:0:
64,192,205915,1,0,0:0:0:30:BaSS.wav
192,192,205915,1,0,0:0:0:0:
320,192,206086,128,0,206258:0:0:0:0:
448,192,206258,1,0,0:0:0:0:
64,192,206258,1,0,0:0:0:30:BaSS.wav
192,192,206429,128,0,206601:0:0:0:0:
448,192,206601,1,0,0:0:0:30:BaSS.wav
320,192,206601,1,0,0:0:0:0:
64,192,206772,128,0,206944:0:0:0:0:
448,192,206944,1,0,0:0:0:30:BaSS.wav
192,192,206944,1,0,0:0:0:0:
320,192,207115,128,0,207286:0:0:0:0:
448,192,207286,1,0,0:0:0:30:BaSS.wav
64,192,207286,1,0,0:0:0:0:
320,192,207372,1,0,0:0:0:0:
64,192,207458,128,0,207629:0:0:0:0:
448,192,207544,1,0,0:0:0:0:
320,192,207629,1,0,0:0:0:30:BaSS.wav
192,192,207629,1,0,0:0:0:0:
448,192,207801,128,0,207972:0:0:0:0:
320,192,207972,1,0,0:0:0:0:
64,192,207972,1,0,0:0:0:30:BaSS.wav
448,192,208144,128,0,208315:0:0:0:0:
320,192,208315,1,0,0:0:0:0:
192,192,208315,1,0,0:0:0:30:BaSS.wav
64,192,208486,128,0,208658:0:0:0:0:
320,192,208658,1,0,0:0:0:30:BaSS.wav
448,192,208658,1,0,0:0:0:0:
192,192,208829,1,0,0:0:0:0:
320,192,209001,128,0,209344:0:0:0:0:
448,192,209001,128,0,209172:0:0:0:30:BaSS.wav
192,192,209001,128,0,209515:0:0:0:0:
64,192,209001,128,0,209686:0:0:0:30:CrashR.wav
448,192,209344,1,0,0:0:0:0:
320,192,209515,1,0,0:0:0:0:
192,192,209686,1,0,0:0:0:0:
64,192,209858,1,0,0:0:0:0:
192,192,210029,1,0,0:0:0:0:
320,192,210201,1,0,0:0:0:0:
448,192,210372,1,0,0:0:0:30:BaSS.wav
192,192,210372,1,0,0:0:0:0:
64,192,210372,1,0,0:0:0:30:CrashR.wav
320,192,210372,1,0,0:0:0:0:
192,192,210544,1,0,0:0:0:0:
320,192,210715,128,0,210886:0:0:0:0:
64,192,210715,1,0,0:0:0:30:Snare.wav
192,192,210886,128,0,211058:0:0:0:0:
64,192,211058,128,0,211229:0:0:0:0:
448,192,211058,1,0,0:0:0:30:Snare.wav
448,192,211229,128,0,211401:0:0:0:0:
192,192,211401,128,0,211572:0:0:0:0:
64,192,211401,1,0,0:0:0:30:Snare.wav
320,192,211572,128,0,211744:0:0:0:0:
448,192,211744,128,0,211915:0:0:0:0:
64,192,211744,1,0,0:0:0:30:BaSS.wav
192,192,211744,1,0,0:0:0:30:CrashR.wav
320,192,211915,1,0,0:0:0:0:
64,192,212086,128,0,212258:0:0:0:0:
448,192,212086,1,0,0:0:0:30:Snare.wav
320,192,212258,1,0,0:0:0:0:
448,192,212344,1,0,0:0:0:30:Snare.wav
192,192,212344,1,0,0:0:0:0:
64,192,212515,1,0,0:0:0:30:Snare.wav
320,192,212515,1,0,0:0:0:0:
448,192,212601,128,0,212686:0:0:0:0:
192,192,212686,1,0,0:0:0:0:
64,192,212686,1,0,0:0:0:30:Snare.wav
320,192,212772,1,0,0:0:0:0:
448,192,212772,1,0,0:0:0:30:Snare.wav
64,192,212944,1,0,0:0:0:30:Snare.wav
192,192,212944,1,0,0:0:0:0:
192,192,213029,1,0,0:0:0:0:
64,192,213029,1,0,0:0:0:30:Snare.wav
448,192,213115,1,0,0:0:0:30:BaSS.wav
320,192,213115,1,0,0:0:0:0:
192,192,213115,1,0,0:0:0:0:
64,192,213115,1,0,0:0:0:30:CrashR.wav
320,192,213372,128,0,213458:0:0:0:0:
64,192,213458,1,0,0:0:0:30:Snare.wav
448,192,213458,1,0,0:0:0:0:
192,192,213629,128,0,213715:0:0:0:0:
448,192,213801,128,0,213972:0:0:0:0:
320,192,213801,1,0,0:0:0:30:Snare.wav
64,192,214144,5,0,0:0:0:30:CrashR.wav
192,192,214144,1,0,0:0:0:0:
320,192,214144,1,0,0:0:0:0:
448,192,214144,1,0,0:0:0:30:BaSS.wav
192,192,214315,1,0,0:0:0:0:
64,192,214315,1,0,0:0:0:30:Snare.wav
448,192,214486,1,0,0:0:0:30:BaSS.wav
320,192,214486,1,0,0:0:0:0:
192,192,214486,1,0,0:0:0:0:
64,192,214486,1,0,0:0:0:30:CrashR.wav
64,192,214658,128,0,214744:0:0:0:0:
192,192,214744,128,0,214829:0:0:0:0:
448,192,214829,1,0,0:0:0:30:Snare.wav
320,192,214829,1,0,0:0:0:0:
64,192,215001,128,0,215086:0:0:0:0:
64,192,215172,1,0,0:0:0:30:CrashR.wav
192,192,215172,1,0,0:0:0:0:
320,192,215172,1,0,0:0:0:0:
448,192,215172,1,0,0:0:0:30:BaSS.wav
320,192,215344,1,0,0:0:0:30:Snare.wav
192,192,215429,1,0,0:0:0:30:Snare.wav
64,192,215515,1,0,0:0:0:30:Snare.wav
192,192,215558,1,0,0:0:0:30:Snare.wav
320,192,215601,1,0,0:0:0:30:Snare.wav
448,192,215644,1,0,0:0:0:30:Snare.wav
64,192,215686,1,0,0:0:0:30:Snare.wav
192,192,215729,1,0,0:0:0:30:Snare.wav
320,192,215772,1,0,0:0:0:30:Snare.wav
448,192,215815,1,0,0:0:0:30:Snare.wav
64,192,215858,1,0,0:0:0:30:BaSS.wav
192,192,215858,1,0,0:0:0:30:CrashR.wav
320,192,215858,1,0,0:0:0:0:
320,192,216029,1,0,0:0:0:0:
64,192,216029,1,0,0:0:0:30:BaSS.wav
192,192,216201,1,0,0:0:0:0:
64,192,216201,1,0,0:0:0:30:KicK.wav
448,192,216201,1,0,0:0:0:0:
320,192,216372,1,0,0:0:0:0:
448,192,216372,1,0,0:0:0:30:BaSS.wav
320,192,216458,1,0,0:0:0:0:
448,192,216458,1,0,0:0:0:30:Snare.wav
448,192,216544,1,0,0:0:0:30:BaSS.wav
320,192,216544,1,0,0:0:0:0:
192,192,216544,1,0,0:0:0:0:
64,192,216544,1,0,0:0:0:30:CrashR.wav
192,192,216715,1,0,0:0:0:0:
448,192,216715,1,0,0:0:0:30:BaSS.wav
320,192,216886,1,0,0:0:0:0:
64,192,216886,1,0,0:0:0:0:
448,192,216886,1,0,0:0:0:30:KicK.wav
192,192,217058,1,0,0:0:0:0:
64,192,217058,1,0,0:0:0:30:BaSS.wav
64,192,217144,1,0,0:0:0:30:BaSS.wav
192,192,217144,1,0,0:0:0:0:
448,192,217229,1,0,0:0:0:30:CrashR.wav
320,192,217229,1,0,0:0:0:0:
192,192,217229,1,0,0:0:0:0:
64,192,217229,1,0,0:0:0:30:BaSS.wav
448,192,217401,1,0,0:0:0:30:BaSS.wav
64,192,217401,1,0,0:0:0:0:
320,192,217572,1,0,0:0:0:0:
192,192,217572,1,0,0:0:0:30:KicK.wav
448,192,217572,1,0,0:0:0:0:
64,192,217744,1,0,0:0:0:0:
448,192,217744,1,0,0:0:0:30:BaSS.wav
448,192,217915,5,0,0:0:0:30:CrashR.wav
320,192,217915,1,0,0:0:0:0:
192,192,217915,1,0,0:0:0:0:
64,192,217915,1,0,0:0:0:30:BaSS.wav
64,192,218086,1,0,0:0:0:30:BaSS.wav
192,192,218086,1,0,0:0:0:0:
448,192,218172,1,0,0:0:0:30:Snare.wav
320,192,218215,1,0,0:0:0:30:Snare.wav
192,192,218258,1,0,0:0:0:0:
64,192,218258,1,0,0:0:0:30:KicK.wav
320,192,218429,1,0,0:0:0:0:
448,192,218429,1,0,0:0:0:30:BaSS.wav
192,192,218601,5,0,0:0:0:30:CrashR.wav
64,192,218601,1,0,0:0:0:30:BaSS.wav
320,192,218686,1,0,0:0:0:0:
448,192,218686,1,0,0:0:0:30:BaSS.wav
192,192,218772,1,0,0:0:0:0:
64,192,218772,1,0,0:0:0:30:BaSS.wav
320,192,218858,1,0,0:0:0:0:
448,192,218858,1,0,0:0:0:30:BaSS.wav
192,192,218944,1,0,0:0:0:30:CrashR.wav
64,192,218944,1,0,0:0:0:30:BaSS.wav
320,192,219029,1,0,0:0:0:0:
448,192,219029,1,0,0:0:0:30:BaSS.wav
64,192,219115,1,0,0:0:0:30:BaSS.wav
192,192,219158,1,0,0:0:0:30:BaSS.wav
320,192,219201,1,0,0:0:0:30:BaSS.wav
448,192,219244,1,0,0:0:0:30:BaSS.wav
192,192,219286,1,0,0:0:0:30:CrashR.wav
64,192,219286,1,0,0:0:0:30:BaSS.wav
320,192,219372,1,0,0:0:0:0:
448,192,219372,1,0,0:0:0:30:BaSS.wav
192,192,219458,1,0,0:0:0:0:
64,192,219458,1,0,0:0:0:30:BaSS.wav
320,192,219544,1,0,0:0:0:0:
448,192,219544,1,0,0:0:0:30:BaSS.wav
192,192,219629,1,0,0:0:0:30:CrashR.wav
64,192,219629,1,0,0:0:0:30:BaSS.wav
64,192,219744,1,0,0:0:0:30:BaSS.wav
192,192,219744,1,0,0:0:0:30:CrashR.wav
192,192,219858,1,0,0:0:0:30:CrashR.wav
64,192,219858,1,0,0:0:0:30:BaSS.wav
64,192,219972,1,0,0:0:0:30:BaSS.wav
320,192,219972,128,0,220058:0:0:0:30:CrashR.wav
448,192,219972,128,0,220058:0:0:0:0:
448,192,220144,128,0,220229:0:0:0:0:
320,192,220144,128,0,220229:0:0:0:0:
192,192,220315,1,0,0:0:0:0:
320,192,220315,1,0,0:0:0:0:
448,192,220486,128,0,220658:0:0:0:0:
64,192,220486,128,0,220658:0:0:0:0:
64,192,220829,1,0,0:0:0:0:
448,192,220829,1,0,0:0:0:0:
320,192,221001,1,0,0:0:0:0:
192,192,221001,1,0,0:0:0:30:Snare.wav
448,192,221001,1,0,0:0:0:0:
64,192,221001,1,0,0:0:0:30:CrashR.wav
64,192,221344,1,0,0:0:0:30:BaSS.wav
192,192,221344,1,0,0:0:0:30:CrashR.wav
448,192,221344,128,0,221515:0:0:0:0:
320,192,221515,1,0,0:0:0:0:
192,192,221686,1,0,0:0:0:0:
64,192,221686,128,0,221858:0:0:0:0:
448,192,221686,1,0,0:0:0:30:KicK.wav
320,192,221858,1,0,0:0:0:0:
192,192,221944,1,0,0:0:0:0:
64,192,222029,1,0,0:0:0:30:BaSS.wav
448,192,222029,1,0,0:0:0:0:
320,192,222115,128,0,222372:0:0:0:0:
64,192,222201,1,0,0:0:0:0:
448,192,222372,1,0,0:0:0:30:KicK.wav
192,192,222372,128,0,222544:0:0:0:0:
64,192,222372,1,0,0:0:0:0:
64,192,222544,128,0,222715:0:0:0:0:
448,192,222715,128,0,222886:0:0:0:0:
320,192,222715,1,0,0:0:0:30:BaSS.wav
192,192,222886,1,0,0:0:0:0:
64,192,223058,128,0,223229:0:0:0:0:
448,192,223058,1,0,0:0:0:30:KicK.wav
192,192,223058,1,0,0:0:0:0:
320,192,223229,1,0,0:0:0:0:
64,192,223315,1,0,0:0:0:0:
320,192,223401,1,0,0:0:0:0:
192,192,223401,1,0,0:0:0:30:BaSS.wav
448,192,223486,128,0,223744:0:0:0:0:
64,192,223572,1,0,0:0:0:0:
64,192,223744,1,0,0:0:0:30:KicK.wav
320,192,223744,1,0,0:0:0:0:
192,192,223744,1,0,0:0:0:0:
448,192,223829,1,0,0:0:0:0:
64,192,223915,128,0,224086:0:0:0:0:
448,192,224086,128,0,224258:0:0:0:0:
320,192,224086,1,0,0:0:0:30:BaSS.wav
64,192,224258,128,0,224429:0:0:0:0:
448,192,224429,128,0,224601:0:0:0:0:
192,192,224429,1,0,0:0:0:30:KicK.wav
320,192,224429,1,0,0:0:0:0:
64,192,224601,1,0,0:0:0:0:
320,192,224772,1,0,0:0:0:30:BaSS.wav
192,192,224772,1,0,0:0:0:0:
64,192,224858,128,0,225115:0:0:0:0:
448,192,224944,1,0,0:0:0:0:
192,192,225115,128,0,225286:0:0:0:0:
448,192,225115,1,0,0:0:0:30:KicK.wav
320,192,225115,1,0,0:0:0:0:
320,192,225286,128,0,225458:0:0:0:0:
448,192,225458,128,0,225629:0:0:0:0:
64,192,225458,1,0,0:0:0:30:BaSS.wav
192,192,225629,1,0,0:0:0:0:
64,192,225801,128,0,225972:0:0:0:0:
448,192,225801,1,0,0:0:0:0:
192,192,225801,1,0,0:0:0:30:KicK.wav
320,192,225972,1,0,0:0:0:0:
448,192,226058,1,0,0:0:0:0:
192,192,226144,1,0,0:0:0:0:
64,192,226144,1,0,0:0:0:30:BaSS.wav
320,192,226229,128,0,226486:0:0:0:0:
64,192,226315,1,0,0:0:0:0:
448,192,226486,1,0,0:0:0:0:
64,192,226486,1,0,0:0:0:30:KicK.wav
192,192,226486,1,0,0:0:0:0:
320,192,226572,1,0,0:0:0:0:
192,192,226658,1,0,0:0:0:0:
320,192,226744,1,0,0:0:0:0:
64,192,226829,1,0,0:0:0:30:BaSS.wav
448,192,226829,128,0,227001:0:0:0:0:
192,192,227001,1,0,0:0:0:0:
64,192,227172,128,0,227344:0:0:0:0:
448,192,227172,1,0,0:0:0:30:KicK.wav
320,192,227172,1,0,0:0:0:0:
192,192,227344,1,0,0:0:0:0:
448,192,227429,1,0,0:0:0:0:
192,192,227515,1,0,0:0:0:30:BaSS.wav
64,192,227515,1,0,0:0:0:0:
320,192,227601,128,0,227858:0:0:0:0:
64,192,227686,1,0,0:0:0:0:
192,192,227858,128,0,228029:0:0:0:0:
448,192,227858,1,0,0:0:0:30:KicK.wav
64,192,227858,1,0,0:0:0:0:
64,192,228029,128,0,228201:0:0:0:0:
448,192,228201,128,0,228372:0:0:0:0:
320,192,228201,1,0,0:0:0:30:BaSS.wav
192,192,228372,1,0,0:0:0:0:
64,192,228544,128,0,228715:0:0:0:0:
448,192,228544,1,0,0:0:0:30:KicK.wav
192,192,228544,1,0,0:0:0:0:
320,192,228715,1,0,0:0:0:0:
64,192,228801,1,0,0:0:0:0:
192,192,228886,1,0,0:0:0:0:
320,192,228886,1,0,0:0:0:30:BaSS.wav
448,192,228972,128,0,229229:0:0:0:0:
64,192,229058,1,0,0:0:0:0:
320,192,229229,128,0,229401:0:0:0:0:
64,192,229229,1,0,0:0:0:30:KicK.wav
192,192,229229,1,0,0:0:0:0:
192,192,229401,128,0,229572:0:0:0:0:
64,192,229572,128,0,229744:0:0:0:0:
448,192,229572,1,0,0:0:0:30:BaSS.wav
448,192,229744,128,0,229915:0:0:0:0:
64,192,229915,128,0,230086:0:0:0:0:
320,192,229915,1,0,0:0:0:0:
192,192,229915,1,0,0:0:0:30:KicK.wav
448,192,230086,1,0,0:0:0:0:
320,192,230172,1,0,0:0:0:0:
192,192,230258,1,0,0:0:0:0:
64,192,230258,1,0,0:0:0:30:BaSS.wav
320,192,230344,128,0,230601:0:0:0:0:
64,192,230429,1,0,0:0:0:0:
192,192,230601,128,0,230772:0:0:0:0:
448,192,230601,1,0,0:0:0:30:KicK.wav
64,192,230601,1,0,0:0:0:0:
64,192,230772,128,0,230944:0:0:0:0:
448,192,230944,128,0,231115:0:0:0:0:
320,192,230944,1,0,0:0:0:30:BaSS.wav
192,192,231115,1,0,0:0:0:0:
320,192,231286,128,0,231458:0:0:0:0:
64,192,231286,1,0,0:0:0:30:KicK.wav
192,192,231286,1,0,0:0:0:0:
448,192,231458,1,0,0:0:0:0:
64,192,231544,1,0,0:0:0:0:
448,192,231715,128,0,231972:0:0:0:0:
64,192,231972,128,0,232058:0:0:0:0:
192,192,232058,128,0,232144:0:0:0:0:
320,192,232144,128,0,232229:0:0:0:0:
448,192,232229,128,0,232315:0:0:0:0:
64,192,232315,1,0,0:0:0:30:BaSS.wav
192,192,232315,1,0,0:0:0:30:CrashR.wav
320,192,232315,1,0,0:0:0:0:
64,192,232486,1,0,0:0:0:0:
448,192,232658,128,0,232829:0:0:0:0:
320,192,232658,1,0,0:0:0:0:
192,192,232658,1,0,0:0:0:30:KicK.wav
192,192,232829,1,0,0:0:0:0:
64,192,232915,1,0,0:0:0:0:
320,192,233001,1,0,0:0:0:0:
448,192,233001,1,0,0:0:0:30:BaSS.wav
64,192,233086,128,0,233344:0:0:0:0:
320,192,233172,1,0,0:0:0:0:
192,192,233344,128,0,233515:0:0:0:0:
448,192,233344,1,0,0:0:0:30:KicK.wav
320,192,233344,1,0,0:0:0:0:
448,192,233515,128,0,233686:0:0:0:0:
320,192,233686,128,0,233858:0:0:0:0:
64,192,233686,1,0,0:0:0:30:BaSS.wav
448,192,233858,1,0,0:0:0:0:
192,192,234029,128,0,234201:0:0:0:0:
64,192,234029,1,0,0:0:0:0:
320,192,234029,1,0,0:0:0:0:
448,192,234201,1,0,0:0:0:0:
192,192,234286,1,0,0:0:0:0:
320,192,234372,1,0,0:0:0:0:
448,192,234372,1,0,0:0:0:30:BaSS.wav
64,192,234458,128,0,234715:0:0:0:0:
320,192,234544,1,0,0:0:0:0:
192,192,234715,1,0,0:0:0:30:KicK.wav
448,192,234715,1,0,0:0:0:0:
320,192,234801,1,0,0:0:0:0:
448,192,234886,128,0,235058:0:0:0:0:
320,192,235058,128,0,235229:0:0:0:0:
64,192,235058,1,0,0:0:0:30:BaSS.wav
192,192,235229,128,0,235401:0:0:0:0:
64,192,235401,128,0,235572:0:0:0:0:
448,192,235401,1,0,0:0:0:30:KicK.wav
320,192,235401,1,0,0:0:0:0:
448,192,235572,1,0,0:0:0:0:
64,192,235658,1,0,0:0:0:0:
320,192,235744,1,0,0:0:0:0:
192,192,235744,1,0,0:0:0:30:BaSS.wav
448,192,235829,128,0,236086:0:0:0:0:
64,192,235915,1,0,0:0:0:0:
320,192,236086,128,0,236258:0:0:0:0:
192,192,236086,1,0,0:0:0:0:
64,192,236086,1,0,0:0:0:30:KicK.wav
64,192,236258,128,0,236429:0:0:0:0:
448,192,236429,128,0,236601:0:0:0:0:
320,192,236429,1,0,0:0:0:30:BaSS.wav
192,192,236601,1,0,0:0:0:0:
64,192,236772,128,0,236944:0:0:0:0:
448,192,236772,1,0,0:0:0:0:
192,192,236772,1,0,0:0:0:30:KicK.wav
320,192,236944,1,0,0:0:0:0:
64,192,237029,1,0,0:0:0:0:
320,192,237115,1,0,0:0:0:30:BaSS.wav
448,192,237115,1,0,0:0:0:0:
192,192,237201,128,0,237458:0:0:0:0:
448,192,237286,1,0,0:0:0:0:
448,192,237458,128,0,237544:0:0:0:0:
64,192,237458,1,0,0:0:0:30:KicK.wav
320,192,237544,128,0,237629:0:0:0:0:
192,192,237629,128,0,237715:0:0:0:0:
64,192,237715,128,0,237801:0:0:0:0:
448,192,237801,1,0,0:0:0:30:BaSS.wav
320,192,237801,1,0,0:0:0:30:CrashR.wav
192,192,237801,1,0,0:0:0:0:
192,192,237972,1,0,0:0:0:0:
64,192,238144,128,0,238315:0:0:0:0:
448,192,238144,1,0,0:0:0:30:KicK.wav
192,192,238144,1,0,0:0:0:0:
320,192,238315,1,0,0:0:0:0:
64,192,238401,1,0,0:0:0:0:
192,192,238486,1,0,0:0:0:30:BaSS.wav
320,192,238486,1,0,0:0:0:0:
448,192,238572,128,0,238829:0:0:0:0:
64,192,238658,1,0,0:0:0:0:
320,192,238829,128,0,239001:0:0:0:0:
64,192,238829,1,0,0:0:0:30:KicK.wav
192,192,238829,1,0,0:0:0:0:
192,192,239001,128,0,239172:0:0:0:0:
64,192,239172,128,0,239344:0:0:0:0:
448,192,239172,1,0,0:0:0:30:BaSS.wav
320,192,239172,1,0,0:0:0:30:CrashR.wav
192,192,239344,1,0,0:0:0:0:
448,192,239515,128,0,239686:0:0:0:0:
320,192,239515,1,0,0:0:0:30:KicK.wav
192,192,239515,1,0,0:0:0:0:
64,192,239686,1,0,0:0:0:0:
192,192,239772,1,0,0:0:0:0:
320,192,239858,1,0,0:0:0:0:
448,192,239858,1,0,0:0:0:30:BaSS.wav
64,192,239944,128,0,240201:0:0:0:0:
448,192,240029,1,0,0:0:0:0:
192,192,240201,1,0,0:0:0:0:
320,192,240201,1,0,0:0:0:0:
448,192,240201,1,0,0:0:0:30:KicK.wav
64,192,240286,1,0,0:0:0:0:
320,192,240372,128,0,240544:0:0:0:0:
192,192,240544,1,0,0:0:0:30:CrashR.wav
448,192,240544,1,0,0:0:0:0:
64,192,240544,1,0,0:0:0:30:BaSS.wav
320,192,240715,1,0,0:0:0:0:
64,192,240886,128,0,241058:0:0:0:0:
448,192,240886,1,0,0:0:0:0:
192,192,240886,1,0,0:0:0:30:KicK.wav
320,192,241058,1,0,0:0:0:0:
448,192,241144,1,0,0:0:0:0:
320,192,241229,1,0,0:0:0:0:
192,192,241229,1,0,0:0:0:30:CrashR.wav
64,192,241229,1,0,0:0:0:30:BaSS.wav
448,192,241315,128,0,241572:0:0:0:0:
64,192,241401,1,0,0:0:0:0:
192,192,241572,128,0,241744:0:0:0:0:
320,192,241572,1,0,0:0:0:0:
64,192,241572,1,0,0:0:0:30:KicK.wav
64,192,241744,128,0,241915:0:0:0:0:
448,192,241915,5,0,0:0:0:30:BaSS.wav
320,192,241958,1,0,0:0:0:0:
192,192,242001,1,0,0:0:0:0:
64,192,242044,1,0,0:0:0:0:
448,192,242086,1,0,0:0:0:0:
320,192,242129,1,0,0:0:0:0:
192,192,242172,1,0,0:0:0:0:
64,192,242215,1,0,0:0:0:0:
448,192,242258,1,0,0:0:0:0:
320,192,242301,1,0,0:0:0:0:
64,192,242344,1,0,0:0:0:0:
192,192,242386,1,0,0:0:0:0:
320,192,242429,1,0,0:0:0:0:
448,192,242472,1,0,0:0:0:0:
64,192,242515,1,0,0:0:0:0:
192,192,242558,1,0,0:0:0:0:
320,192,242601,1,0,0:0:0:0:
448,192,242644,1,0,0:0:0:0:
192,192,242686,1,0,0:0:0:0:
64,192,242729,1,0,0:0:0:0:
448,192,242772,1,0,0:0:0:30:BaSS.wav
320,192,242815,1,0,0:0:0:30:BaSS.wav
192,192,242858,1,0,0:0:0:30:BaSS.wav
64,192,242901,1,0,0:0:0:30:BaSS.wav
320,192,242944,1,0,0:0:0:0:
448,192,242944,1,0,0:0:0:30:BaSS.wav
448,192,243058,1,0,0:0:0:30:BaSS.wav
320,192,243058,1,0,0:0:0:0:
448,192,243172,1,0,0:0:0:30:BaSS.wav
320,192,243172,1,0,0:0:0:0:
320,192,243286,128,0,243544:0:0:0:0:
448,192,243286,128,0,243544:0:0:0:30:BaSS.wav
448,192,243629,1,0,0:0:0:30:KicK.wav
320,192,243629,1,0,0:0:0:0:
64,192,243629,1,0,0:0:0:30:CrashR.wav
192,192,243629,1,0,0:0:0:0:
192,192,243801,1,0,0:0:0:0:
448,192,243972,1,0,0:0:0:30:BaSS.wav
320,192,243972,1,0,0:0:0:0:
192,192,244144,1,0,0:0:0:0:
64,192,244315,1,0,0:0:0:30:KicK.wav
320,192,244315,1,0,0:0:0:0:
448,192,244315,1,0,0:0:0:0:
192,192,244486,1,0,0:0:0:0:
448,192,244658,1,0,0:0:0:30:BaSS.wav
64,192,244658,1,0,0:0:0:0:
320,192,244829,1,0,0:0:0:0:
192,192,245001,1,0,0:0:0:0:
64,192,245001,1,0,0:0:0:30:KicK.wav
448,192,245001,1,0,0:0:0:0:
320,192,245172,1,0,0:0:0:0:
448,192,245344,1,0,0:0:0:30:BaSS.wav
64,192,245344,1,0,0:0:0:0:
192,192,245515,1,0,0:0:0:0:
320,192,245686,1,0,0:0:0:0:
448,192,245686,1,0,0:0:0:30:KicK.wav
64,192,245686,1,0,0:0:0:0:
192,192,245858,1,0,0:0:0:0:
448,192,246029,1,0,0:0:0:30:BaSS.wav
64,192,246029,1,0,0:0:0:0:
64,192,246201,1,0,0:0:0:0:
320,192,246372,1,0,0:0:0:30:KicK.wav
192,192,246372,1,0,0:0:0:0:
448,192,246372,1,0,0:0:0:0:
448,192,246544,1,0,0:0:0:0:
320,192,246715,1,0,0:0:0:0:
64,192,246715,1,0,0:0:0:30:BaSS.wav
320,192,246886,1,0,0:0:0:0:
192,192,247058,1,0,0:0:0:30:KicK.wav
448,192,247058,1,0,0:0:0:0:
64,192,247058,1,0,0:0:0:0:
192,192,247229,1,0,0:0:0:0:
320,192,247401,1,0,0:0:0:0:
448,192,247401,1,0,0:0:0:30:BaSS.wav
192,192,247572,1,0,0:0:0:0:
64,192,247744,1,0,0:0:0:0:
448,192,247744,1,0,0:0:0:0:
320,192,247744,1,0,0:0:0:30:KicK.wav
192,192,247915,1,0,0:0:0:0:
320,192,248086,1,0,0:0:0:0:
448,192,248086,1,0,0:0:0:30:BaSS.wav
64,192,248258,1,0,0:0:0:0:
192,192,248429,1,0,0:0:0:0:
320,192,248429,1,0,0:0:0:30:KicK.wav
448,192,248429,1,0,0:0:0:0:
64,192,248601,1,0,0:0:0:0:
448,192,248772,1,0,0:0:0:30:BaSS.wav
320,192,248772,1,0,0:0:0:0:
192,192,248944,1,0,0:0:0:0:
64,192,249115,1,0,0:0:0:0:
320,192,249115,1,0,0:0:0:30:KicK.wav
448,192,249115,1,0,0:0:0:0:
448,192,249286,1,0,0:0:0:0:
320,192,249458,1,0,0:0:0:0:
192,192,249458,1,0,0:0:0:30:BaSS.wav
320,192,249629,1,0,0:0:0:0:
192,192,249801,1,0,0:0:0:0:
448,192,249801,1,0,0:0:0:0:
64,192,249801,1,0,0:0:0:30:KicK.wav
192,192,249972,1,0,0:0:0:0:
320,192,250144,1,0,0:0:0:30:BaSS.wav
64,192,250144,1,0,0:0:0:0:
448,192,250315,1,0,0:0:0:0:
192,192,250486,1,0,0:0:0:30:KicK.wav
64,192,250486,1,0,0:0:0:0:
320,192,250486,1,0,0:0:0:0:
64,192,250658,1,0,0:0:0:0:
192,192,250829,1,0,0:0:0:0:
448,192,250829,1,0,0:0:0:30:BaSS.wav
192,192,251001,1,0,0:0:0:0:
320,192,251172,1,0,0:0:0:30:KicK.wav
448,192,251172,1,0,0:0:0:0:
64,192,251172,1,0,0:0:0:0:
320,192,251344,1,0,0:0:0:0:
64,192,251515,1,0,0:0:0:30:BaSS.wav
192,192,251515,1,0,0:0:0:0:
320,192,251686,1,0,0:0:0:0:
448,192,251858,1,0,0:0:0:0:
192,192,251858,1,0,0:0:0:30:KicK.wav
64,192,251858,1,0,0:0:0:0:
320,192,252029,1,0,0:0:0:0:
448,192,252201,1,0,0:0:0:30:BaSS.wav
64,192,252201,1,0,0:0:0:0:
192,192,252372,1,0,0:0:0:0:
320,192,252544,1,0,0:0:0:0:
448,192,252544,1,0,0:0:0:0:
64,192,252544,1,0,0:0:0:30:KicK.wav
192,192,252715,1,0,0:0:0:0:
448,192,252886,5,0,0:0:0:30:BaSS.wav
320,192,252886,1,0,0:0:0:0:
192,192,252886,1,0,0:0:0:0:
64,192,252886,1,0,0:0:0:30:CrashR.wav
64,192,253144,1,0,0:0:0:30:CrashR.wav
192,192,253144,1,0,0:0:0:0:
320,192,253144,1,0,0:0:0:0:
448,192,253144,1,0,0:0:0:30:BaSS.wav
64,192,253401,1,0,0:0:0:30:CrashR.wav
192,192,253401,1,0,0:0:0:0:
320,192,253401,1,0,0:0:0:0:
448,192,253401,1,0,0:0:0:30:BaSS.wav
320,192,253572,128,0,253829:0:0:0:0:
448,192,253572,128,0,253829:0:0:0:30:BaSS.wav
64,192,253572,128,0,253829:0:0:0:30:CrashR.wav
448,192,253915,1,0,0:0:0:30:BaSS.wav
64,192,253915,1,0,0:0:0:30:CrashR.wav
320,192,253915,1,0,0:0:0:0:
448,192,254258,1,0,0:0:0:30:BaSS.wav
320,192,254258,1,0,0:0:0:0:
64,192,254258,1,0,0:0:0:30:CrashR.wav
192,192,254258,1,0,0:0:0:0:
320,192,254429,1,0,0:0:0:0:
448,192,254601,1,0,0:0:0:30:KicK.wav
192,192,254601,1,0,0:0:0:0:
64,192,254601,1,0,0:0:0:0:
192,192,254772,1,0,0:0:0:0:
64,192,254944,1,0,0:0:0:0:
448,192,254944,1,0,0:0:0:30:BaSS.wav
64,192,255115,1,0,0:0:0:0:
192,192,255286,1,0,0:0:0:0:
448,192,255286,1,0,0:0:0:30:KicK.wav
320,192,255286,1,0,0:0:0:0:
448,192,255458,1,0,0:0:0:0:
320,192,255629,1,0,0:0:0:0:
64,192,255629,1,0,0:0:0:30:BaSS.wav
448,192,255801,1,0,0:0:0:0:
192,192,255972,1,0,0:0:0:0:
320,192,255972,1,0,0:0:0:0:
64,192,255972,1,0,0:0:0:30:KicK.wav
448,192,256144,1,0,0:0:0:0:
320,192,256315,1,0,0:0:0:0:
64,192,256315,1,0,0:0:0:30:BaSS.wav
448,192,256401,1,0,0:0:0:0:
192,192,256401,1,0,0:0:0:30:Snare.wav
320,192,256486,1,0,0:0:0:0:
64,192,256486,1,0,0:0:0:0:
64,192,256658,1,0,0:0:0:30:KicK.wav
192,192,256658,1,0,0:0:0:0:
448,192,256658,1,0,0:0:0:0:
320,192,256829,1,0,0:0:0:0:
192,192,256829,1,0,0:0:0:0:
64,192,256829,1,0,0:0:0:30:Snare.wav
64,192,257001,1,0,0:0:0:30:BaSS.wav
320,192,257001,1,0,0:0:0:0:
448,192,257001,1,0,0:0:0:0:
192,192,257172,5,0,0:0:0:0:
320,192,257258,1,0,0:0:0:0:
448,192,257344,1,0,0:0:0:0:
192,192,257344,1,0,0:0:0:0:
64,192,257344,1,0,0:0:0:30:KicK.wav
320,192,257515,1,0,0:0:0:0:
192,192,257686,1,0,0:0:0:0:
64,192,257686,1,0,0:0:0:30:BaSS.wav
320,192,257858,1,0,0:0:0:0:
192,192,258029,1,0,0:0:0:0:
64,192,258029,1,0,0:0:0:30:KicK.wav
448,192,258029,1,0,0:0:0:0:
448,192,258201,5,0,0:0:0:0:
320,192,258201,1,0,0:0:0:30:Snare.wav
320,192,258286,1,0,0:0:0:0:
192,192,258286,1,0,0:0:0:30:Snare.wav
192,192,258372,1,0,0:0:0:0:
64,192,258372,1,0,0:0:0:30:BaSS.wav
320,192,258544,1,0,0:0:0:0:
448,192,258715,5,0,0:0:0:0:
192,192,258715,1,0,0:0:0:0:
64,192,258715,1,0,0:0:0:30:KicK.wav
320,192,258886,1,0,0:0:0:0:
192,192,259058,1,0,0:0:0:0:
64,192,259058,1,0,0:0:0:30:BaSS.wav
320,192,259229,1,0,0:0:0:30:Snare.wav
448,192,259229,1,0,0:0:0:0:
192,192,259315,1,0,0:0:0:30:Snare.wav
64,192,259315,1,0,0:0:0:0:
320,192,259401,1,0,0:0:0:30:KicK.wav
448,192,259401,1,0,0:0:0:0:
192,192,259486,1,0,0:0:0:30:Snare.wav
64,192,259486,1,0,0:0:0:0:
448,192,259572,1,0,0:0:0:0:
320,192,259572,1,0,0:0:0:30:Snare.wav
192,192,259658,1,0,0:0:0:30:Snare.wav
64,192,259658,1,0,0:0:0:0:
448,192,259744,128,0,260086:0:0:0:0:
320,192,260086,1,0,0:0:0:0:
192,192,260086,1,0,0:0:0:30:KicK.wav
64,192,260086,1,0,0:0:0:30:CrashR.wav
64,192,260258,1,0,0:0:0:0:
192,192,260258,1,0,0:0:0:30:Snare.wav
320,192,260344,1,0,0:0:0:30:Snare.wav
192,192,260344,1,0,0:0:0:0:
448,192,260429,1,0,0:0:0:30:BaSS.wav
320,192,260429,1,0,0:0:0:0:
192,192,260601,1,0,0:0:0:30:Snare.wav
320,192,260601,1,0,0:0:0:0:
64,192,260772,1,0,0:0:0:30:KicK.wav
448,192,260772,1,0,0:0:0:0:
192,192,260772,1,0,0:0:0:0:
320,192,260944,1,0,0:0:0:30:Snare.wav
192,192,260944,1,0,0:0:0:0:
448,192,261115,1,0,0:0:0:0:
64,192,261115,1,0,0:0:0:30:BaSS.wav
320,192,261286,1,0,0:0:0:0:
192,192,261286,1,0,0:0:0:30:Snare.wav
64,192,261458,1,0,0:0:0:0:
448,192,261458,1,0,0:0:0:30:KicK.wav
320,192,261458,1,0,0:0:0:0:
192,192,261629,1,0,0:0:0:30:Snare.wav
64,192,261629,1,0,0:0:0:0:
320,192,261801,1,0,0:0:0:0:
448,192,261801,1,0,0:0:0:30:BaSS.wav
64,192,261972,1,0,0:0:0:30:Snare.wav
192,192,261972,1,0,0:0:0:0:
320,192,262058,1,0,0:0:0:30:Snare.wav
192,192,262101,1,0,0:0:0:30:Snare.wav
64,192,262144,1,0,0:0:0:30:KicK.wav
448,192,262144,1,0,0:0:0:0:
320,192,262144,1,0,0:0:0:0:
448,192,262315,1,0,0:0:0:30:Snare.wav
320,192,262315,1,0,0:0:0:0:
64,192,262486,1,0,0:0:0:0:
448,192,262486,1,0,0:0:0:30:CrashR.wav
192,192,262486,1,0,0:0:0:30:BaSS.wav
192,192,262572,1,0,0:0:0:30:Snare.wav
64,192,262572,1,0,0:0:0:0:
320,192,262658,1,0,0:0:0:30:Snare.wav
448,192,262658,1,0,0:0:0:0:
192,192,262744,1,0,0:0:0:30:Snare.wav
64,192,262744,1,0,0:0:0:0:
320,192,262829,1,0,0:0:0:30:Snare.wav
448,192,262829,1,0,0:0:0:0:
192,192,262915,1,0,0:0:0:30:Snare.wav
64,192,262915,1,0,0:0:0:0:
320,192,263001,1,0,0:0:0:30:Snare.wav
448,192,263001,1,0,0:0:0:0:
64,192,263086,1,0,0:0:0:0:
192,192,263086,1,0,0:0:0:30:Snare.wav
448,192,263172,1,0,0:0:0:0:
320,192,263172,1,0,0:0:0:30:BaSS.wav
64,192,263172,1,0,0:0:0:30:CrashR.wav
448,192,263258,1,0,0:0:0:0:
320,192,263258,1,0,0:0:0:30:Snare.wav
192,192,263344,1,0,0:0:0:30:Snare.wav
64,192,263344,1,0,0:0:0:0:
448,192,263429,1,0,0:0:0:0:
320,192,263429,1,0,0:0:0:30:Snare.wav
192,192,263515,1,0,0:0:0:30:Snare.wav
64,192,263515,1,0,0:0:0:0:
448,192,263601,1,0,0:0:0:0:
320,192,263601,1,0,0:0:0:30:Snare.wav
192,192,263686,1,0,0:0:0:30:Snare.wav
64,192,263686,1,0,0:0:0:0:
448,192,263772,1,0,0:0:0:0:
320,192,263772,1,0,0:0:0:30:Snare.wav
448,192,263858,1,0,0:0:0:30:CrashR.wav
64,192,263858,128,0,263944:0:0:0:0:
192,192,263858,128,0,263944:0:0:0:30:BaSS.wav
192,192,264029,128,0,264115:0:0:0:0:
64,192,264029,128,0,264115:0:0:0:0:
192,192,264201,128,0,264286:0:0:0:0:
448,192,264201,128,0,264286:0:0:0:0:
320,192,264372,128,0,264458:0:0:0:0:
64,192,264372,128,0,264458:0:0:0:0:
448,192,264544,128,0,264629:0:0:0:0:
192,192,264544,128,0,264629:0:0:0:0:
448,192,264715,128,0,264801:0:0:0:0:
320,192,264715,128,0,264801:0:0:0:0:
192,192,264886,128,0,264972:0:0:0:0:
320,192,264886,128,0,264972:0:0:0:0:
192,192,265058,128,0,265144:0:0:0:0:
64,192,265058,128,0,265144:0:0:0:0:
448,192,265229,1,0,0:0:0:30:BaSS.wav
320,192,265229,1,0,0:0:0:0:
64,192,265229,1,0,0:0:0:30:CrashR.wav
192,192,265315,1,0,0:0:0:0:
448,192,265401,1,0,0:0:0:0:
64,192,265401,1,0,0:0:0:0:
320,192,265486,1,0,0:0:0:0:
64,192,265572,1,0,0:0:0:30:KicK.wav
448,192,265572,1,0,0:0:0:0:
192,192,265572,1,0,0:0:0:0:
320,192,265658,1,0,0:0:0:0:
448,192,265744,1,0,0:0:0:0:
64,192,265744,1,0,0:0:0:0:
192,192,265829,1,0,0:0:0:0:
448,192,265915,1,0,0:0:0:30:BaSS.wav
320,192,265915,1,0,0:0:0:0:
192,192,265958,1,0,0:0:0:0:
64,192,266001,1,0,0:0:0:0:
448,192,266044,1,0,0:0:0:0:
320,192,266086,1,0,0:0:0:0:
192,192,266129,1,0,0:0:0:0:
64,192,266172,1,0,0:0:0:0:
448,192,266215,1,0,0:0:0:0:
192,192,266258,1,0,0:0:0:30:KicK.wav
320,192,266258,1,0,0:0:0:0:
64,192,266301,1,0,0:0:0:0:
448,192,266344,1,0,0:0:0:0:
320,192,266386,1,0,0:0:0:0:
192,192,266429,1,0,0:0:0:0:
64,192,266472,1,0,0:0:0:0:
448,192,266515,1,0,0:0:0:0:
320,192,266558,1,0,0:0:0:0:
64,192,266601,1,0,0:0:0:30:BaSS.wav
192,192,266601,1,0,0:0:0:0:
320,192,266686,1,0,0:0:0:0:
64,192,266772,1,0,0:0:0:0:
448,192,266772,1,0,0:0:0:0:
192,192,266858,1,0,0:0:0:0:
64,192,266944,1,0,0:0:0:0:
448,192,266944,1,0,0:0:0:30:KicK.wav
320,192,266944,1,0,0:0:0:0:
192,192,267029,1,0,0:0:0:0:
448,192,267115,1,0,0:0:0:0:
64,192,267115,1,0,0:0:0:0:
320,192,267201,1,0,0:0:0:0:
192,192,267286,1,0,0:0:0:0:
64,192,267286,1,0,0:0:0:30:BaSS.wav
320,192,267372,1,0,0:0:0:0:
448,192,267458,1,0,0:0:0:0:
64,192,267458,1,0,0:0:0:0:
192,192,267544,1,0,0:0:0:0:
320,192,267629,128,0,267715:0:0:0:30:KicK.wav
448,192,267629,128,0,267715:0:0:0:0:
192,192,267715,128,0,267801:0:0:0:0:
64,192,267715,128,0,267801:0:0:0:0:
448,192,267801,128,0,267886:0:0:0:0:
320,192,267801,128,0,267886:0:0:0:0:
192,192,267886,128,0,267972:0:0:0:0:
64,192,267886,128,0,267972:0:0:0:0:
320,192,267972,1,0,0:0:0:0:
448,192,267972,1,0,0:0:0:30:BaSS.wav
192,192,268058,1,0,0:0:0:0:
64,192,268144,1,0,0:0:0:0:
448,192,268144,1,0,0:0:0:0:
320,192,268229,1,0,0:0:0:0:
192,192,268315,1,0,0:0:0:0:
64,192,268315,1,0,0:0:0:30:KicK.wav
448,192,268315,1,0,0:0:0:0:
320,192,268401,1,0,0:0:0:0:
448,192,268486,1,0,0:0:0:0:
64,192,268486,1,0,0:0:0:0:
192,192,268572,1,0,0:0:0:0:
320,192,268658,1,0,0:0:0:0:
448,192,268658,1,0,0:0:0:30:BaSS.wav
192,192,268744,1,0,0:0:0:0:
64,192,268829,1,0,0:0:0:0:
448,192,268829,1,0,0:0:0:0:
320,192,268915,1,0,0:0:0:0:
192,192,269001,1,0,0:0:0:0:
64,192,269001,1,0,0:0:0:30:KicK.wav
448,192,269001,1,0,0:0:0:0:
320,192,269086,1,0,0:0:0:0:
64,192,269172,1,0,0:0:0:0:
448,192,269172,1,0,0:0:0:0:
192,192,269258,1,0,0:0:0:0:
320,192,269344,1,0,0:0:0:0:
448,192,269344,1,0,0:0:0:30:BaSS.wav
64,192,269344,128,0,269686:0:0:0:0:
192,192,269429,1,0,0:0:0:0:
448,192,269515,1,0,0:0:0:0:
320,192,269601,1,0,0:0:0:0:
448,192,269686,1,0,0:0:0:30:KicK.wav
192,192,269686,1,0,0:0:0:0:
320,192,269772,1,0,0:0:0:0:
192,192,269858,1,0,0:0:0:0:
64,192,269858,1,0,0:0:0:0:
320,192,269944,1,0,0:0:0:0:
448,192,270029,1,0,0:0:0:0:
64,192,270029,1,0,0:0:0:30:BaSS.wav
192,192,270115,1,0,0:0:0:0:
320,192,270201,1,0,0:0:0:0:
448,192,270201,1,0,0:0:0:0:
192,192,270286,1,0,0:0:0:0:
64,192,270372,1,0,0:0:0:0:
448,192,270372,1,0,0:0:0:30:KicK.wav
320,192,270372,1,0,0:0:0:0:
192,192,270458,1,0,0:0:0:0:
448,192,270544,1,0,0:0:0:0:
64,192,270544,1,0,0:0:0:0:
320,192,270629,1,0,0:0:0:0:
192,192,270715,1,0,0:0:0:0:
64,192,270715,128,0,270801:0:0:0:0:
448,192,270715,1,0,0:0:0:30:BaSS.wav
320,192,270801,1,0,0:0:0:0:
448,192,270886,1,0,0:0:0:0:
64,192,270886,1,0,0:0:0:0:
192,192,270972,1,0,0:0:0:0:
64,192,271058,128,0,271144:0:0:0:0:
320,192,271058,1,0,0:0:0:0:
448,192,271058,1,0,0:0:0:30:KicK.wav
192,192,271144,1,0,0:0:0:0:
64,192,271229,128,0,271315:0:0:0:0:
448,192,271229,1,0,0:0:0:0:
320,192,271315,1,0,0:0:0:0:
192,192,271401,1,0,0:0:0:0:
64,192,271401,1,0,0:0:0:30:BaSS.wav
448,192,271486,1,0,0:0:0:0:
320,192,271572,1,0,0:0:0:0:
64,192,271572,1,0,0:0:0:0:
192,192,271658,1,0,0:0:0:0:
448,192,271744,128,0,271829:0:0:0:0:
320,192,271744,1,0,0:0:0:0:
64,192,271744,1,0,0:0:0:30:KicK.wav
192,192,271829,1,0,0:0:0:0:
448,192,271915,128,0,272001:0:0:0:0:
320,192,271915,1,0,0:0:0:0:
64,192,272001,1,0,0:0:0:0:
192,192,272086,1,0,0:0:0:30:BaSS.wav
448,192,272086,128,0,272429:0:0:0:0:
320,192,272086,1,0,0:0:0:0:
64,192,272172,1,0,0:0:0:0:
320,192,272258,1,0,0:0:0:0:
192,192,272344,1,0,0:0:0:0:
64,192,272429,1,0,0:0:0:30:KicK.wav
320,192,272429,1,0,0:0:0:0:
448,192,272515,1,0,0:0:0:0:
192,192,272601,1,0,0:0:0:0:
64,192,272601,1,0,0:0:0:0:
320,192,272686,1,0,0:0:0:0:
64,192,272772,128,0,273115:0:0:0:0:
448,192,272772,1,0,0:0:0:30:BaSS.wav
192,192,272772,1,0,0:0:0:0:
320,192,272858,1,0,0:0:0:0:
448,192,272944,1,0,0:0:0:0:
192,192,273029,1,0,0:0:0:0:
320,192,273115,128,0,273201:0:0:0:30:KicK.wav
448,192,273115,128,0,273201:0:0:0:0:
64,192,273201,128,0,273286:0:0:0:0:
192,192,273201,128,0,273286:0:0:0:0:
320,192,273286,128,0,273372:0:0:0:0:
448,192,273286,128,0,273372:0:0:0:0:
192,192,273372,128,0,273458:0:0:0:0:
64,192,273372,128,0,273458:0:0:0:0:
320,192,273458,1,0,0:0:0:0:
448,192,273458,1,0,0:0:0:30:BaSS.wav
192,192,273544,1,0,0:0:0:0:
64,192,273629,1,0,0:0:0:0:
448,192,273629,1,0,0:0:0:0:
320,192,273715,5,0,0:0:0:0:
192,192,273801,1,0,0:0:0:0:
64,192,273801,1,0,0:0:0:30:KicK.wav
448,192,273801,1,0,0:0:0:0:
320,192,273886,1,0,0:0:0:0:
448,192,273972,1,0,0:0:0:0:
64,192,273972,1,0,0:0:0:0:
192,192,274058,1,0,0:0:0:0:
320,192,274144,1,0,0:0:0:0:
448,192,274144,1,0,0:0:0:30:BaSS.wav
64,192,274229,1,0,0:0:0:0:
320,192,274315,1,0,0:0:0:0:
192,192,274315,1,0,0:0:0:0:
448,192,274401,1,0,0:0:0:0:
192,192,274486,1,0,0:0:0:0:
64,192,274486,1,0,0:0:0:30:KicK.wav
320,192,274486,1,0,0:0:0:0:
448,192,274572,1,0,0:0:0:0:
320,192,274658,1,0,0:0:0:0:
192,192,274658,1,0,0:0:0:0:
64,192,274744,1,0,0:0:0:0:
448,192,274829,128,0,275001:0:0:0:0:
320,192,274829,128,0,275001:0:0:0:0:
64,192,275001,1,0,0:0:0:0:
192,192,275086,1,0,0:0:0:0:
320,192,275172,1,0,0:0:0:0:
448,192,275172,1,0,0:0:0:30:Snare.wav
192,192,275344,1,0,0:0:0:30:Snare.wav
64,192,275344,1,0,0:0:0:0:
192,192,275429,1,0,0:0:0:30:Snare.wav
64,192,275429,1,0,0:0:0:0:
320,192,275515,128,0,275686:0:0:0:30:Snare.wav
448,192,275515,128,0,275686:0:0:0:0:
192,192,275686,1,0,0:0:0:30:Snare.wav
64,192,275686,1,0,0:0:0:0:
448,192,275858,1,0,0:0:0:0:
64,192,275858,1,0,0:0:0:30:Snare.wav
192,192,275944,1,0,0:0:0:30:Snare.wav
320,192,275944,1,0,0:0:0:0:
448,192,276029,1,0,0:0:0:0:
64,192,276029,1,0,0:0:0:30:Snare.wav
320,192,276115,1,0,0:0:0:0:
192,192,276115,1,0,0:0:0:30:Snare.wav
448,192,276201,1,0,0:0:0:30:CrashR.wav
320,192,276201,1,0,0:0:0:0:
64,192,276201,1,0,0:0:0:30:BaSS.wav
192,192,276286,1,0,0:0:0:0:
448,192,276372,1,0,0:0:0:0:
64,192,276372,1,0,0:0:0:0:
320,192,276458,1,0,0:0:0:0:
64,192,276544,1,0,0:0:0:30:KicK.wav
448,192,276544,1,0,0:0:0:0:
192,192,276544,1,0,0:0:0:0:
320,192,276629,1,0,0:0:0:0:
64,192,276715,1,0,0:0:0:0:
448,192,276715,1,0,0:0:0:0:
320,192,276801,1,0,0:0:0:0:
192,192,276886,1,0,0:0:0:0:
64,192,276886,1,0,0:0:0:30:BaSS.wav
320,192,276929,1,0,0:0:0:0:
448,192,276972,1,0,0:0:0:0:
64,192,277015,1,0,0:0:0:0:
192,192,277058,1,0,0:0:0:0:
320,192,277101,1,0,0:0:0:0:
448,192,277144,1,0,0:0:0:0:
64,192,277186,1,0,0:0:0:0:
192,192,277229,1,0,0:0:0:30:KicK.wav
320,192,277229,1,0,0:0:0:0:
448,192,277272,1,0,0:0:0:0:
64,192,277315,1,0,0:0:0:0:
192,192,277358,1,0,0:0:0:0:
320,192,277401,1,0,0:0:0:0:
448,192,277444,1,0,0:0:0:0:
64,192,277486,1,0,0:0:0:0:
192,192,277529,1,0,0:0:0:0:
320,192,277572,1,0,0:0:0:0:
448,192,277572,1,0,0:0:0:30:BaSS.wav
192,192,277658,1,0,0:0:0:0:
64,192,277744,1,0,0:0:0:0:
448,192,277744,1,0,0:0:0:0:
192,192,277829,1,0,0:0:0:0:
64,192,277915,1,0,0:0:0:0:
448,192,277915,1,0,0:0:0:30:KicK.wav
320,192,277915,1,0,0:0:0:0:
192,192,278001,1,0,0:0:0:0:
320,192,278086,1,0,0:0:0:0:
448,192,278086,1,0,0:0:0:0:
192,192,278172,128,0,278258:0:0:0:30:Snare.wav
64,192,278172,128,0,278258:0:0:0:0:
448,192,278258,1,0,0:0:0:30:BaSS.wav
320,192,278258,1,0,0:0:0:0:
64,192,278344,128,0,278429:0:0:0:0:
192,192,278344,128,0,278429:0:0:0:30:Snare.wav
320,192,278429,1,0,0:0:0:0:
448,192,278429,1,0,0:0:0:0:
192,192,278515,1,0,0:0:0:0:
448,192,278601,128,0,278686:0:0:0:30:KicK.wav
64,192,278601,128,0,278686:0:0:0:0:
192,192,278686,128,0,278772:0:0:0:0:
320,192,278686,128,0,278772:0:0:0:0:
448,192,278772,128,0,278858:0:0:0:30:Snare.wav
64,192,278772,128,0,278858:0:0:0:0:
192,192,278858,128,0,278944:0:0:0:0:
320,192,278858,128,0,278944:0:0:0:0:
448,192,278944,1,0,0:0:0:0:
64,192,278944,1,0,0:0:0:30:BaSS.wav
320,192,279029,1,0,0:0:0:0:
192,192,279115,1,0,0:0:0:0:
64,192,279115,1,0,0:0:0:0:
448,192,279201,1,0,0:0:0:0:
320,192,279286,1,0,0:0:0:0:
192,192,279286,1,0,0:0:0:0:
64,192,279286,1,0,0:0:0:30:KicK.wav
448,192,279372,1,0,0:0:0:0:
192,192,279458,1,0,0:0:0:0:
64,192,279458,1,0,0:0:0:0:
320,192,279544,1,0,0:0:0:0:
448,192,279629,1,0,0:0:0:0:
64,192,279629,1,0,0:0:0:30:BaSS.wav
192,192,279715,1,0,0:0:0:0:
64,192,279801,1,0,0:0:0:0:
448,192,279801,1,0,0:0:0:0:
320,192,279886,1,0,0:0:0:0:
192,192,279972,1,0,0:0:0:0:
64,192,279972,1,0,0:0:0:30:KicK.wav
448,192,279972,1,0,0:0:0:0:
320,192,280058,1,0,0:0:0:0:
192,192,280144,1,0,0:0:0:0:
64,192,280144,1,0,0:0:0:30:Snare.wav
320,192,280229,1,0,0:0:0:0:
448,192,280229,1,0,0:0:0:30:Snare.wav
192,192,280315,1,0,0:0:0:0:
64,192,280315,1,0,0:0:0:30:BaSS.wav
320,192,280401,1,0,0:0:0:0:
448,192,280486,1,0,0:0:0:0:
64,192,280486,1,0,0:0:0:0:
192,192,280572,1,0,0:0:0:0:
320,192,280658,1,0,0:0:0:0:
448,192,280658,1,0,0:0:0:30:KicK.wav
64,192,280658,1,0,0:0:0:0:
192,192,280744,1,0,0:0:0:0:
448,192,280829,1,0,0:0:0:0:
320,192,280829,1,0,0:0:0:0:
64,192,280915,1,0,0:0:0:0:
192,192,281001,1,0,0:0:0:30:BaSS.wav
320,192,281001,1,0,0:0:0:0:
448,192,281086,1,0,0:0:0:0:
64,192,281172,1,0,0:0:0:0:
320,192,281172,1,0,0:0:0:30:Snare.wav
192,192,281258,1,0,0:0:0:0:
448,192,281258,1,0,0:0:0:30:BaSS.wav
320,192,281344,1,0,0:0:0:0:
192,192,281429,1,0,0:0:0:30:Snare.wav
64,192,281429,1,0,0:0:0:0:
448,192,281515,1,0,0:0:0:30:BaSS.wav
320,192,281515,1,0,0:0:0:0:
192,192,281601,1,0,0:0:0:30:Snare.wav
64,192,281601,1,0,0:0:0:0:
320,192,281686,1,0,0:0:0:0:
448,192,281686,1,0,0:0:0:30:BaSS.wav
64,192,281686,1,0,0:0:0:30:CrashR.wav
192,192,281858,1,0,0:0:0:30:Snare.wav
320,192,281858,1,0,0:0:0:0:
448,192,282029,1,0,0:0:0:0:
320,192,282029,1,0,0:0:0:30:KicK.wav
64,192,282029,1,0,0:0:0:0:
448,192,282201,1,0,0:0:0:0:
320,192,282201,1,0,0:0:0:30:Snare.wav
320,192,282286,1,0,0:0:0:0:
192,192,282286,1,0,0:0:0:30:Snare.wav
192,192,282372,1,0,0:0:0:0:
64,192,282372,1,0,0:0:0:30:BaSS.wav
320,192,282544,1,0,0:0:0:0:
64,192,282544,1,0,0:0:0:30:Snare.wav
192,192,282715,1,0,0:0:0:0:
448,192,282715,1,0,0:0:0:0:
64,192,282715,1,0,0:0:0:30:KicK.wav
320,192,282886,1,0,0:0:0:0:
448,192,282886,1,0,0:0:0:30:Snare.wav
448,192,283058,1,0,0:0:0:0:
64,192,283058,1,0,0:0:0:30:BaSS.wav
192,192,283229,1,0,0:0:0:0:
320,192,283229,1,0,0:0:0:30:Snare.wav
448,192,283401,1,0,0:0:0:30:KicK.wav
320,192,283401,1,0,0:0:0:0:
64,192,283401,1,0,0:0:0:0:
192,192,283572,1,0,0:0:0:0:
64,192,283572,1,0,0:0:0:30:Snare.wav
320,192,283744,1,0,0:0:0:0:
192,192,283744,1,0,0:0:0:30:BaSS.wav
448,192,283915,1,0,0:0:0:0:
320,192,283915,1,0,0:0:0:30:Snare.wav
64,192,284001,1,0,0:0:0:30:Snare.wav
192,192,284044,1,0,0:0:0:30:Snare.wav
320,192,284086,1,0,0:0:0:30:KicK.wav
448,192,284086,1,0,0:0:0:0:
64,192,284172,1,0,0:0:0:0:
192,192,284172,1,0,0:0:0:0:
320,192,284258,1,0,0:0:0:30:Snare.wav
448,192,284258,1,0,0:0:0:0:
64,192,284344,1,0,0:0:0:0:
192,192,284344,1,0,0:0:0:0:
320,192,284429,1,0,0:0:0:0:
448,192,284429,1,0,0:0:0:0:
64,192,284429,1,0,0:0:0:30:BaSS.wav
448,192,284515,1,0,0:0:0:0:
320,192,284515,1,0,0:0:0:30:Snare.wav
192,192,284601,1,0,0:0:0:30:Snare.wav
64,192,284601,1,0,0:0:0:0:
320,192,284686,1,0,0:0:0:30:Snare.wav
448,192,284686,1,0,0:0:0:0:
192,192,284772,1,0,0:0:0:30:Snare.wav
64,192,284772,1,0,0:0:0:0:
448,192,284858,1,0,0:0:0:0:
320,192,284858,1,0,0:0:0:30:Snare.wav
192,192,284944,1,0,0:0:0:30:Snare.wav
64,192,284944,1,0,0:0:0:0:
320,192,285029,1,0,0:0:0:30:Snare.wav
448,192,285029,1,0,0:0:0:0:
192,192,285115,1,0,0:0:0:30:Snare.wav
64,192,285115,1,0,0:0:0:0:
192,192,285286,1,0,0:0:0:0:
320,192,285286,1,0,0:0:0:30:Snare.wav
192,192,285458,1,0,0:0:0:30:Snare.wav
64,192,285458,1,0,0:0:0:0:
320,192,285544,1,0,0:0:0:30:Snare.wav
448,192,285544,1,0,0:0:0:0:
192,192,285629,1,0,0:0:0:30:Snare.wav
64,192,285629,1,0,0:0:0:0:
320,192,285715,1,0,0:0:0:30:Snare.wav
448,192,285715,1,0,0:0:0:0:
64,192,285801,1,0,0:0:0:30:BaSS.wav
192,192,285801,1,0,0:0:0:30:CrashR.wav
448,192,285801,128,0,286144:0:0:0:0:
64,192,286144,128,0,286186:0:0:0:0:
192,192,286315,128,0,286358:0:0:0:0:
320,192,286486,128,0,286829:0:0:0:0:
448,192,286658,128,0,286829:0:0:0:0:
64,192,286829,1,0,0:0:0:0:
192,192,286829,1,0,0:0:0:30:Snare.wav
192,192,287001,1,0,0:0:0:30:Snare.wav
64,192,287001,1,0,0:0:0:0:
448,192,287086,1,0,0:0:0:0:
320,192,287086,1,0,0:0:0:30:Snare.wav
448,192,287172,1,0,0:0:0:0:
64,192,287172,1,0,0:0:0:30:CrashR.wav
192,192,287172,1,0,0:0:0:30:BaSS.wav
320,192,287258,1,0,0:0:0:0:
192,192,287344,1,0,0:0:0:0:
320,192,287429,1,0,0:0:0:0:
64,192,287515,1,0,0:0:0:30:KicK.wav
192,192,287515,1,0,0:0:0:0:
448,192,287515,1,0,0:0:0:0:
320,192,287601,1,0,0:0:0:0:
192,192,287686,128,0,287772:0:0:0:0:
64,192,287772,1,0,0:0:0:0:
448,192,287858,1,0,0:0:0:30:BaSS.wav
320,192,287858,1,0,0:0:0:0:
192,192,287901,1,0,0:0:0:0:
64,192,287944,1,0,0:0:0:0:
448,192,287986,1,0,0:0:0:0:
320,192,288029,1,0,0:0:0:0:
192,192,288072,1,0,0:0:0:0:
64,192,288115,1,0,0:0:0:0:
448,192,288158,1,0,0:0:0:0:
320,192,288201,1,0,0:0:0:30:KicK.wav
192,192,288201,1,0,0:0:0:0:
64,192,288244,1,0,0:0:0:0:
448,192,288286,1,0,0:0:0:0:
320,192,288329,1,0,0:0:0:0:
192,192,288372,1,0,0:0:0:0:
64,192,288415,1,0,0:0:0:0:
448,192,288458,1,0,0:0:0:0:
320,192,288501,1,0,0:0:0:0:
192,192,288544,1,0,0:0:0:0:
64,192,288544,1,0,0:0:0:30:BaSS.wav
320,192,288629,1,0,0:0:0:0:
448,192,288715,1,0,0:0:0:0:
192,192,288801,1,0,0:0:0:0:
320,192,288886,1,0,0:0:0:0:
448,192,288886,1,0,0:0:0:30:KicK.wav
64,192,288886,1,0,0:0:0:0:
192,192,288972,1,0,0:0:0:0:
320,192,289058,1,0,0:0:0:0:
64,192,289144,1,0,0:0:0:0:
448,192,289229,1,0,0:0:0:30:BaSS.wav
192,192,289229,1,0,0:0:0:0:
320,192,289315,1,0,0:0:0:0:
64,192,289401,1,0,0:0:0:0:
192,192,289486,1,0,0:0:0:0:
448,192,289572,1,0,0:0:0:30:KicK.wav
320,192,289572,1,0,0:0:0:0:
192,192,289658,1,0,0:0:0:0:
64,192,289658,1,0,0:0:0:0:
448,192,289744,1,0,0:0:0:0:
320,192,289744,1,0,0:0:0:0:
192,192,289829,1,0,0:0:0:0:
64,192,289829,1,0,0:0:0:0:
320,192,289915,1,0,0:0:0:30:BaSS.wav
448,192,289915,128,0,290001:0:0:0:0:
192,192,290001,1,0,0:0:0:0:
64,192,290086,128,0,290172:0:0:0:0:
320,192,290172,1,0,0:0:0:0:
448,192,290258,1,0,0:0:0:0:
192,192,290258,1,0,0:0:0:0:
64,192,290258,1,0,0:0:0:30:KicK.wav
320,192,290344,1,0,0:0:0:0:
64,192,290429,1,0,0:0:0:0:
192,192,290515,1,0,0:0:0:0:
320,192,290601,1,0,0:0:0:0:
448,192,290601,1,0,0:0:0:30:BaSS.wav
64,192,290686,1,0,0:0:0:0:
320,192,290772,1,0,0:0:0:0:
192,192,290858,1,0,0:0:0:0:
64,192,290944,1,0,0:0:0:0:
448,192,290944,1,0,0:0:0:30:KicK.wav
320,192,290944,1,0,0:0:0:0:
192,192,291029,1,0,0:0:0:0:
448,192,291115,128,0,291201:0:0:0:0:
320,192,291201,1,0,0:0:0:0:
192,192,291286,1,0,0:0:0:0:
64,192,291286,1,0,0:0:0:30:BaSS.wav
448,192,291286,128,0,291629:0:0:0:0:
320,192,291372,1,0,0:0:0:0:
64,192,291458,1,0,0:0:0:0:
192,192,291544,1,0,0:0:0:0:
64,192,291629,1,0,0:0:0:30:KicK.wav
320,192,291629,1,0,0:0:0:0:
448,192,291715,1,0,0:0:0:0:
192,192,291801,1,0,0:0:0:0:
320,192,291886,1,0,0:0:0:0:
448,192,291972,1,0,0:0:0:0:
64,192,291972,1,0,0:0:0:30:BaSS.wav
192,192,292058,1,0,0:0:0:0:
448,192,292144,1,0,0:0:0:0:
320,192,292229,1,0,0:0:0:0:
448,192,292315,1,0,0:0:0:0:
192,192,292315,1,0,0:0:0:0:
64,192,292315,1,0,0:0:0:30:KicK.wav
320,192,292401,1,0,0:0:0:0:
64,192,292486,1,0,0:0:0:0:
448,192,292572,1,0,0:0:0:0:
192,192,292658,128,0,292829:0:0:0:0:
64,192,292658,128,0,292829:0:0:0:0:
320,192,293001,1,0,0:0:0:0:
448,192,293001,1,0,0:0:0:30:KicK.wav
64,192,293001,1,0,0:0:0:0:
192,192,293086,1,0,0:0:0:0:
64,192,293172,128,0,293258:0:0:0:0:
320,192,293258,1,0,0:0:0:0:
448,192,293344,1,0,0:0:0:30:BaSS.wav
64,192,293344,1,0,0:0:0:0:
192,192,293429,1,0,0:0:0:0:
320,192,293515,1,0,0:0:0:0:
64,192,293601,1,0,0:0:0:0:
448,192,293686,1,0,0:0:0:30:KicK.wav
320,192,293686,1,0,0:0:0:0:
192,192,293686,1,0,0:0:0:0:
64,192,293772,1,0,0:0:0:0:
320,192,293858,1,0,0:0:0:0:
192,192,293944,1,0,0:0:0:0:
448,192,294029,128,0,294372:0:0:0:0:
64,192,294029,1,0,0:0:0:30:BaSS.wav
320,192,294115,1,0,0:0:0:0:
192,192,294201,1,0,0:0:0:0:
64,192,294286,1,0,0:0:0:0:
320,192,294372,1,0,0:0:0:0:
192,192,294372,1,0,0:0:0:30:KicK.wav
448,192,294458,1,0,0:0:0:0:
192,192,294544,1,0,0:0:0:0:
320,192,294629,1,0,0:0:0:0:
64,192,294715,128,0,295058:0:0:0:0:
448,192,294715,1,0,0:0:0:30:BaSS.wav
192,192,294801,1,0,0:0:0:0:
320,192,294886,1,0,0:0:0:0:
448,192,294972,1,0,0:0:0:0:
320,192,295058,1,0,0:0:0:0:
192,192,295058,1,0,0:0:0:30:KicK.wav
448,192,295144,1,0,0:0:0:0:
64,192,295144,1,0,0:0:0:0:
192,192,295229,1,0,0:0:0:0:
320,192,295229,1,0,0:0:0:0:
448,192,295315,1,0,0:0:0:0:
64,192,295315,1,0,0:0:0:0:
192,192,295401,1,0,0:0:0:0:
320,192,295401,1,0,0:0:0:30:BaSS.wav
64,192,295486,1,0,0:0:0:0:
448,192,295572,128,0,295658:0:0:0:0:
192,192,295658,1,0,0:0:0:0:
448,192,295744,128,0,295915:0:0:0:0:
320,192,295744,1,0,0:0:0:0:
64,192,295744,1,0,0:0:0:30:KicK.wav
192,192,295829,1,0,0:0:0:0:
320,192,295915,1,0,0:0:0:0:
64,192,296001,1,0,0:0:0:0:
320,192,296086,1,0,0:0:0:0:
448,192,296086,1,0,0:0:0:30:BaSS.wav
64,192,296172,128,0,296258:0:0:0:0:
320,192,296258,1,0,0:0:0:0:
64,192,296344,128,0,296429:0:0:0:0:
448,192,296429,128,0,296601:0:0:0:0:
320,192,296429,1,0,0:0:0:30:KicK.wav
192,192,296515,1,0,0:0:0:0:
64,192,296601,128,0,296772:0:0:0:0:
448,192,296686,1,0,0:0:0:0:
192,192,296772,1,0,0:0:0:0:
320,192,296772,1,0,0:0:0:0:
320,192,296944,1,0,0:0:0:0:
192,192,296944,1,0,0:0:0:0:
64,192,297115,5,0,0:0:0:0:
320,192,297115,1,0,0:0:0:0:
448,192,297286,1,0,0:0:0:0:
192,192,297286,1,0,0:0:0:0:
320,192,297458,1,0,0:0:0:0:
64,192,297458,1,0,0:0:0:0:
320,192,297629,128,0,297801:0:0:0:0:
448,192,297629,128,0,297801:0:0:0:0:
192,192,297801,1,0,0:0:0:0:
64,192,297801,1,0,0:0:0:0:
320,192,297972,1,0,0:0:0:30:BaSS.wav
448,192,297972,1,0,0:0:0:0:
448,192,298144,1,0,0:0:0:30:CrashR.wav
320,192,298144,1,0,0:0:0:30:BaSS.wav
64,192,298144,1,0,0:0:0:0:
192,192,298229,1,0,0:0:0:0:
320,192,298315,1,0,0:0:0:0:
192,192,298401,1,0,0:0:0:0:
448,192,298486,1,0,0:0:0:30:KicK.wav
320,192,298486,1,0,0:0:0:0:
64,192,298486,1,0,0:0:0:0:
192,192,298572,1,0,0:0:0:0:
320,192,298658,128,0,298744:0:0:0:0:
448,192,298744,1,0,0:0:0:0:
64,192,298829,5,0,0:0:0:30:BaSS.wav
192,192,298829,1,0,0:0:0:0:
320,192,298872,1,0,0:0:0:0:
448,192,298915,1,0,0:0:0:0:
64,192,298958,1,0,0:0:0:0:
192,192,299001,1,0,0:0:0:0:
320,192,299044,1,0,0:0:0:0:
448,192,299086,1,0,0:0:0:0:
64,192,299129,1,0,0:0:0:0:
192,192,299172,1,0,0:0:0:30:KicK.wav
320,192,299172,1,0,0:0:0:0:
448,192,299215,1,0,0:0:0:0:
64,192,299258,1,0,0:0:0:0:
192,192,299301,1,0,0:0:0:0:
320,192,299344,1,0,0:0:0:0:
448,192,299386,1,0,0:0:0:0:
64,192,299429,1,0,0:0:0:0:
192,192,299472,1,0,0:0:0:0:
320,192,299515,1,0,0:0:0:0:
448,192,299515,1,0,0:0:0:30:BaSS.wav
64,192,299601,1,0,0:0:0:0:
448,192,299686,1,0,0:0:0:0:
192,192,299772,1,0,0:0:0:0:
448,192,299858,1,0,0:0:0:30:KicK.wav
320,192,299858,1,0,0:0:0:0:
64,192,299858,1,0,0:0:0:0:
192,192,299944,1,0,0:0:0:0:
320,192,300029,1,0,0:0:0:0:
448,192,300115,1,0,0:0:0:0:
192,192,300201,1,0,0:0:0:0:
64,192,300201,1,0,0:0:0:30:BaSS.wav
320,192,300286,1,0,0:0:0:0:
448,192,300372,1,0,0:0:0:0:
64,192,300458,1,0,0:0:0:0:
448,192,300544,1,0,0:0:0:30:KicK.wav
320,192,300544,1,0,0:0:0:0:
192,192,300629,1,0,0:0:0:0:
64,192,300629,1,0,0:0:0:0:
320,192,300715,1,0,0:0:0:0:
448,192,300715,1,0,0:0:0:0:
192,192,300801,1,0,0:0:0:0:
64,192,300801,1,0,0:0:0:0:
320,192,300886,1,0,0:0:0:30:BaSS.wav
448,192,300886,128,0,300972:0:0:0:0:
192,192,300972,1,0,0:0:0:0:
64,192,301058,128,0,301144:0:0:0:0:
320,192,301144,1,0,0:0:0:0:
448,192,301229,1,0,0:0:0:0:
192,192,301229,1,0,0:0:0:0:
64,192,301229,1,0,0:0:0:30:KicK.wav
320,192,301315,1,0,0:0:0:0:
192,192,301401,1,0,0:0:0:0:
448,192,301486,1,0,0:0:0:0:
320,192,301572,1,0,0:0:0:0:
64,192,301572,1,0,0:0:0:30:BaSS.wav
192,192,301658,1,0,0:0:0:0:
320,192,301744,1,0,0:0:0:0:
448,192,301829,1,0,0:0:0:0:
192,192,301915,1,0,0:0:0:30:KicK.wav
320,192,301915,1,0,0:0:0:0:
64,192,301915,1,0,0:0:0:0:
448,192,302001,1,0,0:0:0:0:
64,192,302086,128,0,302172:0:0:0:0:
320,192,302172,1,0,0:0:0:0:
64,192,302258,128,0,302601:0:0:0:0:
448,192,302258,1,0,0:0:0:30:BaSS.wav
192,192,302344,1,0,0:0:0:0:
448,192,302429,1,0,0:0:0:0:
192,192,302515,1,0,0:0:0:0:
320,192,302601,1,0,0:0:0:0:
448,192,302601,1,0,0:0:0:30:KicK.wav
64,192,302686,1,0,0:0:0:0:
192,192,302772,1,0,0:0:0:0:
448,192,302858,1,0,0:0:0:0:
320,192,302944,1,0,0:0:0:0:
64,192,302944,1,0,0:0:0:30:BaSS.wav
192,192,303029,5,0,0:0:0:0:
320,192,303115,1,0,0:0:0:0:
64,192,303201,1,0,0:0:0:30:BaSS.wav
192,192,303201,1,0,0:0:0:0:
320,192,303286,1,0,0:0:0:0:
448,192,303286,1,0,0:0:0:30:KicK.wav
192,192,303372,1,0,0:0:0:0:
64,192,303458,1,0,0:0:0:0:
320,192,303544,1,0,0:0:0:0:
448,192,303629,1,0,0:0:0:30:CrashR.wav
192,192,303629,1,0,0:0:0:0:
64,192,303629,1,0,0:0:0:30:BaSS.wav
320,192,303715,1,0,0:0:0:0:
64,192,303801,1,0,0:0:0:0:
192,192,303886,1,0,0:0:0:0:
320,192,303972,1,0,0:0:0:0:
448,192,303972,1,0,0:0:0:30:KicK.wav
64,192,303972,1,0,0:0:0:0:
192,192,304058,1,0,0:0:0:0:
448,192,304144,128,0,304229:0:0:0:0:
64,192,304229,1,0,0:0:0:0:
448,192,304315,1,0,0:0:0:0:
192,192,304315,1,0,0:0:0:30:BaSS.wav
320,192,304401,1,0,0:0:0:0:
64,192,304486,1,0,0:0:0:0:
448,192,304572,1,0,0:0:0:0:
320,192,304658,1,0,0:0:0:0:
192,192,304658,1,0,0:0:0:0:
64,192,304658,1,0,0:0:0:30:KicK.wav
448,192,304744,1,0,0:0:0:0:
192,192,304829,1,0,0:0:0:0:
320,192,304915,1,0,0:0:0:0:
448,192,305001,128,0,305344:0:0:0:0:
192,192,305001,1,0,0:0:0:30:CrashR.wav
64,192,305001,1,0,0:0:0:30:BaSS.wav
320,192,305086,1,0,0:0:0:0:
64,192,305172,1,0,0:0:0:0:
320,192,305258,1,0,0:0:0:0:
192,192,305344,1,0,0:0:0:0:
64,192,305344,1,0,0:0:0:30:KicK.wav
320,192,305429,1,0,0:0:0:0:
448,192,305515,1,0,0:0:0:0:
192,192,305601,1,0,0:0:0:30:Snare.wav
64,192,305601,1,0,0:0:0:0:
448,192,305686,1,0,0:0:0:0:
320,192,305686,1,0,0:0:0:30:BaSS.wav
192,192,305772,1,0,0:0:0:30:Snare.wav
64,192,305772,1,0,0:0:0:0:
448,192,305858,1,0,0:0:0:0:
320,192,305944,1,0,0:0:0:0:
192,192,306029,1,0,0:0:0:0:
64,192,306029,1,0,0:0:0:30:KicK.wav
320,192,306115,1,0,0:0:0:0:
448,192,306115,1,0,0:0:0:0:
192,192,306201,1,0,0:0:0:0:
64,192,306201,1,0,0:0:0:30:Snare.wav
320,192,306286,1,0,0:0:0:0:
448,192,306286,1,0,0:0:0:0:
448,192,306372,1,0,0:0:0:30:CrashR.wav
192,192,306372,1,0,0:0:0:0:
64,192,306372,1,0,0:0:0:30:BaSS.wav
320,192,306544,1,0,0:0:0:0:
192,192,306544,1,0,0:0:0:30:Snare.wav
448,192,306715,1,0,0:0:0:0:
320,192,306715,1,0,0:0:0:30:KicK.wav
64,192,306715,1,0,0:0:0:0:
192,192,306886,1,0,0:0:0:30:Snare.wav
64,192,306886,1,0,0:0:0:0:
64,192,306972,1,0,0:0:0:0:
192,192,306972,1,0,0:0:0:30:Snare.wav
448,192,307058,5,0,0:0:0:30:CrashR.wav
320,192,307058,1,0,0:0:0:0:
192,192,307058,1,0,0:0:0:30:BaSS.wav
64,192,307058,1,0,0:0:0:0:
320,192,307229,1,0,0:0:0:0:
192,192,307229,1,0,0:0:0:30:Snare.wav
448,192,307401,1,0,0:0:0:0:
320,192,307401,1,0,0:0:0:30:KicK.wav
64,192,307401,1,0,0:0:0:0:
320,192,307572,1,0,0:0:0:0:
192,192,307572,1,0,0:0:0:30:Snare.wav
192,192,307744,5,0,0:0:0:30:CrashR.wav
64,192,307744,1,0,0:0:0:30:BaSS.wav
320,192,307744,128,0,308086:0:0:0:0:
448,192,307744,128,0,308086:0:0:0:0:
64,192,308086,5,0,0:0:0:0:
320,192,308258,1,0,0:0:0:0:
320,192,308429,1,0,0:0:0:0:
192,192,308601,1,0,0:0:0:0:
64,192,308772,128,0,309115:0:0:0:0:
448,192,309115,5,0,0:0:0:30:CrashR.wav
320,192,309115,1,0,0:0:0:30:BaSS.wav
192,192,309115,1,0,0:0:0:0:
64,192,309326,1,0,0:0:0:0:
448,192,309537,1,0,0:0:0:0:
320,192,309748,1,0,0:0:0:0:
192,192,309960,1,0,0:0:0:0:
64,192,310171,1,0,0:0:0:0:
448,192,310382,1,0,0:0:0:0:
192,192,310593,1,0,0:0:0:0:
320,192,310822,1,0,0:0:0:0:
64,192,311033,1,0,0:0:0:0:
448,192,311220,1,0,0:0:0:0:
320,192,311470,1,0,0:0:0:0:
192,192,311700,1,0,0:0:0:0:
64,192,311931,1,0,0:0:0:0:
448,192,312162,1,0,0:0:0:0:
64,192,312638,1,0,0:0:0:0:
192,192,312825,1,0,0:0:0:0:
320,192,312998,1,0,0:0:0:0:
192,192,313171,1,0,0:0:0:0:
448,192,313401,1,0,0:0:0:0:
320,192,313659,1,0,0:0:0:0:
192,192,313922,1,0,0:0:0:0:
320,192,314185,1,0,0:0:0:0:
64,192,314607,1,0,0:0:0:0:
448,192,314718,1,0,0:0:0:0:
320,192,314773,1,0,0:0:0:0:
192,192,314829,1,0,0:0:0:0:
64,192,314884,128,0,315995:0:0:0:0:
