osu file format v14

[General]
AudioFilename: audio.mp3
AudioLeadIn: 0
PreviewTime: 87878
Countdown: 0
SampleSet: Soft
StackLeniency: 1
Mode: 0
LetterboxInBreaks: 0
WidescreenStoryboard: 1

[Editor]
Bookmarks: 11515,22486,44429,66372,88315,110258,154144,176086,199401,221344,243286,265229
DistanceSpacing: 1.05
BeatDivisor: 4
GridSize: 8
TimelineZoom: 2.1

[Metadata]
Title:Reminiscing (Cut Ver.)
TitleUnicode:Reminiscing (Cut Ver.)
Artist:Shoujo
ArtistUnicode:Shoujo
Creator:pishifat
Version:Expert
Source:
Tags:milan- electronic english instrumental japanese future bass drum n n' and dnb bastard pop terrorists 17 electronic makina happy hardcore
BeatmapID:1844871
BeatmapSetID:666342

[Difficulty]
HPDrainRate:6
CircleSize:3.2
OverallDifficulty:8.1
ApproachRate:9.1
SliderMultiplier:1
SliderTickRate:1

[Events]
//Background and Video events
0,0,"butwhy.png",0,0
//Break Periods
//Storyboard Layer 0 (Background)
//Storyboard Layer 1 (Fail)
//Storyboard Layer 2 (Pass)
//Storyboard Layer 3 (Foreground)
//Storyboard Layer 4 (Overlay)
//Storyboard Sound Samples

[TimingPoints]
621,342.857142857143,4,2,1,65,1,0
621,-100,4,2,1,50,0,0
3706,-100,4,2,1,50,0,0
3963,-100,4,2,1,50,0,0
6449,-100,4,2,1,50,0,0
6792,-100,4,2,1,50,0,0
9192,-100,4,2,1,50,0,0
9535,-100,4,2,1,50,0,0
10221,-100,4,2,1,65,0,0
10563,-100,4,2,1,55,0,0
10606,-100,4,2,1,5,0,0
10735,-100,4,2,1,55,0,0
10778,-100,4,2,1,5,0,0
10906,-100,4,2,1,55,0,0
11592,-100,4,2,1,55,0,0
14678,-100,4,2,1,55,0,0
15021,-100,4,2,1,55,0,0
16906,-100,4,2,1,55,0,0
17078,-100,4,2,1,55,0,0
20163,-100,4,2,1,55,0,0
20506,-100,4,2,1,55,0,0
20849,-100,4,2,1,55,0,0
21535,-100,4,2,1,40,0,0
22049,-100,4,2,1,40,0,0
22221,-100,4,2,1,50,0,0
22563,-100,4,2,1,65,0,0
32163,-100,4,2,1,65,0,0
32506,-100,4,2,1,55,0,0
33535,-100,4,2,1,65,0,0
43992,-100,4,2,1,45,0,0
44506,-100,4,2,1,40,0,0
55478,-100,4,2,1,50,0,0
66449,-100,4,2,1,50,0,0
77421,-100,4,2,1,60,0,0
82906,-100,4,2,1,65,0,0
87021,-100,4,2,1,50,0,0
88392,-25,4,2,1,70,0,1
88735,-28.5714285714286,4,2,1,70,0,1
89078,-33.3333333333333,4,2,1,70,0,1
89421,-40,4,2,1,70,0,1
89763,-25,4,2,1,70,0,1
90278,-33.3333333333333,4,2,1,70,0,1
90792,-40,4,2,1,70,0,1
91135,-25,4,2,1,70,0,1
91478,-28.5714285714286,4,2,1,70,0,1
91821,-33.3333333333333,4,2,1,70,0,1
92163,-40,4,2,1,70,0,1
93192,-33.3333333333333,4,2,1,60,0,1
93535,-28.5714285714286,4,2,1,60,0,1
93878,-28.5714285714286,4,2,1,70,0,1
94563,-33.3333333333333,4,2,1,70,0,1
94906,-40,4,2,1,70,0,1
95421,-28.5714285714286,4,2,1,70,0,1
95935,-33.3333333333333,4,2,1,70,0,1
96278,-40,4,2,1,70,0,1
96621,-28.5714285714286,4,2,1,70,0,1
97306,-33.3333333333333,4,2,1,70,0,1
97649,-40,4,2,1,70,0,1
98678,-50,4,2,1,60,0,0
99021,-100,4,2,1,60,0,0
99363,-33.3333333333333,4,2,1,70,0,1
104849,-50,4,2,1,55,0,1
106221,-33.3333333333333,4,2,1,60,0,1
107592,-100,4,2,1,65,0,1
108963,-100,4,2,1,50,0,0
109306,-100,4,2,1,50,0,0
109349,-100,4,2,1,5,0,0
109478,-100,4,2,1,50,0,0
109521,-100,4,2,1,5,0,0
109649,-100,4,2,1,50,0,0
109992,-28.5714285714286,4,2,1,60,0,0
110335,-40,4,2,1,65,0,0
126363,-66.6666666666667,4,2,1,65,0,0
126792,-40,4,2,1,65,0,0
130992,-100,4,2,1,5,0,0
131763,-50,4,2,1,65,0,0
132278,-100,4,2,1,65,0,0
132621,-25,4,2,1,70,0,1
132963,-33.3333333333333,4,2,1,70,0,1
133306,-40,4,2,1,70,0,1
133649,-28.5714285714286,4,2,1,70,0,1
134335,-33.3333333333333,4,2,1,70,0,1
134678,-40,4,2,1,70,0,1
135021,-28.5714285714286,4,2,1,70,0,1
135706,-33.3333333333333,4,2,1,70,0,1
136392,-28.5714285714286,4,2,1,70,0,1
137078,-33.3333333333333,4,2,1,70,0,1
137421,-40,4,2,1,70,0,1
137763,-28.5714285714286,4,2,1,70,0,1
138449,-33.3333333333333,4,2,1,70,0,1
138792,-40,4,2,1,70,0,1
139306,-28.5714285714286,4,2,1,70,0,1
139821,-33.3333333333333,4,2,1,70,0,1
140163,-40,4,2,1,70,0,1
140506,-28.5714285714286,4,2,1,70,0,1
141363,-33.3333333333333,4,2,1,70,0,1
141535,-40,4,2,1,70,0,1
141878,-28.5714285714286,4,2,1,70,0,1
142392,-100,4,2,1,70,0,0
142478,-100,4,2,1,5,0,0
142906,-100,4,2,1,5,0,0
143249,-33.3333333333333,4,2,1,70,0,1
148735,-100,4,2,1,50,0,0
149078,-50,4,2,1,70,0,1
151478,-100,4,2,1,70,0,1
152849,-100,4,2,1,50,0,0
153192,-80,4,2,1,50,0,0
153235,-80,4,2,1,5,0,0
153363,-100,4,2,1,50,0,0
153406,-66.6666666666667,4,2,1,5,0,0
153535,-66.6666666666667,4,2,1,50,0,0
153878,-100,4,2,1,60,0,0
154221,-28.5714285714286,4,2,1,50,0,0
154563,-28.5714285714286,4,2,1,70,0,0
155249,-33.3333333333333,4,2,1,50,0,0
155592,-28.5714285714286,4,2,1,50,0,0
155935,-28.5714285714286,4,2,1,70,0,0
156621,-100,4,2,1,50,0,0
156963,-28.5714285714286,4,2,1,71,0,0
157306,-100,4,2,1,71,0,0
158935,-100,4,2,1,71,0,0
159363,-100,4,2,1,71,0,0
159706,-100,4,2,1,71,0,0
160049,-100,4,2,1,71,0,0
161078,-100,4,2,1,71,0,0
161421,-100,4,2,1,71,0,0
162106,-100,4,2,1,61,0,0
162449,-100,4,2,1,71,0,0
162792,-100,4,2,1,71,0,0
163821,-100,4,2,1,71,0,0
164506,-100,4,2,1,51,0,0
165192,-100,4,2,1,71,0,0
165535,-100,4,2,1,71,0,0
166563,-100,4,2,1,71,0,0
166906,-100,4,2,1,71,0,0
167592,-100,4,2,1,61,0,0
167678,-100,4,2,1,71,0,0
167935,-100,4,2,1,71,0,0
169306,-100,4,2,1,71,0,0
169649,-100,4,2,1,71,0,0
170335,-100,4,2,1,51,0,0
170678,-100,4,2,1,71,0,0
171021,-100,4,2,1,71,0,0
172049,-100,4,2,1,71,0,0
172392,-100,4,2,1,71,0,0
173078,-100,4,2,1,61,0,0
173421,-100,4,2,1,71,0,0
174792,-100,4,2,1,50,0,0
175135,-100,4,2,1,50,0,0
175178,-100,4,2,1,5,0,0
175306,-100,4,2,1,50,0,0
175349,-100,4,2,1,5,0,0
175392,-100,4,2,1,50,0,0
175821,-100,4,2,1,50,0,0
176163,-100,4,2,1,55,0,0
179249,-100,4,2,1,55,0,0
179592,-100,4,2,1,55,0,0
184735,-100,4,2,1,55,0,0
185078,-100,4,2,1,55,0,0
185763,-100,4,2,1,55,0,0
187135,-100,4,2,1,50,0,0
188196,-100,4,2,1,50,0,0
190221,-100,4,2,1,50,0,0
190563,-100,4,2,1,50,0,0
191935,-100,4,2,1,50,0,0
192621,-100,4,2,1,55,0,0
196735,-100,4,2,1,50,0,0
197078,-100,4,2,1,50,0,0
197121,-100,4,2,1,5,0,0
197206,-100,4,2,1,50,0,0
197292,-100,4,2,1,5,0,0
197335,-100,4,2,1,35,0,0
198106,422.535211267606,4,2,1,50,1,0
198106,-100,4,2,1,50,0,0
199478,-100,4,2,1,35,0,0
199584,459.770114942529,4,2,1,48,1,0
199813,422.535211267606,4,2,1,46,1,0
200024,375,4,2,1,44,1,0
200211,500,4,2,1,42,1,0
200461,461.538461538462,4,2,1,40,1,0
200461,-100,4,2,1,40,0,0
201153,476.190476190476,4,2,1,40,1,0
201153,-100,4,2,1,40,0,0
201629,375,4,2,1,36,1,0
201629,-100,4,2,1,36,0,0
201816,346.820809248555,4,2,1,34,1,0
202162,461.538461538462,4,2,1,32,1,0
202392,517.241379310345,4,2,1,30,1,0
202650,526.315789473684,4,2,1,30,1,0
203176,845.070422535211,4,2,1,30,1,0
203598,444.444444444444,4,2,1,28,1,0
203653,-100,4,2,1,20,0,0

[Colours]
Combo1 : 187,187,255
Combo2 : 206,255,219
Combo3 : 165,230,254
Combo4 : 213,238,240

[HitObjects]
30,167,87963,5,0,0:0:0:0:
0,254,88049,1,0,0:0:0:0:
0,254,88221,1,0,0:0:0:0:
0,254,88392,6,0,P|95:183|288:199,1,300
344,251,88735,2,0,L|333:337,1,87.500000834465
332,337,88992,1,0,0:0:0:0:
423,371,89078,6,0,P|477:272|462:175,1,150.000005722046
478,237,89421,2,0,P|492:157|536:102,1,125
462,48,89678,1,0,0:0:0:0:
385,93,89763,6,0,B|208:87|297:-7|113:-13,1,300
30,24,90106,1,0,0:0:0:0:
30,24,90278,1,0,0:0:0:0:
101,83,90363,2,0,L|125:250,1,150.000005722046
219,192,90621,1,0,0:0:0:0:
219,192,90792,2,0,L|195:340,1,125
294,287,91049,1,0,0:0:0:0:
365,343,91135,6,0,P|411:330|453:289,1,100
409,183,91306,1,0,0:0:0:0:
409,183,91478,2,0,P|420:136|409:81,1,87.500000834465
153,61,91649,1,0,0:0:0:0:
153,61,91821,1,0,0:0:0:0:
234,28,91906,2,0,P|267:45|292:72,1,75.0000028610231
165,240,92078,1,0,0:0:0:0:
83,187,92163,2,0,P|111:166|213:153,1,125
286,173,92421,1,0,0:0:0:0:
344,258,92506,5,0,0:0:0:0:
344,258,92678,1,0,0:0:0:0:
344,258,92849,2,0,L|330:331,2,62.5
421,208,93106,1,0,0:0:0:0:
493,265,93192,6,0,P|430:297|407:294,1,75.0000028610231
353,151,93363,2,0,P|415:118|438:121,1,75.0000028610231
272,200,93535,6,0,L|258:75,1,87.500000834465
501,55,93706,2,0,L|510:141,1,87.500000834465
332,319,93878,6,0,P|274:245|96:202,1,262.500002503395
36,254,94221,2,0,L|23:167,1,87.500000834465
23,167,94478,1,0,0:0:0:0:
126,207,94563,2,0,P|232:176|284:120,1,150.000005722046
260,151,94906,2,0,P|321:108|381:100,1,125
462,121,95163,1,0,0:0:0:0:
512,203,95249,5,0,0:0:0:0:
512,203,95421,2,0,L|500:316,1,87.500000834465
369,99,95592,1,0,0:0:0:0:
369,99,95763,1,0,0:0:0:0:
358,193,95849,2,0,L|333:-2,1,175.00000166893
244,27,96106,1,0,0:0:0:0:
244,27,96278,2,0,L|264:182,1,125
209,227,96535,1,0,0:0:0:0:
144,162,96621,6,0,B|302:180|201:272|405:297,1,262.500002503395
509,194,96963,2,0,P|469:211|437:241,1,87.500000834465
317,368,97135,2,0,P|190:326|136:275,1,175.00000166893
95,241,97392,1,0,0:0:0:0:
95,241,97563,1,0,0:0:0:0:
14,313,97649,2,0,L|-8:162,1,125
33,110,97906,1,0,0:0:0:0:
123,133,97992,5,0,0:0:0:0:
123,133,98163,1,0,0:0:0:0:
191,77,98249,1,0,0:0:0:0:
238,163,98335,1,0,0:0:0:0:
238,163,98506,1,0,0:0:0:0:
238,163,98678,6,0,L|302:152,1,50
255,253,98849,2,0,L|304:244,1,50
396,177,99021,6,0,L|445:168,1,50
445,168,99363,6,0,B|471:211|471:211|452:362,1,150.000005722046
458,310,99706,1,0,0:0:0:0:
304,244,99878,1,0,0:0:0:0:
181,354,100049,2,0,B|138:328|138:328|-13:347,1,150.000005722046
39,340,100392,2,0,B|82:366|82:366|233:347,1,150.000005722046
146,144,100735,6,0,B|120:101|120:101|139:-50,1,150.000005722046
132,2,101078,1,0,0:0:0:0:
457,81,101249,1,0,0:0:0:0:
380,97,101335,1,0,0:0:0:0:
303,112,101421,1,0,0:0:0:0:
228,132,101506,1,0,0:0:0:0:
228,132,101678,1,0,0:0:0:0:
146,144,101763,2,0,B|120:101|120:101|139:-50,1,150.000005722046
0,100,102021,1,0,0:0:0:0:
57,156,102106,6,0,B|83:199|83:199|64:350,1,150.000005722046
70,297,102449,1,0,0:0:0:0:
224,247,102621,1,0,0:0:0:0:
344,345,102792,2,0,B|387:371|387:371|485:358,1,150.000005722046
485,358,103135,1,0,0:0:0:0:
306,271,103306,1,0,0:0:0:0:
472,165,103478,6,0,B|498:122|498:122|485:23,1,150.000005722046
485,23,103821,2,0,B|459:66|459:66|471:164,1,150.000005722046
471,164,104163,1,0,0:0:0:0:
254,35,104335,1,0,0:0:0:0:
335,56,104421,1,0,0:0:0:0:
335,56,104592,1,0,0:0:0:0:
334,135,104678,1,0,0:0:0:0:
261,162,104763,1,0,0:0:0:0:
207,102,104849,5,0,0:0:0:0:
207,102,105021,1,0,0:0:0:0:
116,144,105192,5,0,0:0:0:0:
116,144,105363,2,0,L|54:131,1,50
82,254,105535,5,0,0:0:0:0:
82,254,105706,1,0,0:0:0:0:
159,348,105878,5,0,0:0:0:0:
159,348,106049,1,0,0:0:0:0:
291,374,106221,5,0,0:0:0:0:
291,374,106392,1,0,0:0:0:0:
432,325,106563,5,0,0:0:0:0:
432,325,106735,1,0,0:0:0:0:
503,176,106906,5,0,0:0:0:0:
503,176,107078,1,0,0:0:0:0:
426,200,107163,1,0,0:0:0:0:
350,222,107249,2,0,L|242:206,2,100.000003814697
508,7,107592,5,0,0:0:0:0:
477,30,107677,1,0,0:0:0:0:
446,53,107763,1,0,0:0:0:0:
415,76,107849,1,0,0:0:0:0:
384,99,107934,1,0,0:0:0:0:
353,122,108020,1,0,0:0:0:0:
322,145,108106,1,0,0:0:0:0:
292,168,108192,1,0,0:0:0:0:
261,191,108277,1,0,0:0:0:0:
230,214,108363,1,0,0:0:0:0:
199,237,108449,1,0,0:0:0:0:
168,261,108534,1,0,0:0:0:0:
137,284,108620,1,0,0:0:0:0:
106,307,108706,1,0,0:0:0:0:
76,330,108792,1,0,0:0:0:0:
45,353,108877,1,0,0:0:0:0:
14,376,108963,1,0,0:0:0:0:
483,318,109306,5,0,0:0:0:0:
483,318,109478,1,0,0:0:0:0:
483,318,109649,2,0,L|428:285,1,50
366,247,109906,1,0,0:0:0:0:
445,178,109992,6,0,P|453:301|339:349,1,262.500002503395
262,296,110335,6,0,P|250:234|231:175,1,125
0,234,110678,2,0,P|11:295|30:354,1,125
124,357,110935,2,0,L|187:340,1,62.5
144,177,111106,2,0,L|81:194,1,62.5
83,193,111363,1,0,0:0:0:0:
284,146,111535,1,0,0:0:0:0:
448,286,111706,6,0,P|387:245|326:184,1,125
243,0,112049,2,0,P|303:40|364:101,1,125
284,146,112306,2,0,L|195:127,1,62.5,0|0,0:0|3:0,3:0:0:0:
405,142,112478,2,0,L|466:154,1,62.5,0|0,0:0|3:0,3:0:0:0:
466,154,112735,1,0,0:0:0:0:
478,204,112821,1,0,0:0:0:0:
487,250,112907,1,0,0:0:0:0:
286,287,113078,5,0,0:0:0:0:
169,318,113249,1,0,0:0:0:0:
73,242,113421,1,0,0:0:0:0:
192,215,113592,1,0,0:0:0:0:
192,215,113678,2,0,L|207:138,1,62.5
169,318,113849,2,0,L|154:395,1,62.5
157,379,114106,1,0,0:0:0:0:
73,242,114278,1,0,0:0:0:0:
286,287,114449,6,0,P|387:265|437:242,1,125
490,32,114792,2,0,P|389:54|339:77,1,125
309,126,115049,2,0,L|328:212,1,62.5
466,191,115221,2,0,L|452:129,1,62.5
452,129,115478,1,0,0:0:0:0:
445,176,115563,1,0,0:0:0:0:
425,218,115649,1,0,0:0:0:0:
394,253,115735,1,0,0:0:0:0:
354,278,115821,6,0,P|283:272|199:240,1,125
123,75,116163,2,0,P|137:135|165:191,1,125
253,170,116421,2,0,L|301:120,1,62.5
145,281,116592,2,0,L|97:331,1,62.5
101,326,116849,1,0,0:0:0:0:
270,294,117021,1,0,0:0:0:0:
420,354,117192,6,0,P|479:377|549:386,1,125
396,198,117535,2,0,P|445:158|488:102,1,125
374,60,117792,2,0,P|364:89|351:118,1,62.5
262,136,117963,2,0,P|252:73|225:8,1,125
142,2,118221,1,0,0:0:0:0:
43,117,118392,1,0,0:0:0:0:
165,231,118563,5,0,0:0:0:0:
141,333,118735,1,0,0:0:0:0:
39,308,118906,1,0,0:0:0:0:
66,209,119078,1,0,0:0:0:0:
66,209,119163,2,0,L|129:201,1,62.5
141,333,119335,2,0,L|78:341,1,62.5
78,340,119592,1,0,0:0:0:0:
256,384,119763,1,0,0:0:0:0:
364,261,119935,6,0,P|345:142|329:109,1,125
159,34,120278,2,0,P|219:49|274:77,1,125
260,166,120535,1,0,0:0:0:0:
260,166,121306,6,0,P|170:191|127:215,1,125
179,297,121649,2,0,P|269:272|312:248,1,125
387,246,121906,2,0,P|452:276|470:297,1,62.5
409,355,122078,2,0,P|344:325|326:304,1,62.5
351,331,122335,1,0,0:0:0:0:
496,194,122506,1,0,0:0:0:0:
307,138,122678,6,0,P|268:55|259:0,1,125
224,181,123021,2,0,P|207:241|178:296,1,125
97,263,123278,2,0,P|77:202|77:163,1,62.5
34,325,123449,2,0,P|26:355|14:383,1,62.5
14,383,123706,1,0,0:0:0:0:
67,378,123792,1,0,0:0:0:0:
116,373,123878,1,0,0:0:0:0:
266,382,124049,5,0,0:0:0:0:
369,336,124221,1,0,0:0:0:0:
409,231,124392,1,0,0:0:0:0:
397,120,124563,1,0,0:0:0:0:
397,120,124649,2,0,L|410:46,1,62.5
498,78,124821,2,0,L|487:139,1,62.5
487,139,125078,1,0,0:0:0:0:
311,69,125249,1,0,0:0:0:0:
165,189,125421,6,0,P|95:222|15:237,1,125
255,182,125763,2,0,P|318:226|371:287,1,125
305,349,126021,2,0,P|286:323|264:301,1,62.5
180,285,126193,2,0,P|107:311|68:316,1,62.5
122,308,126449,2,0,L|117:355,3,37.5000014305115
32,312,126792,6,0,L|8:148,1,125
81,37,127135,2,0,L|99:160,1,125
191,177,127392,1,0,0:0:0:0:
191,177,127478,2,0,L|209:300,1,125
272,136,127821,2,0,L|253:12,1,125
439,260,128163,6,0,P|380:329|315:367,1,125
209,300,128506,2,0,P|310:262|352:232,1,125
383,179,128763,1,0,0:0:0:0:
383,179,128849,2,0,P|400:72|395:21,1,125
212,205,129192,2,0,P|147:205|118:198,2,62.5
314,7,129535,6,0,L|171:29,1,125
190,26,129878,1,0,0:0:0:0:
190,26,130049,1,0,0:0:0:0:
8,118,130221,2,0,L|151:96,1,125
131,98,130564,1,0,0:0:0:0:
131,98,130735,1,0,0:0:0:0:
115,286,130906,5,0,0:0:0:0:
115,286,131763,2,0,L|147:291,3,25
90,316,131935,6,0,L|155:326,3,66.6666666666667
156,326,132621,6,0,P|230:230|331:217,1,200
378,257,132878,1,0,0:3:0:0:
410,342,132963,2,0,P|414:256|460:186,1,150.000005722046,0|0,0:3|0:3,0:3:0:0:
510,139,133221,1,0,0:0:0:0:
422,116,133306,1,0,0:0:0:0:
422,116,133478,2,0,P|396:74|391:55,1,62.5
311,10,133649,6,0,B|208:21|257:75|136:92,1,175.00000166893
70,81,133906,1,0,0:0:0:0:
14,12,133992,2,0,L|34:197,1,175.00000166893
18,275,134249,1,0,0:0:0:0:
72,346,134335,2,0,P|101:368|136:381,1,75.0000028610231
187,306,134506,2,0,P|222:293|251:270,1,75.0000028610231
263,179,134678,1,0,0:0:0:0:
263,179,134849,1,0,0:0:0:0:
483,238,135021,6,0,P|509:272|519:314,1,87.500000834465
369,384,135192,2,0,P|342:349|332:307,1,87.500000834465
428,315,135363,1,0,0:0:0:0:
428,315,135535,1,0,0:0:0:0:
487,128,135706,6,0,L|500:37,1,75.0000028610231
316,27,135878,2,0,L|303:118,1,75.0000028610231
404,80,136049,1,0,0:0:0:0:
404,80,136221,1,0,0:0:0:0:
223,142,136392,6,0,P|130:124|36:40,1,175.00000166893
65,78,136735,2,0,P|36:120|37:190,1,87.500000834465
0,241,136906,2,0,P|28:282|94:305,1,87.500000834465
143,266,137078,1,0,0:0:0:0:
194,260,137163,1,0,0:0:0:0:
245,272,137249,1,0,0:0:0:0:
286,304,137335,1,0,0:0:0:0:
313,352,137421,1,0,0:0:0:0:
313,352,137592,1,0,0:0:0:0:
486,310,137763,6,0,P|517:202|501:133,1,175.00000166893
504,142,138106,2,0,P|421:175|387:164,1,87.500000834465
328,74,138278,1,0,0:0:0:0:
328,74,138449,2,0,P|292:48|250:41,1,87.500000834465
102,124,138621,1,0,0:0:0:0:
102,124,138792,2,0,L|117:213,1,62.5
199,170,138963,2,0,L|188:108,1,62.5
19,170,139135,5,0,0:0:0:0:
19,170,139306,2,0,P|-6:202|-13:266,1,87.500000834465
133,344,139478,2,0,P|203:289|297:283,1,175.00000166893
370,312,139735,1,0,0:0:0:0:
438,372,139821,2,0,L|517:383,1,75.0000028610231
418,235,139992,1,0,0:0:0:0:
418,235,140163,2,0,P|454:217|479:189,1,62.5
490,110,140335,2,0,P|472:74|444:48,1,62.5
375,31,140506,6,0,P|288:38|211:0,1,175.00000166893
211,1,140849,2,0,P|229:90|289:149,1,150.000005722046
354,161,141106,1,0,0:0:0:0:
293,228,141192,1,0,0:0:0:0:
293,228,141363,2,0,L|219:241,1,75.0000028610231
85,157,141535,1,0,0:0:0:0:
85,157,141706,2,0,L|152:168,1,62.5
36,384,141878,6,0,P|60:300|153:250,1,175.00000166893
129,253,142221,2,0,P|210:342|302:335,1,175.00000166893
465,68,143249,6,0,B|425:36|425:36|283:56,1,150.000005722046
2,133,143592,1,0,0:0:0:0:
2,133,143763,2,0,P|64:93|78:66,1,75.0000028610231
129,27,143935,2,0,B|161:67|161:67|141:209,1,150.000005722046
31,325,144278,1,0,0:0:0:0:
31,325,144449,2,0,P|111:345|130:367,1,75.0000028610231
303,368,144621,6,0,B|327:327|327:327|303:208,1,150.000005722046
306,227,144963,2,0,B|282:268|282:268|306:387,1,150.000005722046
384,383,145221,1,0,0:0:0:0:
459,354,145306,1,0,0:0:0:0:
496,278,145392,2,0,L|513:122,1,150.000005722046
418,188,145649,1,0,0:0:0:0:
418,188,145821,2,0,L|321:213,1,75.0000028610231
180,135,145992,6,0,B|219:102|219:102|352:125,1,150.000005722046
278,352,146335,1,0,0:0:0:0:
278,352,146506,2,0,P|316:285|316:254,1,75.0000028610231
254,221,146678,2,0,B|215:188|215:188|82:211,1,150.000005722046
320,122,147021,1,0,0:0:0:0:
320,122,147192,1,0,0:0:0:0:
252,70,147278,1,0,0:0:0:0:
170,83,147363,6,0,B|131:116|131:116|-2:93,1,150.000005722046
27,340,147706,2,0,B|66:307|66:307|199:330,1,150.000005722046
366,272,148049,1,0,0:0:0:0:
366,272,148221,1,0,0:0:0:0:
288,282,148306,1,0,0:0:0:0:
215,250,148392,1,0,0:0:0:0:
159,194,148478,1,0,0:0:0:0:
134,118,148563,2,0,L|146:18,1,75.0000028610231
43,356,149078,5,0,0:0:0:0:
43,356,149249,2,0,L|123:338,1,50
130,266,149421,5,0,0:0:0:0:
130,266,149592,1,0,0:0:0:0:
245,301,149763,5,0,0:0:0:0:
245,301,149935,1,0,0:0:0:0:
246,162,150106,5,0,0:0:0:0:
246,162,150278,1,0,0:0:0:0:
433,215,150449,5,0,0:0:0:0:
433,215,150621,1,0,0:0:0:0:
364,26,150792,5,0,0:0:0:0:
364,26,150963,1,0,0:0:0:0:
443,50,151049,1,0,0:0:0:0:
512,0,151135,5,0,0:0:0:0:
512,0,151306,1,0,0:0:0:0:
508,192,151478,5,0,0:0:0:0:
476,192,151563,1,0,0:0:0:0:
445,192,151649,1,0,0:0:0:0:
414,192,151735,1,0,0:0:0:0:
383,192,151820,1,0,0:0:0:0:
351,192,151906,1,0,0:0:0:0:
320,192,151992,1,0,0:0:0:0:
289,192,152078,1,0,0:0:0:0:
258,192,152163,1,0,0:0:0:0:
226,192,152249,1,0,0:0:0:0:
195,192,152335,1,0,0:0:0:0:
164,192,152420,1,0,0:0:0:0:
133,192,152506,1,0,0:0:0:0:
101,192,152592,1,0,0:0:0:0:
70,192,152678,1,0,0:0:0:0:
39,192,152763,1,0,0:0:0:0:
8,192,152849,6,0,L|56:168,1,50
118,291,153192,2,0,L|173:318,1,62.5
245,99,153535,2,0,L|314:45,1,75.0000028610231
435,366,153878,1,0,0:0:0:0:
435,366,154049,1,0,0:0:0:0:
435,366,154221,6,0,P|488:262|459:90,1,262.500002503395
412,57,154563,1,0,0:0:0:0:
328,80,154649,1,0,0:0:0:0:
328,80,154821,2,0,P|241:68|165:27,1,175.00000166893
68,0,155078,2,0,L|85:103,1,87.500000834465
180,149,155249,2,0,B|96:160|135:199|35:215,1,150.000005722046
0,289,155506,1,0,0:0:0:0:
67,349,155592,6,0,P|165:378|334:371,1,262.500002503395
388,315,155935,1,0,0:0:0:0:
388,315,156106,1,0,0:0:0:0:
322,251,156192,2,0,L|348:51,1,175.00000166893
439,33,156449,2,0,L|426:138,1,87.500000834465
247,148,156621,1,0,0:0:0:0:
247,148,156792,1,0,0:0:0:0:
247,148,156963,6,0,P|131:189|62:325,1,262.500002503395
