osu file format v14

[General]
AudioFilename: reminiscing.mp3
AudioLeadIn: 0
PreviewTime: 42856
Countdown: 0
SampleSet: Normal
StackLeniency: 0.7
Mode: 1
LetterboxInBreaks: 0
WidescreenStoryboard: 0

[Editor]
DistanceSpacing: 0.8
BeatDivisor: 4
GridSize: 32
TimelineZoom: 3.099999

[Metadata]
Title:Reminiscing (Cut Ver.)
TitleUnicode:Reminiscing (Cut Ver.)
Artist:Shoujo
ArtistUnicode:Shoujo
Creator:Shinsekai-
Version:Ramiko
Source:
Tags:[_Chichinya_] bastard pop terrorists 17 electronic makina happy hardcore instrumental japanese vol. volume
BeatmapID:893935
BeatmapSetID:411997

[Difficulty]
HPDrainRate:6
CircleSize:2
OverallDifficulty:6
ApproachRate:5
SliderMultiplier:1.4
SliderTickRate:2

[Events]
//Background and Video events
0,0,"cute-anime-girl-hd-19755-20252-hd-wallpapers.jpg",0,85
//Break Periods
//Storyboard Layer 0 (Background)
//Storyboard Layer 1 (Fail)
//Storyboard Layer 2 (Pass)
//Storyboard Layer 3 (Foreground)
//Storyboard Layer 4 (Overlay)
//Storyboard Sound Samples

[TimingPoints]
514,342.857142857143,4,1,0,100,1,0
88285,-100,4,1,0,100,0,1
108856,-100,4,1,0,100,0,0
110571,-100,4,1,0,100,0,1
132171,-100,4,1,0,100,0,0
132856,-100,4,1,0,90,0,0
133199,-100,4,1,0,85,0,0
133542,-100,4,1,0,80,0,0
133885,-100,4,1,0,75,0,0
134228,-100,4,1,0,70,0,0
134571,-100,4,1,0,65,0,0
134914,-100,4,1,0,60,0,0
135256,-100,4,1,0,30,0,0

[HitObjects]
256,192,514,5,4,0:0:0:0:
256,192,685,1,0,0:0:0:0:
256,192,856,1,8,0:0:0:0:
256,192,1028,1,8,0:0:0:0:
256,192,1114,1,8,0:0:0:0:
256,192,1200,1,0,0:0:0:0:
256,192,1257,1,0,0:0:0:0:
256,192,1314,1,0,0:0:0:0:
256,192,1372,1,8,0:0:0:0:
256,192,1457,1,0,0:0:0:0:
256,192,1543,1,8,0:0:0:0:
256,192,1600,1,8,0:0:0:0:
256,192,1657,1,8,0:0:0:0:
256,192,1715,1,0,0:0:0:0:
256,192,1800,1,8,0:0:0:0:
256,192,1886,1,0,0:0:0:0:
256,192,2056,1,0,0:0:0:0:
256,192,2228,1,8,0:0:0:0:
256,192,2399,1,8,0:0:0:0:
256,192,2571,1,0,0:0:0:0:
256,192,2742,1,0,0:0:0:0:
256,192,2914,1,8,0:0:0:0:
256,192,2999,1,8,0:0:0:0:
256,192,3085,1,0,0:0:0:0:
256,192,3171,1,0,0:0:0:0:
256,192,3256,1,0,0:0:0:0:
256,192,3428,1,0,0:0:0:0:
256,192,3599,1,8,0:0:0:0:
256,192,3771,1,8,0:0:0:0:
256,192,3856,1,8,0:0:0:0:
256,192,3942,1,0,0:0:0:0:
256,192,4114,1,0,0:0:0:0:
256,192,4285,1,8,0:0:0:0:
256,192,4456,1,0,0:0:0:0:
256,192,4542,1,8,0:0:0:0:
256,192,4628,1,0,0:0:0:0:
256,192,4799,1,0,0:0:0:0:
256,192,4971,1,8,0:0:0:0:
256,192,5142,1,0,0:0:0:0:
256,192,5314,1,8,0:0:0:0:
256,192,5485,1,8,0:0:0:0:
256,192,5571,1,0,0:0:0:0:
256,192,5656,1,8,0:0:0:0:
256,192,5828,1,8,0:0:0:0:
256,192,5999,1,0,0:0:0:0:
256,192,6342,1,8,0:0:0:0:
256,192,6514,1,8,0:0:0:0:
256,192,6599,1,8,0:0:0:0:
256,192,6685,1,0,0:0:0:0:
256,192,6856,1,0,0:0:0:0:
256,192,7028,1,8,0:0:0:0:
256,192,7199,1,8,0:0:0:0:
256,192,7285,1,8,0:0:0:0:
256,192,7371,1,0,0:0:0:0:
256,192,7456,1,8,0:0:0:0:
256,192,7542,1,0,0:0:0:0:
256,192,7714,1,8,0:0:0:0:
256,192,7799,1,8,0:0:0:0:
256,192,7971,1,8,0:0:0:0:
256,192,8056,1,0,0:0:0:0:
256,192,8228,1,8,0:0:0:0:
256,192,8399,1,8,0:0:0:0:
256,192,8485,1,8,0:0:0:0:
256,192,8571,1,8,0:0:0:0:
256,192,8656,1,8,0:0:0:0:
256,192,8742,1,0,0:0:0:0:
256,192,8914,1,8,0:0:0:0:
256,192,9085,1,8,0:0:0:0:
256,192,9256,1,0,0:0:0:0:
256,192,9428,1,0,0:0:0:0:
256,192,9514,1,8,0:0:0:0:
256,192,9685,1,8,0:0:0:0:
256,192,9771,1,8,0:0:0:0:
256,192,9942,1,0,0:0:0:0:
256,192,10114,1,8,0:0:0:0:
256,192,10171,1,8,0:0:0:0:
256,192,10228,1,8,0:0:0:0:
256,192,10285,1,0,0:0:0:0:
256,192,10371,1,8,0:0:0:0:
256,192,10456,1,0,0:0:0:0:
256,192,10628,1,0,0:0:0:0:
256,192,10799,1,8,0:0:0:0:
256,192,10971,1,0,0:0:0:0:
256,192,11056,1,0,0:0:0:0:
256,192,11142,1,8,0:0:0:0:
256,192,11314,1,0,0:0:0:0:
256,192,11399,1,0,0:0:0:0:
256,192,11485,1,12,0:0:0:0:
256,192,11656,1,0,0:0:0:0:
256,192,11828,1,8,0:0:0:0:
256,192,11999,1,8,0:0:0:0:
256,192,12085,1,8,0:0:0:0:
256,192,12171,1,0,0:0:0:0:
256,192,12228,1,0,0:0:0:0:
256,192,12285,1,0,0:0:0:0:
256,192,12343,1,8,0:0:0:0:
256,192,12428,1,0,0:0:0:0:
256,192,12514,1,8,0:0:0:0:
256,192,12571,1,8,0:0:0:0:
256,192,12628,1,8,0:0:0:0:
256,192,12686,1,0,0:0:0:0:
256,192,12771,1,8,0:0:0:0:
256,192,12857,1,0,0:0:0:0:
256,192,13028,1,8,0:0:0:0:
256,192,13199,1,8,0:0:0:0:
256,192,13371,1,8,0:0:0:0:
256,192,13542,1,0,0:0:0:0:
256,192,13714,1,8,0:0:0:0:
256,192,13885,1,8,0:0:0:0:
256,192,13971,1,8,0:0:0:0:
256,192,14056,1,0,0:0:0:0:
256,192,14142,1,8,0:0:0:0:
256,192,14228,1,0,0:0:0:0:
256,192,14399,1,0,0:0:0:0:
256,192,14571,1,8,0:0:0:0:
256,192,14742,1,8,0:0:0:0:
256,192,14914,1,0,0:0:0:0:
256,192,14999,1,0,0:0:0:0:
256,192,15085,1,0,0:0:0:0:
256,192,15256,1,8,0:0:0:0:
256,192,15428,1,8,0:0:0:0:
256,192,15599,1,0,0:0:0:0:
256,192,15685,1,8,0:0:0:0:
256,192,15771,1,8,0:0:0:0:
256,192,15856,1,0,0:0:0:0:
256,192,15942,1,8,0:0:0:0:
256,192,16114,1,0,0:0:0:0:
256,192,16285,1,8,0:0:0:0:
256,192,16456,1,8,0:0:0:0:
256,192,16542,1,0,0:0:0:0:
256,192,16628,1,0,0:0:0:0:
256,192,16799,1,0,0:0:0:0:
256,192,16856,1,0,0:0:0:0:
256,192,16914,1,0,0:0:0:0:
256,192,16971,1,12,0:0:0:0:
256,192,17314,1,8,0:0:0:0:
256,192,17485,1,8,0:0:0:0:
256,192,17571,1,8,0:0:0:0:
256,192,17656,1,0,0:0:0:0:
256,192,17828,1,0,0:0:0:0:
256,192,17999,1,8,0:0:0:0:
256,192,18171,1,0,0:0:0:0:
256,192,18342,1,12,0:0:0:0:
256,192,18514,1,0,0:0:0:0:
256,192,18599,1,0,0:0:0:0:
256,192,18685,1,8,0:0:0:0:
256,192,18856,1,0,0:0:0:0:
256,192,19028,1,8,0:0:0:0:
256,192,19199,1,8,0:0:0:0:
256,192,19371,1,8,0:0:0:0:
256,192,19456,1,0,0:0:0:0:
256,192,19542,1,0,0:0:0:0:
256,192,19628,1,0,0:0:0:0:
256,192,19714,1,12,0:0:0:0:
256,192,19885,1,0,0:0:0:0:
256,192,20056,1,0,0:0:0:0:
256,192,20228,1,8,0:0:0:0:
256,192,20399,1,12,0:0:0:0:
256,192,20656,1,0,0:0:0:0:
256,192,20742,1,0,0:0:0:0:
256,192,20914,1,0,0:0:0:0:
256,192,21085,1,8,0:0:0:0:
256,192,21171,1,8,0:0:0:0:
256,192,21256,1,0,0:0:0:0:
256,192,21428,1,8,0:0:0:0:
256,192,21771,1,0,0:0:0:0:
256,192,21828,1,0,0:0:0:0:
256,192,21885,1,0,0:0:0:0:
256,192,21942,1,0,0:0:0:0:
256,192,22028,1,0,0:0:0:0:
256,192,22114,1,0,0:0:0:0:
256,192,22228,1,0,0:0:0:0:
256,192,22342,1,0,0:0:0:0:
256,192,22456,1,12,0:0:0:0:
256,192,22628,1,0,0:0:0:0:
256,192,22799,1,8,0:0:0:0:
256,192,22971,1,0,0:0:0:0:
256,192,23142,1,0,0:0:0:0:
256,192,23199,1,0,0:0:0:0:
256,192,23256,1,0,0:0:0:0:
256,192,23314,1,8,0:0:0:0:
256,192,23399,1,0,0:0:0:0:
256,192,23485,1,8,0:0:0:0:
256,192,23542,1,8,0:0:0:0:
256,192,23599,1,8,0:0:0:0:
256,192,23656,1,0,0:0:0:0:
256,192,23742,1,8,0:0:0:0:
256,192,23828,1,0,0:0:0:0:
256,192,23999,1,8,0:0:0:0:
256,192,24085,1,8,0:0:0:0:
256,192,24171,1,8,0:0:0:0:
256,192,24342,1,0,0:0:0:0:
256,192,24514,1,0,0:0:0:0:
256,192,24685,1,8,0:0:0:0:
256,192,24771,1,8,0:0:0:0:
256,192,24856,1,0,0:0:0:0:
256,192,24942,1,0,0:0:0:0:
256,192,25028,1,8,0:0:0:0:
256,192,25114,1,8,0:0:0:0:
256,192,25199,1,8,0:0:0:0:
256,192,25371,1,0,0:0:0:0:
256,192,25542,1,8,0:0:0:0:
256,192,25714,1,8,0:0:0:0:
256,192,25799,1,8,0:0:0:0:
256,192,25885,1,0,0:0:0:0:
256,192,26056,1,0,0:0:0:0:
256,192,26228,1,8,0:0:0:0:
256,192,26399,1,0,0:0:0:0:
256,192,26571,1,8,0:0:0:0:
256,192,26914,1,8,0:0:0:0:
256,192,27085,1,8,0:0:0:0:
256,192,27171,1,8,0:0:0:0:
256,192,27256,1,0,0:0:0:0:
256,192,27342,1,8,0:0:0:0:
256,192,27514,1,8,0:0:0:0:
256,192,27599,1,0,0:0:0:0:
256,192,27771,1,8,0:0:0:0:
256,192,27942,1,0,0:0:0:0:
256,192,28114,1,0,0:0:0:0:
256,192,28199,1,0,0:0:0:0:
256,192,28285,1,8,0:0:0:0:
256,192,28456,1,8,0:0:0:0:
256,192,28628,1,0,0:0:0:0:
256,192,28714,1,8,0:0:0:0:
256,192,28885,1,0,0:0:0:0:
256,192,28971,1,8,0:0:0:0:
256,192,29056,1,0,0:0:0:0:
256,192,29142,1,8,0:0:0:0:
256,192,29228,1,8,0:0:0:0:
256,192,29314,1,0,0:0:0:0:
256,192,29485,1,8,0:0:0:0:
256,192,29571,1,8,0:0:0:0:
256,192,29656,1,8,0:0:0:0:
256,192,29828,1,0,0:0:0:0:
256,192,29999,1,8,0:0:0:0:
256,192,30171,1,0,0:0:0:0:
256,192,30256,1,0,0:0:0:0:
256,192,30342,1,8,0:0:0:0:
256,192,30428,1,8,0:0:0:0:
256,192,30514,1,0,0:0:0:0:
256,192,30599,1,8,0:0:0:0:
256,192,30685,1,8,0:0:0:0:
256,192,30856,1,0,0:0:0:0:
256,192,31028,1,8,0:0:0:0:
256,192,31199,1,8,0:0:0:0:
256,192,31371,1,0,0:0:0:0:
256,192,31542,1,8,0:0:0:0:
256,192,31628,1,8,0:0:0:0:
256,192,31714,1,0,0:0:0:0:
256,192,31885,1,0,0:0:0:0:
256,192,32056,1,8,0:0:0:0:
256,192,32142,1,8,0:0:0:0:
256,192,32314,1,8,0:0:0:0:
256,192,32399,1,0,0:0:0:0:
256,192,32571,1,0,0:0:0:0:
256,192,32656,1,8,0:0:0:0:
256,192,32742,1,0,0:0:0:0:
256,192,32914,1,8,0:0:0:0:
256,192,33085,1,8,0:0:0:0:
256,192,33171,1,8,0:0:0:0:
256,192,33256,1,8,0:0:0:0:
256,192,33342,1,8,0:0:0:0:
256,192,33428,1,4,0:0:0:0:
256,192,33599,1,0,0:0:0:0:
256,192,33771,1,8,0:0:0:0:
256,192,33942,1,8,0:0:0:0:
256,192,34028,1,8,0:0:0:0:
256,192,34114,1,0,0:0:0:0:
256,192,34171,1,0,0:0:0:0:
256,192,34228,1,0,0:0:0:0:
256,192,34286,1,8,0:0:0:0:
256,192,34371,1,0,0:0:0:0:
256,192,34457,1,8,0:0:0:0:
256,192,34514,1,8,0:0:0:0:
256,192,34571,1,8,0:0:0:0:
256,192,34629,1,0,0:0:0:0:
256,192,34714,1,8,0:0:0:0:
256,192,34800,1,0,0:0:0:0:
256,192,34971,1,0,0:0:0:0:
256,192,35142,1,8,0:0:0:0:
256,192,35314,1,8,0:0:0:0:
256,192,35399,1,8,0:0:0:0:
256,192,35485,1,0,0:0:0:0:
256,192,35571,1,0,0:0:0:0:
256,192,35742,1,8,0:0:0:0:
256,192,35828,1,8,0:0:0:0:
256,192,35914,1,0,0:0:0:0:
256,192,35999,1,8,0:0:0:0:
256,192,36085,1,8,0:0:0:0:
256,192,36171,1,0,0:0:0:0:
256,192,36342,1,0,0:0:0:0:
256,192,36514,1,8,0:0:0:0:
256,192,36685,1,8,0:0:0:0:
256,192,36771,1,8,0:0:0:0:
256,192,36856,1,0,0:0:0:0:
256,192,37028,1,0,0:0:0:0:
256,192,37199,1,8,0:0:0:0:
256,192,37371,1,8,0:0:0:0:
256,192,37456,1,0,0:0:0:0:
256,192,37542,1,8,0:0:0:0:
256,192,37714,1,0,0:0:0:0:
256,192,37885,1,8,0:0:0:0:
256,192,38056,1,0,0:0:0:0:
256,192,38142,1,0,0:0:0:0:
256,192,38228,1,8,0:0:0:0:
256,192,38314,1,8,0:0:0:0:
256,192,38485,1,0,0:0:0:0:
256,192,38571,1,8,0:0:0:0:
256,192,38742,1,0,0:0:0:0:
256,192,38828,1,0,0:0:0:0:
256,192,38914,1,12,0:0:0:0:
256,192,39085,1,0,0:0:0:0:
256,192,39256,1,8,0:0:0:0:
256,192,39428,1,0,0:0:0:0:
256,192,39514,1,0,0:0:0:0:
256,192,39599,1,0,0:0:0:0:
256,192,39771,1,0,0:0:0:0:
256,192,39942,1,8,0:0:0:0:
256,192,40114,1,0,0:0:0:0:
256,192,40285,1,8,0:0:0:0:
256,192,40456,1,0,0:0:0:0:
256,192,40542,1,0,0:0:0:0:
256,192,40628,1,8,0:0:0:0:
256,192,40799,1,0,0:0:0:0:
256,192,40971,1,0,0:0:0:0:
256,192,41142,1,8,0:0:0:0:
256,192,41199,1,8,0:0:0:0:
256,192,41256,1,8,0:0:0:0:
256,192,41314,1,0,0:0:0:0:
256,192,41399,1,8,0:0:0:0:
256,192,41485,1,0,0:0:0:0:
256,192,41571,1,0,0:0:0:0:
256,192,41656,1,8,0:0:0:0:
256,192,41742,1,0,0:0:0:0:
256,192,41828,1,0,0:0:0:0:
256,192,41914,1,0,0:0:0:0:
256,192,41999,1,8,0:0:0:0:
256,192,42085,1,0,0:0:0:0:
256,192,42171,1,0,0:0:0:0:
256,192,42256,1,0,0:0:0:0:
256,192,42342,1,8,0:0:0:0:
256,192,42428,1,0,0:0:0:0:
256,192,42514,1,8,0:0:0:0:
256,192,42599,1,0,0:0:0:0:
256,192,42685,1,8,0:0:0:0:
256,192,42771,1,8,0:0:0:0:
256,192,42856,1,0,0:0:0:0:
256,192,42942,1,0,0:0:0:0:
256,192,44399,1,4,0:0:0:0:
256,192,44914,1,0,0:0:0:0:
256,192,45085,1,8,0:0:0:0:
256,192,45599,1,0,0:0:0:0:
256,192,45771,1,0,0:0:0:0:
256,192,45999,1,0,0:0:0:0:
256,192,46285,1,8,0:0:0:0:
256,192,46342,1,8,0:0:0:0:
256,192,46399,1,8,0:0:0:0:
256,192,46456,1,0,0:0:0:0:
256,192,46571,1,0,0:0:0:0:
256,192,46685,1,0,0:0:0:0:
256,192,46799,1,8,0:0:0:0:
256,192,46914,1,8,0:0:0:0:
256,192,47028,1,8,0:0:0:0:
256,192,47142,1,0,0:0:0:0:
256,192,47656,1,0,0:0:0:0:
256,192,47828,1,8,0:0:0:0:
256,192,47999,1,0,0:0:0:0:
256,192,48085,1,0,0:0:0:0:
256,192,48171,1,8,0:0:0:0:
256,192,48514,1,0,0:0:0:0:
256,192,48771,1,0,0:0:0:0:
256,192,48856,1,8,0:0:0:0:
256,192,49028,1,8,0:0:0:0:
256,192,49114,1,0,0:0:0:0:
256,192,49285,1,8,0:0:0:0:
256,192,49371,1,0,0:0:0:0:
256,192,49456,1,0,0:0:0:0:
256,192,49542,1,8,0:0:0:0:
256,192,49714,1,0,0:0:0:0:
256,192,49885,1,0,0:0:0:0:
256,192,50399,1,0,0:0:0:0:
256,192,50571,1,8,0:0:0:0:
256,192,51085,1,0,0:0:0:0:
256,192,51256,1,0,0:0:0:0:
256,192,51514,1,0,0:0:0:0:
256,192,51771,1,8,0:0:0:0:
256,192,51942,1,0,0:0:0:0:
256,192,52028,1,0,0:0:0:0:
256,192,52114,1,0,0:0:0:0:
256,192,52199,1,0,0:0:0:0:
256,192,52285,1,8,0:0:0:0:
256,192,52371,1,8,0:0:0:0:
256,192,52456,1,8,0:0:0:0:
256,192,52542,1,8,0:0:0:0:
256,192,52628,1,0,0:0:0:0:
256,192,53142,1,0,0:0:0:0:
256,192,53314,1,8,0:0:0:0:
256,192,53485,1,0,0:0:0:0:
256,192,53656,1,8,0:0:0:0:
256,192,53999,1,0,0:0:0:0:
256,192,54256,1,0,0:0:0:0:
256,192,54342,1,8,0:0:0:0:
256,192,54514,1,0,0:0:0:0:
256,192,54685,1,0,0:0:0:0:
256,192,54942,1,0,0:0:0:0:
256,192,55028,1,8,0:0:0:0:
256,192,55199,1,0,0:0:0:0:
256,192,55285,1,0,0:0:0:0:
256,192,55371,1,0,0:0:0:0:
256,192,55714,1,8,0:0:0:0:
256,192,55799,1,0,0:0:0:0:
256,192,55971,1,0,0:0:0:0:
256,192,56056,1,0,0:0:0:0:
256,192,56228,1,0,0:0:0:0:
256,192,56399,1,8,0:0:0:0:
256,192,56571,1,0,0:0:0:0:
256,192,56742,1,0,0:0:0:0:
256,192,56914,1,0,0:0:0:0:
256,192,57000,1,0,0:0:0:0:
256,192,57085,1,8,0:0:0:0:
256,192,57256,1,8,0:0:0:0:
256,192,57342,1,0,0:0:0:0:
256,192,57428,1,8,0:0:0:0:
256,192,57514,1,8,0:0:0:0:
256,192,57599,1,0,0:0:0:0:
256,192,57685,1,8,0:0:0:0:
256,192,57771,1,0,0:0:0:0:
256,192,57942,1,8,0:0:0:0:
256,192,58114,1,0,0:0:0:0:
256,192,58285,1,0,0:0:0:0:
256,192,58456,1,8,0:0:0:0:
256,192,58628,1,8,0:0:0:0:
256,192,58799,1,0,0:0:0:0:
256,192,58885,1,0,0:0:0:0:
256,192,59056,1,0,0:0:0:0:
256,192,59142,1,8,0:0:0:0:
256,192,59314,1,0,0:0:0:0:
256,192,59485,1,0,0:0:0:0:
256,192,59656,1,0,0:0:0:0:
256,192,59742,1,0,0:0:0:0:
256,192,59828,1,8,0:0:0:0:
256,192,59914,1,0,0:0:0:0:
256,192,60085,1,0,0:0:0:0:
256,192,60256,1,0,0:0:0:0:
256,192,60342,1,8,0:0:0:0:
256,192,60514,1,8,0:0:0:0:
256,192,60599,1,8,0:0:0:0:
256,192,60685,1,0,0:0:0:0:
256,192,60771,1,8,0:0:0:0:
256,192,60856,1,0,0:0:0:0:
256,192,61199,1,8,0:0:0:0:
256,192,61285,1,0,0:0:0:0:
256,192,61456,1,0,0:0:0:0:
256,192,61542,1,0,0:0:0:0:
256,192,61714,1,0,0:0:0:0:
256,192,61885,1,8,0:0:0:0:
256,192,62056,1,0,0:0:0:0:
256,192,62228,1,0,0:0:0:0:
256,192,62399,1,0,0:0:0:0:
256,192,62485,1,0,0:0:0:0:
256,192,62571,1,8,0:0:0:0:
256,192,62742,1,0,0:0:0:0:
256,192,62828,1,8,0:0:0:0:
256,192,62999,1,8,0:0:0:0:
256,192,63085,1,0,0:0:0:0:
256,192,63256,1,8,0:0:0:0:
256,192,63342,1,8,0:0:0:0:
256,192,63428,1,0,0:0:0:0:
256,192,63514,1,0,0:0:0:0:
256,192,63599,1,8,0:0:0:0:
256,192,63942,1,8,0:0:0:0:
256,192,64114,1,0,0:0:0:0:
256,192,64285,1,8,0:0:0:0:
256,192,64371,1,0,0:0:0:0:
256,192,64542,1,0,0:0:0:0:
256,192,64628,1,8,0:0:0:0:
256,192,64799,1,0,0:0:0:0:
256,192,64856,1,8,0:0:0:0:
256,192,64914,1,8,0:0:0:0:
256,192,64971,1,0,0:0:0:0:
256,192,65142,1,0,0:0:0:0:
256,192,65314,1,8,0:0:0:0:
256,192,65485,1,0,0:0:0:0:
256,192,65656,1,0,0:0:0:0:
256,192,65742,1,0,0:0:0:0:
256,192,65828,1,0,0:0:0:0:
256,192,65914,1,0,0:0:0:0:
256,192,65999,1,8,0:0:0:0:
256,192,66171,1,8,0:0:0:0:
256,192,66342,1,4,0:0:0:0:
256,192,66685,1,8,0:0:0:0:
256,192,67028,1,0,0:0:0:0:
256,192,67371,1,0,0:0:0:0:
256,192,67714,1,8,0:0:0:0:
256,192,68056,1,8,0:0:0:0:
256,192,68399,1,0,0:0:0:0:
256,192,68742,1,0,0:0:0:0:
256,192,68914,1,0,0:0:0:0:
256,192,69085,1,8,0:0:0:0:
256,192,69256,1,0,0:0:0:0:
256,192,69428,1,8,0:0:0:0:
256,192,69599,1,8,0:0:0:0:
256,192,69771,1,0,0:0:0:0:
256,192,69942,1,8,0:0:0:0:
256,192,70114,1,0,0:0:0:0:
256,192,70456,1,8,0:0:0:0:
256,192,70799,1,0,0:0:0:0:
256,192,70971,1,8,0:0:0:0:
256,192,71056,1,8,0:0:0:0:
256,192,71142,1,0,0:0:0:0:
256,192,71228,1,0,0:0:0:0:
256,192,71314,1,8,0:0:0:0:
256,192,71399,1,0,0:0:0:0:
256,192,71485,1,8,0:0:0:0:
256,192,71656,1,8,0:0:0:0:
256,192,71828,1,0,0:0:0:0:
256,192,72171,1,0,0:0:0:0:
256,192,72342,1,8,0:0:0:0:
256,192,72428,1,8,0:0:0:0:
256,192,72514,1,0,0:0:0:0:
256,192,72599,1,8,0:0:0:0:
256,192,72685,1,0,0:0:0:0:
256,192,72771,1,8,0:0:0:0:
256,192,72856,1,0,0:0:0:0:
256,192,73028,1,0,0:0:0:0:
256,192,73199,1,8,0:0:0:0:
256,192,73371,1,8,0:0:0:0:
256,192,73542,1,8,0:0:0:0:
256,192,73628,1,8,0:0:0:0:
256,192,73714,1,0,0:0:0:0:
256,192,73799,1,8,0:0:0:0:
256,192,73885,1,0,0:0:0:0:
256,192,73971,1,0,0:0:0:0:
256,192,74056,1,8,0:0:0:0:
256,192,74228,1,0,0:0:0:0:
256,192,74399,1,8,0:0:0:0:
256,192,74571,1,0,0:0:0:0:
256,192,74914,1,8,0:0:0:0:
256,192,75256,1,8,0:0:0:0:
256,192,75342,1,8,0:0:0:0:
256,192,75428,1,0,0:0:0:0:
256,192,75514,1,8,0:0:0:0:
256,192,75599,1,0,0:0:0:0:
256,192,75771,1,8,0:0:0:0:
256,192,75942,1,0,0:0:0:0:
256,192,76285,1,8,0:0:0:0:
256,192,76628,1,8,0:0:0:0:
256,192,76971,1,8,0:0:0:0:
256,192,77142,1,8,0:0:0:0:
256,192,77314,1,4,0:0:0:0:
256,192,77571,1,0,0:0:0:0:
256,192,77656,1,8,0:0:0:0:
256,192,77828,1,0,0:0:0:0:
256,192,77999,1,8,0:0:0:0:
256,192,78256,1,0,0:0:0:0:
256,192,78342,1,8,0:0:0:0:
256,192,78514,1,0,0:0:0:0:
256,192,78685,1,8,0:0:0:0:
256,192,78856,1,0,0:0:0:0:
256,192,78942,1,0,0:0:0:0:
256,192,79028,1,8,0:0:0:0:
256,192,79199,1,0,0:0:0:0:
256,192,79371,1,8,0:0:0:0:
256,192,79456,1,0,0:0:0:0:
256,192,79628,1,0,0:0:0:0:
256,192,79714,1,8,0:0:0:0:
256,192,79885,1,8,0:0:0:0:
256,192,80056,1,8,0:0:0:0:
256,192,80228,1,0,0:0:0:0:
256,192,80314,1,0,0:0:0:0:
256,192,80399,1,8,0:0:0:0:
256,192,80571,1,0,0:0:0:0:
256,192,80742,1,8,0:0:0:0:
256,192,80999,1,0,0:0:0:0:
256,192,81085,1,8,0:0:0:0:
256,192,81256,1,0,0:0:0:0:
256,192,81428,1,8,0:0:0:0:
256,192,81685,1,0,0:0:0:0:
256,192,81771,1,8,0:0:0:0:
256,192,81942,1,8,0:0:0:0:
256,192,82028,1,0,0:0:0:0:
256,192,82114,1,8,0:0:0:0:
256,192,82199,1,0,0:0:0:0:
256,192,82285,1,8,0:0:0:0:
256,192,82371,1,8,0:0:0:0:
256,192,82456,1,0,0:0:0:0:
256,192,82542,1,8,0:0:0:0:
256,192,82628,1,0,0:0:0:0:
256,192,82685,1,0,0:0:0:0:
256,192,82742,1,0,0:0:0:0:
256,192,82799,1,8,0:0:0:0:
256,192,82971,1,0,0:0:0:0:
256,192,83142,1,8,0:0:0:0:
256,192,83314,1,0,0:0:0:0:
256,192,83485,1,0,0:0:0:0:
256,192,83656,1,0,0:0:0:0:
256,192,83828,1,8,0:0:0:0:
256,192,83999,1,0,0:0:0:0:
256,192,84171,1,0,0:0:0:0:
256,192,84342,1,0,0:0:0:0:
256,192,84514,1,8,0:0:0:0:
256,192,84685,1,0,0:0:0:0:
256,192,84856,1,0,0:0:0:0:
256,192,85028,1,0,0:0:0:0:
256,192,85199,1,8,0:0:0:0:
256,192,85371,1,0,0:0:0:0:
256,192,85542,1,0,0:0:0:0:
256,192,85628,1,0,0:0:0:0:
256,192,85714,1,0,0:0:0:0:
256,192,85799,1,0,0:0:0:0:
256,192,85885,1,8,0:0:0:0:
256,192,85971,1,0,0:0:0:0:
256,192,86056,1,0,0:0:0:0:
256,192,86142,1,0,0:0:0:0:
256,192,86228,1,0,0:0:0:0:
256,192,86314,1,0,0:0:0:0:
256,192,86399,1,0,0:0:0:0:
256,192,86485,1,0,0:0:0:0:
256,192,86571,1,8,0:0:0:0:
256,192,86656,1,0,0:0:0:0:
256,192,86742,1,8,0:0:0:0:
256,192,86828,1,8,0:0:0:0:
256,192,86914,1,0,0:0:0:0:
256,192,86999,1,8,0:0:0:0:
256,192,87085,1,0,0:0:0:0:
256,192,87171,1,8,0:0:0:0:
256,192,87256,1,8,0:0:0:0:
256,192,87428,1,8,0:0:0:0:
256,192,87771,1,8,0:0:0:0:
256,192,87942,1,0,0:0:0:0:
256,192,87999,1,0,0:0:0:0:
256,192,88056,1,0,0:0:0:0:
256,192,88114,1,8,0:0:0:0:
256,192,88285,1,4,0:0:0:0:
256,192,88456,1,0,0:0:0:0:
256,192,88628,1,8,0:0:0:0:
256,192,88799,1,8,0:0:0:0:
256,192,88885,1,8,0:0:0:0:
256,192,88971,1,0,0:0:0:0:
256,192,89056,1,8,0:0:0:0:
256,192,89142,1,0,0:0:0:0:
256,192,89228,1,0,0:0:0:0:
256,192,89314,1,8,0:0:0:0:
256,192,89485,1,0,0:0:0:0:
256,192,89656,1,8,0:0:0:0:
256,192,89828,1,0,0:0:0:0:
256,192,89914,1,0,0:0:0:0:
256,192,89999,1,8,0:0:0:0:
256,192,90171,1,8,0:0:0:0:
256,192,90256,1,8,0:0:0:0:
256,192,90428,1,0,0:0:0:0:
256,192,90514,1,8,0:0:0:0:
256,192,90685,1,8,0:0:0:0:
256,192,90771,1,0,0:0:0:0:
256,192,90856,1,0,0:0:0:0:
256,192,91028,1,8,0:0:0:0:
256,192,91199,1,0,0:0:0:0:
256,192,91371,1,8,0:0:0:0:
256,192,91542,1,8,0:0:0:0:
256,192,91628,1,8,0:0:0:0:
256,192,91799,1,0,0:0:0:0:
256,192,91885,1,8,0:0:0:0:
256,192,92056,1,8,0:0:0:0:
256,192,92142,1,0,0:0:0:0:
256,192,92228,1,8,0:0:0:0:
256,192,92314,1,8,0:0:0:0:
256,192,92399,1,0,0:0:0:0:
256,192,92571,1,0,0:0:0:0:
256,192,92656,1,0,0:0:0:0:
256,192,92742,1,8,0:0:0:0:
256,192,92914,1,0,0:0:0:0:
256,192,92999,1,8,0:0:0:0:
256,192,93171,1,8,0:0:0:0:
256,192,93256,1,0,0:0:0:0:
256,192,93428,1,0,0:0:0:0:
256,192,93514,1,0,0:0:0:0:
256,192,93599,1,8,0:0:0:0:
256,192,93685,1,0,0:0:0:0:
256,192,93771,1,8,0:0:0:0:
256,192,93942,1,0,0:0:0:0:
256,192,94028,1,0,0:0:0:0:
256,192,94114,1,8,0:0:0:0:
256,192,94285,1,8,0:0:0:0:
256,192,94371,1,8,0:0:0:0:
256,192,94542,1,0,0:0:0:0:
256,192,94628,1,0,0:0:0:0:
256,192,94799,1,8,0:0:0:0:
256,192,94971,1,8,0:0:0:0:
256,192,95056,1,8,0:0:0:0:
256,192,95142,1,0,0:0:0:0:
256,192,95314,1,0,0:0:0:0:
256,192,95485,1,8,0:0:0:0:
256,192,95571,1,8,0:0:0:0:
256,192,95656,1,0,0:0:0:0:
256,192,95742,1,8,0:0:0:0:
256,192,95914,1,8,0:0:0:0:
256,192,95999,1,0,0:0:0:0:
256,192,96171,1,8,0:0:0:0:
256,192,96342,1,0,0:0:0:0:
256,192,96428,1,0,0:0:0:0:
256,192,96514,1,8,0:0:0:0:
256,192,96599,1,8,0:0:0:0:
256,192,96685,1,0,0:0:0:0:
256,192,96771,1,0,0:0:0:0:
256,192,96856,1,8,0:0:0:0:
256,192,97028,1,8,0:0:0:0:
256,192,97114,1,8,0:0:0:0:
256,192,97285,1,8,0:0:0:0:
256,192,97371,1,0,0:0:0:0:
256,192,97542,1,8,0:0:0:0:
256,192,97714,1,0,0:0:0:0:
256,192,97771,1,0,0:0:0:0:
288,192,97828,1,0,0:0:0:0:
256,192,97885,1,8,0:0:0:0:
256,192,98056,1,0,0:0:0:0:
256,192,98228,1,8,0:0:0:0:
256,192,98399,1,8,0:0:0:0:
256,192,98485,1,0,0:0:0:0:
256,192,98656,1,8,0:0:0:0:
256,192,98914,1,8,0:0:0:0:
256,192,98999,1,8,0:0:0:0:
256,192,99085,1,0,0:0:0:0:
256,192,99171,1,0,0:0:0:0:
256,192,99256,1,12,0:0:0:0:
256,192,99428,1,0,0:0:0:0:
256,192,99599,1,8,0:0:0:0:
256,192,99771,1,0,0:0:0:0:
256,192,99856,1,0,0:0:0:0:
256,192,100028,1,0,0:0:0:0:
256,192,100114,1,8,0:0:0:0:
256,192,100285,1,8,0:0:0:0:
256,192,100371,1,8,0:0:0:0:
256,192,100456,1,0,0:0:0:0:
256,192,100542,1,0,0:0:0:0:
256,192,100628,1,8,0:0:0:0:
256,192,100799,1,0,0:0:0:0:
256,192,100971,1,8,0:0:0:0:
256,192,101142,1,0,0:0:0:0:
256,192,101228,1,0,0:0:0:0:
256,192,101399,1,8,0:0:0:0:
256,192,101485,1,0,0:0:0:0:
256,192,101656,1,8,0:0:0:0:
256,192,101742,1,8,0:0:0:0:
256,192,101828,1,0,0:0:0:0:
256,192,101914,1,0,0:0:0:0:
256,192,101999,1,8,0:0:0:0:
256,192,102171,1,8,0:0:0:0:
256,192,102256,1,8,0:0:0:0:
256,192,102342,1,0,0:0:0:0:
256,192,102514,1,0,0:0:0:0:
256,192,102599,1,8,0:0:0:0:
256,192,102771,1,0,0:0:0:0:
256,192,102856,1,8,0:0:0:0:
256,192,102942,1,0,0:0:0:0:
256,192,103028,1,8,0:0:0:0:
256,192,103114,1,8,0:0:0:0:
256,192,103199,1,0,0:0:0:0:
256,192,103285,1,0,0:0:0:0:
256,192,103371,1,8,0:0:0:0:
256,192,103542,1,0,0:0:0:0:
256,192,103628,1,0,0:0:0:0:
256,192,103714,1,8,0:0:0:0:
256,192,103885,1,8,0:0:0:0:
256,192,103971,1,8,0:0:0:0:
256,192,104142,1,0,0:0:0:0:
256,192,104228,1,8,0:0:0:0:
256,192,104314,1,8,0:0:0:0:
256,192,104399,1,8,0:0:0:0:
256,192,104485,1,0,0:0:0:0:
256,192,104571,1,0,0:0:0:0:
256,192,104656,1,0,0:0:0:0:
256,192,104742,1,12,0:0:0:0:
256,192,104914,1,0,0:0:0:0:
256,192,105085,1,8,0:0:0:0:
256,192,105256,1,8,0:0:0:0:
256,192,105342,1,8,0:0:0:0:
256,192,105514,1,0,0:0:0:0:
256,192,105599,1,8,0:0:0:0:
256,192,105771,1,8,0:0:0:0:
256,192,105942,1,0,0:0:0:0:
256,192,106028,1,0,0:0:0:0:
256,192,106114,1,12,0:0:0:0:
256,192,106285,1,0,0:0:0:0:
256,192,106371,1,0,0:0:0:0:
256,192,106456,1,8,0:0:0:0:
256,192,106628,1,0,0:0:0:0:
256,192,106714,1,0,0:0:0:0:
256,192,106885,1,0,0:0:0:0:
256,192,106971,1,8,0:0:0:0:
256,192,107142,1,8,0:0:0:0:
256,192,107228,1,8,0:0:0:0:
256,192,107314,1,0,0:0:0:0:
256,192,107399,1,0,0:0:0:0:
256,192,107485,1,12,0:0:0:0:
256,192,107656,1,0,0:0:0:0:
256,192,107742,1,0,0:0:0:0:
256,192,107828,1,8,0:0:0:0:
256,192,107999,1,0,0:0:0:0:
256,192,108171,1,12,0:0:0:0:
256,192,108342,1,8,0:0:0:0:
256,192,108428,1,8,0:0:0:0:
256,192,108514,1,0,0:0:0:0:
256,192,108685,1,0,0:0:0:0:
256,192,108856,1,8,0:0:0:0:
256,192,108942,1,0,0:0:0:0:
256,192,109028,1,8,0:0:0:0:
256,192,109114,1,8,0:0:0:0:
256,192,109199,1,0,0:0:0:0:
256,192,109285,1,8,0:0:0:0:
256,192,109371,1,8,0:0:0:0:
256,192,109456,1,0,0:0:0:0:
256,192,109542,1,0,0:0:0:0:
256,192,109628,1,8,0:0:0:0:
256,192,109714,1,0,0:0:0:0:
256,192,109771,1,0,0:0:0:0:
256,192,109828,1,0,0:0:0:0:
256,192,109885,1,8,0:0:0:0:
256,192,109999,1,0,0:0:0:0:
256,192,110114,1,0,0:0:0:0:
256,192,110228,1,0,0:0:0:0:
256,192,110571,1,12,0:0:0:0:
256,192,110742,1,0,0:0:0:0:
256,192,110828,1,0,0:0:0:0:
256,192,110914,1,8,0:0:0:0:
256,192,111085,1,0,0:0:0:0:
256,192,111256,1,8,0:0:0:0:
256,192,111428,1,0,0:0:0:0:
256,192,111599,1,0,0:0:0:0:
256,192,111771,1,0,0:0:0:0:
256,192,111856,1,0,0:0:0:0:
256,192,111942,1,8,0:0:0:0:
256,192,112028,1,8,0:0:0:0:
256,192,112114,1,0,0:0:0:0:
256,192,112199,1,0,0:0:0:0:
256,192,112285,1,8,0:0:0:0:
256,192,112456,1,0,0:0:0:0:
256,192,112628,1,8,0:0:0:0:
256,192,112799,1,8,0:0:0:0:
256,192,112971,1,0,0:0:0:0:
256,192,113142,1,0,0:0:0:0:
256,192,113314,1,8,0:0:0:0:
256,192,113399,1,0,0:0:0:0:
256,192,113485,1,8,0:0:0:0:
256,192,113571,1,8,0:0:0:0:
256,192,113656,1,0,0:0:0:0:
256,192,113828,1,8,0:0:0:0:
256,192,113999,1,8,0:0:0:0:
256,192,114171,1,0,0:0:0:0:
256,192,114256,1,0,0:0:0:0:
256,192,114342,1,8,0:0:0:0:
256,192,114685,1,8,0:0:0:0:
256,192,114856,1,8,0:0:0:0:
256,192,114942,1,0,0:0:0:0:
256,192,115028,1,8,0:0:0:0:
256,192,115199,1,0,0:0:0:0:
256,192,115285,1,0,0:0:0:0:
256,192,115371,1,8,0:0:0:0:
256,192,115456,1,8,0:0:0:0:
256,192,115542,1,0,0:0:0:0:
256,192,115714,1,8,0:0:0:0:
256,192,115885,1,0,0:0:0:0:
256,192,116056,1,8,0:0:0:0:
256,192,116142,1,8,0:0:0:0:
256,192,116228,1,0,0:0:0:0:
256,192,116399,1,0,0:0:0:0:
256,192,116485,1,8,0:0:0:0:
256,192,116571,1,0,0:0:0:0:
256,192,116656,1,0,0:0:0:0:
256,192,116742,1,8,0:0:0:0:
256,192,116828,1,8,0:0:0:0:
256,192,116914,1,0,0:0:0:0:
256,192,117085,1,8,0:0:0:0:
256,192,117256,1,0,0:0:0:0:
256,192,117428,1,8,0:0:0:0:
256,192,117514,1,0,0:0:0:0:
256,192,117599,1,0,0:0:0:0:
256,192,117685,1,8,0:0:0:0:
256,192,117771,1,0,0:0:0:0:
256,192,117856,1,8,0:0:0:0:
256,192,117942,1,8,0:0:0:0:
256,192,118028,1,0,0:0:0:0:
256,192,118114,1,8,0:0:0:0:
256,192,118285,1,8,0:0:0:0:
256,192,118456,1,0,0:0:0:0:
256,192,118628,1,0,0:0:0:0:
256,192,118799,1,8,0:0:0:0:
256,192,118971,1,8,0:0:0:0:
256,192,119056,1,8,0:0:0:0:
256,192,119142,1,8,0:0:0:0:
256,192,119314,1,0,0:0:0:0:
256,192,119399,1,0,0:0:0:0:
256,192,119485,1,8,0:0:0:0:
256,192,119656,1,0,0:0:0:0:
256,192,119828,1,4,0:0:0:0:
256,192,120085,1,4,0:0:0:0:
256,192,120342,1,4,0:0:0:0:
256,192,120514,1,4,0:0:0:0:
256,192,120856,1,4,0:0:0:0:
256,192,121199,1,12,0:0:0:0:
256,192,121371,1,8,0:0:0:0:
256,192,121456,1,8,0:0:0:0:
256,192,121542,1,0,0:0:0:0:
256,192,121714,1,8,0:0:0:0:
256,192,121885,1,0,0:0:0:0:
256,192,122056,1,0,0:0:0:0:
256,192,122142,1,0,0:0:0:0:
256,192,122228,1,8,0:0:0:0:
256,192,122399,1,0,0:0:0:0:
256,192,122571,1,8,0:0:0:0:
256,192,122742,1,8,0:0:0:0:
256,192,122828,1,8,0:0:0:0:
256,192,122914,1,0,0:0:0:0:
256,192,123085,1,0,0:0:0:0:
256,192,123256,1,8,0:0:0:0:
256,192,123342,1,0,0:0:0:0:
256,192,123514,1,0,0:0:0:0:
256,192,123599,1,8,0:0:0:0:
256,192,123771,1,8,0:0:0:0:
256,192,123942,1,0,0:0:0:0:
256,192,124114,1,0,0:0:0:0:
256,192,124199,1,0,0:0:0:0:
256,192,124285,1,8,0:0:0:0:
256,192,124456,1,0,0:0:0:0:
256,192,124628,1,0,0:0:0:0:
256,192,124799,1,8,0:0:0:0:
256,192,124885,1,0,0:0:0:0:
256,192,124971,1,8,0:0:0:0:
256,192,125056,1,8,0:0:0:0:
256,192,125142,1,0,0:0:0:0:
256,192,125228,1,0,0:0:0:0:
256,192,125314,1,8,0:0:0:0:
256,192,125485,1,8,0:0:0:0:
256,192,125656,1,0,0:0:0:0:
256,192,125828,1,8,0:0:0:0:
256,192,125999,1,0,0:0:0:0:
256,192,126171,1,8,0:0:0:0:
256,192,126256,1,8,0:0:0:0:
256,192,126342,1,8,0:0:0:0:
256,192,126428,1,0,0:0:0:0:
256,192,126514,1,0,0:0:0:0:
256,192,126599,1,0,0:0:0:0:
256,192,127028,1,12,0:0:0:0:
256,192,127199,1,8,0:0:0:0:
256,192,127285,1,8,0:0:0:0:
256,192,127371,1,0,0:0:0:0:
256,192,127542,1,8,0:0:0:0:
256,192,127714,1,0,0:0:0:0:
256,192,127885,1,8,0:0:0:0:
256,192,127971,1,8,0:0:0:0:
256,192,128056,1,0,0:0:0:0:
256,192,128228,1,8,0:0:0:0:
256,192,128314,1,8,0:0:0:0:
256,192,128399,1,0,0:0:0:0:
256,192,128571,1,0,0:0:0:0:
256,192,128742,1,8,0:0:0:0:
256,192,128914,1,0,0:0:0:0:
256,192,128999,1,8,0:0:0:0:
256,192,129085,1,0,0:0:0:0:
256,192,129256,1,0,0:0:0:0:
256,192,129428,1,8,0:0:0:0:
256,192,129514,1,0,0:0:0:0:
256,192,129599,1,0,0:0:0:0:
256,192,129685,1,0,0:0:0:0:
256,192,129771,1,0,0:0:0:0:
256,192,129856,1,0,0:0:0:0:
256,192,129942,1,0,0:0:0:0:
256,192,130028,1,0,0:0:0:0:
256,192,130114,1,8,0:0:0:0:
256,192,130199,1,0,0:0:0:0:
256,192,130285,1,0,0:0:0:0:
256,192,130371,1,0,0:0:0:0:
256,192,130456,1,0,0:0:0:0:
256,192,130542,1,0,0:0:0:0:
256,192,130628,1,0,0:0:0:0:
256,192,130714,1,0,0:0:0:0:
256,192,130799,1,12,0:0:0:0:
256,192,130971,1,0,0:0:0:0:
256,192,131142,1,8,0:0:0:0:
256,192,131314,1,8,0:0:0:0:
256,192,131371,1,8,0:0:0:0:
256,192,131428,1,8,0:0:0:0:
256,192,131485,1,8,0:0:0:0:
256,192,131656,1,0,0:0:0:0:
256,192,131828,1,8,0:0:0:0:
256,192,131999,1,0,0:0:0:0:
256,192,132171,1,12,0:0:0:0:
256,192,132342,1,0,0:0:0:0:
256,192,132428,1,0,0:0:0:0:
256,192,132514,1,8,0:0:0:0:
256,192,132685,1,8,0:0:0:0:
256,192,132856,1,0,0:0:0:0:
256,192,132942,1,8,0:0:0:0:
256,192,133028,1,0,0:0:0:0:
256,192,133085,1,0,0:0:0:0:
256,192,133142,1,0,0:0:0:0:
256,192,133199,1,8,0:0:0:0:
256,192,133285,1,0,0:0:0:0:
256,192,133371,1,8,0:0:0:0:
256,192,133428,1,8,0:0:0:0:
256,192,133485,1,8,0:0:0:0:
256,192,133542,1,0,0:0:0:0:
256,192,133714,1,8,0:0:0:0:
256,192,133799,1,8,0:0:0:0:
256,192,133885,1,0,0:0:0:0:
256,192,133971,1,0,0:0:0:0:
256,192,134056,1,8,0:0:0:0:
256,192,134142,1,0,0:0:0:0:
256,192,134228,1,0,0:0:0:0:
256,192,134399,1,0,0:0:0:0:
256,192,134485,1,0,0:0:0:0:
256,192,134571,1,8,0:0:0:0:
256,192,134656,1,8,0:0:0:0:
256,192,134742,1,8,0:0:0:0:
256,192,134828,1,8,0:0:0:0:
256,192,134914,1,0,0:0:0:0:
256,192,135085,1,0,0:0:0:0:
256,192,135256,1,8,0:0:0:0:
256,192,135428,1,8,0:0:0:0:
256,192,135514,1,8,0:0:0:0:
256,192,135599,1,0,0:0:0:0:
256,192,135771,1,0,0:0:0:0:
256,192,135942,1,8,0:0:0:0:
256,192,136114,1,0,0:0:0:0:
256,192,136285,1,0,0:0:0:0:
256,192,136628,1,8,0:0:0:0:
