osu file format v14

[General]
AudioFilename: 04. Reminiscing.mp3
AudioLeadIn: 0
PreviewTime: -1
Countdown: 1
SampleSet: Soft
StackLeniency: 0.7
Mode: 0
LetterboxInBreaks: 1
WidescreenStoryboard: 0

[Editor]
DistanceSpacing: 1.5
BeatDivisor: 4
GridSize: 4
TimelineZoom: 2.2

[Metadata]
Title:Reminiscing
TitleUnicode:Reminiscing
Artist:Shoujo
ArtistUnicode:Shoujo
Creator:AlienGo
Version:Memories
Source:
Tags:Japanese Dance Electronic Marathon
BeatmapID:872485
BeatmapSetID:401066

[Difficulty]
HPDrainRate:5
CircleSize:4.2
OverallDifficulty:8.6
ApproachRate:9.3
SliderMultiplier:2.2
SliderTickRate:2

[Events]
//Background and Video events
0,0,"45220066_p0.jpg",0,0
//Break Periods
//Storyboard Layer 0 (Background)
//Storyboard Layer 1 (Fail)
//Storyboard Layer 2 (Pass)
//Storyboard Layer 3 (Foreground)
//Storyboard Sound Samples

[TimingPoints]
485,342.857142857143,4,2,0,70,1,0
485,-200,4,2,0,70,0,0
819,-125,4,2,0,70,0,0
1162,-166.666666666667,4,2,0,70,0,0
2191,-125,4,2,0,70,0,0
11456,-100,4,2,0,70,0,0
15570,-76.9230769230769,4,2,0,70,0,0
15913,-100,4,2,0,70,0,0
20027,-142.857142857143,4,2,0,70,0,0
20362,-125,4,2,0,70,0,0
22419,-90.9090909090909,4,2,0,70,0,0
26542,-76.9230769230769,4,2,0,70,0,0
26885,-142.857142857143,4,2,0,70,0,0
28256,-125,4,2,0,70,0,0
28427,-90.9090909090909,4,2,0,70,0,0
35970,-142.857142857143,4,2,0,70,0,0
36056,-90.9090909090909,4,2,0,70,0,0
44362,-200,4,2,0,70,0,0
58085,-66.6666666666667,4,2,0,70,0,0
58942,-200,4,2,0,70,0,0
59027,-66.6666666666667,4,2,0,70,0,0
59448,-76.923076923077,4,2,0,70,0,0
59962,-200,4,2,0,70,0,0
77277,-142.857142857143,4,2,0,70,0,0
87048,-125,4,2,0,70,0,0
100934,-200,4,2,0,70,0,0
101962,-125,4,2,0,70,0,0
108827,-76.9230769230769,4,2,0,70,0,0
110191,-66.6666666666667,4,2,0,70,0,1
110877,-66.6666666666667,4,2,0,70,0,1
117391,-100,4,2,0,70,0,1
118077,-66.6666666666667,4,2,0,70,0,1
130762,-142.857142857143,4,2,0,70,0,0
132134,-200,4,2,0,70,0,0
132477,-66.6666666666667,4,2,0,70,0,0
133505,-83.3333333333334,4,2,0,70,0,0
134191,-66.6666666666667,4,2,0,70,0,0
137619,-100,4,2,0,70,0,0
143105,-83.3333333333334,4,2,0,70,0,0
154085,-83.3333333333334,4,2,0,70,0,0
158191,-142.857142857143,4,2,0,70,0,0
167456,-200,4,2,0,70,0,0
167627,-142.857142857143,4,2,0,70,0,0
174648,-100,4,2,0,70,0,0
176019,-142.857142857143,4,2,0,70,0,0
219913,-166.666666666667,4,2,0,70,0,0
220427,-83.3333333333334,4,2,0,70,0,0
221277,-66.6666666666667,4,2,0,70,0,1
226077,-100,4,2,0,70,0,1
227448,-66.6666666666667,4,2,0,70,0,1
231562,-100,4,2,0,70,0,1
231904,-66.6666666666667,4,2,0,70,0,1
241848,-83.3333333333334,4,2,0,70,0,0
242970,-166.666666666667,4,2,0,70,0,0
243219,-125,4,2,0,70,0,0
243485,-71.4285714285714,4,2,0,5,0,0
243570,-71.4285714285714,4,2,0,70,0,0
244591,-66.6666666666667,4,2,0,70,0,0
245277,-71.4285714285714,4,2,0,70,0,0
251448,-83.3333333333334,4,2,0,70,0,0
253505,-200,4,2,0,70,0,0
254191,-71.4285714285714,4,2,0,70,0,0
259677,-83.3333333333333,4,2,0,70,0,0
260019,-71.4285714285714,4,2,0,70,0,0
262419,-90.9090909090909,4,2,0,70,0,0
263791,-100,4,2,0,70,0,0
269277,-125,4,2,0,70,0,0
269619,-100,4,2,0,70,0,0
287105,-90.9090909090909,4,2,0,70,0,0
291219,-125,4,2,0,70,0,0
291562,-90.9090909090909,4,2,0,70,0,0
296705,-71.4285714285714,4,2,0,70,0,0
298077,-90.9090909090909,4,2,0,70,0,0
303219,-71.4285714285714,4,2,0,70,0,0
303391,-90.9090909090909,4,2,0,70,0,0
307677,-125,4,2,0,70,0,0
309048,882.352941176471,4,2,0,70,1,0
309048,-71.4285714285714,4,2,0,30,0,0

[Colours]
Combo1 : 84,201,207
Combo2 : 153,231,153
Combo3 : 222,34,67
Combo4 : 107,122,6

[HitObjects]
216,152,485,6,0,B|240:212|240:212|280:228,1,82.5,8|0,0:0|0:0,0:0:0:0:
264,304,827,2,0,B|340:272|340:272|360:196,1,132,0|4,0:0|0:0,0:0:0:0:
364,144,1170,2,0,L|364:128,15,16.49999949646
456,168,1856,2,0,B|432:216|432:216|376:216,1,98.9999969787599,8|0,0:0|0:0,0:0:0:0:
296,248,2199,2,0,B|336:300|336:300|376:308|376:308|404:288,1,132
475,207,2542,2,0,L|451:159,3,44
364,144,2885,2,0,L|340:100,3,44
228,132,3227,5,8,0:0:0:0:
164,156,3399,1,0,0:0:0:0:
240,280,3570,1,8,0:0:0:0:
184,320,3742,2,0,B|144:348|144:348|84:320,1,88
84,312,3999,1,0,0:0:0:0:
72,284,4085,1,0,0:0:0:0:
60,256,4170,1,0,0:0:0:0:
52,228,4256,1,8,0:0:0:0:
48,196,4342,1,0,0:0:0:0:
48,164,4427,1,0,0:0:0:0:
52,132,4513,1,0,0:0:0:0:
68,104,4599,6,2,B|104:28|244:68,1,176,2|4,0:0|0:0,0:0:0:0:
384,116,5113,1,0,0:0:0:0:
367,46,5285,2,8,P|420:52|452:124,1,132
456,148,5627,2,0,P|448:200|456:248,1,88
260,172,5970,2,8,P|268:220|336:296,1,132,8|0,0:0|0:0,0:0:0:0:
360,308,6313,2,0,P|328:352|256:348,1,132
232,320,6656,2,0,L|208:272,1,44
88,220,6827,2,0,L|128:292,1,44
212,280,6999,1,8,0:0:0:0:
80,136,7170,1,0,0:0:0:0:
112,32,7342,6,8,B|116:48|116:48|124:36|124:36|124:52|124:52|132:40|132:40|132:56|132:56|140:44|140:44|140:60|140:60|148:48|148:48|148:64|148:64|188:88,1,176
288,180,7856,1,0,0:0:0:0:
380,88,8027,1,8,0:0:0:0:
424,72,8113,1,0,0:0:0:0:
472,88,8199,1,0,0:0:0:0:
496,128,8285,1,0,0:0:0:0:
496,176,8370,2,0,L|452:240,1,44,8|0,0:0|0:0,0:0:0:0:
304,304,8542,2,0,L|344:252,1,44
300,80,8713,6,0,B|252:112|316:140|256:176,1,88,8|0,0:0|0:0,0:0:0:0:
160,308,9056,1,4,0:0:0:0:
368,56,9399,1,8,0:0:0:0:
96,40,9656,1,8,0:0:0:0:
80,36,9742,2,0,B|20:28|20:28|56:64,1,88,8|4,0:0|0:0,0:0:0:0:
168,160,10085,6,0,L|208:196,1,44
216,56,10256,2,0,L|168:12,1,44
80,116,10427,2,0,L|40:152,1,44
272,196,10599,2,0,L|312:152,1,44
196,60,10770,1,0,0:0:0:0:
112,252,10942,1,0,0:0:0:0:
112,260,11027,1,0,0:0:0:0:
112,268,11113,1,0,0:0:0:0:
364,240,11285,1,0,0:0:0:0:
368,236,11370,1,0,0:0:0:0:
372,232,11456,6,8,B|320:152|320:152|244:152,1,165,12|0,0:0|0:0,0:0:0:0:
184,196,11799,2,0,B|184:148|184:148|124:92|124:92|160:60,1,165,8|0,0:0|0:0,0:0:0:0:
192,40,12142,1,0,0:0:0:0:
244,28,12227,1,0,0:0:0:0:
288,56,12313,1,0,0:0:0:0:
320,96,12399,1,0,0:0:0:0:
360,128,12485,1,0,0:0:0:0:
412,136,12570,1,0,0:0:0:0:
464,132,12656,1,0,0:0:0:0:
496,92,12742,1,0,0:0:0:0:
472,48,12827,6,0,L|400:144,1,110,8|0,0:0|0:0,0:0:0:0:
328,244,13170,5,8,0:0:0:0:
328,244,13256,1,0,0:0:0:0:
328,244,13342,1,0,0:0:0:0:
412,136,13513,2,0,B|472:168|404:228,1,110,8|0,0:0|0:0,0:0:0:0:
380,252,13770,1,0,0:0:0:0:
336,272,13856,1,8,0:0:0:0:
288,276,13942,1,0,0:0:0:0:
244,260,14027,1,0,0:0:0:0:
208,232,14113,1,0,0:0:0:0:
180,196,14199,1,4,0:0:0:0:
336,120,14370,1,0,0:0:0:0:
340,52,14542,6,8,B|408:60|432:128|392:200|316:184,1,220
292,180,14970,1,0,0:0:0:0:
264,164,15056,1,0,0:0:0:0:
240,140,15142,1,0,0:0:0:0:
224,112,15227,1,0,0:0:0:0:
216,80,15313,1,0,0:0:0:0:
188,100,15399,1,0,0:0:0:0:
156,112,15485,1,0,0:0:0:0:
124,124,15570,2,0,B|-40:188|-8:48|104:68|80:152|84:220,1,285.99998690796,8|4,0:0|0:0,0:0:0:0:
96,352,16085,1,8,0:0:0:0:
84,220,16256,6,0,L|208:280,1,110,8|0,0:0|0:0,0:0:0:0:
192,268,16513,1,0,0:0:0:0:
200,268,16599,1,8,0:0:0:0:
396,208,16770,2,0,L|444:216,1,27.5,8|0,0:0|0:0,0:0:0:0:
404,196,16856,2,0,L|452:204,1,27.5,8|0,0:0|0:0,0:0:0:0:
412,184,16942,1,12,0:0:0:0:
448,8,17113,5,0,0:0:0:0:
280,56,17285,1,8,0:0:0:0:
304,228,17456,1,0,0:0:0:0:
360,16,17627,1,8,0:0:0:0:
200,132,17799,1,0,0:0:0:0:
396,116,17970,1,8,0:0:0:0:
224,16,18142,1,0,0:0:0:0:
388,280,18313,1,12,0:0:0:0:
131,148,18485,1,0,0:0:0:0:
128,220,18656,6,8,P|76:192|60:136,1,110,8|12,0:0|0:0,0:0:0:0:
48,68,18999,1,8,0:0:0:0:
224,192,19170,1,0,0:0:0:0:
256,116,19342,2,0,L|284:60,1,55
228,8,19513,2,0,L|196:72,1,55
288,48,19685,5,4,0:0:0:0:
0,68,19856,1,0,0:0:0:0:
256,120,20027,2,0,B|340:140|340:140|356:172,1,115.49999647522,8|0,0:0|0:0,0:0:0:0:
352,240,20370,2,0,B|256:216|256:216|232:168,1,132
228,160,20713,1,0,0:0:0:0:
296,336,20885,1,0,0:0:0:0:
310,155,21056,6,0,L|358:167,2,44
72,120,21399,2,0,B|0:92|-8:200|-4:296|152:192|184:220|132:288|128:288|200:260|200:260|184:320|184:320|260:308,1,440,2|4,0:0|0:0,0:0:0:0:
408,260,22427,5,8,0:0:0:0:
276,196,22599,1,0,0:0:0:0:
412,116,22770,1,8,0:0:0:0:
280,192,22942,1,0,0:0:0:0:
268,52,23113,5,0,0:0:0:0:
244,24,23199,1,0,0:0:0:0:
208,16,23285,1,0,0:0:0:0:
168,20,23370,1,0,0:0:0:0:
136,36,23456,1,0,0:0:0:0:
104,68,23542,1,0,0:0:0:0:
84,112,23627,1,0,0:0:0:0:
84,160,23713,1,0,0:0:0:0:
108,208,23799,2,8,B|136:264|208:264|216:244,1,121.000003692627,8|4,0:0|0:0,0:0:0:0:
364,128,24142,2,8,P|424:160|432:216,1,121.000003692627,8|4,0:0|0:0,0:0:0:0:
320,340,24485,1,0,0:0:0:0:
364,196,24656,1,0,0:0:0:0:
280,288,24827,2,0,L|324:348,1,60.5000018463135
288,196,24999,2,0,L|240:132,1,60.5000018463135
88,284,25170,2,0,L|160:184,1,121.000003692627
96,60,25513,2,0,B|20:60|20:60|-32:136,1,121.000003692627,8|0,0:0|0:0,0:0:0:0:
139,62,25856,5,0,0:0:0:0:
172,104,25941,1,0,0:0:0:0:
224,124,26027,1,0,0:0:0:0:
276,108,26113,1,0,0:0:0:0:
312,68,26198,1,0,0:0:0:0:
344,112,26284,1,0,0:0:0:0:
396,132,26370,1,0,0:0:0:0:
452,140,26456,1,0,0:0:0:0:
504,136,26542,2,0,B|400:208|412:248|448:280|484:252|464:180|336:192|272:160,1,285.99998690796,10|4,0:0|0:0,0:0:0:0:
172,148,27056,6,0,P|128:120|116:84,2,76.9999976501466,0|8|0,0:0|0:0|0:0,0:0:0:0:
348,188,27570,1,8,0:0:0:0:
176,0,27742,1,4,0:0:0:0:
292,36,27913,1,8,0:0:0:0:
156,88,28085,1,0,0:0:0:0:
56,56,28256,6,0,B|0:80|48:132,1,88,8|0,0:0|0:0,0:0:0:0:
76,160,28513,1,0,0:0:0:0:
116,188,28599,1,0,0:0:0:0:
164,192,28685,1,0,0:0:0:0:
208,180,28770,1,0,0:0:0:0:
248,156,28856,1,0,0:0:0:0:
248,108,28942,1,0,0:0:0:0:
204,92,29027,1,0,0:0:0:0:
176,132,29113,1,0,0:0:0:0:
188,180,29199,1,0,0:0:0:0:
228,208,29285,1,8,0:0:0:0:
336,296,29456,5,0,0:0:0:0:
84,256,29627,2,0,P|44:188|72:132,1,121.000003692627,8|4,0:0|0:0,0:0:0:0:
216,32,29970,1,8,0:0:0:0:
116,188,30142,1,0,0:0:0:0:
280,240,30313,2,0,L|336:300,1,60.5000018463135,8|0,0:0|0:0,0:0:0:0:
436,304,30485,2,0,L|388:248,1,60.5000018463135
360,336,30656,1,8,0:0:0:0:
360,128,30827,1,0,0:0:0:0:
356,60,30999,6,0,P|416:84|416:164,1,121.000003692627,8|0,0:0|0:0,0:0:0:0:
152,320,31342,2,0,P|84:272|92:208,1,121.000003692627,8|0,0:0|0:0,0:0:0:0:
200,116,31685,2,0,L|304:200,1,121.000003692627,8|4,0:0|0:0,0:0:0:0:
408,280,32027,5,8,0:0:0:0:
240,136,32285,5,10,0:0:0:0:
240,136,32370,1,0,0:0:0:0:
100,228,32542,5,0,0:0:0:0:
100,228,32627,1,10,0:0:0:0:
104,232,32713,1,0,0:0:0:0:
256,328,32885,5,8,0:0:0:0:
340,176,33056,2,0,L|320:148,7,30.2500009231568
300,120,33399,1,4,0:0:0:0:
124,96,33570,1,0,0:0:0:0:
56,104,33742,2,0,P|104:160|152:160,1,121.000003692627,8|0,0:0|0:0,0:0:0:0:
196,156,33999,1,0,0:0:0:0:
244,144,34085,1,0,0:0:0:0:
276,108,34170,1,0,0:0:0:0:
316,80,34256,1,0,0:0:0:0:
364,88,34342,1,0,0:0:0:0:
392,128,34427,1,0,0:0:0:0:
388,176,34513,1,0,0:0:0:0:
352,208,34599,1,0,0:0:0:0:
304,204,34685,1,0,0:0:0:0:
260,184,34770,6,0,L|224:128,2,60.5000018463135,8|0|4,0:0|0:0|0:0,0:0:0:0:
348,320,35113,1,8,0:0:0:0:
40,228,35285,1,0,0:0:0:0:
80,256,35370,1,0,0:0:0:0:
128,252,35456,1,8,0:0:0:0:
164,220,35542,1,0,0:0:0:0:
180,176,35627,1,0,0:0:0:0:
196,132,35713,1,0,0:0:0:0:
244,120,35799,1,0,0:0:0:0:
288,136,35885,1,0,0:0:0:0:
316,172,35970,2,0,L|356:228,1,38.4999988250733
376,252,36142,6,0,L|460:360,1,121.000003692627,8|4,0:0|0:0,0:0:0:0:
272,228,36485,2,0,L|182:102,1,121.000003692627,8|4,0:0|0:0,0:0:0:0:
232,12,36827,1,8,0:0:0:0:
132,132,36999,1,0,0:0:0:0:
288,132,37170,1,8,0:0:0:0:
188,12,37342,5,0,0:0:0:0:
176,12,37427,1,0,0:0:0:0:
164,12,37513,2,0,B|92:16|112:84|248:116,1,181.500005538941,8|0,0:0|0:0,0:0:0:0:
248,120,37856,1,0,0:0:0:0:
436,192,38027,1,0,0:0:0:0:
372,104,38199,1,8,0:0:0:0:
340,344,38370,5,8,0:0:0:0:
324,312,38456,1,8,0:0:0:0:
308,280,38542,1,8,0:0:0:0:
288,248,38627,1,0,0:0:0:0:
268,216,38713,1,8,0:0:0:0:
248,184,38799,1,8,0:0:0:0:
224,156,38885,2,0,P|148:160|112:232,1,121.000003692627,8|0,0:0|0:0,0:0:0:0:
164,300,39227,2,0,L|112:188,1,121.000003692627,8|0,0:0|0:0,0:0:0:0:
104,168,39485,1,0,0:0:0:0:
96,144,39570,6,0,L|220:88,1,121.000003692627,8|0,0:0|0:0,0:0:0:0:
300,120,39913,2,0,L|232:-28,1,121.000003692627,8|4,0:0|0:0,0:0:0:0:
140,184,40256,2,0,L|208:324,1,121.000003692627,8|0,0:0|0:0,0:0:0:0:
108,116,40599,2,0,L|236:56,1,121.000003692627,8|0,0:0|0:0,0:0:0:0:
320,88,40942,2,0,L|184:156,1,121.000003692627,8|0,0:0|0:0,0:0:0:0:
224,152,41199,1,0,0:0:0:0:
240,160,41285,6,0,L|312:184,3,60.5000018463135
292,208,41627,1,8,0:0:0:0:
276,232,41713,1,0,0:0:0:0:
248,248,41799,1,0,0:0:0:0:
220,256,41885,1,0,0:0:0:0:
192,256,41970,1,0,0:0:0:0:
164,244,42056,1,0,0:0:0:0:
144,220,42142,1,0,0:0:0:0:
132,192,42227,1,0,0:0:0:0:
132,160,42313,5,0,0:0:0:0:
140,132,42399,1,0,0:0:0:0:
148,104,42485,1,0,0:0:0:0:
168,80,42570,1,0,0:0:0:0:
188,60,42656,1,0,0:0:0:0:
212,40,42742,1,0,0:0:0:0:
240,32,42827,1,0,0:0:0:0:
272,32,42913,1,4,0:0:0:0:
468,64,43170,6,0,L|388:32,1,60.5000018463135
44,316,43513,2,0,L|120:352,1,60.5000018463135
232,208,43856,2,0,L|276:164,5,60.5000018463135
212,80,44370,6,0,P|304:64|344:72,1,110,8|0,0:0|0:0,0:0:0:0:
319,65,44885,1,0,0:0:0:0:
400,112,45056,2,0,B|420:72|404:48,1,55,8|0,0:0|0:0,0:0:0:0:
312,204,45399,2,0,L|260:264,1,55
196,340,45742,1,8,0:0:0:0:
248,64,45999,5,0,0:0:0:0:
248,64,46085,1,8,0:0:0:0:
332,164,46256,1,0,0:0:0:0:
340,172,46342,2,0,L|368:204,8,27.5,0|8|0|0|0|0|0|0|0,0:0|0:0|0:0|0:0|0:0|0:0|0:0|0:0|0:0,0:0:0:0:
424,180,47113,6,0,B|436:248|360:264,1,110,8|4,0:0|0:0,0:0:0:0:
232,260,47627,2,0,L|176:300,1,55
176,180,47970,2,0,L|216:148,1,27.5
224,144,48142,1,0,0:0:0:0:
376,120,48313,2,0,L|320:168,1,55,0|8,0:0|0:0,0:0:0:0:
228,236,48656,1,0,0:0:0:0:
224,240,48742,1,0,0:0:0:0:
220,244,48827,6,0,B|192:236|184:200|188:180,1,55,8|0,0:0|0:0,0:0:0:0:
184,188,49085,1,0,0:0:0:0:
184,172,49170,1,8,0:0:0:0:
24,152,49342,1,0,0:0:0:0:
16,176,49427,1,0,0:0:0:0:
20,200,49513,1,8,0:0:0:0:
92,276,49685,5,0,0:0:0:0:
112,264,49770,1,0,0:0:0:0:
128,244,49856,2,0,P|172:272|160:332,1,110,8|4,0:0|0:0,0:0:0:0:
64,312,50370,1,0,0:0:0:0:
156,192,50542,1,0,0:0:0:0:
161,327,50713,2,0,P|104:336|52:288,1,110
124,268,51227,2,2,P|168:240|216:260,2,82.5
276,272,51913,5,0,0:0:0:0:
292,292,51998,1,0,0:0:0:0:
316,304,52084,1,0,0:0:0:0:
344,300,52170,1,0,0:0:0:0:
364,280,52255,1,0,0:0:0:0:
368,252,52341,1,0,0:0:0:0:
360,224,52427,1,0,0:0:0:0:
344,204,52512,1,0,0:0:0:0:
328,180,52599,6,0,P|340:140|380:120,1,82.5,8|0,0:0|0:0,0:0:0:0:
400,120,52942,2,0,L|464:160,1,55
384,48,53285,2,0,L|420:-8,1,55
296,80,53627,2,0,L|236:44,1,55
352,144,53970,2,0,L|440:200,1,82.5,8|0,0:0|0:0,0:0:0:0:
432,264,54313,6,0,L|428:304,1,27.5,8|0,0:0|0:0,0:0:0:0:
356,240,54485,2,0,L|336:280,1,27.5
292,196,54656,2,0,L|268:228,1,27.5,8|0,0:0|0:0,0:0:0:0:
236,140,54827,2,0,L|212:164,1,27.5
192,84,54999,2,0,P|160:76|132:72,1,55,8|0,0:0|0:0,0:0:0:0:
124,76,55256,1,0,0:0:0:0:
112,84,55342,6,0,P|84:148|96:204,1,110,12|0,0:0|0:0,0:0:0:0:
96,204,55770,1,0,0:0:0:0:
104,220,55856,1,0,0:0:0:0:
112,236,55942,1,0,0:0:0:0:
120,252,56027,1,0,0:0:0:0:
276,288,56199,2,0,L|232:328,2,55
380,256,56713,2,0,P|400:276|412:304,2,55
296,184,57227,1,0,0:0:0:0:
288,176,57313,1,0,0:0:0:0:
284,168,57399,6,0,L|304:112,1,55
312,96,57656,1,0,0:0:0:0:
320,76,57742,1,0,0:0:0:0:
328,56,57827,1,0,0:0:0:0:
336,36,57913,1,0,0:0:0:0:
108,176,58085,5,8,0:0:0:0:
144,108,58256,1,0,0:0:0:0:
376,140,58427,1,8,0:0:0:0:
344,208,58599,1,0,0:0:0:0:
240,56,58770,1,8,0:0:0:0:
320,56,58942,2,0,L|356:24,1,27.5
368,16,59113,1,8,0:0:0:0:
156,200,59285,1,0,0:0:0:0:
116,48,59456,2,0,P|72:12|-4:48,2,142.99999345398,8|0|12,0:0|0:0|0:0,0:0:0:0:
172,144,59970,5,0,0:0:0:0:
180,196,60056,1,0,0:0:0:0:
188,248,60142,1,10,0:0:0:0:
312,328,60313,5,0,0:0:0:0:
332,284,60399,1,0,0:0:0:0:
352,240,60485,1,0,0:0:0:0:
368,196,60570,1,0,0:0:0:0:
384,152,60656,1,0,0:0:0:0:
400,108,60742,1,0,0:0:0:0:
416,64,60827,6,0,L|328:28,1,82.5,12|0,0:0|0:0,0:0:0:0:
400,128,61170,2,0,L|376:188,1,55
476,88,61513,2,0,L|500:28,1,55
460,152,61856,2,0,L|516:152,1,55
424,32,62199,1,8,0:0:0:0:
352,32,62370,1,0,0:0:0:0:
400,160,62542,1,8,0:0:0:0:
472,160,62713,1,0,0:0:0:0:
372,88,62885,6,0,L|356:48,1,27.5,8|0,0:0|0:0,0:0:0:0:
304,124,63056,2,0,L|276:92,1,27.5
256,184,63227,2,0,L|212:160,1,27.5
228,252,63399,2,0,L|184:240,1,27.5
200,320,63570,2,0,P|168:256|180:204,1,110,12|0,0:0|0:0,0:0:0:0:
236,128,64085,1,0,0:0:0:0:
344,120,64256,1,0,0:0:0:0:
440,176,64427,1,0,0:0:0:0:
428,148,64513,1,0,0:0:0:0:
408,124,64599,6,2,B|376:96|336:96,1,55
264,64,64942,1,0,0:0:0:0:
144,56,65113,2,0,L|100:12,1,55
216,120,65456,2,0,L|160:132,1,55
144,144,65713,5,0,0:0:0:0:
128,160,65799,1,0,0:0:0:0:
112,176,65885,1,0,0:0:0:0:
96,192,65970,1,0,0:0:0:0:
96,344,66142,1,0,0:0:0:0:
112,336,66227,1,0,0:0:0:0:
128,328,66313,1,12,0:0:0:0:
428,304,66656,6,0,L|468:360,1,55
336,8,66999,1,0,0:0:0:0:
12,296,67342,5,0,0:0:0:0:
24,188,67513,1,0,0:0:0:0:
76,92,67685,1,0,0:0:0:0:
192,328,68027,6,0,L|136:356,1,55
504,200,68370,1,0,0:0:0:0:
172,4,68713,5,0,0:0:0:0:
252,80,68885,1,0,0:0:0:0:
252,188,69056,1,0,0:0:0:0:
496,16,69399,2,0,L|444:64,1,55
72,284,69742,5,8,0:0:0:0:
128,128,69913,1,0,0:0:0:0:
380,196,70085,1,4,0:0:0:0:
256,192,70427,12,4,71627,0:0:0:0:
356,336,71799,5,8,0:0:0:0:
288,0,72142,1,8,0:0:0:0:
92,192,72485,5,8,0:0:0:0:
180,240,72656,1,0,0:0:0:0:
268,288,72827,1,8,0:0:0:0:
356,336,72999,1,8,0:0:0:0:
356,336,73170,1,0,0:0:0:0:
444,292,73342,5,8,0:0:0:0:
360,240,73513,1,0,0:0:0:0:
272,192,73685,1,8,0:0:0:0:
184,144,73856,1,0,0:0:0:0:
168,252,74027,1,8,0:0:0:0:
184,144,74199,1,0,0:0:0:0:
248,68,74370,1,8,0:0:0:0:
340,28,74542,2,8,B|396:40|396:40|408:72,1,82.5,8|0,0:0|0:0,0:0:0:0:
420,112,74885,6,0,L|388:168,1,55
108,156,75227,2,0,L|152:92,1,55
388,60,75570,2,0,L|356:120,1,55
144,196,75913,2,0,L|188:132,1,55,8|0,0:0|0:0,0:0:0:0:
332,168,76256,5,0,0:0:0:0:
300,228,76427,1,0,0:0:0:0:
216,96,76599,1,0,0:0:0:0:
256,40,76770,1,0,0:0:0:0:
220,236,76942,1,0,0:0:0:0:
224,240,77113,1,4,0:0:0:0:
344,44,77285,6,8,L|288:136,1,76.9999976501466,8|0,0:0|0:0,0:0:0:0:
268,44,77627,2,8,L|208:136,1,76.9999976501466,8|0,0:0|0:0,0:0:0:0:
192,44,77970,2,8,L|132:132,1,76.9999976501466,8|0,0:0|0:0,0:0:0:0:
116,44,78313,2,8,L|52:132,1,76.9999976501466,8|4,0:0|0:0,0:0:0:0:
56,304,78656,6,8,L|116:216,1,76.9999976501466,8|0,0:0|0:0,0:0:0:0:
136,304,78999,2,8,L|192:212,1,76.9999976501466,8|0,0:0|0:0,0:0:0:0:
216,304,79342,2,8,L|272:204,1,115.49999647522,8|2,0:0|0:0,0:0:0:0:
332,236,79685,2,8,L|280:328,1,76.9999976501466,8|4,0:0|0:0,0:0:0:0:
368,172,80027,6,0,B|324:124|276:104|216:132,1,153.999995300293
268,192,80542,2,0,L|336:268,1,76.9999976501466
184,240,80885,2,0,L|112:156,1,76.9999976501466
60,76,81227,1,0,0:0:0:0:
184,32,81399,2,0,B|252:44|252:44|300:8,1,115.49999647522
289,16,81742,1,0,0:0:0:0:
196,108,81913,1,0,0:0:0:0:
316,164,82085,6,0,L|396:200,1,76.9999976501466
236,244,82427,2,0,L|132:200,1,76.9999976501466
84,132,82770,5,8,0:0:0:0:
232,132,82942,1,0,0:0:0:0:
148,12,83113,1,0,0:0:0:0:
148,168,83285,1,0,0:0:0:0:
40,56,83456,5,8,0:0:0:0:
188,100,83627,1,0,0:0:0:0:
112,236,83799,1,0,0:0:0:0:
40,56,83970,1,0,0:0:0:0:
196,100,84142,2,8,L|272:120,1,76.9999976501466,8|0,0:0|0:0,0:0:0:0:
216,180,84485,2,0,L|300:228,1,76.9999976501466
400,148,84827,2,0,L|376:240,1,76.9999976501466,8|0,0:0|0:0,0:0:0:0:
460,192,85170,2,0,L|480:100,1,76.9999976501466,0|4,0:0|0:0,0:0:0:0:
436,48,85513,5,8,0:0:0:0:
392,28,85599,1,0,0:0:0:0:
344,24,85685,1,0,0:0:0:0:
300,40,85770,1,0,0:0:0:0:
264,72,85856,1,8,0:0:0:0:
244,116,85942,1,0,0:0:0:0:
260,160,86027,1,0,0:0:0:0:
276,204,86113,1,0,0:0:0:0:
284,252,86199,1,8,0:0:0:0:
260,296,86285,1,0,0:0:0:0:
212,296,86370,1,0,0:0:0:0:
180,260,86456,1,0,0:0:0:0:
192,212,86542,1,8,0:0:0:0:
284,160,86713,5,8,0:0:0:0:
320,144,86799,1,8,0:0:0:0:
356,136,86885,2,8,B|456:96|536:108|560:216|476:208|344:228|380:204|508:104|496:56|372:24,1,423.499987075806
360,28,87913,6,0,B|296:24|296:24|268:64,1,88,0|4,0:0|0:0,0:0:0:0:
184,204,88256,1,8,0:0:0:0:
200,32,88427,2,0,L|96:32,1,88,0|8,0:0|0:0,0:0:0:0:
112,44,88685,1,0,0:0:0:0:
112,56,88770,2,0,L|60:168,1,88,0|8,0:0|0:0,0:0:0:0:
200,32,89113,2,0,L|272:128,1,88
264,112,89370,1,0,0:0:0:0:
272,120,89456,2,0,L|320:20,1,88,0|8,0:0|0:0,0:0:0:0:
428,160,89799,6,0,B|440:208|428:248|384:288|348:320,1,176
356,316,90227,1,0,0:0:0:0:
354,322,90313,2,0,P|260:276|220:344,1,176,8|0,0:0|0:0,0:0:0:0:
288,340,90827,1,0,0:0:0:0:
380,220,90999,2,0,P|308:144|368:84,1,176,8|0,0:0|0:0,0:0:0:0:
376,152,91513,1,0,0:0:0:0:
272,196,91685,1,8,0:0:0:0:
156,184,91856,1,0,0:0:0:0:
164,156,91942,1,0,0:0:0:0:
180,132,92027,1,0,0:0:0:0:
144,24,92199,5,0,0:0:0:0:
112,28,92285,1,0,0:0:0:0:
84,40,92370,2,0,B|52:140|80:208|120:228,1,176,8|4,0:0|0:0,0:0:0:0:
164,304,92885,1,0,0:0:0:0:
288,280,93056,5,0,0:0:0:0:
288,240,93142,1,0,0:0:0:0:
288,200,93227,1,0,0:0:0:0:
288,160,93313,1,0,0:0:0:0:
288,120,93399,1,0,0:0:0:0:
308,84,93485,1,0,0:0:0:0:
344,68,93570,1,0,0:0:0:0:
384,80,93656,1,0,0:0:0:0:
416,108,93742,1,4,0:0:0:0:
472,164,93913,1,0,0:0:0:0:
460,244,94085,6,0,B|444:188|412:152|328:132,1,176
292,144,94513,1,0,0:0:0:0:
248,152,94599,2,0,L|140:176,2,88
120,120,95113,1,8,0:0:0:0:
56,256,95285,2,0,B|96:196|96:196|80:168,2,88,8|0|8,0:0|0:0|0:0,0:0:0:0:
60,260,95713,1,0,0:0:0:0:
64,264,95799,2,0,B|132:264|132:264|160:240,1,88,0|8,0:0|0:0,0:0:0:0:
56,332,96142,2,0,L|176:332,1,88,8|4,0:0|0:0,0:0:0:0:
336,336,96485,2,0,B|432:336|432:332|432:332|436:332|432:260,1,132,8|0,0:0|0:0,0:0:0:0:
436,264,96827,5,8,0:0:0:0:
432,88,96999,1,0,0:0:0:0:
236,200,97170,1,0,0:0:0:0:
404,256,97342,2,0,L|448:256,1,44
364,68,97513,1,0,0:0:0:0:
284,252,97685,1,0,0:0:0:0:
68,320,97856,1,8,0:0:0:0:
120,180,98027,1,0,0:0:0:0:
116,172,98113,1,0,0:0:0:0:
112,164,98199,2,0,B|84:120|84:120|108:72,1,88
248,24,98542,5,0,0:0:0:0:
260,60,98627,1,0,0:0:0:0:
264,100,98713,1,0,0:0:0:0:
260,140,98799,1,0,0:0:0:0:
248,176,98885,1,0,0:0:0:0:
140,312,99056,2,0,L|120:336,3,22
100,364,99227,5,8,0:0:0:0:
100,364,99399,1,0,0:0:0:0:
116,188,99571,1,8,0:0:0:0:
116,188,99742,1,0,0:0:0:0:
340,324,99913,1,8,0:0:0:0:
340,316,100085,1,0,0:0:0:0:
408,268,100256,1,8,0:0:0:0:
460,196,100428,1,0,0:0:0:0:
456,56,100599,2,0,B|436:16|420:12|400:116,1,132
392,136,100942,2,0,B|348:156|328:92|336:68,1,82.5
332,76,101285,5,0,0:0:0:0:
180,24,101456,1,0,0:0:0:0:
176,32,101542,1,0,0:0:0:0:
172,40,101627,1,0,0:0:0:0:
80,160,101799,1,0,0:0:0:0:
80,172,101885,1,0,0:0:0:0:
80,184,101970,6,0,P|136:248|232:260,1,176,8|0,0:0|0:0,0:0:0:0:
216,192,102485,2,0,P|260:204|292:264,1,88
320,304,102827,1,0,0:0:0:0:
300,376,102999,2,0,P|352:376|384:332,1,88
420,264,103342,2,0,L|420:128,1,132,8|0,0:0|0:0,0:0:0:0:
420,104,103685,5,0,0:0:0:0:
308,72,103856,1,0,0:0:0:0:
184,80,104027,2,0,B|128:80|84:116|48:184,1,176,8|0,0:0|0:0,0:0:0:0:
72,192,104456,2,0,L|120:180,2,44
88,212,104713,6,0,L|188:256,1,88,8|0,0:0|0:0,0:0:0:0:
336,308,105056,1,0,0:0:0:0:
224,172,105227,1,0,0:0:0:0:
228,168,105313,1,0,0:0:0:0:
232,164,105399,1,8,0:0:0:0:
408,24,105570,5,0,0:0:0:0:
240,116,105742,1,0,0:0:0:0:
204,320,105913,1,0,0:0:0:0:
112,84,106085,1,8,0:0:0:0:
88,260,106256,1,0,0:0:0:0:
244,180,106427,1,8,0:0:0:0:
68,156,106599,1,0,0:0:0:0:
196,36,106770,1,8,0:0:0:0:
272,196,106942,6,0,L|272:228,1,22
280,208,107027,2,0,L|284:244,1,22
288,220,107113,1,0,0:0:0:0:
360,296,107227,2,0,B|396:320|396:320|428:308,1,58.6666666666667
476,220,107456,5,8,0:0:0:0:
488,176,107542,1,0,0:0:0:0:
476,132,107627,1,0,0:0:0:0:
440,108,107713,1,0,0:0:0:0:
396,108,107799,1,0,0:0:0:0:
356,128,107885,1,0,0:0:0:0:
348,172,107970,1,0,0:0:0:0:
360,212,108056,2,0,L|336:224,1,22
396,240,108142,5,0,0:0:0:0:
440,232,108227,1,0,0:0:0:0:
460,192,108313,1,0,0:0:0:0:
456,148,108399,1,0,0:0:0:0:
420,124,108485,1,0,0:0:0:0:
384,148,108570,1,0,0:0:0:0:
380,192,108656,1,0,0:0:0:0:
424,180,108742,1,0,0:0:0:0:
416,136,108827,2,0,B|404:8|308:-4|204:-8|200:84|152:108|208:164|256:156|292:136|312:92|304:56|244:52|216:40|196:52|188:156|228:184|228:184|212:224|212:224|272:204|272:204|260:256|260:256|308:252|308:252|256:332|256:332|96:332,1,1000.99995417786,0|4,0:0|0:0,0:0:0:0:
0,336,110199,5,8,0:0:0:0:
8,324,110285,1,0,0:0:0:0:
16,316,110370,1,0,0:0:0:0:
164,200,110542,5,8,0:0:0:0:
200,156,110627,1,0,0:0:0:0:
236,112,110713,1,0,0:0:0:0:
280,80,110799,1,0,0:0:0:0:
328,56,110885,2,0,B|440:0|496:28|408:120,1,165.000006294251,8|4,0:0|0:0,0:0:0:0:
408,196,111227,5,8,0:0:0:0:
380,240,111313,1,0,0:0:0:0:
352,284,111399,1,0,0:0:0:0:
308,316,111485,1,0,0:0:0:0:
260,344,111570,2,0,B|160:384|104:360|124:288,1,165.000006294251,8|4,0:0|0:0,0:0:0:0:
96,200,111913,5,8,0:0:0:0:
96,176,111999,1,0,0:0:0:0:
104,152,112085,1,0,0:0:0:0:
112,128,112170,1,0,0:0:0:0:
128,100,112256,1,8,0:0:0:0:
152,64,112342,1,0,0:0:0:0:
188,32,112427,1,0,0:0:0:0:
232,12,112513,1,0,0:0:0:0:
280,8,112599,2,0,B|356:-12|412:36|360:140,1,165.000006294251,8|4,0:0|0:0,0:0:0:0:
192,324,112942,5,8,0:0:0:0:
368,96,113113,1,0,0:0:0:0:
140,244,113285,1,8,0:0:0:0:
420,184,113456,1,0,0:0:0:0:
92,156,113627,5,8,0:0:0:0:
60,120,113713,1,0,0:0:0:0:
44,72,113799,1,0,0:0:0:0:
60,24,113885,1,0,0:0:0:0:
104,0,113970,1,8,0:0:0:0:
152,0,114056,1,0,0:0:0:0:
200,8,114142,1,0,0:0:0:0:
240,40,114227,1,0,0:0:0:0:
264,80,114313,2,8,B|292:140|292:140|232:168|232:168|240:140|240:140|284:172|284:172,1,165.000006294251,8|4,0:0|0:0,0:0:0:0:
368,96,114656,1,8,0:0:0:0:
488,44,114827,1,0,0:0:0:0:
316,76,114999,5,8,0:0:0:0:
344,112,115085,1,0,0:0:0:0:
300,124,115170,1,0,0:0:0:0:
328,164,115256,1,0,0:0:0:0:
284,172,115342,1,8,0:0:0:0:
312,212,115427,1,0,0:0:0:0:
268,220,115513,1,0,0:0:0:0:
292,260,115599,1,0,0:0:0:0:
248,264,115685,2,0,B|152:304|96:292|120:268|148:232,1,165.000006294251,8|4,0:0|0:0,0:0:0:0:
192,128,116027,1,8,0:0:0:0:
108,24,116199,1,0,0:0:0:0:
264,60,116370,6,0,B|276:40|276:40|292:84|292:84|312:40|312:40|328:84|328:84|344:40|344:40|360:84|360:84|376:40|376:40|392:84|392:84|404:40|404:40|412:48,1,330.000012588501,8|12,0:0|0:0,0:0:0:0:
448,284,116885,1,0,0:0:0:0:
480,156,117056,2,0,B|480:44|480:44|412:112,1,165.000006294251,8|0,0:0|0:0,0:0:0:0:
344,152,117399,6,0,L|268:96,1,55,8|0,0:0|0:0,0:0:0:0:
340,228,117570,2,0,L|388:264,1,55
268,256,117742,2,0,L|212:216,1,55,8|0,0:0|0:0,0:0:0:0:
264,328,117913,2,0,L|312:360,1,55
180,336,118085,2,0,P|96:280|88:176,1,165.000006294251,8|4,0:0|0:0,0:0:0:0:
80,56,118427,5,8,0:0:0:0:
432,324,118599,1,0,0:0:0:0:
80,132,118770,1,8,0:0:0:0:
432,248,118942,1,0,0:0:0:0:
432,200,119027,1,0,0:0:0:0:
432,152,119113,1,8,0:0:0:0:
432,104,119199,1,0,0:0:0:0:
432,56,119285,2,0,L|260:152,1,165.000006294251,0|12,0:0|0:0,0:0:0:0:
100,236,119627,5,0,0:0:0:0:
164,32,119799,1,8,0:0:0:0:
28,256,119970,1,0,0:0:0:0:
48,300,120056,1,0,0:0:0:0:
84,332,120142,1,8,0:0:0:0:
216,352,120313,1,0,0:0:0:0:
244,312,120399,1,0,0:0:0:0:
268,268,120485,1,0,0:0:0:0:
256,220,120570,1,0,0:0:0:0:
224,180,120656,2,0,L|308:112,5,82.5000031471254
260,88,121170,6,0,B|408:-24|360:60|348:112,1,165.000006294251,8|4,0:0|0:0,0:0:0:0:
260,232,121513,1,8,0:0:0:0:
172,72,121685,1,0,0:0:0:0:
4,8,121856,2,0,B|-52:120|-48:144|8:96|80:60,1,165.000006294251,8|4,0:0|0:0,0:0:0:0:
160,104,122199,5,8,0:0:0:0:
152,152,122285,1,0,0:0:0:0:
120,188,122370,1,0,0:0:0:0:
88,224,122456,1,0,0:0:0:0:
76,272,122542,2,0,B|96:316|152:296|216:220,1,165.000006294251,8|4,0:0|0:0,0:0:0:0:
260,176,122885,2,0,P|332:160|344:204,1,82.5000031471254,8|0,0:0|0:0,0:0:0:0:
364,280,123056,2,0,P|312:304|264:272,1,82.5000031471254
252,276,123227,2,0,P|220:240|248:200,1,82.5000031471254,8|0,0:0|0:0,0:0:0:0:
368,176,123399,2,0,P|392:216|376:256,1,82.5000031471254
224,340,123570,2,0,P|164:328|136:304,2,82.5000031471254,0|0|6,0:0|0:0|0:0,0:0:0:0:
400,288,123913,5,8,0:0:0:0:
300,72,124085,1,0,0:0:0:0:
208,304,124256,1,8,0:0:0:0:
208,80,124427,1,0,0:0:0:0:
116,72,124599,1,8,0:0:0:0:
104,112,124685,1,0,0:0:0:0:
92,152,124770,1,0,0:0:0:0:
72,328,124942,6,0,B|16:176|40:160|132:248|124:280,1,165.000006294251,8|0,0:0|0:0,0:0:0:0:
132,224,125199,1,0,0:0:0:0:
180,208,125285,1,0,0:0:0:0:
208,168,125370,1,0,0:0:0:0:
228,124,125456,2,0,B|316:76|320:140|340:204,1,165.000006294251,0|8,0:0|0:0,0:0:0:0:
348,232,125713,1,0,0:0:0:0:
356,272,125799,1,0,0:0:0:0:
320,296,125885,1,0,0:0:0:0:
288,320,125970,1,0,0:0:0:0:
124,212,126142,5,0,0:0:0:0:
156,184,126227,1,0,0:0:0:0:
188,160,126313,1,8,0:0:0:0:
224,136,126399,1,0,0:0:0:0:
260,152,126485,1,0,0:0:0:0:
296,172,126570,1,0,0:0:0:0:
336,184,126656,2,0,B|412:128|412:128|348:56,1,165.000006294251,8|4,0:0|0:0,0:0:0:0:
228,72,126999,2,0,B|152:132|152:132|216:228,1,165.000006294251,8|4,0:0|0:0,0:0:0:0:
268,284,127342,1,8,0:0:0:0:
252,248,127427,1,0,0:0:0:0:
260,208,127513,1,0,0:0:0:0:
268,168,127599,1,0,0:0:0:0:
260,128,127685,1,8,0:0:0:0:
240,92,127770,1,0,0:0:0:0:
208,64,127856,1,0,0:0:0:0:
172,80,127942,1,0,0:0:0:0:
144,120,128027,6,0,B|160:248|204:292|220:192,1,165.000006294251,8|4,0:0|0:0,0:0:0:0:
296,120,128370,2,0,B|392:40|432:56|436:92,1,165.000006294251,8|0,0:0|0:0,0:0:0:0:
432,100,128627,1,0,0:0:0:0:
428,116,128713,1,0,0:0:0:0:
424,132,128799,1,0,0:0:0:0:
420,148,128885,2,0,P|324:224|264:192,1,165.000006294251,0|8,0:0|0:0,0:0:0:0:
264,204,129142,1,0,0:0:0:0:
240,184,129227,1,0,0:0:0:0:
228,152,129313,1,0,0:0:0:0:
224,120,129399,6,0,B|272:56|328:12|340:68|328:84,1,165.000006294251,0|4,0:0|0:0,0:0:0:0:
316,264,129742,1,8,0:0:0:0:
176,124,129913,1,0,0:0:0:0:
208,320,130085,1,0,0:0:0:0:
12,328,130256,1,0,0:0:0:0:
92,208,130427,5,8,0:0:0:0:
144,196,130513,1,0,0:0:0:0:
196,208,130599,1,0,0:0:0:0:
232,248,130685,1,0,0:0:0:0:
256,296,130770,2,0,P|180:244|240:124,1,230.99999295044
196,156,131370,5,0,0:0:0:0:
164,184,131456,1,0,0:0:0:0:
128,216,131542,1,0,0:0:0:0:
92,248,131627,1,0,0:0:0:0:
128,284,131713,1,0,0:0:0:0:
168,316,131799,1,0,0:0:0:0:
208,348,131885,1,0,0:0:0:0:
244,308,131970,1,0,0:0:0:0:
276,268,132056,1,0,0:0:0:0:
304,224,132142,6,0,L|256:184,1,55
156,64,132485,2,0,P|240:72|304:136,1,165.000006294251,8|0,0:0|0:0,0:0:0:0:
268,304,132827,2,0,P|144:280|120:212,1,165.000006294251
104,212,133085,1,0,0:0:0:0:
84,168,133170,2,0,B|156:96|156:96|292:84,1,165.000006294251,8|0,0:0|0:0,0:0:0:0:
396,40,133513,6,0,L|452:88,1,65.9999979858399
396,100,133685,2,0,L|452:148,1,65.9999979858399
396,156,133856,2,0,L|452:200,1,65.9999979858399,8|0,0:0|0:0,0:0:0:0:
396,212,134027,2,0,L|448:252,1,65.9999979858399
408,316,134199,5,0,0:0:0:0:
296,52,134370,1,0,0:0:0:0:
88,252,134542,1,8,0:0:0:0:
384,328,134713,1,0,0:0:0:0:
304,104,134885,1,0,0:0:0:0:
140,168,135056,1,0,0:0:0:0:
212,336,135227,1,8,0:0:0:0:
376,280,135399,1,0,0:0:0:0:
340,80,135570,1,0,0:0:0:0:
144,276,135742,1,0,0:0:0:0:
180,44,135913,1,8,0:0:0:0:
256,272,136085,1,0,0:0:0:0:
96,136,136256,6,0,P|164:68|252:72,1,165.000006294251
232,216,136599,2,0,P|340:208|360:152,1,165.000006294251,8|4,0:0|0:0,0:0:0:0:
364,32,136942,5,0,0:0:0:0:
364,76,137027,1,0,0:0:0:0:
364,120,137113,1,0,0:0:0:0:
364,164,137199,1,0,0:0:0:0:
364,208,137285,1,8,0:0:0:0:
364,252,137370,1,0,0:0:0:0:
364,296,137456,1,0,0:0:0:0:
364,340,137542,1,0,0:0:0:0:
364,384,137627,2,0,B|332:300|324:276|300:232|260:296|232:292,1,165
236,312,137970,2,0,B|200:380|120:224|136:200,1,165,8|0,0:0|0:0,0:0:0:0:
120,193,138313,5,8,0:0:0:0:
64,52,138485,1,0,0:0:0:0:
120,188,138656,1,8,0:0:0:0:
272,112,138827,1,8,0:0:0:0:
416,44,138999,1,0,0:0:0:0:
420,48,139170,1,8,0:0:0:0:
448,216,139342,1,0,0:0:0:0:
400,44,139513,1,8,0:0:0:0:
332,200,139685,1,0,0:0:0:0:
268,28,139856,1,8,0:0:0:0:
88,8,140027,2,0,P|36:32|16:80,1,110,0|12,0:0|0:0,0:0:0:0:
16,264,140370,6,0,B|28:331|100:299|136:172,1,165,8|0,0:0|0:0,0:0:0:0:
128,204,140713,2,0,B|182:165|138:41|202:93,1,165,8|0,0:0|0:0,0:0:0:0:
208,104,141056,2,0,B|138:90|186:162|299:140,1,165
304,140,141399,2,0,B|348:256|308:288|244:184,1,165,8|0,0:0|0:0,0:0:0:0:
260,208,141742,2,0,B|220:148|204:168|180:288,1,165
176,292,142085,2,0,B|108:288|76:208|60:160|132:228,1,165,8|0,0:0|0:0,0:0:0:0:
152,240,142427,1,0,0:0:0:0:
200,272,142513,1,0,0:0:0:0:
252,284,142599,1,0,0:0:0:0:
308,268,142685,1,0,0:0:0:0:
344,228,142770,1,0,0:0:0:0:
360,176,142856,1,0,0:0:0:0:
348,124,142942,1,0,0:0:0:0:
316,76,143027,1,0,0:0:0:0:
264,52,143113,6,0,P|196:56|136:148,1,131.99999597168,8|0,0:0|0:0,0:0:0:0:
72,132,143456,2,0,L|172:232,1,131.99999597168,8|0,0:0|0:0,0:0:0:0:
76,240,143799,2,0,L|168:336,1,131.99999597168,8|0,0:0|0:0,0:0:0:0:
240,120,144142,2,0,L|240:264,1,131.99999597168,8|0,0:0|0:0,0:0:0:0:
420,136,144485,2,0,L|300:236,1,131.99999597168,8|0,0:0|0:0,0:0:0:0:
424,232,144827,2,0,L|300:336,2,131.99999597168,8|0|8,0:0|0:0|0:0,0:0:0:0:
436,208,145256,1,2,0:0:0:0:
296,236,145513,2,0,P|280:300|192:312,1,131.99999597168,8|4,0:0|0:0,0:0:0:0:
72,280,145856,6,0,P|24:196|116:112,1,197.99999395752,8|0,0:0|0:0,0:0:0:0:
124,96,146199,2,0,P|200:104|208:180,3,131.99999597168,8|0|0|0,0:0|0:0|0:0|0:0,0:0:0:0:
172,300,146885,1,8,0:0:0:0:
217,148,147056,1,0,0:0:0:0:
241,108,147142,1,0,0:0:0:0:
237,64,147227,2,0,B|264:24|304:20|400:132,1,197.99999395752
424,168,147570,2,0,B|440:268|376:276|352:248,1,131.99999597168,8|0,0:0|0:0,0:0:0:0:
216,152,147913,1,0,0:0:0:0:
108,304,148085,5,0,0:0:0:0:
144,268,148170,1,0,0:0:0:0:
168,220,148256,1,0,0:0:0:0:
164,168,148342,1,0,0:0:0:0:
144,120,148427,1,0,0:0:0:0:
104,84,148513,1,0,0:0:0:0:
56,64,148599,2,0,B|64:100|64:100|100:80|100:80|96:120|96:120|136:100|136:100|140:140|140:140|172:124|172:124|172:160|172:160|208:140,1,263.99999194336,0|12,0:0|0:0,0:0:0:0:
200,148,149113,1,0,0:0:0:0:
204,144,149199,1,0,0:0:0:0:
208,140,149285,5,0,0:0:0:0:
440,72,149456,1,0,0:0:0:0:
312,272,149627,1,8,0:0:0:0:
256,40,149799,1,0,0:0:0:0:
456,164,149970,1,0,0:0:0:0:
224,220,150142,1,0,0:0:0:0:
360,24,150313,1,8,0:0:0:0:
416,256,150485,1,0,0:0:0:0:
216,128,150656,1,0,0:0:0:0:
452,92,150827,1,0,0:0:0:0:
464,124,150913,1,0,0:0:0:0:
472,156,150999,6,0,P|448:236|360:256,1,175.999994628906,8|4,0:0|0:0,0:0:0:0:
256,192,151342,5,8,0:0:0:0:
264,152,151427,1,0,0:0:0:0:
300,128,151513,1,0,0:0:0:0:
344,148,151599,1,0,0:0:0:0:
364,192,151685,1,0,0:0:0:0:
344,244,151770,1,0,0:0:0:0:
296,272,151856,1,0,0:0:0:0:
232,272,151942,1,0,0:0:0:0:
184,240,152027,1,0,0:0:0:0:
152,188,152113,1,0,0:0:0:0:
148,128,152199,1,0,0:0:0:0:
168,80,152285,1,0,0:0:0:0:
212,40,152370,1,0,0:0:0:0:
264,28,152456,1,0,0:0:0:0:
312,32,152542,1,0,0:0:0:0:
360,56,152627,1,0,0:0:0:0:
400,92,152713,6,0,L|468:232,1,131.99999597168,8|4,0:0|0:0,0:0:0:0:
252,332,153056,1,0,0:0:0:0:
52,48,153227,1,0,0:0:0:0:
448,48,153399,1,2,0:0:0:0:
168,328,153570,1,0,0:0:0:0:
144,304,153656,1,0,0:0:0:0:
124,280,153742,1,0,0:0:0:0:
300,44,153913,1,0,0:0:0:0:
320,72,153999,1,0,0:0:0:0:
340,96,154085,1,8,0:0:0:0:
372,256,154256,5,0,0:0:0:0:
220,300,154427,1,0,0:0:0:0:
96,200,154599,2,0,L|40:236,1,65.9999979858399
12,252,154770,1,0,0:0:0:0:
172,148,154942,1,0,0:0:0:0:
192,48,155113,1,0,0:0:0:0:
336,204,155285,1,0,0:0:0:0:
380,80,155456,6,0,B|508:168|476:228|428:232,1,197.99999395752,8|0,0:0|0:0,0:0:0:0:
416,248,155799,1,0,0:0:0:0:
268,320,155970,2,0,L|184:296,1,65.9999979858399
176,304,156142,2,0,P|100:264|104:212,1,131.99999597168
104,200,156399,1,0,0:0:0:0:
120,180,156485,2,0,B|172:160|164:108|88:116|140:60,1,131.99999597168
256,28,156827,5,8,0:0:0:0:
420,240,156999,1,0,0:0:0:0:
256,284,157170,1,0,0:0:0:0:
88,244,157342,1,0,0:0:0:0:
88,272,157427,1,0,0:0:0:0:
88,300,157513,2,0,P|132:364|200:364,1,131.99999597168,8|0,0:0|0:0,0:0:0:0:
204,360,157770,1,0,0:0:0:0:
224,344,157856,2,0,B|224:280|284:296|344:308|296:216,1,131.99999597168
416,96,158199,6,0,L|336:40,1,76.9999976501466,8|0,0:0|0:0,0:0:0:0:
132,280,158542,2,0,L|216:332,1,76.9999976501466,8|4,0:0|0:0,0:0:0:0:
352,216,158885,1,0,0:0:0:0:
313,213,158970,1,0,0:0:0:0:
277,202,159056,1,0,0:0:0:0:
243,183,159142,1,0,0:0:0:0:
213,159,159227,1,0,0:0:0:0:
184,133,159313,1,0,0:0:0:0:
168,139,159399,1,0,0:0:0:0:
160,160,159485,1,0,0:0:0:0:
160,188,159570,6,0,P|68:196|48:216,1,115.49999647522,8|0,0:0|0:0,0:0:0:0:
116,256,159913,2,0,L|116:104,1,115.49999647522
116,64,160256,1,0,0:0:0:0:
232,164,160427,1,0,0:0:0:0:
376,60,160599,1,0,0:0:0:0:
484,172,160770,1,0,0:0:0:0:
316,96,160942,6,0,L|432:172,1,115.49999647522,8|0,0:0|0:0,0:0:0:0:
384,219,161285,2,0,L|280:151,1,115.49999647522
276,160,161627,1,8,0:0:0:0:
144,208,161799,1,0,0:0:0:0:
252,96,161970,1,0,0:0:0:0:
300,96,162056,1,0,0:0:0:0:
340,120,162142,1,0,0:0:0:0:
360,160,162227,1,0,0:0:0:0:
364,208,162313,6,0,L|364:312,1,76.9999976501466,8|0,0:0|0:0,0:0:0:0:
240,376,162656,2,0,B|184:396|216:312|248:292|184:272,1,115.49999647522
212,276,162999,1,8,0:0:0:0:
140,144,163170,1,0,0:0:0:0:
132,128,163256,1,0,0:0:0:0:
124,112,163342,2,0,B|172:92|172:92|212:104,1,76.9999976501466
288,240,163685,5,8,0:0:0:0:
68,176,163856,1,0,0:0:0:0:
308,172,164027,1,0,0:0:0:0:
96,112,164199,1,0,0:0:0:0:
248,64,164370,2,2,B|208:116|248:116|304:116|304:116|256:148|256:148|304:168|304:168|272:192,1,230.99999295044,2|6,0:0|0:0,0:0:0:0:
428,232,165056,2,0,B|456:276|396:280|440:308,1,76.9999976501466,8|0,0:0|0:0,0:0:0:0:
360,248,165399,1,0,0:0:0:0:
232,308,165570,2,0,L|180:264,2,38.4999988250733,0|0|8,0:0|0:0|0:0,0:0:0:0:
64,312,165913,1,0,0:0:0:0:
124,192,166085,5,0,0:0:0:0:
140,168,166170,1,0,0:0:0:0:
148,140,166256,1,0,0:0:0:0:
140,112,166342,1,0,0:0:0:0:
124,88,166427,2,0,L|64:32,1,76.9999976501466,8|0,0:0|0:0,0:0:0:0:
296,24,166770,2,0,L|352:84,1,76.9999976501466
348,96,167027,1,0,0:0:0:0:
348,112,167113,1,8,0:0:0:0:
352,268,167285,1,0,0:0:0:0:
348,188,167456,2,0,L|276:216,1,55,0|4,0:0|0:0,0:0:0:0:
56,244,167799,6,0,P|60:188|136:136,1,153.999995300293,8|0,0:0|0:0,0:0:0:0:
136,220,168313,1,0,0:0:0:0:
276,128,168485,2,0,L|364:96,1,76.9999976501466,8|0,0:0|0:0,0:0:0:0:
376,116,168742,1,0,0:0:0:0:
404,128,168827,2,0,L|504:104,1,76.9999976501466
360,0,169170,1,8,0:0:0:0:
176,132,169342,1,0,0:0:0:0:
244,44,169513,1,0,0:0:0:0:
168,252,169685,1,0,0:0:0:0:
340,292,169856,5,8,0:0:0:0:
376,280,169941,1,0,0:0:0:0:
412,264,170027,1,0,0:0:0:0:
444,240,170113,1,0,0:0:0:0:
468,208,170198,1,0,0:0:0:0:
484,172,170284,1,0,0:0:0:0:
492,136,170370,1,0,0:0:0:0:
492,96,170456,1,0,0:0:0:0:
492,56,170542,1,12,0:0:0:0:
372,4,170713,5,0,0:0:0:0:
220,32,170885,1,0,0:0:0:0:
316,152,171056,1,0,0:0:0:0:
156,224,171227,2,0,L|192:248,1,38.4999988250733,8|0,0:0|0:0,0:0:0:0:
212,344,171399,2,0,L|152:304,1,38.4999988250733
116,368,171570,2,0,L|32:300,1,76.9999976501466
20,188,171913,2,0,L|112:128,1,76.9999976501466,8|0,0:0|0:0,0:0:0:0:
200,36,172256,2,0,L|272:116,1,76.9999976501466
256,124,172513,1,0,0:0:0:0:
260,152,172599,6,0,L|316:148,1,38.4999988250733,8|0,0:0|0:0,0:0:0:0:
192,220,172770,2,0,L|132:216,1,38.4999988250733
192,148,172942,2,0,L|188:88,1,38.4999988250733
264,224,173113,2,0,L|268:288,1,38.4999988250733
168,224,173285,6,0,B|188:264|188:264|152:320,1,76.9999976501466,8|0,0:0|0:0,0:0:0:0:
348,184,173627,2,0,B|316:140|316:140|344:96,1,76.9999976501466
248,156,173970,2,0,L|244:244,1,76.9999976501466,8|0,0:0|0:0,0:0:0:0:
248,268,174227,1,0,0:0:0:0:
252,296,174313,2,0,B|196:296|196:296|184:256,1,76.9999976501466,0|4,0:0|0:0,0:0:0:0:
184,24,174656,2,8,B|184:260|304:244|384:192|384:192|336:308|336:308|408:260|408:260|404:344|404:344|512:264,1,770,8|4,0:0|0:0,0:0:0:0:
264,144,176027,6,0,B|292:136|340:4|340:4|376:80|472:80|472:80|388:184|392:232,1,461.999985900879
80,208,177399,2,0,B|88:256|44:336|44:336|128:284|184:376|184:376|184:272|244:212,1,461.999985900879
72,184,178770,5,0,0:0:0:0:
93,152,178855,1,0,0:0:0:0:
115,120,178941,1,0,0:0:0:0:
123,96,179027,1,0,0:0:0:0:
84,96,179112,1,0,0:0:0:0:
46,94,179198,1,0,0:0:0:0:
27,61,179284,1,0,0:0:0:0:
8,27,179370,1,0,0:0:0:0:
46,27,179455,5,0,0:0:0:0:
85,26,179541,1,0,0:0:0:0:
123,25,179627,1,0,0:0:0:0:
162,24,179712,1,0,0:0:0:0:
200,24,179798,1,0,0:0:0:0:
224,50,179884,1,0,0:0:0:0:
245,82,179970,1,0,0:0:0:0:
267,114,180055,1,0,0:0:0:0:
296,144,180142,6,0,B|368:156|404:124|404:124|376:224|480:228|504:216,1,269.499991775513
452,332,180827,2,0,B|340:372|328:296|328:296|220:308|212:228,1,269.499991775513
180,212,181513,2,0,B|152:164|128:172|128:172|92:140,1,115.49999647522,4|0,0:0|0:0,0:0:0:0:
16,164,181856,6,0,L|72:212,1,38.4999988250733
32,256,182027,2,0,L|-16:312,1,38.4999988250733
60,332,182199,2,0,L|108:372,1,38.4999988250733
152,280,182370,2,0,L|96:236,1,38.4999988250733
180,176,182542,2,0,L|236:220,1,38.4999988250733
272,120,182713,2,0,L|216:76,1,38.4999988250733
352,56,182885,5,2,0:0:0:0:
375,86,182970,1,0,0:0:0:0:
392,120,183056,1,0,0:0:0:0:
401,158,183142,1,0,0:0:0:0:
401,196,183227,1,0,0:0:0:0:
393,234,183313,1,0,0:0:0:0:
377,269,183399,1,0,0:0:0:0:
354,300,183485,1,0,0:0:0:0:
325,325,183570,5,0,0:0:0:0:
291,343,183656,1,0,0:0:0:0:
254,353,183742,1,2,0:0:0:0:
216,356,183827,1,0,0:0:0:0:
178,349,183913,1,0,0:0:0:0:
142,335,183999,1,0,0:0:0:0:
111,314,184085,1,0,0:0:0:0:
84,286,184170,1,0,0:0:0:0:
60,252,184256,6,0,L|100:200,6,38.4999988250733,2|0|0|0|0|0|0,0:0|0:0|0:0|0:0|0:0|0:0|0:0,0:0:0:0:
128,204,184856,1,0,0:0:0:0:
176,200,184942,2,0,L|244:212,7,38.4999988250733
256,184,185627,2,0,B|300:136|296:64|296:64|352:100|408:72|408:72|356:160|424:280,1,461.999985900879,2|4,0:0|0:0,0:0:0:0:
312,360,186999,2,0,B|272:284|272:284|216:304|152:212,1,230.99999295044
200,24,187685,2,0,B|240:100|240:100|296:80|360:172,1,230.99999295044
396,208,188370,5,0,0:0:0:0:
419,238,188455,1,0,0:0:0:0:
448,263,188541,1,0,0:0:0:0:
483,278,188627,1,0,0:0:0:0:
472,290,188712,1,0,0:0:0:0:
435,301,188798,1,0,0:0:0:0:
397,308,188884,1,0,0:0:0:0:
359,312,188970,1,0,0:0:0:0:
320,312,189055,5,0,0:0:0:0:
282,310,189141,1,0,0:0:0:0:
244,304,189227,1,0,0:0:0:0:
206,295,189312,1,0,0:0:0:0:
170,281,189398,1,0,0:0:0:0:
137,263,189484,1,0,0:0:0:0:
107,239,189570,1,0,0:0:0:0:
82,209,189655,1,0,0:0:0:0:
72,188,189742,6,0,L|64:132,7,38.4999988250733,2|0|0|0|0|0|0|0,0:0|0:0|0:0|0:0|0:0|0:0|0:0|0:0,0:0:0:0:
68,116,190427,2,0,L|92:76,7,38.4999988250733,2|0|0|0|0|0|0|0,0:0|0:0|0:0|0:0|0:0|0:0|0:0|0:0,0:0:0:0:
112,60,191113,6,0,L|152:32,1,38.4999988250733,2|0,0:0|0:0,0:0:0:0:
176,36,191285,2,0,L|240:56,1,38.4999988250733
240,68,191456,2,0,L|296:92,1,38.4999988250733
296,112,191627,2,0,L|356:140,1,38.4999988250733
252,152,191799,2,0,L|292:212,1,38.4999988250733
192,164,191970,2,0,L|192:228,1,38.4999988250733
128,152,192142,2,0,L|116:224,1,38.4999988250733
64,140,192313,2,0,L|44:196,1,38.4999988250733
72,200,192485,5,2,0:0:0:0:
105,218,192570,1,0,0:0:0:0:
132,245,192656,1,0,0:0:0:0:
152,278,192742,1,0,0:0:0:0:
165,285,192827,1,0,0:0:0:0:
182,250,192913,1,0,0:0:0:0:
207,221,192999,1,0,0:0:0:0:
238,199,193085,1,0,0:0:0:0:
273,182,193170,5,0,0:0:0:0:
304,159,193256,1,0,0:0:0:0:
328,130,193342,1,0,0:0:0:0:
346,96,193427,1,0,0:0:0:0:
360,83,193513,1,0,0:0:0:0:
376,118,193599,1,0,0:0:0:0:
395,152,193685,1,0,0:0:0:0:
418,182,193770,1,0,0:0:0:0:
406,204,193856,5,2,0:0:0:0:
382,234,193942,1,0,0:0:0:0:
367,269,194027,1,0,0:0:0:0:
356,285,194113,1,0,0:0:0:0:
340,250,194199,1,0,0:0:0:0:
316,220,194285,1,0,0:0:0:0:
283,200,194370,1,0,0:0:0:0:
247,188,194456,5,0,0:0:0:0:
215,167,194542,1,0,0:0:0:0:
188,139,194627,1,0,0:0:0:0:
169,106,194713,1,2,0:0:0:0:
156,70,194799,1,0,0:0:0:0:
143,102,194885,1,0,0:0:0:0:
121,133,194970,1,0,0:0:0:0:
85,143,195056,1,0,0:0:0:0:
48,132,195142,1,0,0:0:0:0:
24,100,195227,6,0,P|68:28|136:32,1,153.999995300293
100,96,195742,2,0,B|112:144|112:144|184:128|196:212,1,153.999995300293
128,212,196256,2,0,B|136:256|192:280|248:260|252:212,1,153.999995300293,0|4,0:0|0:0,0:0:0:0:
256,192,196770,12,0,198484,0:0:0:0:
120,164,198656,5,8,0:0:0:0:
392,52,198827,1,8,0:0:0:0:
348,128,198999,2,0,L|384:152,1,27.5
324,156,199085,2,0,L|360:184,1,27.5
300,184,199170,2,0,L|332:204,1,27.5
280,212,199256,2,0,L|316:236,1,27.5
224,252,199342,6,0,L|304:316,1,76.9999976501466,12|0,0:0|0:0,0:0:0:0:
224,168,199685,2,0,L|308:236,1,76.9999976501466
228,84,200027,2,0,L|308:152,1,76.9999976501466
228,0,200370,2,0,L|308:64,1,76.9999976501466
156,48,200713,6,0,L|232:-8,1,76.9999976501466,8|0,0:0|0:0,0:0:0:0:
160,132,201056,2,0,L|240:68,1,76.9999976501466
164,216,201399,2,0,L|248:148,1,76.9999976501466
168,300,201742,2,0,L|248:232,1,76.9999976501466
292,192,202085,5,8,0:0:0:0:
356,136,202256,1,0,0:0:0:0:
160,16,202427,1,0,0:0:0:0:
100,72,202599,1,0,0:0:0:0:
120,156,202770,2,0,B|148:208|148:208|188:208,1,76.9999976501466,8|0,0:0|0:0,0:0:0:0:
100,72,203113,2,0,B|56:100|56:100|32:168,1,115.49999647522
56,200,203456,2,0,B|112:296|112:296|184:296,1,153.999995300293,8|0,0:0|0:0,0:0:0:0:
296,296,203970,1,0,0:0:0:0:
324,136,204142,2,0,L|444:220,2,115.49999647522,8|8|4,0:0|0:0|0:0,0:0:0:0:
444,136,204827,6,0,L|528:192,1,76.9999976501466,8|0,0:0|0:0,0:0:0:0:
304,52,205170,1,10,0:0:0:0:
304,288,205342,1,0,0:0:0:0:
416,184,205513,2,0,L|332:128,1,76.9999976501466,8|0,0:0|0:0,0:0:0:0:
112,92,205856,1,8,0:0:0:0:
112,92,206027,1,8,0:0:0:0:
100,328,206199,1,2,0:0:0:0:
256,96,206370,1,8,0:0:0:0:
28,220,206542,5,0,0:0:0:0:
28,220,206713,1,8,0:0:0:0:
176,224,206885,1,0,0:0:0:0:
324,240,207056,1,8,0:0:0:0:
460,280,207227,1,0,0:0:0:0:
424,168,207399,2,8,L|460:148,1,38.4999988250733,8|0,0:0|0:0,0:0:0:0:
356,72,207570,2,0,B|324:48|304:12|304:12|248:40,1,115.49999647522,8|0,0:0|0:0,0:0:0:0:
208,88,207913,2,0,B|168:168|168:168|116:168,1,115.49999647522
288,148,208256,2,0,B|328:216|328:216|392:216,1,115.49999647522
264,268,208599,2,0,B|204:268|204:268|152:332,1,115.49999647522
169,311,208942,5,4,0:0:0:0:
256,192,209027,12,4,210141,0:0:0:0:
136,56,210313,6,0,L|76:136,1,76.9999976501466,8|0,0:0|0:0,0:0:0:0:
368,304,210656,2,0,L|436:220,1,76.9999976501466,8|0,0:0|0:0,0:0:0:0:
180,96,210999,2,0,L|120:172,1,76.9999976501466,8|0,0:0|0:0,0:0:0:0:
332,260,211342,2,0,L|392:184,1,76.9999976501466,8|0,0:0|0:0,0:0:0:0:
188,192,211685,6,0,B|248:108|248:108|212:56,1,153.999995300293,8|0,0:0|0:0,0:0:0:0:
336,12,212199,2,0,L|364:52,1,38.4999988250733
432,148,212370,1,0,0:0:0:0:
308,220,212542,2,0,L|344:260,1,38.4999988250733
424,348,212713,1,0,0:0:0:0:
152,280,212885,1,0,0:0:0:0:
216,128,213056,6,0,B|264:72|264:72|312:96,2,115.49999647522,8|0|0,0:0|0:0|0:0,0:0:0:0:
384,144,213742,1,0,0:0:0:0:
236,184,213913,1,0,0:0:0:0:
168,308,214085,1,8,0:0:0:0:
240,184,214256,1,0,0:0:0:0:
128,72,214427,1,8,0:0:0:0:
128,72,214599,6,0,L|96:120,1,38.4999988250733
24,216,214770,1,0,0:0:0:0:
180,240,214942,1,0,0:0:0:0:
312,264,215113,2,0,B|372:240|372:240|368:192,1,76.9999976501466,8|0,0:0|0:0,0:0:0:0:
316,40,215456,2,0,L|348:56,7,19.2499994125366
408,32,215799,6,8,B|452:48|452:48|472:104,1,76.9999976501466
304,152,216142,2,8,B|292:216|292:216|328:236,1,76.9999976501466
300,236,216399,1,0,0:0:0:0:
296,248,216485,1,8,0:0:0:0:
76,264,216656,1,8,0:0:0:0:
400,120,216827,1,0,0:0:0:0:
340,340,216999,6,0,L|380:388,1,38.4999988250733,8|0,0:0|0:0,0:0:0:0:
140,88,217170,1,0,0:0:0:0:
148,336,217342,1,8,0:0:0:0:
392,148,217513,1,0,0:0:0:0:
84,112,217685,1,8,0:0:0:0:
264,356,217856,1,0,0:0:0:0:
408,80,218027,2,0,L|392:16,1,38.4999988250733,8|0,0:0|0:0,0:0:0:0:
420,128,218199,1,0,0:0:0:0:
476,360,218313,1,8,0:0:0:0:
88,276,218427,1,8,0:0:0:0:
398,42,218542,5,0,0:0:0:0:
456,52,218627,1,0,0:0:0:0:
492,100,218713,1,0,0:0:0:0:
488,156,218799,1,0,0:0:0:0:
456,204,218885,1,0,0:0:0:0:
404,228,218970,1,0,0:0:0:0:
348,228,219056,1,0,0:0:0:0:
304,192,219142,2,0,L|280:200,1,19.2499994125366
304,136,219227,1,0,0:0:0:0:
352,100,219313,1,0,0:0:0:0:
396,140,219399,1,0,0:0:0:0:
392,196,219485,1,0,0:0:0:0:
352,236,219570,1,0,0:0:0:0:
296,244,219656,1,0,0:0:0:0:
248,216,219742,1,0,0:0:0:0:
216,168,219827,1,0,0:0:0:0:
192,124,219913,6,2,L|176:92,1,32.99999899292
72,264,220085,2,2,L|96:312,1,32.99999899292
184,144,220256,1,8,0:0:0:0:
360,64,220427,2,0,B|304:96|304:96|412:88|348:200|348:200|396:200|396:200|340:272|284:200,1,395.999987915039,8|4,0:0|0:0,0:0:0:0:
168,272,221285,6,0,B|64:156|112:140|152:144|188:192,1,165.000006294251,8|4,0:0|0:0,0:0:0:0:
316,232,221627,2,0,B|412:280|436:256|480:200|372:180,1,165.000006294251,8|4,0:0|0:0,0:0:0:0:
204,80,221970,1,8,0:0:0:0:
204,320,222142,1,0,0:0:0:0:
400,188,222313,5,8,0:0:0:0:
388,132,222399,1,0,0:0:0:0:
356,80,222485,1,0,0:0:0:0:
312,40,222570,1,0,0:0:0:0:
260,20,222656,2,0,B|148:-28|92:-16|136:88,1,165.000006294251,8|4,0:0|0:0,0:0:0:0:
76,284,222999,5,8,0:0:0:0:
100,236,223085,1,0,0:0:0:0:
136,196,223170,1,0,0:0:0:0:
184,168,223256,1,0,0:0:0:0:
236,148,223342,2,0,B|344:116|344:116|272:112,1,165.000006294251,8|4,0:0|0:0,0:0:0:0:
144,104,223685,5,8,0:0:0:0:
196,96,223770,1,0,0:0:0:0:
248,72,223856,1,0,0:0:0:0:
292,32,223942,1,0,0:0:0:0:
348,4,224027,2,0,B|296:100|320:144|376:184,1,165.000006294251,8|4,0:0|0:0,0:0:0:0:
440,96,224370,1,8,0:0:0:0:
256,96,224542,1,0,0:0:0:0:
104,40,224713,2,8,B|-4:80|32:148|84:116|116:116|136:176|132:176|40:208|8:216|112:284|160:272,1,330.000012588501,8|12,0:0|0:0,0:0:0:0:
256,304,225227,1,0,0:0:0:0:
280,184,225399,2,0,B|256:64|292:32|336:40|364:124,1,165.000006294251,8|4,0:0|0:0,0:0:0:0:
380,204,225742,5,8,0:0:0:0:
324,216,225827,1,0,0:0:0:0:
268,216,225913,1,0,0:0:0:0:
220,192,225999,1,0,0:0:0:0:
184,152,226085,2,0,L|144:92,4,55,8|0|0|0|8,0:0|0:0|0:0|0:0|0:0,0:0:0:0:
176,156,226513,1,0,0:0:0:0:
168,160,226599,1,0,0:0:0:0:
56,304,226770,5,8,0:0:0:0:
424,116,226942,1,0,0:0:0:0:
292,344,227113,1,8,0:0:0:0:
288,28,227285,1,0,0:0:0:0:
180,168,227456,2,0,B|140:224|192:256|336:160,1,165.000006294251,8|4,0:0|0:0,0:0:0:0:
456,40,227799,1,8,0:0:0:0:
184,100,227970,1,0,0:0:0:0:
352,48,228142,6,0,B|416:12|436:68|320:160,1,165.000006294251,8|4,0:0|0:0,0:0:0:0:
160,252,228485,1,8,0:0:0:0:
156,256,228570,1,0,0:0:0:0:
152,260,228656,1,0,0:0:0:0:
148,264,228742,1,0,0:0:0:0:
144,268,228827,6,0,B|60:204|200:200|260:296,1,165.000006294251,8|4,0:0|0:0,0:0:0:0:
360,328,229170,1,8,0:0:0:0:
364,320,229256,1,0,0:0:0:0:
368,312,229342,1,0,0:0:0:0:
420,176,229513,2,0,B|476:68|464:40|384:88,1,165.000006294251,8|0,0:0|0:0,0:0:0:0:
180,192,229856,2,0,B|100:256|44:252|52:148,1,165.000006294251,8|0,0:0|0:0,0:0:0:0:
48,136,230113,1,0,0:0:0:0:
52,84,230199,2,0,B|132:4|208:40|152:80,1,165.000006294251,8|4,0:0|0:0,0:0:0:0:
64,288,230542,1,8,0:0:0:0:
64,48,230713,1,0,0:0:0:0:
356,52,230885,6,0,B|240:76|240:76|296:44,1,165.000006294251,8|0,0:0|0:0,0:0:0:0:
320,48,231227,1,8,0:0:0:0:
352,64,231313,1,0,0:0:0:0:
384,96,231399,1,0,0:0:0:0:
400,148,231485,1,0,0:0:0:0:
396,204,231570,2,0,L|380:280,3,55
380,264,231913,1,0,0:0:0:0:
376,272,231999,1,0,0:0:0:0:
372,276,232085,1,0,0:0:0:0:
368,280,232170,1,0,0:0:0:0:
364,284,232256,6,0,B|240:252|232:212|220:184|292:176,1,165.000006294251,12|4,0:0|0:0,0:0:0:0:
336,108,232599,1,8,0:0:0:0:
240,288,232770,1,0,0:0:0:0:
336,108,232942,2,0,B|388:56|432:144|408:208,1,165.000006294251,8|0,0:0|0:0,0:0:0:0:
428,244,233199,1,0,0:0:0:0:
384,244,233285,1,8,0:0:0:0:
404,288,233370,1,0,0:0:0:0:
360,288,233456,1,0,0:0:0:0:
380,332,233542,1,0,0:0:0:0:
336,332,233627,1,8,0:0:0:0:
188,332,233799,1,0,0:0:0:0:
124,212,233970,5,8,0:0:0:0:
160,180,234056,1,0,0:0:0:0:
208,168,234142,1,0,0:0:0:0:
248,196,234227,1,0,0:0:0:0:
280,232,234313,2,0,P|396:256|432:200,2,165.000006294251,8|0|8,0:0|0:0|0:0,0:0:0:0:
276,228,234742,1,0,0:0:0:0:
272,224,234827,5,0,0:0:0:0:
144,24,234999,1,8,0:0:0:0:
436,96,235170,1,0,0:0:0:0:
84,224,235342,1,8,0:0:0:0:
496,336,235513,1,0,0:0:0:0:
404,24,235685,1,8,0:0:0:0:
376,72,235770,1,0,0:0:0:0:
348,120,235856,1,0,0:0:0:0:
320,168,235942,1,0,0:0:0:0:
292,216,236027,5,8,0:0:0:0:
184,348,236199,1,0,0:0:0:0:
104,216,236370,2,0,B|32:108|56:72|160:64,1,165.000006294251,8|4,0:0|0:0,0:0:0:0:
284,32,236713,1,8,0:0:0:0:
336,44,236799,1,0,0:0:0:0:
376,76,236885,1,0,0:0:0:0:
400,124,236970,1,0,0:0:0:0:
408,176,237056,2,0,L|400:280,3,82.5000031471254,8|0|0|0,0:0|0:0|0:0|0:0,0:0:0:0:
396,256,237399,1,0,0:0:0:0:
392,248,237485,1,0,0:0:0:0:
388,240,237570,1,0,0:0:0:0:
384,232,237656,1,0,0:0:0:0:
380,224,237742,6,0,B|308:168|292:152|312:280|312:324,1,165.000006294251,8|4,0:0|0:0,0:0:0:0:
180,104,238085,2,0,B|276:200|260:244|172:216,1,165.000006294251,8|0,0:0|0:0,0:0:0:0:
180,216,238342,1,0,0:0:0:0:
164,188,238427,1,8,0:0:0:0:
144,156,238513,1,0,0:0:0:0:
128,124,238599,1,0,0:0:0:0:
112,96,238685,1,0,0:0:0:0:
92,64,238770,2,0,B|176:168|184:208|168:264,1,165.000006294251,8|4,0:0|0:0,0:0:0:0:
240,308,239113,6,0,B|288:376|312:336|312:288,1,82.5000031471254,8|0,0:0|0:0,0:0:0:0:
420,276,239285,2,0,B|500:236|460:212|412:212,1,82.5000031471254
392,96,239456,2,0,B|344:24|320:64|320:112,1,82.5000031471254,8|0,0:0|0:0,0:0:0:0:
212,124,239627,2,0,B|148:172|188:196|236:196,1,82.5000031471254
328,212,239799,6,0,B|400:216|440:88|420:112|260:28|440:212|440:236|424:308,1,330.000012588501,8|8,0:0|0:0,0:0:0:0:
420,292,240227,1,0,0:0:0:0:
416,296,240313,1,0,0:0:0:0:
412,300,240399,1,0,0:0:0:0:
408,296,240485,2,0,B|420:192|448:184|488:216|472:108,1,165.000006294251,8|4,0:0|0:0,0:0:0:0:
452,0,240827,2,0,B|360:28|388:56|412:116|352:136,1,165.000006294251,8|4,0:0|0:0,0:0:0:0:
236,268,241170,1,8,0:0:0:0:
256,116,241342,1,0,0:0:0:0:
384,188,241513,2,0,B|500:236|528:180|472:148,1,165.000006294251,8|4,0:0|0:0,0:0:0:0:
192,208,241856,6,0,L|232:264,1,65.9999979858399
316,112,242027,2,0,L|276:52,1,65.9999979858399
92,136,242199,2,0,L|180:104,1,65.9999979858399
320,188,242370,2,0,L|320:272,1,65.9999979858399
180,280,242542,2,0,L|140:184,1,65.9999979858399
240,104,242713,2,0,L|264:136,1,32.99999899292
292,60,242799,2,0,L|320:104,1,32.99999899292
356,32,242885,2,0,L|376:76,1,32.99999899292
428,24,242970,2,0,L|448:108,1,65.9999979858399
464,192,243227,6,0,B|416:216|416:216|328:180,1,132,8|0,0:0|0:0,0:0:0:0:
316,172,243570,1,8,0:0:0:0:
148,24,243742,1,0,0:0:0:0:
144,176,243913,2,0,B|136:280|96:256|56:124,1,153.999995300293
56,52,244256,1,8,0:0:0:0:
208,120,244427,1,0,0:0:0:0:
276,56,244599,2,0,B|180:96|220:136|260:128,1,82.5000031471254
220,200,244770,2,0,B|260:296|300:256|292:216,1,82.5000031471254
352,248,244942,2,0,B|452:208|412:168|372:176,1,82.5000031471254,8|0,0:0|0:0,0:0:0:0:
420,112,245113,2,0,B|380:16|340:56|348:96,1,82.5000031471254
276,56,245285,6,0,B|240:36|208:72|248:176,1,153.999995300293,0|4,0:0|0:0,0:0:0:0:
276,308,245627,1,8,0:0:0:0:
308,116,245799,1,0,0:0:0:0:
128,16,245970,2,0,B|80:0|68:72|180:140,1,153.999995300293
372,120,246313,2,0,B|464:168|476:220|388:200,1,153.999995300293,8|0,0:0|0:0,0:0:0:0:
272,184,246656,1,0,0:0:0:0:
324,12,246827,1,0,0:0:0:0:
124,96,246999,6,8,B|-56:208|-24:60|8:16|92:112|100:200|64:256,1,307.999990600586,8|4,0:0|0:0,0:0:0:0:
92,372,247513,1,0,0:0:0:0:
224,252,247685,2,0,B|296:152|352:184|336:228,1,153.999995300293,8|0,0:0|0:0,0:0:0:0:
320,304,248027,2,0,B|328:368|400:316|432:184,1,153.999995300293
396,104,248370,1,8,0:0:0:0:
269,159,248542,1,0,0:0:0:0:
144,216,248713,6,0,B|272:212|300:172|228:120,1,153.999995300293,8|0,0:0|0:0,0:0:0:0:
196,48,249056,1,8,0:0:0:0:
196,48,249227,1,0,0:0:0:0:
368,48,249399,1,8,0:0:0:0:
320,164,249570,1,0,0:0:0:0:
240,260,249742,1,8,0:0:0:0:
120,308,249913,1,8,0:0:0:0:
120,308,250085,6,0,B|76:264|92:232|168:232|232:248,1,153.999995300293,0|8,0:0|0:0,0:0:0:0:
384,236,250427,1,0,0:0:0:0:
284,68,250599,1,8,0:0:0:0:
188,240,250770,1,0,0:0:0:0:
384,128,250942,1,8,0:0:0:0:
288,280,251113,1,0,0:0:0:0:
188,132,251285,1,8,0:0:0:0:
384,152,251456,6,0,B|480:188|504:100|424:88|392:172|496:202|476:230,1,197.99999395752,8|0,0:0|0:0,0:0:0:0:
484,224,251799,2,0,B|548:280|480:308|392:332|368:312|340:280,1,197.99999395752,8|0,0:0|0:0,0:0:0:0:
368,292,252142,2,0,B|400:356|428:260|400:232|412:152|492:232|468:260|528:288,1,197.99999395752,8|0,0:0|0:0,0:0:0:0:
500,252,252485,2,0,B|460:220|548:220|516:92|472:72|428:76|396:60,1,197.99999395752,8|0,0:0|0:0,0:0:0:0:
408,56,252827,1,12,0:0:0:0:
220,332,253085,1,12,0:0:0:0:
60,20,253342,1,12,0:0:0:0:
456,100,253513,2,0,B|528:116|528:164|500:184,2,110,12|0|12,0:0|0:0|0:0,0:0:0:0:
180,68,254370,1,0,0:0:0:0:
180,76,254542,6,0,P|232:176|228:240,1,153.999995300293,8|0,0:0|0:0,0:0:0:0:
368,160,254885,2,0,P|296:60|288:-28,1,153.999995300293,8|0,0:0|0:0,0:0:0:0:
396,68,255227,2,0,P|456:144|464:232,1,153.999995300293,8|0,0:0|0:0,0:0:0:0:
336,256,255570,2,0,B|264:260|140:8|440:140|248:256|140:236,1,307.999990600586,10|12,0:0|0:0,0:0:0:0:
44,272,256085,1,0,0:0:0:0:
84,100,256256,1,8,0:0:0:0:
88,96,256342,1,0,0:0:0:0:
92,92,256427,1,0,0:0:0:0:
256,24,256599,2,0,B|344:-24|380:-8|372:48|332:76,1,153.999995300293,8|0,0:0|0:0,0:0:0:0:
232,148,256942,6,0,B|136:192|104:172|160:104,2,153.999995300293,8|0|8,0:0|0:0|0:0,0:0:0:0:
328,192,257456,1,0,0:0:0:0:
408,116,257627,2,0,B|400:52|372:40|296:80|200:156,1,230.99999295044
220,140,257970,1,8,0:0:0:0:
80,228,258142,1,0,0:0:0:0:
232,292,258313,2,0,B|388:200|408:204|348:340,1,230.99999295044
356,328,258656,5,8,0:0:0:0:
392,184,258827,1,0,0:0:0:0:
360,68,258999,2,0,B|280:24|280:24|256:96,1,153.999995300293
244,104,259256,1,0,0:0:0:0:
216,112,259342,1,8,0:0:0:0:
192,104,259427,1,0,0:0:0:0:
172,84,259513,1,0,0:0:0:0:
164,60,259599,1,0,0:0:0:0:
176,40,259685,6,0,B|272:4|288:96|144:224,1,263.99999194336,0|12,0:0|0:0,0:0:0:0:
84,284,260199,1,0,0:0:0:0:
84,284,260285,1,0,0:0:0:0:
84,284,260370,1,0,0:0:0:0:
224,216,260542,1,0,0:0:0:0:
88,88,260713,2,0,B|72:204|96:264|180:244,1,153.999995300293,8|0,0:0|0:0,0:0:0:0:
272,356,261056,1,0,0:0:0:0:
276,124,261227,6,0,L|164:144,1,76.9999976501466
88,164,261399,1,0,0:0:0:0:
316,188,261570,2,0,L|428:160,1,76.9999976501466
504,144,261742,1,8,0:0:0:0:
124,72,261913,1,0,0:0:0:0:
132,68,261999,1,0,0:0:0:0:
140,64,262085,1,0,0:0:0:0:
444,16,262256,1,0,0:0:0:0:
400,240,262427,5,8,0:0:0:0:
347,211,262512,1,0,0:0:0:0:
309,164,262598,1,0,0:0:0:0:
292,106,262684,1,0,0:0:0:0:
268,147,262769,1,0,0:0:0:0:
227,192,262855,1,0,0:0:0:0:
173,216,262941,1,0,0:0:0:0:
122,189,263026,1,0,0:0:0:0:
92,144,263113,5,8,0:0:0:0:
104,86,263198,1,0,0:0:0:0:
153,52,263284,1,0,0:0:0:0:
213,52,263370,1,0,0:0:0:0:
264,82,263455,1,0,0:0:0:0:
295,134,263541,1,0,0:0:0:0:
297,193,263627,1,0,0:0:0:0:
268,246,263712,1,0,0:0:0:0:
212,268,263799,5,8,0:0:0:0:
0,288,263970,1,0,0:0:0:0:
164,52,264142,1,0,0:0:0:0:
408,272,264313,1,2,0:0:0:0:
68,328,264485,1,8,0:0:0:0:
240,36,264656,1,0,0:0:0:0:
472,224,264827,1,0,0:0:0:0:
216,272,264999,2,0,L|116:292,1,55
304,72,265170,5,12,0:0:0:0:
352,12,265342,1,0,0:0:0:0:
144,80,265513,1,0,0:0:0:0:
196,24,265685,1,0,0:0:0:0:
372,64,265856,5,8,0:0:0:0:
395,113,265941,1,0,0:0:0:0:
399,167,266027,1,0,0:0:0:0:
363,207,266113,1,0,0:0:0:0:
317,238,266198,1,0,0:0:0:0:
271,268,266284,1,0,0:0:0:0:
227,302,266370,1,0,0:0:0:0:
185,336,266455,1,0,0:0:0:0:
136,360,266542,1,4,0:0:0:0:
8,236,266713,1,0,0:0:0:0:
204,192,266885,6,0,B|292:184|300:152|276:124,1,110,8|0,0:0|0:0,0:0:0:0:
192,20,267227,1,0,0:0:0:0:
204,192,267399,1,0,0:0:0:0:
288,96,267570,1,8,0:0:0:0:
328,84,267656,1,0,0:0:0:0:
368,84,267742,1,0,0:0:0:0:
400,100,267827,1,0,0:0:0:0:
424,124,267913,6,0,P|436:192|408:212,1,110,8|0,0:0|0:0,0:0:0:0:
276,268,268256,2,0,B|212:264|176:216|180:176,1,110
216,64,268599,2,0,P|260:128|268:172,1,110
332,40,268942,1,0,0:0:0:0:
368,72,269027,1,0,0:0:0:0:
392,112,269113,1,0,0:0:0:0:
428,252,269285,6,2,P|368:200|268:228,1,176
144,296,269799,1,0,0:0:0:0:
20,220,269970,2,0,B|75:259|92:248|92:248|171:186,1,165,8|0,0:0|0:0,0:0:0:0:
160,200,270313,2,0,B|244:183|244:183|300:228,1,110,8|0,0:0|0:0,0:0:0:0:
384,240,270656,5,0,0:0:0:0:
276,316,270827,1,0,0:0:0:0:
268,196,270999,2,0,B|212:148|212:148|164:204,1,110
184,180,271256,1,0,0:0:0:0:
180,184,271342,1,0,0:0:0:0:
196,52,271513,2,0,L|116:148,1,110
128,276,271856,5,0,0:0:0:0:
125,136,272027,1,0,0:0:0:0:
312,144,272199,2,0,L|340:196,2,55,0|0|8,0:0|0:0|0:0,0:0:0:0:
252,12,272542,1,0,0:0:0:0:
312,144,272713,1,0,0:0:0:0:
224,284,272885,5,0,0:0:0:0:
252,276,272970,1,0,0:0:0:0:
276,268,273056,1,8,0:0:0:0:
304,260,273142,1,0,0:0:0:0:
332,252,273227,1,0,0:0:0:0:
360,244,273313,1,0,0:0:0:0:
376,224,273399,6,0,B|380:148|380:148|352:120,1,110
208,208,273742,2,0,B|152:176|152:176|148:124,1,110,8|0,0:0|0:0,0:0:0:0:
248,144,274085,2,0,B|316:188|316:188|332:88,1,165
300,88,274427,2,0,B|236:44|236:44|176:68,1,110,8|0,0:0|0:0,0:0:0:0:
96,120,274770,1,8,0:0:0:0:
352,100,275027,5,0,0:0:0:0:
352,100,275113,1,8,0:0:0:0:
316,280,275285,5,0,0:0:0:0:
320,288,275370,1,0,0:0:0:0:
320,288,275456,1,8,0:0:0:0:
160,164,275627,5,0,0:0:0:0:
292,144,275799,2,0,L|312:72,1,55,8|0,0:0|0:0,0:0:0:0:
392,80,275970,2,0,L|368:156,1,55,8|0,0:0|0:0,0:0:0:0:
232,216,276142,2,0,B|304:192|308:136|312:140|244:144,1,110,4|0,0:0|0:0,0:0:0:0:
160,56,276485,2,0,P|88:108|80:156,1,110,8|0,0:0|0:0,0:0:0:0:
68,216,276827,5,0,0:0:0:0:
121,203,276912,1,0,0:0:0:0:
166,172,276998,1,0,0:0:0:0:
202,130,277084,1,0,0:0:0:0:
229,108,277169,1,0,0:0:0:0:
261,152,277255,1,0,0:0:0:0:
305,186,277341,1,0,0:0:0:0:
353,212,277426,1,0,0:0:0:0:
404,232,277512,1,4,0:0:0:0:
456,68,277685,2,0,L|508:16,1,55
296,100,277856,6,0,B|224:44|192:80|196:108,1,110,8|0,0:0|0:0,0:0:0:0:
208,136,278113,1,0,0:0:0:0:
220,188,278199,1,0,0:0:0:0:
220,244,278285,1,0,0:0:0:0:
200,296,278370,1,0,0:0:0:0:
124,224,278542,2,0,L|56:224,1,55,8|0,0:0|0:0,0:0:0:0:
124,60,278713,2,0,L|192:96,1,55
324,48,278885,5,0,0:0:0:0:
432,120,279056,1,0,0:0:0:0:
260,88,279227,1,8,0:0:0:0:
324,204,279399,1,0,0:0:0:0:
180,108,279570,1,0,0:0:0:0:
180,240,279742,1,0,0:0:0:0:
100,88,279913,1,8,0:0:0:0:
52,240,280085,2,0,L|36:296,1,55
100,88,280256,6,2,B|92:220|116:232|188:144,1,165
176,128,280599,2,0,B|200:56|236:84|240:132,1,110
264,216,280942,2,8,P|340:256|360:248,1,110
396,220,281199,1,8,0:0:0:0:
412,172,281285,1,8,0:0:0:0:
376,136,281370,1,0,0:0:0:0:
344,96,281456,1,0,0:0:0:0:
368,44,281542,1,0,0:0:0:0:
420,32,281627,6,0,P|480:80|496:144,1,110,8|0,0:0|0:0,0:0:0:0:
412,232,281970,1,8,0:0:0:0:
324,108,282142,1,0,0:0:0:0:
316,108,282227,1,0,0:0:0:0:
308,108,282313,1,0,0:0:0:0:
192,200,282485,1,0,0:0:0:0:
228,56,282656,1,8,0:0:0:0:
360,124,282827,1,0,0:0:0:0:
476,184,282999,6,0,B|524:220|520:240|444:280,1,110
268,320,283342,1,8,0:0:0:0:
368,212,283513,2,0,P|368:136|336:120,1,110
228,140,283856,1,0,0:0:0:0:
180,152,283942,1,0,0:0:0:0:
140,124,284027,2,0,P|120:68|172:24,1,110,8|0,0:0|0:0,0:0:0:0:
200,12,284285,1,0,0:0:0:0:
252,0,284370,5,0,0:0:0:0:
306,3,284455,1,0,0:0:0:0:
358,20,284541,1,0,0:0:0:0:
401,55,284627,1,0,0:0:0:0:
426,103,284712,1,0,0:0:0:0:
433,158,284798,1,0,0:0:0:0:
427,212,284884,1,0,0:0:0:0:
408,264,284970,1,0,0:0:0:0:
380,312,285056,2,0,P|324:360|280:372,1,110
232,372,285312,1,0,0:0:0:0:
179,360,285398,1,0,0:0:0:0:
132,332,285484,1,0,0:0:0:0:
95,291,285569,1,0,0:0:0:0:
73,241,285655,1,0,0:0:0:0:
48,192,285742,6,0,B|-4:80|48:40|80:132|104:144,1,165
92,120,286085,1,2,0:0:0:0:
212,112,286256,1,0,0:0:0:0:
160,220,286427,2,2,B|216:324|216:324|256:252,1,165,2|0,0:0|0:0,0:0:0:0:
284,216,286770,2,0,L|324:300,1,55
328,148,286942,2,0,L|360:220,1,55
280,24,287113,6,0,B|304:80|304:80|372:80|372:80|392:128,1,181.500005538941,8|0,0:0|0:0,0:0:0:0:
456,104,287456,2,0,B|488:176|488:176|424:188|424:188|408:264,1,181.500005538941,8|0,0:0|0:0,0:0:0:0:
404,264,287799,1,0,0:0:0:0:
376,300,287885,1,0,0:0:0:0:
344,332,287970,1,0,0:0:0:0:
304,304,288056,1,0,0:0:0:0:
268,276,288142,1,0,0:0:0:0:
232,308,288227,1,0,0:0:0:0:
200,336,288313,1,0,0:0:0:0:
168,304,288399,1,0,0:0:0:0:
140,264,288485,1,4,0:0:0:0:
56,104,288656,5,0,0:0:0:0:
52,100,288742,1,0,0:0:0:0:
48,96,288827,1,8,0:0:0:0:
240,32,288999,1,0,0:0:0:0:
428,72,289170,2,0,P|468:120|460:192,1,121.000003692627
464,184,289427,1,0,0:0:0:0:
460,192,289513,1,0,0:0:0:0:
456,200,289599,1,0,0:0:0:0:
452,208,289685,1,0,0:0:0:0:
448,216,289770,1,0,0:0:0:0:
444,224,289856,6,0,P|368:228|308:288,1,121.000003692627
116,340,290199,1,8,0:0:0:0:
72,164,290370,2,0,P|76:88|136:56,2,121.000003692627
136,128,290885,2,0,B|212:152|236:132|236:96,1,121.000003692627,8|0,0:0|0:0,0:0:0:0:
320,20,291227,2,2,B|432:16|424:128,1,176,0|0,0:0|0:0,0:0:0:0:
400,264,291742,1,0,0:0:0:0:
260,328,291913,6,0,B|216:316|212:280|328:188,1,181.500005538941
326,187,292256,2,0,P|358:115|326:70,1,121.000003692627,8|0,0:0|0:0,0:0:0:0:
284,128,292599,2,0,B|216:68|196:60|312:4|208:-44,1,181.500005538941
183,0,292942,2,0,B|176:32|116:96|224:148|240:196,1,181.500005538941,8|0,0:0|0:0,0:0:0:0:
228,176,293285,5,0,0:0:0:0:
384,76,293542,1,0,0:0:0:0:
384,76,293627,2,0,B|428:144|424:144|384:188,1,121.000003692627,8|0,0:0|0:0,0:0:0:0:
204,128,293970,2,0,B|140:216|136:276|240:200,1,181.500005538941
235,205,294313,1,8,0:0:0:0:
312,124,294485,1,0,0:0:0:0:
432,140,294656,6,0,B|488:176|480:236|424:304,1,181.500005538941
408,304,294999,1,8,0:0:0:0:
384,308,295085,1,0,0:0:0:0:
364,308,295170,1,0,0:0:0:0:
340,304,295256,1,0,0:0:0:0:
320,296,295342,2,0,P|348:224|324:180,1,121.000003692627
279,237,295685,2,0,B|200:216|200:216|221:141|221:141|193:101,1,181.500005538941,8|0,0:0|0:0,0:0:0:0:
211,120,296027,2,0,B|132:24|216:32|216:32|276:100,1,181.500005538941
252,80,296370,1,8,0:0:0:0:
388,252,296542,1,0,0:0:0:0:
96,144,296713,6,0,B|192:188|228:168|200:104,1,153.999995300293
149,39,297056,2,0,B|87:27|75:55|104:164,1,153.999995300293
216,153,297399,2,0,B|92:217|76:177|120:77,1,153.999995300293
216,153,297742,2,0,B|312:77|368:93|308:153,1,153.999995300293
256,224,298085,2,0,B|200:288|164:284|140:248,1,121.000003692627,8|0,0:0|0:0,0:0:0:0:
36,228,298427,2,0,B|-20:180|-32:112|48:160,1,121.000003692627,8|0,0:0|0:0,0:0:0:0:
120,192,298770,5,0,0:0:0:0:
178,190,298855,1,0,0:0:0:0:
204,137,298941,1,0,0:0:0:0:
218,78,299027,1,0,0:0:0:0:
268,50,299112,1,0,0:0:0:0:
317,81,299198,1,0,0:0:0:0:
326,140,299284,1,0,0:0:0:0:
308,197,299369,1,0,0:0:0:0:
284,248,299456,2,0,P|260:316|316:348,1,121.000003692627
392,272,299799,2,0,B|452:212|388:164|388:164|348:48,1,242.000007385254,8|0,0:0|0:0,0:0:0:0:
228,0,300313,6,0,L|264:84,1,60.5000018463135
212,64,300485,1,8,0:0:0:0:
184,96,300570,1,0,0:0:0:0:
164,132,300656,1,0,0:0:0:0:
160,176,300742,1,0,0:0:0:0:
160,220,300827,2,0,B|112:160|112:160|132:96,1,121.000003692627
324,88,301170,1,8,0:0:0:0:
276,288,301342,1,0,0:0:0:0:
92,212,301513,2,0,B|180:184|220:92,1,181.500005538941
223,73,301856,5,8,0:0:0:0:
424,112,302027,1,0,0:0:0:0:
300,256,302199,2,2,B|204:232|204:232|244:196|244:196|184:184|184:184|224:152,1,242.000007385254
332,108,302713,1,0,0:0:0:0:
228,20,302885,2,0,P|140:12|76:96,1,181.500005538941
80,75,303227,2,0,B|44:148|0:128|24:80|128:160,1,153.999995300293,8|4,0:0|0:0,0:0:0:0:
164,72,303570,6,8,B|224:92|228:164|228:164|248:92|348:88,1,242.000007385254
408,80,304085,1,0,0:0:0:0:
248,116,304256,1,0,0:0:0:0:
244,128,304342,1,0,0:0:0:0:
240,140,304427,1,0,0:0:0:0:
236,152,304513,1,0,0:0:0:0:
248,160,304599,1,0,0:0:0:0:
264,172,304685,1,0,0:0:0:0:
284,188,304770,1,0,0:0:0:0:
304,200,304856,1,0,0:0:0:0:
328,216,304942,6,0,B|392:260|392:260|464:172,1,181.500005538941,8|0,0:0|0:0,0:0:0:0:
404,140,305285,2,0,B|380:168|380:168|288:104,1,121.000003692627
180,28,305627,5,8,0:0:0:0:
148,44,305713,1,0,0:0:0:0:
148,84,305799,1,0,0:0:0:0:
188,100,305885,1,0,0:0:0:0:
224,80,305970,1,0,0:0:0:0:
224,40,306056,1,0,0:0:0:0:
188,84,306142,1,0,0:0:0:0:
184,136,306227,1,0,0:0:0:0:
224,168,306313,5,4,0:0:0:0:
404,284,306485,1,0,0:0:0:0:
352,40,306656,2,0,B|330:-3|314:-3|250:53,1,121.000003692627,8|0,0:0|0:0,0:0:0:0:
255,50,306913,1,0,0:0:0:0:
254,57,306999,1,0,0:0:0:0:
80,232,307170,2,0,B|28:280|152:336|72:356,1,121.000003692627,0|8,0:0|0:0,0:0:0:0:
212,104,307513,1,0,0:0:0:0:
324,336,307685,6,2,B|392:372|424:340|456:284|504:356,1,176
352,236,308199,1,0,0:0:0:0:
268,80,308370,1,0,0:0:0:0:
160,228,308542,1,0,0:0:0:0:
352,236,308713,1,0,0:0:0:0:
264,96,308885,1,0,0:0:0:0:
204,288,309056,6,0,B|208:212|240:288|304:264|324:216,1,153.999995300293,4|0,0:0|0:0,0:0:0:0:
260,192,309709,1,0,0:0:0:0:
152,92,309930,2,0,B|180:156|228:152,1,76.9999976501466,8|0,0:0|0:0,0:0:0:0:
236,260,310371,2,0,B|204:200|296:200|264:120,1,153.999995300293,0|8,0:0|0:0,0:0:0:0:
236,24,311143,2,0,B|228:76|268:64|268:116,1,76.9999976501466
296,240,311695,1,8,0:0:0:0:
160,236,311915,1,0,0:0:0:0:
48,168,312136,2,0,B|24:124|40:72|76:80,1,115.49999647522
192,184,312577,6,0,L|240:228,1,57.7499982376099,8|0,0:0|0:0,0:0:0:0:
368,180,312908,1,0,0:0:0:0:
256,72,313128,1,0,0:0:0:0:
160,180,313349,2,0,B|188:148|188:148|236:168|236:168|252:152,1,115.49999647522
344,60,313900,1,0,0:0:0:0:
440,152,314122,1,0,0:0:0:0:
192,280,314562,5,0,0:0:0:0:
212,320,314673,1,0,0:0:0:0:
220,336,314728,2,0,L|232:360,1,19.2499994125366,0|4,0:0|0:0,0:0:0:0:
256,192,314893,12,0,317393,0:0:0:0:
