osu file format v14

[General]
AudioFilename: audio.ogg
AudioLeadIn: 0
PreviewTime: 58265
Countdown: 0
SampleSet: Soft
StackLeniency: 0.4
Mode: 2
LetterboxInBreaks: 0
WidescreenStoryboard: 1

[Editor]
Bookmarks: 11915,24715,37515,50315,58315,83915,96715,130315
DistanceSpacing: 1.8
BeatDivisor: 4
GridSize: 32
TimelineZoom: 2.899999

[Metadata]
Title:Shoujo Rei
TitleUnicode:少女レイ
Artist:Shoto
ArtistUnicode:Shoto
Creator:itstaipeople
Version:Catch the Train
Source:
Tags:mikitoP 初音ミク hatsune miku shoujourei japanese pop jpop vtuber en envtuber Biango Umi riguruma Xun Aruvn
BeatmapID:4579706
BeatmapSetID:2157779

[Difficulty]
HPDrainRate:4
CircleSize:4
OverallDifficulty:8.3
ApproachRate:8.3
SliderMultiplier:2
SliderTickRate:1

[Events]
//Background and Video events
0,0,"F2sw5WqXoA0FHX9.jpg",0,0
Video,0,"video.avi"
//Break Periods
2,84115,85565
2,87315,91965
2,93715,95165
2,155915,157615
//Storyboard Layer 0 (Background)
//Storyboard Layer 1 (Fail)
//Storyboard Layer 2 (Pass)
//Storyboard Layer 3 (Foreground)
//Storyboard Layer 4 (Overlay)
//Storyboard Sound Samples

[TimingPoints]
10315,400,4,2,1,50,1,0
11915,-100,4,2,1,50,0,0
96315,-76.9230769230769,4,2,1,50,0,0
96715,-100,4,2,1,50,0,0
156565,600,4,2,1,50,1,0
169915,400,4,2,1,50,1,0
170715,400,4,2,1,50,1,0
172315,-83.3333333333333,4,2,1,50,0,0
183515,-100,4,2,1,50,0,0
206315,400,4,2,1,50,1,0
239115,-76.9230769230769,4,2,1,50,0,1
267115,-76.9230769230769,4,2,1,50,0,0
272315,591.133004926108,4,2,1,50,1,0
273201,591.133004926108,4,2,1,50,1,0
275565,594.059405940594,4,2,1,50,1,0
277941,600,4,2,1,50,1,0

[Colours]
Combo1 : 0,128,192
Combo2 : 128,255,255
Combo3 : 89,172,255
Combo4 : 0,223,223

[HitObjects]
33,294,11915,6,0,L|153:294,1,100
183,294,12215,1,0,0:0:0:0:
233,294,12315,2,0,L|128:294,1,100
313,293,12715,5,0,0:0:0:0:
383,275,12915,1,0,0:0:0:0:
421,207,13115,1,0,0:0:0:0:
403,133,13315,1,0,0:0:0:0:
222,130,13515,6,0,L|60:95,2,150
403,177,14315,6,0,L|296:193,1,100
253,191,14615,1,0,0:0:0:0:
304,191,14715,2,0,L|404:206,1,100
223,267,15115,6,0,P|164:124|187:107,1,200
477,158,15915,1,0,0:0:0:0:
377,140,16115,1,0,0:0:0:0:
197,108,16315,1,0,0:0:0:0:
297,92,16515,1,0,0:0:0:0:
115,64,16715,6,0,L|16:185,2,150
295,63,17515,2,0,L|397:99,1,100
439,115,17815,1,0,0:0:0:0:
389,96,17915,2,0,L|294:129,1,100
114,167,18315,6,0,L|213:215,1,100
254,212,18615,1,0,0:0:0:0:
204,210,18715,2,0,L|114:253,1,100
294,343,19115,5,0,0:0:0:0:
394,293,19315,1,0,0:0:0:0:
444,282,19415,1,0,0:0:0:0:
494,278,19515,1,0,0:0:0:0:
394,256,19715,1,0,0:0:0:0:
214,192,19915,6,0,L|53:225,2,150
394,186,20715,6,0,L|286:155,1,100
248,150,21015,1,0,0:0:0:0:
297,158,21115,2,0,L|410:114,1,100
176,64,21515,6,0,P|116:85|91:185,1,150
135,196,21915,2,0,L|240:196,1,100
415,189,22315,5,0,0:0:0:0:
510,239,22515,1,0,0:0:0:0:
511,262,22615,1,0,0:0:0:0:
396,231,22715,1,0,0:0:0:0:
496,205,22915,1,0,0:0:0:0:
316,170,23115,6,0,L|158:140,2,150
496,218,23915,5,0,0:0:0:0:
311,249,24115,1,0,0:0:0:0:
362,267,24215,1,0,0:0:0:0:
413,284,24315,1,0,0:0:0:0:
506,291,24515,1,0,0:0:0:0:
221,302,24715,6,0,L|31:233,2,200
478,199,25915,1,0,0:0:0:0:
377,197,26115,1,0,0:0:0:0:
197,183,26315,6,0,L|301:171,1,100
193,152,26715,2,0,L|87:140,1,100
278,87,27115,2,0,P|376:87|369:208,1,200
297,174,27715,1,0,0:0:0:0:
115,170,27915,6,0,L|273:169,1,150
316,167,28315,1,0,0:0:0:0:
208,209,28515,1,0,0:0:0:0:
389,254,28715,6,0,L|239:254,1,150
189,254,29115,1,0,0:0:0:0:
289,291,29315,2,0,L|394:291,1,100
490,227,29715,5,0,0:0:0:0:
309,197,29915,1,0,0:0:0:0:
209,178,30115,1,0,0:0:0:0:
389,151,30315,2,0,L|496:137,1,100
386,105,30715,2,0,L|265:82,1,100
107,48,31115,6,0,P|36:93|34:168,1,150
93,193,31515,2,0,L|222:193,1,100
373,219,31915,6,0,L|201:218,1,150
173,218,32315,1,0,0:0:0:0:
274,189,32515,1,0,0:0:0:0:
454,258,32715,5,0,0:0:0:0:
352,235,32915,1,0,0:0:0:0:
172,278,33115,2,0,L|334:250,1,150
382,237,33515,2,0,L|250:214,2,100
100,231,34315,5,0,0:0:0:0:
0,197,34515,1,0,0:0:0:0:
181,172,34715,1,0,0:0:0:0:
80,127,34915,1,0,0:0:0:0:
260,161,35115,2,0,L|444:132,1,150
459,131,35515,2,0,L|330:107,1,100
80,68,35915,6,0,L|6:143,1,100
274,63,36315,2,0,L|381:63,1,100
78,210,36715,5,0,0:0:0:0:
78,210,37115,2,0,L|78:309,1,100
348,215,37515,6,0,L|447:209,1,100
496,219,37815,1,0,0:0:0:0:
447,209,37915,2,0,L|348:194,1,100
168,256,38315,5,0,0:0:0:0:
88,231,38515,1,0,0:0:0:0:
55,150,38715,1,0,0:0:0:0:
89,67,38915,1,0,0:0:0:0:
269,65,39115,6,0,L|427:65,1,150
465,72,39515,1,0,0:0:0:0:
465,72,39715,1,0,0:0:0:0:
285,122,39915,2,0,L|155:122,1,100
85,122,40315,2,0,L|185:122,1,100
366,149,40715,6,0,P|463:168|490:268,1,200
391,248,41315,1,0,0:0:0:0:
211,148,41515,6,0,P|114:167|87:267,1,200
186,249,42115,1,0,0:0:0:0:
366,166,42315,6,0,L|211:153,1,150
166,147,42715,1,0,0:0:0:0:
7,134,42915,1,0,0:0:0:0:
189,121,43115,5,0,0:0:0:0:
292,123,43315,1,0,0:0:0:0:
292,123,43515,1,0,0:0:0:0:
292,123,43715,1,0,0:0:0:0:
473,209,43915,6,0,L|289:182,1,150
274,185,44315,2,0,L|374:184,1,100
184,192,44715,5,0,0:0:0:0:
96,201,44915,1,0,0:0:0:0:
28,257,45115,1,0,0:0:0:0:
0,338,45315,1,0,0:0:0:0:
184,349,45515,6,0,P|279:345|324:233,1,200
224,257,46115,1,0,0:0:0:0:
405,256,46315,6,0,P|310:252|265:140,1,200
365,164,46915,1,0,0:0:0:0:
185,98,47115,6,0,L|80:98,1,100
185,98,47515,2,0,L|285:98,1,100
465,188,47915,6,0,L|360:188,1,100
184,183,48315,2,0,L|284:183,1,100
464,108,48715,5,0,0:0:0:0:
363,202,48915,1,0,0:0:0:0:
183,257,49115,1,0,0:0:0:0:
284,351,49315,1,0,0:0:0:0:
105,256,49515,6,0,L|106:134,1,100
286,64,49915,1,0,0:0:0:0:
386,62,50115,1,0,0:0:0:0:
111,73,50315,6,0,P|127:195|203:224,1,200
287,226,50915,2,0,P|365:171|362:75,1,200
362,74,51715,1,0,0:0:0:0:
182,87,51915,5,0,0:0:0:0:
80,62,52115,1,0,0:0:0:0:
182,87,52315,1,0,0:0:0:0:
334,86,52615,1,0,0:0:0:0:
334,86,52715,1,0,0:0:0:0:
334,86,52915,1,0,0:0:0:0:
334,86,53115,1,0,0:0:0:0:
61,169,53515,5,0,0:0:0:0:
161,169,53715,1,0,0:0:0:0:
261,169,53915,1,0,0:0:0:0:
361,169,54115,1,0,0:0:0:0:
361,169,54515,1,0,0:0:0:0:
261,169,54715,1,0,0:0:0:0:
161,169,54915,1,0,0:0:0:0:
442,161,55115,6,0,L|514:65,1,100
321,162,55515,2,0,L|249:66,1,100
79,185,55915,2,0,L|143:274,1,100
321,162,56315,2,0,L|321:40,1,100
41,62,56715,5,0,0:0:0:0:
142,112,56915,1,0,0:0:0:0:
322,162,57115,1,0,0:0:0:0:
432,118,57315,1,0,0:0:0:0:
149,210,57515,6,0,L|49:209,1,100
229,252,57915,2,0,L|229:87,1,150
413,36,58315,6,0,P|480:67|510:134,1,150
444,164,58715,2,0,L|344:163,1,100
151,149,59115,2,0,L|285:149,1,100
436,213,59515,1,0,0:0:0:0:
336,212,59715,1,0,0:0:0:0:
61,214,59915,6,0,L|235:186,1,150
259,188,60315,1,0,0:0:0:0:
157,173,60515,1,0,0:0:0:0:
330,156,60715,2,0,L|441:158,1,100
248,101,61115,1,0,0:0:0:0:
148,88,61315,1,0,0:0:0:0:
328,50,61515,6,0,P|421:80|446:133,1,150
377,146,61915,2,0,P|284:116|259:63,1,150
328,50,62315,2,0,L|500:50,1,150
478,50,62715,2,0,L|477:197,1,100
165,182,63115,6,0,L|29:170,1,100
15,169,63415,1,0,0:0:0:0:
65,173,63515,1,0,0:0:0:0:
165,182,63715,1,0,0:0:0:0:
345,189,63915,5,0,0:0:0:0:
430,165,64115,1,0,0:0:0:0:
493,102,64315,1,0,0:0:0:0:
512,19,64515,1,0,0:0:0:0:
229,107,64715,6,0,L|58:129,1,150
30,130,65115,1,0,0:0:0:0:
138,159,65315,1,0,0:0:0:0:
318,121,65515,2,0,P|392:138|407:233,1,150
347,202,65915,1,0,0:0:0:0:
250,203,66115,1,0,0:0:0:0:
70,278,66315,6,0,L|219:273,1,150
269,273,66715,1,0,0:0:0:0:
159,230,66915,1,0,0:0:0:0:
339,234,67115,2,0,L|219:238,1,100
420,231,67515,2,0,L|420:122,1,100
149,120,67915,6,0,P|79:96|41:33,1,150
113,30,68315,2,0,L|192:94,1,100
464,187,68715,6,0,P|426:250|356:273,1,150
285,265,69115,2,0,P|318:215|376:200,1,100
54,199,69515,6,0,L|204:200,1,150
253,201,69915,1,0,0:0:0:0:
354,202,70115,1,0,0:0:0:0:
165,145,70315,5,0,0:0:0:0:
98,222,70515,1,0,0:0:0:0:
91,315,70715,1,0,0:0:0:0:
155,382,70915,1,0,0:0:0:0:
458,363,71115,6,0,P|404:248|309:231,1,200
242,232,71715,1,0,0:0:0:0:
61,234,71915,2,0,L|175:235,1,100
341,218,72315,1,0,0:0:0:0:
441,218,72515,1,0,0:0:0:0:
262,252,72715,6,0,P|193:224|152:101,1,200
250,111,73315,1,0,0:0:0:0:
70,114,73515,2,0,L|190:105,1,100
351,118,73915,1,0,0:0:0:0:
250,101,74115,1,0,0:0:0:0:
430,108,74315,6,0,L|252:93,1,150
337,129,74715,2,0,L|483:142,1,100
257,181,75115,2,0,L|153:191,1,100
337,223,75515,2,0,P|384:213|412:169,1,100
231,66,75915,6,0,L|58:66,1,150
31,68,76315,1,0,0:0:0:0:
131,113,76515,1,0,0:0:0:0:
312,178,76715,6,0,L|427:179,2,100
412,178,77315,1,0,0:0:0:0:
110,176,77515,6,0,P|60:213|61:254,1,100
108,244,77815,1,0,0:0:0:0:
157,242,77915,1,0,0:0:0:0:
0,191,78115,1,0,0:0:0:0:
184,183,78315,2,0,L|299:177,2,100
283,177,78915,1,0,0:0:0:0:
463,167,79115,6,0,L|366:141,1,100
295,122,79415,2,0,L|391:147,1,100
463,167,79715,1,0,0:0:0:0:
168,172,79915,6,0,L|71:146,1,100
0,127,80214,2,0,L|96:152,1,100
168,172,80515,1,0,0:0:0:0:
490,114,80715,6,0,P|510:191|471:239,1,133.333333333333
409,235,81115,2,0,L|306:236,1,100
128,224,81515,1,0,0:0:0:0:
236,223,81715,1,0,0:0:0:0:
56,224,81915,2,0,P|24:201|2:141,1,100
181,107,82315,5,0,0:0:0:0:
281,108,82515,1,0,0:0:0:0:
231,102,82615,1,0,0:0:0:0:
181,96,82715,1,0,0:0:0:0:
281,137,82915,1,0,0:0:0:0:
101,147,83115,5,0,0:0:0:0:
201,170,83315,1,0,0:0:0:0:
381,179,83515,1,0,0:0:0:0:
280,213,83715,1,0,0:0:0:0:
460,254,83915,5,0,0:0:0:0:
39,251,86315,6,0,L|451:141,1,400
425,147,92715,6,0,L|39:251,1,400
39,251,95915,5,0,0:0:0:0:
139,250,96115,2,0,L|200:249,1,50
362,248,96315,2,0,L|512:248,1,129.999994049073
183,250,96715,6,0,L|0:156,2,200
440,262,97915,1,0,0:0:0:0:
497,203,98115,1,0,0:0:0:0:
316,187,98315,6,0,L|266:186,5,33.3333333333333
211,185,98715,6,0,L|161:184,5,33.3333333333333
102,184,99115,6,0,L|49:184,3,33.3333333333333
249,185,99515,6,0,L|282:185,5,33.3333333333333
354,187,99915,6,0,L|472:173,1,100
504,175,100215,1,0,0:0:0:0:
453,175,100315,2,0,L|354:187,1,100
173,186,100715,2,0,L|17:170,1,150
23,170,101115,1,0,0:0:0:0:
124,171,101315,1,0,0:0:0:0:
304,144,101515,6,0,L|336:181,5,33.3333333333333
325,169,101915,2,0,L|440:169,1,100
245,165,102315,1,0,0:0:0:0:
158,169,102515,2,0,L|114:163,2,33.3333333333333
231,165,102715,2,0,L|259:189,3,33.3333333333333
164,168,102981,1,0,0:0:0:0:
146,169,103048,1,0,0:0:0:0:
130,170,103115,6,0,L|14:169,1,100
210,170,103515,2,0,L|381:171,1,150
410,173,103915,6,0,L|383:137,5,33.3333333333333
443,150,104315,6,0,L|488:135,5,33.3333333333333
512,126,104715,5,0,0:0:0:0:
412,129,104915,1,0,0:0:0:0:
311,139,105115,2,0,L|416:157,1,100
225,177,105515,6,0,L|174:177,11,33.3333333333333
117,177,106315,6,0,L|78:177,4,33.3333333333333
238,178,106715,6,0,L|359:180,1,100
157,184,107115,6,0,L|109:183,4,33.3333333333333
277,202,107515,2,0,L|162:201,1,100
71,203,107915,5,0,0:0:0:0:
334,200,109015,1,0,0:0:0:0:
334,200,109115,1,0,0:0:0:0:
334,200,109315,1,0,0:0:0:0:
33,223,109515,6,0,L|207:222,1,150
233,222,109915,2,0,L|128:222,1,100
313,219,110315,5,0,0:0:0:0:
413,226,110515,1,0,0:0:0:0:
233,215,110715,1,0,0:0:0:0:
133,222,110915,1,0,0:0:0:0:
315,234,111115,5,0,0:0:0:0:
364,236,111215,2,0,P|453:200|457:136,1,150
362,144,111715,1,0,0:0:0:0:
182,124,111915,2,0,L|76:125,1,100
32,124,112215,1,0,0:0:0:0:
82,124,112315,1,0,0:0:0:0:
182,124,112515,1,0,0:0:0:0:
362,117,112715,6,0,L|207:119,1,150
161,118,113115,2,0,L|280:121,1,100
442,179,113515,2,0,L|281:177,1,150
242,178,113915,2,0,P|187:148|174:95,1,100
354,122,114315,6,0,L|496:122,1,100
274,116,114715,1,0,0:0:0:0:
373,89,114915,1,0,0:0:0:0:
193,83,115115,5,0,0:0:0:0:
106,111,115315,1,0,0:0:0:0:
79,201,115515,1,0,0:0:0:0:
153,262,115715,1,0,0:0:0:0:
334,261,115915,6,0,P|440:230|454:127,1,200
361,136,116515,1,0,0:0:0:0:
181,143,116715,1,0,0:0:0:0:
283,141,116915,1,0,0:0:0:0:
102,149,117115,1,0,0:0:0:0:
1,140,117315,1,0,0:0:0:0:
182,144,117515,6,0,L|388:144,1,200
483,142,118115,1,0,0:0:0:0:
302,102,118315,2,0,P|163:154|152:189,1,200
253,189,118915,1,0,0:0:0:0:
72,181,119115,6,0,L|-4:92,1,100
107,179,119515,2,0,L|171:90,1,100
345,101,119915,6,0,L|246:146,1,100
433,171,120315,2,0,L|512:236,1,100
328,278,120715,5,0,0:0:0:0:
430,276,120915,1,0,0:0:0:0:
249,243,121115,1,0,0:0:0:0:
147,228,121315,1,0,0:0:0:0:
326,236,121515,6,0,L|436:186,1,100
235,177,121915,1,0,0:0:0:0:
133,192,122115,1,0,0:0:0:0:
435,202,122315,6,0,P|354:191|323:64,1,200
214,90,122915,2,0,P|185:181|91:201,1,200
92,201,123715,1,0,0:0:0:0:
272,191,123915,6,0,L|399:191,2,100
116,191,124615,1,0,0:0:0:0:
116,191,124715,2,0,L|178:103,2,100
401,266,125515,5,0,0:0:0:0:
470,206,125715,1,0,0:0:0:0:
474,122,125915,1,0,0:0:0:0:
408,71,126115,2,0,L|289:74,1,100
127,80,126515,1,0,0:0:0:0:
26,87,126715,1,0,0:0:0:0:
384,135,127115,6,0,L|511:151,1,100
384,135,127515,2,0,L|282:146,1,100
104,187,127915,2,0,L|4:187,1,100
184,195,128315,2,0,L|284:195,1,100
104,271,128715,5,0,0:0:0:0:
3,236,128915,1,0,0:0:0:0:
184,210,129115,1,0,0:0:0:0:
294,185,129315,1,0,0:0:0:0:
113,135,129515,5,0,0:0:0:0:
293,123,129715,1,0,0:0:0:0:
473,107,129915,2,0,L|473:263,1,150
281,330,130315,6,0,P|209:323|168:232,1,150
233,260,130715,1,0,0:0:0:0:
132,264,130915,1,0,0:0:0:0:
313,212,131115,6,0,L|437:212,1,100
232,181,131515,1,0,0:0:0:0:
132,176,131715,1,0,0:0:0:0:
403,148,131915,6,0,P|474:119|484:15,1,150
426,53,132315,1,0,0:0:0:0:
326,61,132515,1,0,0:0:0:0:
144,63,132715,6,0,L|248:62,1,100
343,63,133115,1,0,0:0:0:0:
343,63,133315,1,0,0:0:0:0:
73,219,133515,6,0,P|61:167|113:75,1,150
173,84,133915,2,0,P|201:121|200:182,1,100
475,231,134315,6,0,P|487:179|435:87,1,150
375,96,134715,2,0,P|347:133|348:194,1,100
39,207,135115,6,0,L|188:207,1,150
238,208,135515,1,0,0:0:0:0:
139,192,135715,1,0,0:0:0:0:
319,198,135915,5,0,0:0:0:0:
219,195,136115,1,0,0:0:0:0:
399,200,136315,1,0,0:0:0:0:
299,197,136515,1,0,0:0:0:0:
0,246,136715,6,0,L|221:207,1,200
297,228,137315,1,0,0:0:0:0:
116,171,137515,2,0,L|4:171,1,100
196,174,137915,1,0,0:0:0:0:
296,153,138115,1,0,0:0:0:0:
116,116,138315,6,0,L|306:117,1,150
315,119,138715,2,0,L|361:234,1,100
171,159,139115,2,0,L|209:37,1,100
381,150,139515,1,0,0:0:0:0:
381,150,139715,1,0,0:0:0:0:
201,188,139915,6,0,L|360:217,1,150
399,214,140315,1,0,0:0:0:0:
218,260,140515,1,0,0:0:0:0:
168,252,140615,1,0,0:0:0:0:
118,247,140715,6,0,P|61:209|50:162,1,100
232,103,141115,2,0,L|232:203,1,100
412,289,141515,6,0,B|306:267,1,100
265,256,141815,1,0,0:0:0:0:
314,268,141915,1,0,0:0:0:0:
412,289,142115,1,0,0:0:0:0:
232,236,142315,5,0,0:0:0:0:
332,231,142515,1,0,0:0:0:0:
152,193,142715,1,0,0:0:0:0:
152,193,142915,1,0,0:0:0:0:
454,232,143115,6,0,P|426:122|336:83,1,200
255,83,143715,1,0,0:0:0:0:
74,85,143915,6,0,L|200:85,1,100
354,89,144315,1,0,0:0:0:0:
354,89,144515,1,0,0:0:0:0:
15,270,144715,6,0,L|196:249,1,150
213,245,145115,1,0,0:0:0:0:
113,201,145315,1,0,0:0:0:0:
293,197,145515,2,0,L|304:88,1,100
484,68,145915,1,0,0:0:0:0:
484,68,146115,1,0,0:0:0:0:
182,68,146315,6,0,L|293:68,1,100
331,68,146615,1,0,0:0:0:0:
282,68,146715,1,0,0:0:0:0:
182,68,146915,1,0,0:0:0:0:
362,133,147115,6,0,L|462:133,1,100
282,125,147515,2,0,L|282:18,1,100
3,212,147915,6,0,L|190:196,1,150
202,195,148315,1,0,0:0:0:0:
22,156,148515,1,0,0:0:0:0:
202,195,148715,5,0,0:0:0:0:
147,258,148915,1,0,0:0:0:0:
181,341,149115,1,0,0:0:0:0:
261,372,149315,1,0,0:0:0:0:
290,374,149415,1,0,0:0:0:0:
319,366,149515,1,0,0:0:0:0:
138,291,149715,5,0,0:0:0:0:
227,284,149815,1,0,0:0:0:0:
316,277,149915,1,0,0:0:0:0:
136,208,150115,5,0,0:0:0:0:
316,194,150315,2,0,L|206:167,2,100
486,202,150915,5,0,0:0:0:0:
397,185,151015,1,0,0:0:0:0:
308,169,151115,2,0,L|433:119,1,100
451,131,151415,1,0,0:0:0:0:
501,131,151515,2,0,L|376:81,1,100
228,88,151915,6,0,L|125:108,1,100
80,97,152215,1,0,0:0:0:0:
30,94,152315,1,0,0:0:0:0:
129,107,152515,1,0,0:0:0:0:
310,168,152715,6,0,L|130:172,1,150
110,175,153115,1,0,0:0:0:0:
110,175,153315,1,0,0:0:0:0:
292,199,153515,5,0,0:0:0:0:
192,184,153715,1,0,0:0:0:0:
373,167,153915,2,0,L|374:47,1,100
73,222,154315,6,0,L|232:224,1,150
272,226,154715,2,0,L|155:226,1,100
472,222,155115,5,0,0:0:0:0:
372,228,155315,1,0,0:0:0:0:
90,221,155515,1,0,0:0:0:0:
272,193,155715,1,0,0:0:0:0:
214,262,158365,6,0,L|308:74,16,200
214,262,169915,1,0,0:0:0:0:
315,261,170115,1,0,0:0:0:0:
315,261,170215,1,0,0:0:0:0:
214,262,170315,2,0,L|143:219,2,66.6666666666667
416,258,170715,5,0,0:0:0:0:
266,245,171015,1,0,0:0:0:0:
266,245,171115,1,0,0:0:0:0:
166,234,171315,1,0,0:0:0:0:
432,239,171515,6,0,L|247:206,1,150
235,205,171915,2,0,B|234:152|320:129|372:158,1,150
427,163,172315,6,0,P|278:95|439:40,1,419.999987182618
361,36,173115,6,0,B|168:35|266:111|254:209,1,239.999992675781
164,179,173715,1,0,0:0:0:0:
477,230,173915,6,0,B|319:196|297:171|297:171|253:126|333:108|486:73,1,419.999987182618
410,147,174715,6,0,L|250:173,1,119.999996337891
32,181,175115,2,0,L|104:217,1,59.9999981689454
151,240,175315,2,0,L|64:257,1,59.9999981689454
23,264,175515,1,0,0:0:0:0:
198,302,175715,5,0,0:0:0:0:
338,262,175915,1,0,0:0:0:0:
275,247,176048,1,0,0:0:0:0:
178,237,176248,1,0,0:0:0:0:
209,229,176315,1,0,0:0:0:0:
304,225,176515,1,0,0:0:0:0:
124,211,176715,1,0,0:0:0:0:
219,214,176915,1,0,0:0:0:0:
512,220,177115,5,0,0:0:0:0:
371,189,177415,1,0,0:0:0:0:
418,192,177515,6,0,B|453:143|370:98|251:139,1,179.999994506836
224,150,177915,6,0,L|400:56,1,179.999994506836
453,59,178315,6,0,L|331:1,1,119.999996337891
77,102,178715,6,0,B|56:98|11:153|21:236|167:196|184:61|358:205|317:370,1,479.999985351563
318,363,179915,1,0,0:0:0:0:
222,363,180115,1,0,0:0:0:0:
402,348,180315,6,0,P|481:292|507:178,1,199.999993896485
437,197,180715,2,0,L|330:171,1,79.9999975585938
290,158,180915,2,0,B|303:104|395:90|413:94,1,119.999996337891
455,94,181181,2,0,L|332:61,1,119.999996337891
259,46,181448,2,0,L|366:125,1,119.999996337891
417,157,181715,2,0,L|301:159,1,79.9999975585938
262,157,181915,5,0,0:0:0:0:
166,168,182115,1,0,0:0:0:0:
143,169,182181,1,0,0:0:0:0:
166,168,182248,1,0,0:0:0:0:
143,169,182315,1,0,0:0:0:0:
239,162,182515,1,0,0:0:0:0:
58,170,182715,5,0,0:0:0:0:
154,203,182915,1,0,0:0:0:0:
185,200,182981,1,0,0:0:0:0:
217,197,183048,1,0,0:0:0:0:
249,194,183115,1,0,0:0:0:0:
154,176,183315,1,0,0:0:0:0:
334,215,183515,6,0,P|420:169|324:27,1,300
240,25,184315,1,0,0:0:0:0:
140,23,184515,1,0,0:0:0:0:
40,21,184715,2,0,L|152:24,1,100
226,74,185115,6,0,P|117:125|237:176,1,300
326,76,185915,2,0,P|435:127|315:178,1,300
146,142,186715,6,0,L|61:348,1,200
429,161,187515,2,0,L|230:188,1,200
230,188,188115,1,0,0:0:0:0:
51,135,188315,6,0,P|17:234|48:329,1,200
142,307,188915,1,0,0:0:0:0:
239,286,189115,2,0,L|159:193,3,100
354,219,189915,6,0,B|456:221|456:221|441:88|272:147,1,300
211,139,190715,1,0,0:0:0:0:
111,147,190915,1,0,0:0:0:0:
11,154,191115,2,0,L|146:145,1,100
210,149,191515,6,0,P|128:258|241:294,1,300
341,287,192315,2,0,P|459:236|372:142,1,300
192,129,193115,6,0,L|168:29,1,100
68,130,193515,2,0,L|44:30,1,100
226,137,193915,6,0,L|247:17,1,100
423,177,194315,2,0,L|319:182,1,100
23,182,194715,6,0,L|140:191,1,100
305,229,195115,2,0,L|205:221,1,100
23,182,195515,1,0,0:0:0:0:
122,185,195715,1,0,0:0:0:0:
304,193,195915,1,0,0:0:0:0:
330,195,196115,1,0,0:0:0:0:
150,191,196315,6,0,P|92:105|154:69,1,200
214,129,196915,2,0,L|409:4,1,200
382,21,197715,1,0,0:0:0:0:
201,139,197915,2,0,L|81:131,1,100
201,139,198315,2,0,L|300:145,1,100
331,149,198615,1,0,0:0:0:0:
357,152,198715,6,0,B|357:350|357:350|357:200,1,300
456,243,199515,6,0,L|321:210,1,100
456,243,199915,1,0,0:0:0:0:
359,219,200115,2,0,L|144:273,1,200
65,266,200715,1,0,0:0:0:0:
165,267,200915,1,0,0:0:0:0:
345,213,201115,6,0,L|459:212,1,100
345,213,201515,2,0,L|245:213,1,100
65,179,201915,5,0,0:0:0:0:
165,179,202115,1,0,0:0:0:0:
265,179,202315,1,0,0:0:0:0:
85,178,202515,1,0,0:0:0:0:
364,192,202715,5,0,0:0:0:0:
182,188,202915,1,0,0:0:0:0:
364,192,203115,5,0,0:0:0:0:
182,188,203315,1,0,0:0:0:0:
457,141,203515,5,0,0:0:0:0:
277,127,203715,1,0,0:0:0:0:
5,170,203915,1,0,0:0:0:0:
279,163,204115,5,0,0:0:0:0:
256,192,204215,12,0,205915,0:0:0:0:
326,150,206315,6,0,L|176:150,1,150
126,151,206715,1,0,0:0:0:0:
306,152,206915,2,0,L|364:152,1,50
427,153,207115,6,0,L|308:153,1,100
147,162,207515,1,0,0:0:0:0:
147,162,207715,1,0,0:0:0:0:
426,240,207915,6,0,P|505:193|501:140,1,150
432,141,208315,1,0,0:0:0:0:
252,142,208515,2,0,L|197:142,1,50
130,143,208715,6,0,L|94:244,1,100
277,238,209115,2,0,L|313:339,1,100
9,285,209515,6,0,L|137:275,1,100
158,272,209815,1,0,0:0:0:0:
207,266,209915,1,0,0:0:0:0:
27,217,210115,1,0,0:0:0:0:
207,202,210315,6,0,L|92:187,1,100
288,179,210715,2,0,L|288:16,1,150
439,99,211115,6,0,P|370:118|324:217,1,150
401,185,211515,1,0,0:0:0:0:
301,181,211715,1,0,0:0:0:0:
120,172,211915,6,0,L|239:134,1,100
395,172,212315,1,0,0:0:0:0:
395,172,212515,2,0,L|316:162,1,50
110,143,212715,6,0,L|291:110,1,150
308,118,213115,1,0,0:0:0:0:
128,92,213315,2,0,L|180:80,1,50
249,82,213515,6,0,L|343:118,1,100
162,165,213915,2,0,L|52:184,1,100
370,248,214315,6,0,P|420:212|364:170,1,150
298,176,214715,1,0,0:0:0:0:
398,176,214915,1,0,0:0:0:0:
216,154,215115,6,0,L|182:46,1,100
366,158,215515,2,0,L|400:50,1,100
216,162,215915,6,0,L|82:167,1,100
10,154,216215,1,0,0:0:0:0:
0,174,216315,2,0,L|140:175,1,100
400,294,216715,6,0,P|496:226|475:179,1,150
421,215,217115,2,0,L|319:215,1,100
141,212,217515,6,0,L|261:212,1,100
290,211,217815,1,0,0:0:0:0:
290,211,217915,1,0,0:0:0:0:
110,174,218115,2,0,L|159:182,1,50
363,225,218315,5,0,0:0:0:0:
446,217,218515,1,0,0:0:0:0:
240,202,218715,1,0,0:0:0:0:
140,194,218915,1,0,0:0:0:0:
452,207,219115,6,0,L|247:198,1,200
71,182,219715,2,0,L|123:175,1,50
191,167,219915,2,0,L|298:196,1,100
108,109,220315,1,0,0:0:0:0:
108,109,220515,1,0,0:0:0:0:
411,166,220715,6,0,L|234:148,1,150
211,146,221115,1,0,0:0:0:0:
391,113,221315,2,0,L|449:113,1,50
512,112,221515,2,0,L|393:110,1,100
231,101,221915,2,0,L|231:214,1,100
51,200,222315,6,0,L|174:201,1,100
201,202,222615,1,0,0:0:0:0:
250,201,222715,2,0,L|150:200,1,100
331,165,223115,2,0,L|430:165,1,100
251,140,223515,2,0,L|251:-27,1,150
16,188,223915,6,0,P|99:141|85:68,1,150
29,82,224315,1,0,0:0:0:0:
128,86,224515,1,0,0:0:0:0:
308,104,224715,6,0,L|418:105,2,100
128,216,225315,2,0,L|208:216,1,50
377,216,225515,5,0,0:0:0:0:
506,217,225715,2,0,L|389:164,1,100
235,105,226115,2,0,L|146:121,1,50
135,122,226315,2,0,L|0:108,2,100
135,122,226915,1,0,0:0:0:0:
436,126,227115,6,0,L|306:134,1,100
237,128,227415,1,0,0:0:0:0:
138,117,227515,2,0,L|22:129,1,100
338,201,227915,6,0,L|480:185,1,100
338,201,228215,1,0,0:0:0:0:
238,212,228315,2,0,L|380:196,1,100
36,131,228715,6,0,L|180:112,1,100
199,109,229015,1,0,0:0:0:0:
263,98,229115,1,0,0:0:0:0:
424,142,229315,1,0,0:0:0:0:
245,153,229515,5,0,0:0:0:0:
345,133,229715,1,0,0:0:0:0:
165,118,229915,2,0,L|166:228,1,100
467,227,230315,6,0,L|297:227,1,150
267,227,230715,1,0,0:0:0:0:
367,227,230915,1,0,0:0:0:0:
267,227,231115,1,0,0:0:0:0:
167,227,231315,1,0,0:0:0:0:
357,179,231515,1,0,0:0:0:0:
256,159,231715,5,0,0:0:0:0:
340,146,231815,1,0,0:0:0:0:
424,134,231915,6,0,L|445:23,1,100
332,31,232215,1,0,0:0:0:0:
282,31,232315,2,0,L|169:31,1,100
4,148,232715,2,0,L|235:149,1,200
204,148,233315,1,0,0:0:0:0:
485,174,233515,6,0,L|367:192,1,100
309,171,233815,1,0,0:0:0:0:
386,189,233915,1,0,0:0:0:0:
286,199,234115,1,0,0:0:0:0:
0,260,234315,6,0,L|118:278,1,100
176,257,234615,1,0,0:0:0:0:
98,275,234715,1,0,0:0:0:0:
199,285,234915,1,0,0:0:0:0:
499,274,235115,6,0,L|332:254,1,150
300,246,235515,1,0,0:0:0:0:
138,220,235715,1,0,0:0:0:0:
320,184,235915,1,0,0:0:0:0:
220,188,236115,1,0,0:0:0:0:
120,192,236315,1,0,0:0:0:0:
424,182,236715,5,0,0:0:0:0:
324,171,236915,1,0,0:0:0:0:
274,165,237015,1,0,0:0:0:0:
224,159,237115,1,0,0:0:0:0:
404,127,237315,1,0,0:0:0:0:
103,57,237515,6,0,L|335:57,1,200
402,57,238115,1,0,0:0:0:0:
16,99,238315,5,0,0:0:0:0:
165,96,238615,1,0,0:0:0:0:
165,96,238715,1,0,0:0:0:0:
65,96,238915,1,0,0:0:0:0:
260,116,239115,6,0,B|369:109|355:293|263:290|263:290|507:186,1,519.99997619629
346,185,240215,1,0,0:0:0:0:
346,185,240315,1,0,0:0:0:0:
449,186,240515,1,0,0:0:0:0:
254,132,240715,6,0,L|117:103,1,129.999994049073
321,71,241115,2,0,L|448:97,1,129.999994049073
253,31,241515,6,0,B|496:122|496:122|400:68|405:313|498:273|498:273|247:354|247:354|513:356,1,1039.99995239258
351,354,243415,1,0,0:0:0:0:
299,354,243515,1,0,0:0:0:0:
402,355,243715,1,0,0:0:0:0:
207,292,243915,6,0,L|356:253,1,129.999994049073
512,209,244315,2,0,L|363:170,1,129.999994049073
17,117,244715,6,0,P|35:71|130:67,1,129.999994049073
159,52,245015,1,0,0:0:0:0:
210,53,245115,2,0,B|10:221|10:221|268:247|268:247|174:232|188:57|284:53,1,779.999964294435
434,54,246615,1,0,0:0:0:0:
434,54,246715,1,0,0:0:0:0:
330,55,246915,1,0,0:0:0:0:
134,129,247115,6,0,L|290:151,1,129.999994049073
458,179,247515,2,0,L|329:160,1,129.999994049073
131,209,247915,6,0,B|270:189,1,129.999994049073
311,184,248215,1,0,0:0:0:0:
311,184,248315,1,0,0:0:0:0:
413,167,248515,1,0,0:0:0:0:
218,166,248715,6,0,P|157:127|228:62,1,194.999991073609
296,65,249115,2,0,L|79:63,1,194.999991073609
25,60,249515,2,0,P|102:126|239:108,1,194.999991073609
274,133,249915,2,0,L|64:134,1,194.999991073609
26,134,250315,6,0,L|45:205,1,64.9999970245363
166,181,250515,2,0,L|185:252,1,64.9999970245363
306,235,250715,2,0,L|341:366,1,129.999994049073
3,235,251115,6,0,B|64:145|191:142|191:142|233:142|233:142|136:112|225:46|78:49,1,454.999979171754
8,47,251915,6,0,B|267:60|267:60|160:88|161:220|257:252,1,519.99997619629
410,250,253015,1,0,0:0:0:0:
461,245,253115,1,0,0:0:0:0:
357,247,253315,1,0,0:0:0:0:
161,215,253515,6,0,B|416:179|416:179|233:158|244:26|244:26|430:104|247:197|247:197|379:197,1,909.999958343508
480,208,255115,6,0,B|221:232|221:232|222:372,1,389.999982147218
511,265,255915,6,0,B|468:169|288:158|288:158|417:143|417:143|288:158|288:158|395:167|401:-9|282:7|282:7|421:7,1,909.999958343508
57,88,257515,5,0,0:0:0:0:
57,88,257815,1,0,0:0:0:0:
109,89,257915,2,0,L|283:217,1,194.999991073609
308,235,258315,2,0,L|191:336,1,129.999994049073
12,264,258715,2,0,P|76:202|2:176,1,194.999991073609
177,271,259115,6,0,B|437:272|437:272|308:272|308:272,1,389.999982147218
411,272,259915,6,0,P|500:182|404:142,1,259.999988098145
101,224,260715,6,0,B|360:224|360:224|283:118|283:118|412:118|412:118|334:12|334:12|463:12|463:12,1,779.999964294435
151,112,262315,6,0,L|-1:143,1,129.999994049073
76,137,262615,1,0,0:0:0:0:
127,143,262715,2,0,L|284:180,1,129.999994049073
448,211,263115,6,0,L|224:268,1,194.999991073609
207,267,263515,2,0,L|354:267,1,129.999994049073
22,264,263915,6,0,B|31:185|155:152|240:158|240:158|23:22|23:22|154:21|154:21|32:62|32:62|291:97|291:97|161:177|208:276|207:361|288:393|416:377|473:316|473:316|256:172|256:172|500:51,1,2079.99990478516
489,56,267515,1,0,0:0:0:0:
170,66,267915,5,0,0:0:0:0:
273,71,268115,1,0,0:0:0:0:
468,144,268315,1,0,0:0:0:0:
364,151,268515,1,0,0:0:0:0:
168,226,268715,6,0,L|66:42,2,194.999991073609
363,227,269515,2,0,P|428:195|353:65,1,259.999988098145
331,63,270115,1,0,0:0:0:0:
18,120,270315,6,0,L|159:378,1,259.999988098145
410,325,271115,1,0,0:0:0:0:
410,325,271315,1,0,0:0:0:0:
256,192,271515,12,0,271581,0:0:0:0:
256,192,271648,12,0,271715,0:0:0:0:
256,192,271915,12,0,272215,0:0:0:0:
159,195,272315,5,0,0:0:0:0:
472,133,272512,1,0,0:0:0:0:
80,105,272709,1,0,0:0:0:0:
0,106,272906,2,0,L|6:152,1,33.3333333333333
