osu file format v14

[General]
AudioFilename: audio.ogg
AudioLeadIn: 0
PreviewTime: 58225
Countdown: 0
SampleSet: Soft
StackLeniency: 0.7
Mode: 3
LetterboxInBreaks: 0
SpecialStyle: 0
WidescreenStoryboard: 0

[Editor]
Bookmarks: 11965,24765,37565,50365,55165,58365,83965,96765,109565,122365,130365,155965,166965,167565,168365,170765,183565,196365,206365,231965,238365,257565,263965,271965,279865
DistanceSpacing: 0.8
BeatDivisor: 4
GridSize: 32
TimelineZoom: 1.9

[Metadata]
Title:Shoujo Rei
TitleUnicode:少女レイ
Artist:Shoto
ArtistUnicode:Shoto
Creator:Noch Einen
Version:Life flashes before my eyes
Source:
Tags:初音ミク Hatsune Miku ShoujouRei japanese pop jpop vtuber EN ENVTuber mikitop みきとP mikito p Biango Umi shxtou vocaloid ボーカロイド ボカロ [_deleted_]
BeatmapID:4267484
BeatmapSetID:2044623

[Difficulty]
HPDrainRate:9
CircleSize:7
OverallDifficulty:8
ApproachRate:5
SliderMultiplier:1.4
SliderTickRate:1

[Events]
//Background and Video events
0,0,"F2sw5WqXoA0FHX9.jpg",0,0
//Break Periods
2,159715,164707
//Storyboard Layer 0 (Background)
//Storyboard Layer 1 (Fail)
//Storyboard Layer 2 (Pass)
//Storyboard Layer 3 (Foreground)
//Storyboard Layer 4 (Overlay)
//Storyboard Sound Samples

[TimingPoints]
10315,400,4,2,1,50,1,0
11515,-333.333333333333,4,2,1,50,0,0
11715,-83.3333333333333,4,2,1,50,0,0
11915,-100,4,2,1,50,0,0
50315,-111.111111111111,4,2,1,50,0,0
55115,-100,4,2,1,50,0,0
57915,-200,4,2,1,50,0,0
58115,-76.9230769230769,4,2,1,50,0,0
58315,-100,4,2,1,50,0,1
83915,-100,4,2,1,50,0,0
107915,-142.857142857143,4,2,1,50,0,0
109115,-250.000000000001,4,2,1,50,0,0
109315,-83.3333333333333,4,2,1,50,0,0
109515,-100,4,2,1,50,0,0
122315,-111.111111111111,4,2,1,50,0,0
127115,-100,4,2,1,50,0,0
129915,-333.333333333333,4,2,1,50,0,0
130115,-66.6666666666667,4,2,1,50,0,0
130315,-100,4,2,1,50,0,1
155815,-100,4,2,1,50,0,0
156565,600,4,2,1,50,1,0
156565,-133.333333333333,4,2,1,50,0,0
166165,-66.6666666666667,4,2,1,50,0,0
166915,-50,4,2,1,50,0,0
167536,-40,4,2,1,50,0,0
167879,-25,4,2,1,50,0,0
168136,-22.2222222222222,4,2,1,50,0,0
168307,-10,4,2,1,50,0,0
168317,-1000,4,2,1,50,0,0
169165,-333.333333333334,4,2,1,50,0,0
169315,-250.000000000001,4,2,1,50,0,0
169465,-200,4,2,1,50,0,0
169615,-166.666666666667,4,2,1,50,0,0
169765,-142.857142857143,4,2,1,50,0,0
169915,400,4,2,1,50,1,0
169915,-166.666666666667,4,2,1,50,0,0
170115,-142.857142857143,4,2,1,50,0,0
170315,-125,4,2,1,50,0,0
170515,-111.111111111111,4,2,1,50,0,0
170715,400,4,2,1,50,1,0
196315,-111.111111111111,4,2,1,50,0,0
201115,-100,4,2,1,50,0,0
202715,-95.2380952380952,4,2,1,50,0,0
203315,-90.9090909090909,4,2,1,50,0,0
204115,-142.857142857143,4,2,1,50,0,0
205915,-333.333333333333,4,2,1,50,0,0
206115,-71.4285714285714,4,2,1,50,0,0
206315,400,4,2,1,50,1,1
231515,-100,4,2,1,50,0,0
231915,-100,4,2,1,50,0,1
238315,-100,4,2,1,50,0,0
271915,-83.3333333333333,4,2,1,50,0,0
271965,-1000,4,2,1,50,0,0
272015,-83.3333333333333,4,2,1,50,0,0
272065,-1000,4,2,1,50,0,0
272115,-83.3333333333333,4,2,1,50,0,0
272165,-1000,4,2,1,50,0,0
272215,-83.3333333333333,4,2,1,50,0,0
272265,-1000,4,2,1,50,0,0
272315,591.133004926108,4,2,1,50,1,0
272315,-58.8235294117647,4,2,1,50,0,0
272364,-166.666666666667,4,2,1,50,0,0
272413,-58.8235294117647,4,2,1,50,0,0
272462,-166.666666666667,4,2,1,50,0,0
272512,-50,4,2,1,50,0,0
272561,-166.666666666667,4,2,1,50,0,0
272610,-50,4,2,1,50,0,0
272659,-166.666666666667,4,2,1,50,0,0
272709,-47.6190476190476,4,2,1,50,0,0
272758,-50,4,2,1,50,0,0
272807,-52.6315789473684,4,2,1,50,0,0
272856,-55.5555555555556,4,2,1,50,0,0
272906,-62.5,4,2,1,50,0,0
272955,-66.6666666666667,4,2,1,50,0,0
273004,-71.4285714285714,4,2,1,50,0,0
273053,-76.9230769230769,4,2,1,50,0,0
273201,591.133004926108,4,2,1,50,1,0
273201,-10000,4,2,1,50,0,0
273504,-2016.128974,4,2,1,50,0,0
273516,-1121.076265,4,2,1,50,0,0
273528,-776.3974871,4,2,1,50,0,0
273540,-593.8242121,4,2,1,50,0,0
273552,-480.7692208,4,2,1,50,0,0
273564,-403.8772147,4,2,1,50,0,0
273576,-348.1894104,4,2,1,50,0,0
273588,-305.9975626,4,2,1,50,0,0
273600,-272.9257616,4,2,1,50,0,0
273612,-246.3054258,4,2,1,50,0,0
273624,-224.4165155,4,2,1,50,0,0
273636,-206.1005822,4,2,1,50,0,0
273648,-190.5487796,4,2,1,50,0,0
273660,-177.1793,4,2,1,50,0,0
273672,-165.5629215,4,2,1,50,0,0
273684,-155.3760131,4,2,1,50,0,0
273696,-146.3700231,4,2,1,50,0,0
273708,-138.3508546,4,2,1,50,0,0
273720,-131.1647478,4,2,1,50,0,0
273732,-124.6882815,4,2,1,50,0,0
273744,-118.8212927,4,2,1,50,0,0
273756,-113.481614,4,2,1,50,0,0
273768,-108.6012198,4,2,1,50,0,0
273780,-104.1232836,4,2,1,50,0,0
273792,-10000,4,2,1,50,0,0
274095,-2016.128974,4,2,1,50,0,0
274107,-1121.076265,4,2,1,50,0,0
274119,-776.3974871,4,2,1,50,0,0
274131,-593.8242121,4,2,1,50,0,0
274143,-480.7692208,4,2,1,50,0,0
274155,-403.8772147,4,2,1,50,0,0
274167,-348.1894104,4,2,1,50,0,0
274179,-305.9975626,4,2,1,50,0,0
274191,-272.9257616,4,2,1,50,0,0
274203,-246.3054258,4,2,1,50,0,0
274215,-224.4165155,4,2,1,50,0,0
274227,-206.1005822,4,2,1,50,0,0
274239,-190.5487796,4,2,1,50,0,0
274251,-177.1793,4,2,1,50,0,0
274263,-165.5629215,4,2,1,50,0,0
274275,-155.3760131,4,2,1,50,0,0
274287,-146.3700231,4,2,1,50,0,0
274299,-138.3508546,4,2,1,50,0,0
274311,-131.1647478,4,2,1,50,0,0
274323,-124.6882815,4,2,1,50,0,0
274335,-118.8212927,4,2,1,50,0,0
274347,-113.481614,4,2,1,50,0,0
274359,-108.6012198,4,2,1,50,0,0
274371,-104.1232836,4,2,1,50,0,0
274383,-10000,4,2,1,50,0,0
274686,-2016.128974,4,2,1,50,0,0
274698,-1121.076265,4,2,1,50,0,0
274710,-776.3974871,4,2,1,50,0,0
274722,-593.8242121,4,2,1,50,0,0
274734,-480.7692208,4,2,1,50,0,0
274746,-403.8772147,4,2,1,50,0,0
274758,-348.1894104,4,2,1,50,0,0
274770,-305.9975626,4,2,1,50,0,0
274782,-272.9257616,4,2,1,50,0,0
274794,-246.3054258,4,2,1,50,0,0
274806,-224.4165155,4,2,1,50,0,0
274818,-206.1005822,4,2,1,50,0,0
274830,-190.5487796,4,2,1,50,0,0
274842,-177.1793,4,2,1,50,0,0
274854,-165.5629215,4,2,1,50,0,0
274866,-155.3760131,4,2,1,50,0,0
274878,-146.3700231,4,2,1,50,0,0
274890,-138.3508546,4,2,1,50,0,0
274902,-131.1647478,4,2,1,50,0,0
274914,-124.6882815,4,2,1,50,0,0
274926,-118.8212927,4,2,1,50,0,0
274938,-113.481614,4,2,1,50,0,0
274950,-108.6012198,4,2,1,50,0,0
274962,-104.1232836,4,2,1,50,0,0
274974,-10000,4,2,1,50,0,0
275277,-2016.128974,4,2,1,50,0,0
275289,-1121.076265,4,2,1,50,0,0
275301,-776.3974871,4,2,1,50,0,0
275313,-593.8242121,4,2,1,50,0,0
275325,-480.7692208,4,2,1,50,0,0
275337,-403.8772147,4,2,1,50,0,0
275349,-348.1894104,4,2,1,50,0,0
275361,-305.9975626,4,2,1,50,0,0
275373,-272.9257616,4,2,1,50,0,0
275385,-246.3054258,4,2,1,50,0,0
275397,-224.4165155,4,2,1,50,0,0
275409,-206.1005822,4,2,1,50,0,0
275421,-190.5487796,4,2,1,50,0,0
275433,-177.1793,4,2,1,50,0,0
275445,-165.5629215,4,2,1,50,0,0
275457,-155.3760131,4,2,1,50,0,0
275469,-146.3700231,4,2,1,50,0,0
275481,-138.3508546,4,2,1,50,0,0
275493,-131.1647478,4,2,1,50,0,0
275505,-124.6882815,4,2,1,50,0,0
275517,-118.8212927,4,2,1,50,0,0
275529,-113.481614,4,2,1,50,0,0
275541,-108.6012198,4,2,1,50,0,0
275553,-104.1232836,4,2,1,50,0,0
275565,594.059405940594,4,2,1,50,1,0
275565,-10000,4,2,1,50,0,0
275871,-2016.128974,4,2,1,50,0,0
275883,-1121.076265,4,2,1,50,0,0
275895,-776.3974871,4,2,1,50,0,0
275907,-593.8242121,4,2,1,50,0,0
275919,-480.7692208,4,2,1,50,0,0
275931,-403.8772147,4,2,1,50,0,0
275943,-348.1894104,4,2,1,50,0,0
275955,-305.9975626,4,2,1,50,0,0
275967,-272.9257616,4,2,1,50,0,0
275979,-246.3054258,4,2,1,50,0,0
275991,-224.4165155,4,2,1,50,0,0
276003,-206.1005822,4,2,1,50,0,0
276015,-190.5487796,4,2,1,50,0,0
276027,-177.1793,4,2,1,50,0,0
276039,-165.5629215,4,2,1,50,0,0
276051,-155.3760131,4,2,1,50,0,0
276063,-146.3700231,4,2,1,50,0,0
276075,-138.3508546,4,2,1,50,0,0
276087,-131.1647478,4,2,1,50,0,0
276099,-124.6882815,4,2,1,50,0,0
276111,-118.8212927,4,2,1,50,0,0
276123,-113.481614,4,2,1,50,0,0
276135,-108.6012198,4,2,1,50,0,0
276147,-104.1232836,4,2,1,50,0,0
276159,-10000,4,2,1,50,0,0
276465,-2016.128974,4,2,1,50,0,0
276477,-1121.076265,4,2,1,50,0,0
276489,-776.3974871,4,2,1,50,0,0
276501,-593.8242121,4,2,1,50,0,0
276513,-480.7692208,4,2,1,50,0,0
276525,-403.8772147,4,2,1,50,0,0
276537,-348.1894104,4,2,1,50,0,0
276549,-305.9975626,4,2,1,50,0,0
276561,-272.9257616,4,2,1,50,0,0
276573,-246.3054258,4,2,1,50,0,0
276585,-224.4165155,4,2,1,50,0,0
276597,-206.1005822,4,2,1,50,0,0
276609,-190.5487796,4,2,1,50,0,0
276621,-177.1793,4,2,1,50,0,0
276633,-165.5629215,4,2,1,50,0,0
276645,-155.3760131,4,2,1,50,0,0
276657,-146.3700231,4,2,1,50,0,0
276669,-138.3508546,4,2,1,50,0,0
276681,-131.1647478,4,2,1,50,0,0
276693,-124.6882815,4,2,1,50,0,0
276705,-118.8212927,4,2,1,50,0,0
276717,-113.481614,4,2,1,50,0,0
276729,-108.6012198,4,2,1,50,0,0
276741,-104.1232836,4,2,1,50,0,0
276753,-10000,4,2,1,50,0,0
277059,-2016.128974,4,2,1,50,0,0
277071,-1121.076265,4,2,1,50,0,0
277083,-776.3974871,4,2,1,50,0,0
277095,-593.8242121,4,2,1,50,0,0
277107,-480.7692208,4,2,1,50,0,0
277119,-403.8772147,4,2,1,50,0,0
277131,-348.1894104,4,2,1,50,0,0
277143,-305.9975626,4,2,1,50,0,0
277155,-272.9257616,4,2,1,50,0,0
277167,-246.3054258,4,2,1,50,0,0
277179,-224.4165155,4,2,1,50,0,0
277191,-206.1005822,4,2,1,50,0,0
277203,-190.5487796,4,2,1,50,0,0
277215,-177.1793,4,2,1,50,0,0
277227,-165.5629215,4,2,1,50,0,0
277239,-155.3760131,4,2,1,50,0,0
277251,-146.3700231,4,2,1,50,0,0
277263,-138.3508546,4,2,1,50,0,0
277275,-131.1647478,4,2,1,50,0,0
277287,-124.6882815,4,2,1,50,0,0
277299,-118.8212927,4,2,1,50,0,0
277311,-113.481614,4,2,1,50,0,0
277323,-108.6012198,4,2,1,50,0,0
277335,-104.1232836,4,2,1,50,0,0
277347,-10000,4,2,1,50,0,0
277653,-2016.128974,4,2,1,50,0,0
277665,-1121.076265,4,2,1,50,0,0
277677,-776.3974871,4,2,1,50,0,0
277689,-593.8242121,4,2,1,50,0,0
277701,-480.7692208,4,2,1,50,0,0
277713,-403.8772147,4,2,1,50,0,0
277725,-348.1894104,4,2,1,50,0,0
277737,-305.9975626,4,2,1,50,0,0
277749,-272.9257616,4,2,1,50,0,0
277761,-246.3054258,4,2,1,50,0,0
277773,-224.4165155,4,2,1,50,0,0
277785,-206.1005822,4,2,1,50,0,0
277797,-190.5487796,4,2,1,50,0,0
277809,-177.1793,4,2,1,50,0,0
277821,-165.5629215,4,2,1,50,0,0
277833,-155.3760131,4,2,1,50,0,0
277845,-146.3700231,4,2,1,50,0,0
277857,-138.3508546,4,2,1,50,0,0
277869,-131.1647478,4,2,1,50,0,0
277881,-124.6882815,4,2,1,50,0,0
277893,-118.8212927,4,2,1,50,0,0
277905,-113.481614,4,2,1,50,0,0
277917,-108.6012198,4,2,1,50,0,0
277929,-104.1232836,4,2,1,50,0,0
277941,600,4,2,1,50,1,0
277941,-10000,4,2,1,50,0,0
278253,-2016.128974,4,2,1,50,0,0
278265,-1121.076265,4,2,1,50,0,0
278277,-776.3974871,4,2,1,50,0,0
278289,-593.8242121,4,2,1,50,0,0
278301,-480.7692208,4,2,1,50,0,0
278313,-403.8772147,4,2,1,50,0,0
278325,-348.1894104,4,2,1,50,0,0
278337,-305.9975626,4,2,1,50,0,0
278349,-272.9257616,4,2,1,50,0,0
278361,-246.3054258,4,2,1,50,0,0
278373,-224.4165155,4,2,1,50,0,0
278385,-206.1005822,4,2,1,50,0,0
278397,-190.5487796,4,2,1,50,0,0
278409,-177.1793,4,2,1,50,0,0
278421,-165.5629215,4,2,1,50,0,0
278433,-155.3760131,4,2,1,50,0,0
278445,-146.3700231,4,2,1,50,0,0
278457,-138.3508546,4,2,1,50,0,0
278469,-131.1647478,4,2,1,50,0,0
278481,-124.6882815,4,2,1,50,0,0
278493,-118.8212927,4,2,1,50,0,0
278505,-113.481614,4,2,1,50,0,0
278517,-108.6012198,4,2,1,50,0,0
278529,-104.1232836,4,2,1,50,0,0
278541,-10000,4,2,1,50,0,0
278853,-2016.128974,4,2,1,50,0,0
278865,-1121.076265,4,2,1,50,0,0
278877,-776.3974871,4,2,1,50,0,0
278889,-593.8242121,4,2,1,50,0,0
278901,-480.7692208,4,2,1,50,0,0
278913,-403.8772147,4,2,1,50,0,0
278925,-348.1894104,4,2,1,50,0,0
278937,-305.9975626,4,2,1,50,0,0
278949,-272.9257616,4,2,1,50,0,0
278961,-246.3054258,4,2,1,50,0,0
278973,-224.4165155,4,2,1,50,0,0
278985,-206.1005822,4,2,1,50,0,0
278997,-190.5487796,4,2,1,50,0,0
279009,-177.1793,4,2,1,50,0,0
279021,-165.5629215,4,2,1,50,0,0
279033,-155.3760131,4,2,1,50,0,0
279045,-146.3700231,4,2,1,50,0,0
279057,-138.3508546,4,2,1,50,0,0
279069,-131.1647478,4,2,1,50,0,0
279081,-124.6882815,4,2,1,50,0,0
279093,-118.8212927,4,2,1,50,0,0
279105,-113.481614,4,2,1,50,0,0
279117,-108.6012198,4,2,1,50,0,0
279129,-104.1232836,4,2,1,50,0,0
279141,-10000,4,2,1,50,0,0
279465,-2016.128974,4,2,1,50,0,0
279477,-1121.076265,4,2,1,50,0,0
279489,-776.3974871,4,2,1,50,0,0
279501,-593.8242121,4,2,1,50,0,0
279513,-480.7692208,4,2,1,50,0,0
279525,-403.8772147,4,2,1,50,0,0
279537,-348.1894104,4,2,1,50,0,0
279549,-305.9975626,4,2,1,50,0,0
279561,-272.9257616,4,2,1,50,0,0
279573,-246.3054258,4,2,1,50,0,0
279585,-224.4165155,4,2,1,50,0,0
279597,-206.1005822,4,2,1,50,0,0
279609,-190.5487796,4,2,1,50,0,0
279621,-177.1793,4,2,1,50,0,0
279633,-165.5629215,4,2,1,50,0,0
279645,-155.3760131,4,2,1,50,0,0
279657,-146.3700231,4,2,1,50,0,0
279669,-138.3508546,4,2,1,50,0,0
279681,-131.1647478,4,2,1,50,0,0
279693,-124.6882815,4,2,1,50,0,0
279705,-118.8212927,4,2,1,50,0,0
279717,-113.481614,4,2,1,50,0,0
279729,-108.6012198,4,2,1,50,0,0
279741,-104.1232836,4,2,1,50,0,0

[HitObjects]
36,192,11915,5,2,0:0:0:0:
109,192,11915,1,4,0:0:0:0:
402,192,11915,1,0,0:0:0:0:
475,192,11915,128,0,13915:0:0:0:0:
109,192,12215,1,0,0:0:0:0:
256,192,12315,1,0,0:0:0:0:
109,192,12515,1,0,0:0:0:0:
182,192,12715,1,0,0:0:0:0:
256,192,12715,128,0,12915:0:0:0:0:
36,192,12915,128,0,13115:0:0:0:0:
256,192,13115,1,0,0:0:0:0:
329,192,13115,128,0,13315:0:0:0:0:
109,192,13315,128,0,13515:0:0:0:0:
329,192,13515,1,0,0:0:0:0:
402,192,13515,128,0,13915:0:0:0:0:
36,192,13815,1,0,0:0:0:0:
109,192,13815,1,0,0:0:0:0:
256,192,13915,1,0,0:0:0:0:
109,192,14115,1,0,0:0:0:0:
329,192,14115,1,0,0:0:0:0:
109,192,14315,1,0,0:0:0:0:
329,192,14315,1,0,0:0:0:0:
475,192,14315,128,0,14715:0:0:0:0:
36,192,14715,1,0,0:0:0:0:
109,192,14715,1,0,0:0:0:0:
256,192,14715,128,0,15115:0:0:0:0:
109,192,14915,1,0,0:0:0:0:
402,192,14915,1,0,0:0:0:0:
36,192,15115,128,0,17115:0:0:0:0:
329,192,15115,1,0,0:0:0:0:
475,192,15115,1,0,0:0:0:0:
329,192,15415,1,0,0:0:0:0:
182,192,15515,1,0,0:0:0:0:
329,192,15715,1,0,0:0:0:0:
256,192,15915,1,0,0:0:0:0:
475,192,15915,128,0,16115:0:0:0:0:
402,192,16115,128,0,16315:0:0:0:0:
256,192,16315,1,0,0:0:0:0:
329,192,16315,128,0,16515:0:0:0:0:
402,192,16515,128,0,16715:0:0:0:0:
256,192,16715,1,0,0:0:0:0:
475,192,16715,128,0,17115:0:0:0:0:
182,192,17015,1,0,0:0:0:0:
329,192,17015,1,0,0:0:0:0:
256,192,17115,1,0,0:0:0:0:
182,192,17315,1,0,0:0:0:0:
329,192,17315,1,0,0:0:0:0:
36,192,17515,128,0,17915:0:0:0:0:
182,192,17515,1,0,0:0:0:0:
329,192,17515,1,0,0:0:0:0:
109,192,17915,1,0,0:0:0:0:
256,192,17915,128,0,18315:0:0:0:0:
475,192,17915,1,0,0:0:0:0:
109,192,18115,1,0,0:0:0:0:
402,192,18115,1,0,0:0:0:0:
36,192,18315,1,0,0:0:0:0:
329,192,18315,1,0,0:0:0:0:
475,192,18315,128,0,20315:0:0:0:0:
36,192,18615,1,0,0:0:0:0:
329,192,18715,1,0,0:0:0:0:
36,192,18915,1,0,0:0:0:0:
182,192,19115,1,0,0:0:0:0:
256,192,19115,128,0,19315:0:0:0:0:
36,192,19315,128,0,19515:0:0:0:0:
256,192,19515,1,0,0:0:0:0:
329,192,19515,128,0,19715:0:0:0:0:
109,192,19715,128,0,19915:0:0:0:0:
329,192,19915,1,0,0:0:0:0:
402,192,19915,128,0,20315:0:0:0:0:
36,192,20215,1,0,0:0:0:0:
109,192,20215,1,0,0:0:0:0:
256,192,20315,1,0,0:0:0:0:
109,192,20515,1,0,0:0:0:0:
329,192,20515,1,0,0:0:0:0:
109,192,20715,1,0,0:0:0:0:
329,192,20715,1,0,0:0:0:0:
475,192,20715,128,0,21115:0:0:0:0:
36,192,21115,1,0,0:0:0:0:
182,192,21115,1,0,0:0:0:0:
402,192,21115,128,0,21515:0:0:0:0:
182,192,21315,1,0,0:0:0:0:
329,192,21315,1,0,0:0:0:0:
36,192,21515,1,0,0:0:0:0:
109,192,21515,1,0,0:0:0:0:
256,192,21515,128,0,22315:0:0:0:0:
109,192,21815,1,0,0:0:0:0:
402,192,21915,1,0,0:0:0:0:
109,192,22115,1,0,0:0:0:0:
109,192,22315,128,0,23115:0:0:0:0:
402,192,22315,1,0,0:0:0:0:
475,192,22315,128,0,22515:0:0:0:0:
329,192,22515,128,0,22715:0:0:0:0:
182,192,22715,128,0,22915:0:0:0:0:
256,192,22715,1,0,0:0:0:0:
329,192,22915,128,0,23115:0:0:0:0:
36,192,23115,128,0,24115:0:0:0:0:
402,192,23115,1,0,0:0:0:0:
475,192,23115,128,0,23515:0:0:0:0:
182,192,23415,1,0,0:0:0:0:
329,192,23515,1,0,0:0:0:0:
256,192,23715,1,0,0:0:0:0:
256,192,23915,128,0,24115:0:0:0:0:
402,192,23915,1,0,0:0:0:0:
475,192,24115,1,0,0:0:0:0:
402,192,24181,1,0,0:0:0:0:
329,192,24248,1,0,0:0:0:0:
36,192,24315,1,0,0:0:0:0:
109,192,24315,1,0,0:0:0:0:
182,192,24381,1,0,0:0:0:0:
256,192,24448,1,0,0:0:0:0:
329,192,24515,1,0,0:0:0:0:
475,192,24515,1,0,0:0:0:0:
36,192,24715,1,2,0:0:0:0:
109,192,24715,1,4,0:0:0:0:
256,192,24715,128,0,25115:0:0:0:0:
402,192,24715,1,0,0:0:0:0:
402,192,25015,1,0,0:0:0:0:
36,192,25115,1,2,0:0:0:0:
182,192,25115,128,0,25515:0:0:0:0:
402,192,25315,1,0,0:0:0:0:
475,192,25315,1,0,0:0:0:0:
256,192,25515,1,0,0:0:0:0:
475,192,25515,128,0,25915:0:0:0:0:
36,192,25915,1,2,0:0:0:0:
329,192,25915,1,0,0:0:0:0:
329,192,26115,128,0,26315:0:0:0:0:
475,192,26115,1,0,0:0:0:0:
109,192,26315,128,0,26515:0:0:0:0:
256,192,26315,1,0,0:0:0:0:
475,192,26515,128,0,26715:0:0:0:0:
36,192,26715,1,2,0:0:0:0:
109,192,26715,128,0,26915:0:0:0:0:
402,192,26915,128,0,27115:0:0:0:0:
475,192,26915,1,0,0:0:0:0:
109,192,27115,1,0,0:0:0:0:
182,192,27115,128,0,27381:0:0:0:0:
402,192,27248,1,0,0:0:0:0:
329,192,27381,1,0,0:0:0:0:
36,192,27515,1,2,0:0:0:0:
182,192,27515,1,0,0:0:0:0:
256,192,27715,128,0,27915:0:0:0:0:
475,192,27715,1,0,0:0:0:0:
109,192,27915,128,0,28215:0:0:0:0:
475,192,27915,1,0,0:0:0:0:
329,192,28215,1,0,0:0:0:0:
36,192,28315,1,2,0:0:0:0:
402,192,28315,128,0,28515:0:0:0:0:
182,192,28515,128,0,28715:0:0:0:0:
475,192,28515,1,0,0:0:0:0:
256,192,28715,1,0,0:0:0:0:
402,192,28715,128,0,29115:0:0:0:0:
36,192,29115,1,2,0:0:0:0:
109,192,29115,1,0,0:0:0:0:
256,192,29315,128,0,29515:0:0:0:0:
475,192,29315,1,0,0:0:0:0:
109,192,29515,1,0,0:0:0:0:
475,192,29515,1,0,0:0:0:0:
256,192,29715,128,0,29915:0:0:0:0:
36,192,29915,1,2,0:0:0:0:
109,192,29915,128,0,30115:0:0:0:0:
329,192,30115,128,0,30315:0:0:0:0:
475,192,30115,1,0,0:0:0:0:
182,192,30315,128,0,30581:0:0:0:0:
475,192,30315,1,0,0:0:0:0:
329,192,30581,1,0,0:0:0:0:
36,192,30715,1,2,0:0:0:0:
475,192,30715,1,0,0:0:0:0:
36,192,30915,1,0,0:0:0:0:
182,192,30915,128,0,31115:0:0:0:0:
329,192,31115,1,0,0:0:0:0:
475,192,31115,128,0,31415:0:0:0:0:
329,192,31415,1,0,0:0:0:0:
36,192,31515,128,2,31715:0:0:0:0:
256,192,31515,1,0,0:0:0:0:
109,192,31715,1,0,0:0:0:0:
402,192,31715,1,0,0:0:0:0:
256,192,31915,128,0,32181:0:0:0:0:
402,192,31915,1,0,0:0:0:0:
36,192,32315,1,2,0:0:0:0:
256,192,32315,1,0,0:0:0:0:
329,192,32515,128,0,32715:0:0:0:0:
475,192,32515,1,0,0:0:0:0:
182,192,32715,1,0,0:0:0:0:
256,192,32715,1,0,0:0:0:0:
182,192,32915,128,0,33115:0:0:0:0:
36,192,33115,1,2,0:0:0:0:
402,192,33115,1,0,0:0:0:0:
182,192,33315,1,0,0:0:0:0:
402,192,33315,128,0,33515:0:0:0:0:
109,192,33515,128,0,33781:0:0:0:0:
475,192,33515,1,0,0:0:0:0:
402,192,33648,1,0,0:0:0:0:
329,192,33781,1,0,0:0:0:0:
36,192,33915,1,2,0:0:0:0:
109,192,33915,1,0,0:0:0:0:
109,192,34115,1,0,0:0:0:0:
329,192,34115,1,0,0:0:0:0:
329,192,34315,128,0,34515:0:0:0:0:
475,192,34315,1,0,0:0:0:0:
256,192,34515,128,0,34715:0:0:0:0:
475,192,34615,1,0,0:0:0:0:
36,192,34715,1,2,0:0:0:0:
182,192,34715,1,0,0:0:0:0:
182,192,34915,128,0,35115:0:0:0:0:
329,192,34915,1,0,0:0:0:0:
402,192,35115,128,0,35315:0:0:0:0:
475,192,35115,1,0,0:0:0:0:
256,192,35315,1,0,0:0:0:0:
36,192,35515,1,2,0:0:0:0:
109,192,35515,128,0,35715:0:0:0:0:
329,192,35715,1,0,0:0:0:0:
475,192,35715,1,0,0:0:0:0:
109,192,35915,128,2,36115:0:0:0:0:
256,192,35915,1,0,0:0:0:0:
402,192,35915,1,0,0:0:0:0:
36,192,36115,128,0,36315:0:0:0:0:
182,192,36315,1,2,0:0:0:0:
329,192,36315,128,0,36515:0:0:0:0:
475,192,36315,1,0,0:0:0:0:
36,192,36515,128,0,36715:0:0:0:0:
109,192,36715,1,2,0:0:0:0:
256,192,36715,1,0,0:0:0:0:
402,192,36715,1,0,0:0:0:0:
475,192,36715,128,0,37115:0:0:0:0:
182,192,37115,128,0,37215:0:0:0:0:
109,192,37515,1,2,0:0:0:0:
256,192,37515,1,4,0:0:0:0:
329,192,37515,1,0,0:0:0:0:
402,192,37515,128,0,37915:0:0:0:0:
109,192,37815,1,0,0:0:0:0:
256,192,37915,1,2,0:0:0:0:
109,192,38115,1,0,0:0:0:0:
256,192,38315,1,2,0:0:0:0:
329,192,38315,1,0,0:0:0:0:
329,192,38515,128,0,38715:0:0:0:0:
256,192,38715,1,2,0:0:0:0:
475,192,38715,128,0,38915:0:0:0:0:
109,192,38915,1,0,0:0:0:0:
402,192,38915,1,0,0:0:0:0:
109,192,39115,128,2,39515:0:0:0:0:
256,192,39115,1,0,0:0:0:0:
402,192,39381,1,0,0:0:0:0:
256,192,39515,1,2,0:0:0:0:
475,192,39715,128,0,39915:0:0:0:0:
256,192,39915,1,2,0:0:0:0:
329,192,39915,128,0,40215:0:0:0:0:
475,192,40215,1,0,0:0:0:0:
256,192,40315,1,2,0:0:0:0:
329,192,40315,1,0,0:0:0:0:
109,192,40515,1,0,0:0:0:0:
402,192,40515,1,0,0:0:0:0:
182,192,40715,128,2,41115:0:0:0:0:
256,192,40715,1,0,0:0:0:0:
475,192,41015,1,0,0:0:0:0:
256,192,41115,1,2,0:0:0:0:
329,192,41115,128,0,41515:0:0:0:0:
109,192,41315,1,0,0:0:0:0:
256,192,41515,1,2,0:0:0:0:
475,192,41515,128,0,41915:0:0:0:0:
36,192,41915,128,2,42115:0:0:0:0:
256,192,41915,1,0,0:0:0:0:
109,192,42115,1,0,0:0:0:0:
402,192,42115,1,0,0:0:0:0:
256,192,42315,1,2,0:0:0:0:
402,192,42315,128,0,42715:0:0:0:0:
256,192,42715,1,2,0:0:0:0:
475,192,42715,128,0,42915:0:0:0:0:
36,192,42915,128,0,43115:0:0:0:0:
109,192,43115,128,2,43515:0:0:0:0:
256,192,43115,1,0,0:0:0:0:
256,192,43515,1,2,0:0:0:0:
36,192,43715,1,0,0:0:0:0:
329,192,43715,1,0,0:0:0:0:
109,192,43915,1,2,0:0:0:0:
256,192,43915,1,4,0:0:0:0:
402,192,43915,128,0,44315:0:0:0:0:
475,192,43915,1,0,0:0:0:0:
109,192,44215,1,0,0:0:0:0:
256,192,44315,1,2,0:0:0:0:
109,192,44515,1,0,0:0:0:0:
256,192,44715,1,2,0:0:0:0:
329,192,44715,1,0,0:0:0:0:
329,192,44915,128,0,45115:0:0:0:0:
256,192,45115,1,2,0:0:0:0:
475,192,45115,128,0,45315:0:0:0:0:
36,192,45315,1,0,0:0:0:0:
182,192,45315,128,0,45515:0:0:0:0:
256,192,45515,1,2,0:0:0:0:
402,192,45515,128,0,46115:0:0:0:0:
182,192,45815,1,0,0:0:0:0:
256,192,45915,1,2,0:0:0:0:
329,192,46115,128,0,46315:0:0:0:0:
36,192,46315,128,2,46715:0:0:0:0:
256,192,46315,1,0,0:0:0:0:
256,192,46715,1,2,0:0:0:0:
36,192,46915,1,0,0:0:0:0:
109,192,46915,1,0,0:0:0:0:
256,192,47115,1,2,0:0:0:0:
402,192,47115,128,0,47315:0:0:0:0:
109,192,47315,1,0,0:0:0:0:
182,192,47415,1,0,0:0:0:0:
256,192,47515,1,2,0:0:0:0:
329,192,47515,128,0,47715:0:0:0:0:
36,192,47715,1,0,0:0:0:0:
256,192,47915,1,2,0:0:0:0:
475,192,47915,128,0,48181:0:0:0:0:
329,192,48181,1,0,0:0:0:0:
182,192,48315,128,2,48515:0:0:0:0:
256,192,48315,1,0,0:0:0:0:
36,192,48515,1,0,0:0:0:0:
402,192,48515,1,0,0:0:0:0:
109,192,48715,128,2,48915:0:0:0:0:
256,192,48715,1,0,0:0:0:0:
475,192,48915,1,0,0:0:0:0:
36,192,49115,128,2,49515:0:0:0:0:
256,192,49115,1,0,0:0:0:0:
329,192,49315,1,0,0:0:0:0:
182,192,49415,1,0,0:0:0:0:
402,192,49515,128,2,49915:0:0:0:0:
475,192,49515,1,0,0:0:0:0:
36,192,49715,1,0,0:0:0:0:
109,192,49715,1,0,0:0:0:0:
256,192,49915,1,0,0:0:0:0:
329,192,49915,1,0,0:0:0:0:
182,192,50115,1,0,0:0:0:0:
256,192,50115,1,0,0:0:0:0:
36,192,50315,1,2,0:0:0:0:
109,192,50315,128,0,50515:0:0:0:0:
329,192,50315,1,0,0:0:0:0:
402,192,50340,1,0,0:0:0:0:
475,192,50365,1,0,0:0:0:0:
182,192,50515,128,0,50715:0:0:0:0:
256,192,50715,128,0,50915:0:0:0:0:
36,192,50915,128,0,51515:0:0:0:0:
256,192,51315,128,0,51515:0:0:0:0:
329,192,51715,1,0,0:0:0:0:
36,192,51915,1,2,0:0:0:0:
109,192,51915,1,0,0:0:0:0:
329,192,51915,1,0,0:0:0:0:
402,192,51940,1,0,0:0:0:0:
475,192,51965,1,0,0:0:0:0:
182,192,52115,1,0,0:0:0:0:
182,192,52315,128,0,52715:0:0:0:0:
329,192,52715,128,0,53115:0:0:0:0:
256,192,53315,1,0,0:0:0:0:
36,192,53515,1,2,0:0:0:0:
402,192,53515,128,0,53715:0:0:0:0:
475,192,53515,1,0,0:0:0:0:
109,192,53540,1,0,0:0:0:0:
182,192,53565,1,0,0:0:0:0:
256,192,53715,128,0,53915:0:0:0:0:
109,192,53915,128,0,54115:0:0:0:0:
402,192,54115,128,0,54715:0:0:0:0:
475,192,54515,128,0,54715:0:0:0:0:
256,192,54715,1,0,0:0:0:0:
402,192,54915,128,0,56315:0:0:0:0:
475,192,54915,128,0,56315:0:0:0:0:
109,192,55115,1,2,0:0:0:0:
182,192,55115,1,0,0:0:0:0:
109,192,55515,1,2,0:0:0:0:
182,192,55515,1,0,0:0:0:0:
256,192,55815,1,0,0:0:0:0:
36,192,55915,1,2,0:0:0:0:
109,192,55915,1,0,0:0:0:0:
256,192,56115,1,0,0:0:0:0:
36,192,56315,1,2,0:0:0:0:
109,192,56315,1,0,0:0:0:0:
182,192,56515,1,0,0:0:0:0:
402,192,56515,1,0,0:0:0:0:
36,192,56715,1,2,0:0:0:0:
256,192,56715,1,0,0:0:0:0:
475,192,56715,1,0,0:0:0:0:
36,192,56915,1,2,0:0:0:0:
256,192,56915,1,0,0:0:0:0:
109,192,57115,1,2,0:0:0:0:
329,192,57115,1,0,0:0:0:0:
475,192,57115,1,0,0:0:0:0:
109,192,57315,1,2,0:0:0:0:
329,192,57315,1,0,0:0:0:0:
36,192,57515,1,2,0:0:0:0:
256,192,57515,1,0,0:0:0:0:
402,192,57515,1,0,0:0:0:0:
36,192,57715,1,2,0:0:0:0:
256,192,57715,1,0,0:0:0:0:
402,192,57715,1,0,0:0:0:0:
109,192,57915,1,8,0:0:0:0:
329,192,57915,1,0,0:0:0:0:
475,192,57915,1,0,0:0:0:0:
36,192,58315,1,2,0:0:0:0:
109,192,58315,128,4,58715:0:0:0:0:
402,192,58315,1,0,0:0:0:0:
475,192,58315,1,0,0:0:0:0:
402,192,58615,1,8,0:0:0:0:
182,192,58715,1,2,0:0:0:0:
329,192,58715,1,0,0:0:0:0:
36,192,58915,1,8,0:0:0:0:
256,192,58915,128,0,59115:0:0:0:0:
402,192,59115,128,2,59315:0:0:0:0:
475,192,59115,1,0,0:0:0:0:
182,192,59315,1,8,0:0:0:0:
329,192,59315,1,0,0:0:0:0:
36,192,59515,128,8,59715:0:0:0:0:
475,192,59515,1,0,0:0:0:0:
256,192,59715,128,0,59915:0:0:0:0:
109,192,59915,1,2,0:0:0:0:
402,192,59915,128,0,60315:0:0:0:0:
256,192,60215,1,8,0:0:0:0:
36,192,60315,1,2,0:0:0:0:
109,192,60315,1,0,0:0:0:0:
475,192,60315,1,0,0:0:0:0:
182,192,60515,1,8,0:0:0:0:
329,192,60515,128,0,60715:0:0:0:0:
36,192,60715,1,2,0:0:0:0:
402,192,60715,1,0,0:0:0:0:
475,192,60715,128,0,60915:0:0:0:0:
109,192,60915,1,8,0:0:0:0:
256,192,60915,1,0,0:0:0:0:
36,192,61115,1,8,0:0:0:0:
329,192,61115,1,0,0:0:0:0:
402,192,61115,128,0,61315:0:0:0:0:
182,192,61315,1,0,0:0:0:0:
182,192,61515,128,2,61915:0:0:0:0:
256,192,61515,1,0,0:0:0:0:
475,192,61515,1,0,0:0:0:0:
402,192,61815,1,8,0:0:0:0:
36,192,61915,1,2,0:0:0:0:
475,192,61915,128,0,62115:0:0:0:0:
109,192,62115,1,8,0:0:0:0:
256,192,62115,1,0,0:0:0:0:
329,192,62315,128,2,62715:0:0:0:0:
402,192,62315,1,0,0:0:0:0:
109,192,62515,1,8,0:0:0:0:
182,192,62515,1,0,0:0:0:0:
36,192,62715,128,8,63115:0:0:0:0:
475,192,62715,1,0,0:0:0:0:
256,192,62915,1,0,0:0:0:0:
182,192,63115,1,2,0:0:0:0:
402,192,63115,1,0,0:0:0:0:
475,192,63115,128,0,63515:0:0:0:0:
109,192,63415,1,8,0:0:0:0:
256,192,63515,128,2,63715:0:0:0:0:
329,192,63515,1,0,0:0:0:0:
36,192,63715,1,8,0:0:0:0:
402,192,63715,1,0,0:0:0:0:
256,192,63915,1,2,0:0:0:0:
402,192,63915,128,0,64315:0:0:0:0:
36,192,64115,1,8,0:0:0:0:
109,192,64115,1,0,0:0:0:0:
182,192,64315,1,8,0:0:0:0:
329,192,64315,1,0,0:0:0:0:
36,192,64515,1,8,0:0:0:0:
256,192,64515,1,0,0:0:0:0:
109,192,64615,1,0,0:0:0:0:
182,192,64715,1,2,0:0:0:0:
329,192,64715,1,4,0:0:0:0:
402,192,64715,128,0,65115:0:0:0:0:
475,192,64715,1,0,0:0:0:0:
109,192,65015,1,8,0:0:0:0:
36,192,65115,1,2,0:0:0:0:
256,192,65115,1,0,0:0:0:0:
329,192,65315,1,8,0:0:0:0:
475,192,65315,128,0,65515:0:0:0:0:
182,192,65515,128,2,65715:0:0:0:0:
256,192,65515,1,0,0:0:0:0:
36,192,65715,1,8,0:0:0:0:
402,192,65715,1,0,0:0:0:0:
182,192,65915,1,8,0:0:0:0:
256,192,65915,1,0,0:0:0:0:
182,192,66115,128,0,66315:0:0:0:0:
109,192,66315,1,2,0:0:0:0:
329,192,66315,128,0,66715:0:0:0:0:
475,192,66615,1,8,0:0:0:0:
36,192,66715,1,2,0:0:0:0:
109,192,66715,1,0,0:0:0:0:
402,192,66715,1,0,0:0:0:0:
256,192,66915,1,8,0:0:0:0:
329,192,66915,128,0,67115:0:0:0:0:
109,192,67115,128,2,67315:0:0:0:0:
402,192,67115,1,0,0:0:0:0:
475,192,67115,1,0,0:0:0:0:
182,192,67315,1,8,0:0:0:0:
256,192,67315,1,0,0:0:0:0:
36,192,67515,1,8,0:0:0:0:
109,192,67515,1,0,0:0:0:0:
329,192,67515,1,0,0:0:0:0:
256,192,67715,1,0,0:0:0:0:
36,192,67915,1,2,0:0:0:0:
402,192,67915,128,0,68315:0:0:0:0:
475,192,67915,1,0,0:0:0:0:
36,192,68215,1,8,0:0:0:0:
256,192,68315,1,2,0:0:0:0:
329,192,68315,128,0,68515:0:0:0:0:
109,192,68515,1,8,0:0:0:0:
475,192,68515,1,0,0:0:0:0:
182,192,68715,128,2,69115:0:0:0:0:
402,192,68715,1,0,0:0:0:0:
36,192,68915,1,8,0:0:0:0:
329,192,68915,1,0,0:0:0:0:
109,192,69115,128,8,69315:0:0:0:0:
402,192,69115,1,0,0:0:0:0:
256,192,69315,1,0,0:0:0:0:
36,192,69515,1,2,0:0:0:0:
329,192,69515,128,0,69715:0:0:0:0:
475,192,69515,1,0,0:0:0:0:
109,192,69715,1,0,0:0:0:0:
182,192,69815,1,8,0:0:0:0:
329,192,69815,1,0,0:0:0:0:
402,192,69915,128,2,70115:0:0:0:0:
109,192,70115,1,8,0:0:0:0:
256,192,70115,1,0,0:0:0:0:
329,192,70315,1,2,0:0:0:0:
475,192,70315,128,0,70515:0:0:0:0:
36,192,70515,1,8,0:0:0:0:
109,192,70515,1,0,0:0:0:0:
182,192,70715,1,8,0:0:0:0:
329,192,70715,1,0,0:0:0:0:
182,192,70915,1,8,0:0:0:0:
329,192,70915,1,0,0:0:0:0:
109,192,71015,1,0,0:0:0:0:
36,192,71115,1,4,0:0:0:0:
256,192,71115,1,2,0:0:0:0:
402,192,71115,1,0,0:0:0:0:
475,192,71115,128,0,71515:0:0:0:0:
109,192,71415,1,8,0:0:0:0:
256,192,71515,1,2,0:0:0:0:
329,192,71515,1,0,0:0:0:0:
182,192,71715,1,8,0:0:0:0:
402,192,71715,128,0,71915:0:0:0:0:
36,192,71915,128,2,72115:0:0:0:0:
109,192,71915,1,0,0:0:0:0:
256,192,72115,1,8,0:0:0:0:
329,192,72115,1,0,0:0:0:0:
402,192,72315,128,8,72515:0:0:0:0:
475,192,72315,1,0,0:0:0:0:
182,192,72515,128,0,72715:0:0:0:0:
109,192,72715,1,2,0:0:0:0:
475,192,72715,128,0,73115:0:0:0:0:
182,192,73015,1,8,0:0:0:0:
36,192,73115,1,2,0:0:0:0:
329,192,73115,1,0,0:0:0:0:
402,192,73115,1,0,0:0:0:0:
182,192,73315,1,8,0:0:0:0:
475,192,73315,1,0,0:0:0:0:
36,192,73515,1,2,0:0:0:0:
329,192,73515,1,0,0:0:0:0:
475,192,73515,128,0,73715:0:0:0:0:
109,192,73715,1,8,0:0:0:0:
182,192,73715,1,0,0:0:0:0:
36,192,73915,1,8,0:0:0:0:
256,192,73915,1,0,0:0:0:0:
475,192,73915,128,0,74115:0:0:0:0:
402,192,74115,128,0,74315:0:0:0:0:
36,192,74315,1,2,0:0:0:0:
109,192,74315,1,0,0:0:0:0:
329,192,74315,128,0,74515:0:0:0:0:
36,192,74615,1,8,0:0:0:0:
182,192,74615,1,0,0:0:0:0:
329,192,74715,1,2,0:0:0:0:
402,192,74715,128,0,74915:0:0:0:0:
109,192,74915,1,8,0:0:0:0:
256,192,74915,1,0,0:0:0:0:
402,192,75115,1,2,0:0:0:0:
475,192,75115,128,0,75315:0:0:0:0:
182,192,75315,1,8,0:0:0:0:
329,192,75315,1,0,0:0:0:0:
36,192,75515,128,8,75715:0:0:0:0:
109,192,75515,1,0,0:0:0:0:
329,192,75715,1,0,0:0:0:0:
256,192,75815,1,0,0:0:0:0:
36,192,75915,128,2,76315:0:0:0:0:
182,192,75915,1,0,0:0:0:0:
475,192,75915,1,0,0:0:0:0:
475,192,76215,1,8,0:0:0:0:
109,192,76315,1,2,0:0:0:0:
256,192,76315,1,0,0:0:0:0:
256,192,76515,128,8,76715:0:0:0:0:
402,192,76515,1,0,0:0:0:0:
36,192,76715,1,2,0:0:0:0:
109,192,76715,128,0,76915:0:0:0:0:
182,192,76915,1,8,0:0:0:0:
329,192,76915,1,0,0:0:0:0:
36,192,77115,1,8,0:0:0:0:
475,192,77115,1,0,0:0:0:0:
109,192,77315,1,8,0:0:0:0:
402,192,77315,1,0,0:0:0:0:
256,192,77415,1,0,0:0:0:0:
36,192,77515,1,2,0:0:0:0:
109,192,77515,1,4,0:0:0:0:
402,192,77515,1,0,0:0:0:0:
475,192,77515,1,0,0:0:0:0:
182,192,77715,1,0,0:0:0:0:
329,192,77815,1,8,0:0:0:0:
475,192,77815,1,0,0:0:0:0:
182,192,77915,1,2,0:0:0:0:
256,192,78115,1,8,0:0:0:0:
402,192,78115,1,0,0:0:0:0:
256,192,78315,1,2,0:0:0:0:
402,192,78315,1,0,0:0:0:0:
36,192,78515,1,8,0:0:0:0:
109,192,78515,1,0,0:0:0:0:
329,192,78715,1,8,0:0:0:0:
475,192,78715,1,0,0:0:0:0:
182,192,78915,128,0,79115:0:0:0:0:
36,192,79115,1,2,0:0:0:0:
329,192,79115,128,0,79315:0:0:0:0:
109,192,79415,128,8,79615:0:0:0:0:
256,192,79415,1,0,0:0:0:0:
402,192,79515,1,2,0:0:0:0:
475,192,79515,1,0,0:0:0:0:
182,192,79715,1,8,0:0:0:0:
329,192,79715,128,0,79915:0:0:0:0:
36,192,79915,128,2,80115:0:0:0:0:
109,192,79915,1,0,0:0:0:0:
475,192,79915,1,0,0:0:0:0:
182,192,80115,1,8,0:0:0:0:
329,192,80115,1,0,0:0:0:0:
402,192,80215,128,0,80415:0:0:0:0:
36,192,80315,1,8,0:0:0:0:
109,192,80315,1,0,0:0:0:0:
256,192,80515,128,0,80715:0:0:0:0:
36,192,80715,1,2,0:0:0:0:
402,192,80715,1,0,0:0:0:0:
475,192,80715,128,0,81715:0:0:0:0:
109,192,81015,1,8,0:0:0:0:
256,192,81115,1,2,0:0:0:0:
36,192,81315,1,8,0:0:0:0:
109,192,81315,1,0,0:0:0:0:
329,192,81515,1,2,0:0:0:0:
36,192,81715,1,8,0:0:0:0:
182,192,81715,128,0,81915:0:0:0:0:
329,192,81915,1,8,0:0:0:0:
475,192,81915,128,0,82115:0:0:0:0:
182,192,82115,128,0,83515:0:0:0:0:
36,192,82315,1,2,0:0:0:0:
402,192,82315,1,0,0:0:0:0:
475,192,82315,1,0,0:0:0:0:
329,192,82515,1,0,0:0:0:0:
402,192,82615,1,8,0:0:0:0:
475,192,82715,1,2,0:0:0:0:
36,192,82915,1,8,0:0:0:0:
109,192,82915,1,0,0:0:0:0:
402,192,83115,1,2,0:0:0:0:
475,192,83115,1,0,0:0:0:0:
36,192,83315,1,8,0:0:0:0:
329,192,83315,1,0,0:0:0:0:
256,192,83515,1,8,0:0:0:0:
475,192,83515,1,0,0:0:0:0:
402,192,83615,1,0,0:0:0:0:
36,192,83715,1,8,0:0:0:0:
182,192,83715,1,0,0:0:0:0:
329,192,83815,1,0,0:0:0:0:
36,192,83915,128,0,84115:0:0:0:0:
256,192,83915,1,0,0:0:0:0:
475,192,83915,1,0,0:0:0:0:
36,192,84200,1,0,0:0:0:0:
182,192,84315,1,0,0:0:0:0:
402,192,84315,1,0,0:0:0:0:
36,192,84515,1,0,0:0:0:0:
36,192,84715,128,0,85315:0:0:0:0:
475,192,84715,1,0,0:0:0:0:
402,192,84915,1,0,0:0:0:0:
182,192,85115,128,0,85315:0:0:0:0:
329,192,85115,1,0,0:0:0:0:
402,192,85315,1,0,0:0:0:0:
36,192,85515,128,0,85715:0:0:0:0:
475,192,85515,1,0,0:0:0:0:
36,192,85815,1,0,0:0:0:0:
182,192,85915,1,0,0:0:0:0:
36,192,86115,1,0,0:0:0:0:
36,192,86315,128,0,86715:0:0:0:0:
475,192,86315,128,0,87515:0:0:0:0:
182,192,86715,128,0,86915:0:0:0:0:
36,192,86915,1,0,0:0:0:0:
182,192,87015,1,0,0:0:0:0:
36,192,87115,128,0,87315:0:0:0:0:
329,192,87115,128,0,87515:0:0:0:0:
36,192,87400,1,0,0:0:0:0:
182,192,87515,1,0,0:0:0:0:
36,192,87715,1,0,0:0:0:0:
36,192,87915,128,0,88515:0:0:0:0:
329,192,87915,1,0,0:0:0:0:
402,192,88115,1,0,0:0:0:0:
182,192,88315,128,0,88515:0:0:0:0:
475,192,88315,1,0,0:0:0:0:
402,192,88515,1,0,0:0:0:0:
36,192,88715,128,0,88915:0:0:0:0:
329,192,88715,1,0,0:0:0:0:
36,192,89015,1,0,0:0:0:0:
182,192,89115,1,0,0:0:0:0:
36,192,89315,1,0,0:0:0:0:
36,192,89515,128,0,89915:0:0:0:0:
182,192,89915,128,0,90115:0:0:0:0:
36,192,90115,1,0,0:0:0:0:
36,192,90315,128,0,90515:0:0:0:0:
475,192,90315,1,0,0:0:0:0:
36,192,90600,1,0,0:0:0:0:
182,192,90715,1,0,0:0:0:0:
402,192,90715,1,0,0:0:0:0:
36,192,90915,1,0,0:0:0:0:
36,192,91115,128,0,91715:0:0:0:0:
475,192,91115,1,0,0:0:0:0:
402,192,91315,1,0,0:0:0:0:
182,192,91515,128,0,91715:0:0:0:0:
329,192,91515,1,0,0:0:0:0:
402,192,91715,1,0,0:0:0:0:
36,192,91915,128,0,92115:0:0:0:0:
475,192,91915,1,0,0:0:0:0:
36,192,92215,1,0,0:0:0:0:
182,192,92315,1,0,0:0:0:0:
36,192,92515,1,0,0:0:0:0:
36,192,92715,128,0,93115:0:0:0:0:
475,192,92715,128,0,93915:0:0:0:0:
182,192,93115,128,0,93315:0:0:0:0:
36,192,93315,1,0,0:0:0:0:
182,192,93415,1,0,0:0:0:0:
36,192,93515,128,0,93715:0:0:0:0:
329,192,93515,128,0,93915:0:0:0:0:
36,192,93800,1,0,0:0:0:0:
182,192,93915,1,0,0:0:0:0:
36,192,94115,1,0,0:0:0:0:
36,192,94315,128,0,94915:0:0:0:0:
329,192,94315,1,0,0:0:0:0:
402,192,94515,1,0,0:0:0:0:
182,192,94715,128,0,94915:0:0:0:0:
475,192,94715,1,0,0:0:0:0:
402,192,94915,1,0,0:0:0:0:
36,192,95115,128,0,95315:0:0:0:0:
329,192,95115,1,0,0:0:0:0:
36,192,95415,1,0,0:0:0:0:
182,192,95515,1,0,0:0:0:0:
36,192,95715,1,0,0:0:0:0:
36,192,95915,128,0,96315:0:0:0:0:
109,192,95915,1,0,0:0:0:0:
329,192,96115,1,0,0:0:0:0:
256,192,96181,1,0,0:0:0:0:
182,192,96248,1,0,0:0:0:0:
402,192,96315,1,0,0:0:0:0:
475,192,96315,1,0,0:0:0:0:
329,192,96381,1,0,0:0:0:0:
256,192,96448,1,0,0:0:0:0:
36,192,96515,1,0,0:0:0:0:
182,192,96515,1,0,0:0:0:0:
36,192,96715,1,2,0:0:0:0:
109,192,96715,1,4,0:0:0:0:
402,192,96715,1,0,0:0:0:0:
475,192,96715,1,0,0:0:0:0:
329,192,96795,1,0,0:0:0:0:
256,192,96875,1,0,0:0:0:0:
182,192,96955,1,0,0:0:0:0:
475,192,97035,1,0,0:0:0:0:
329,192,97115,1,2,0:0:0:0:
256,192,97315,1,0,0:0:0:0:
109,192,97515,1,0,0:0:0:0:
475,192,97595,1,0,0:0:0:0:
329,192,97675,1,0,0:0:0:0:
182,192,97755,1,0,0:0:0:0:
109,192,97835,1,0,0:0:0:0:
36,192,97915,1,2,0:0:0:0:
256,192,97995,1,0,0:0:0:0:
475,192,98075,1,0,0:0:0:0:
402,192,98155,1,0,0:0:0:0:
329,192,98235,1,0,0:0:0:0:
182,192,98315,1,0,0:0:0:0:
475,192,98395,1,0,0:0:0:0:
109,192,98475,1,0,0:0:0:0:
402,192,98555,1,0,0:0:0:0:
36,192,98635,1,0,0:0:0:0:
329,192,98715,1,2,0:0:0:0:
402,192,98795,1,0,0:0:0:0:
475,192,98875,1,0,0:0:0:0:
109,192,98955,1,0,0:0:0:0:
256,192,99035,1,0,0:0:0:0:
402,192,99115,1,0,0:0:0:0:
182,192,99195,1,0,0:0:0:0:
36,192,99275,1,0,0:0:0:0:
475,192,99355,1,0,0:0:0:0:
256,192,99435,1,0,0:0:0:0:
109,192,99515,1,2,0:0:0:0:
475,192,99595,1,0,0:0:0:0:
329,192,99675,1,0,0:0:0:0:
256,192,99755,1,0,0:0:0:0:
109,192,99835,1,0,0:0:0:0:
36,192,99915,1,0,0:0:0:0:
475,192,99995,1,0,0:0:0:0:
182,192,100075,1,0,0:0:0:0:
329,192,100155,1,0,0:0:0:0:
109,192,100235,1,0,0:0:0:0:
402,192,100315,1,2,0:0:0:0:
36,192,100395,1,0,0:0:0:0:
475,192,100475,1,0,0:0:0:0:
182,192,100555,1,0,0:0:0:0:
329,192,100635,1,0,0:0:0:0:
109,192,100715,1,0,0:0:0:0:
402,192,100795,1,0,0:0:0:0:
36,192,100875,1,0,0:0:0:0:
475,192,100955,1,0,0:0:0:0:
182,192,101035,1,0,0:0:0:0:
329,192,101115,1,2,0:0:0:0:
109,192,101195,1,0,0:0:0:0:
402,192,101275,1,0,0:0:0:0:
36,192,101355,1,0,0:0:0:0:
475,192,101435,1,0,0:0:0:0:
182,192,101515,1,0,0:0:0:0:
329,192,101595,1,0,0:0:0:0:
109,192,101675,1,0,0:0:0:0:
402,192,101755,1,0,0:0:0:0:
36,192,101835,1,0,0:0:0:0:
475,192,101915,1,2,0:0:0:0:
256,192,102115,1,0,0:0:0:0:
329,192,102315,1,0,0:0:0:0:
36,192,102395,1,0,0:0:0:0:
402,192,102475,1,0,0:0:0:0:
109,192,102555,1,0,0:0:0:0:
475,192,102635,1,0,0:0:0:0:
182,192,102715,1,2,0:0:0:0:
329,192,102795,1,0,0:0:0:0:
109,192,102875,1,0,0:0:0:0:
402,192,102955,1,0,0:0:0:0:
36,192,103035,1,0,0:0:0:0:
475,192,103115,1,0,0:0:0:0:
329,192,103195,1,0,0:0:0:0:
182,192,103275,1,0,0:0:0:0:
36,192,103355,1,0,0:0:0:0:
402,192,103435,1,0,0:0:0:0:
109,192,103515,1,2,0:0:0:0:
256,192,103595,1,0,0:0:0:0:
475,192,103675,1,0,0:0:0:0:
182,192,103755,1,0,0:0:0:0:
329,192,103835,1,0,0:0:0:0:
109,192,103915,1,0,0:0:0:0:
256,192,103995,1,0,0:0:0:0:
402,192,104075,1,0,0:0:0:0:
36,192,104155,1,0,0:0:0:0:
475,192,104235,1,0,0:0:0:0:
329,192,104315,1,2,0:0:0:0:
109,192,104395,1,0,0:0:0:0:
402,192,104475,1,0,0:0:0:0:
182,192,104555,1,0,0:0:0:0:
475,192,104635,1,0,0:0:0:0:
109,192,104715,1,0,0:0:0:0:
402,192,104795,1,0,0:0:0:0:
36,192,104875,1,0,0:0:0:0:
182,192,104955,1,0,0:0:0:0:
329,192,105035,1,0,0:0:0:0:
475,192,105115,1,2,0:0:0:0:
256,192,105315,1,0,0:0:0:0:
36,192,105515,1,0,0:0:0:0:
329,192,105595,1,0,0:0:0:0:
256,192,105675,1,0,0:0:0:0:
109,192,105755,1,0,0:0:0:0:
36,192,105835,1,0,0:0:0:0:
402,192,105915,1,2,0:0:0:0:
329,192,105995,1,0,0:0:0:0:
182,192,106075,1,0,0:0:0:0:
109,192,106155,1,0,0:0:0:0:
475,192,106235,1,0,0:0:0:0:
256,192,106315,1,0,0:0:0:0:
402,192,106395,1,0,0:0:0:0:
182,192,106475,1,0,0:0:0:0:
329,192,106555,1,0,0:0:0:0:
109,192,106635,1,0,0:0:0:0:
256,192,106715,1,2,0:0:0:0:
475,192,106795,1,0,0:0:0:0:
182,192,106875,1,0,0:0:0:0:
402,192,106955,1,0,0:0:0:0:
109,192,107035,1,0,0:0:0:0:
329,192,107115,1,0,0:0:0:0:
36,192,107195,1,0,0:0:0:0:
256,192,107275,1,0,0:0:0:0:
475,192,107355,1,0,0:0:0:0:
182,192,107435,1,0,0:0:0:0:
402,192,107515,1,2,0:0:0:0:
109,192,107595,1,0,0:0:0:0:
329,192,107675,1,0,0:0:0:0:
36,192,107755,128,0,107835:0:0:0:0:
329,192,108915,1,0,0:0:0:0:
182,192,109015,1,0,0:0:0:0:
36,192,109115,1,0,0:0:0:0:
109,192,109515,1,2,0:0:0:0:
256,192,109515,1,4,0:0:0:0:
329,192,109515,1,0,0:0:0:0:
402,192,109515,128,0,109915:0:0:0:0:
109,192,109815,1,0,0:0:0:0:
256,192,109915,1,2,0:0:0:0:
109,192,110115,1,0,0:0:0:0:
256,192,110315,1,2,0:0:0:0:
329,192,110315,1,0,0:0:0:0:
329,192,110515,128,0,110715:0:0:0:0:
256,192,110715,1,2,0:0:0:0:
402,192,110715,128,0,110915:0:0:0:0:
36,192,110915,1,0,0:0:0:0:
475,192,110915,128,0,111115:0:0:0:0:
109,192,111115,128,2,111515:0:0:0:0:
256,192,111115,1,0,0:0:0:0:
402,192,111315,128,0,111515:0:0:0:0:
256,192,111515,1,2,0:0:0:0:
329,192,111715,128,0,112115:0:0:0:0:
109,192,111915,1,2,0:0:0:0:
256,192,111915,128,0,112115:0:0:0:0:
475,192,112115,1,0,0:0:0:0:
402,192,112215,1,0,0:0:0:0:
256,192,112315,1,2,0:0:0:0:
329,192,112315,1,0,0:0:0:0:
109,192,112515,128,0,112715:0:0:0:0:
475,192,112515,1,0,0:0:0:0:
182,192,112715,128,2,113115:0:0:0:0:
256,192,112715,1,0,0:0:0:0:
36,192,113015,1,0,0:0:0:0:
256,192,113115,1,2,0:0:0:0:
475,192,113115,128,0,113515:0:0:0:0:
36,192,113315,1,0,0:0:0:0:
36,192,113515,128,2,113915:0:0:0:0:
256,192,113515,1,0,0:0:0:0:
109,192,113915,128,2,114315:0:0:0:0:
256,192,113915,1,0,0:0:0:0:
402,192,114115,1,0,0:0:0:0:
256,192,114315,1,2,0:0:0:0:
402,192,114315,128,0,114715:0:0:0:0:
36,192,114715,1,2,0:0:0:0:
256,192,114715,1,0,0:0:0:0:
36,192,114915,128,0,115315:0:0:0:0:
109,192,115115,128,2,115315:0:0:0:0:
256,192,115115,1,0,0:0:0:0:
256,192,115515,1,2,0:0:0:0:
109,192,115715,1,0,0:0:0:0:
329,192,115715,1,0,0:0:0:0:
36,192,115915,1,2,0:0:0:0:
256,192,115915,1,4,0:0:0:0:
402,192,115915,128,0,116315:0:0:0:0:
475,192,115915,1,0,0:0:0:0:
36,192,116215,1,0,0:0:0:0:
256,192,116315,1,2,0:0:0:0:
36,192,116515,1,0,0:0:0:0:
256,192,116715,1,2,0:0:0:0:
329,192,116715,1,0,0:0:0:0:
329,192,116915,128,0,117115:0:0:0:0:
256,192,117115,1,2,0:0:0:0:
475,192,117115,128,0,117315:0:0:0:0:
36,192,117315,1,0,0:0:0:0:
182,192,117315,1,0,0:0:0:0:
182,192,117515,128,2,117915:0:0:0:0:
256,192,117515,1,0,0:0:0:0:
256,192,117915,1,2,0:0:0:0:
329,192,118115,1,0,0:0:0:0:
256,192,118315,1,2,0:0:0:0:
329,192,118315,128,0,118715:0:0:0:0:
256,192,118715,1,2,0:0:0:0:
109,192,118915,1,0,0:0:0:0:
475,192,118915,128,0,119115:0:0:0:0:
256,192,119115,1,2,0:0:0:0:
402,192,119115,128,0,119515:0:0:0:0:
36,192,119415,1,0,0:0:0:0:
182,192,119515,128,2,119915:0:0:0:0:
256,192,119515,1,0,0:0:0:0:
36,192,119715,1,0,0:0:0:0:
256,192,119915,1,2,0:0:0:0:
475,192,119915,128,0,120315:0:0:0:0:
329,192,120115,1,0,0:0:0:0:
109,192,120315,128,2,120515:0:0:0:0:
256,192,120315,1,0,0:0:0:0:
402,192,120515,1,0,0:0:0:0:
475,192,120515,1,0,0:0:0:0:
36,192,120715,128,2,121115:0:0:0:0:
256,192,120715,1,0,0:0:0:0:
256,192,121115,1,2,0:0:0:0:
475,192,121115,128,0,121515:0:0:0:0:
109,192,121315,1,0,0:0:0:0:
182,192,121415,1,0,0:0:0:0:
256,192,121515,1,2,0:0:0:0:
402,192,121515,128,0,121915:0:0:0:0:
36,192,121715,1,0,0:0:0:0:
109,192,121715,1,0,0:0:0:0:
256,192,121915,1,0,0:0:0:0:
329,192,121915,1,0,0:0:0:0:
182,192,122115,1,0,0:0:0:0:
256,192,122115,1,0,0:0:0:0:
36,192,122315,1,2,0:0:0:0:
109,192,122315,1,0,0:0:0:0:
329,192,122315,1,0,0:0:0:0:
402,192,122340,1,0,0:0:0:0:
475,192,122365,1,0,0:0:0:0:
109,192,122515,128,0,122715:0:0:0:0:
329,192,122715,1,0,0:0:0:0:
329,192,122915,128,0,123515:0:0:0:0:
182,192,123315,128,0,123515:0:0:0:0:
109,192,123715,1,0,0:0:0:0:
36,192,123915,1,2,0:0:0:0:
109,192,123915,128,0,124115:0:0:0:0:
475,192,123915,1,0,0:0:0:0:
402,192,123940,1,0,0:0:0:0:
329,192,123965,1,0,0:0:0:0:
256,192,124115,128,0,124315:0:0:0:0:
182,192,124315,128,0,124715:0:0:0:0:
329,192,124715,128,0,125115:0:0:0:0:
256,192,125315,1,0,0:0:0:0:
36,192,125515,1,2,0:0:0:0:
402,192,125515,128,0,125715:0:0:0:0:
475,192,125515,1,0,0:0:0:0:
109,192,125540,1,0,0:0:0:0:
182,192,125565,1,0,0:0:0:0:
256,192,125715,128,0,125915:0:0:0:0:
109,192,125915,128,0,126115:0:0:0:0:
402,192,126115,128,0,126715:0:0:0:0:
329,192,126515,128,0,126715:0:0:0:0:
36,192,126615,1,0,0:0:0:0:
182,192,126715,1,0,0:0:0:0:
329,192,126915,128,0,128315:0:0:0:0:
475,192,126915,128,0,128315:0:0:0:0:
109,192,127115,1,2,0:0:0:0:
182,192,127115,1,0,0:0:0:0:
109,192,127515,1,2,0:0:0:0:
182,192,127515,1,0,0:0:0:0:
256,192,127815,1,0,0:0:0:0:
36,192,127915,1,2,0:0:0:0:
109,192,127915,1,0,0:0:0:0:
256,192,128115,1,0,0:0:0:0:
36,192,128315,1,2,0:0:0:0:
109,192,128315,1,0,0:0:0:0:
182,192,128515,1,0,0:0:0:0:
402,192,128515,1,0,0:0:0:0:
36,192,128715,1,2,0:0:0:0:
256,192,128715,1,0,0:0:0:0:
475,192,128715,1,0,0:0:0:0:
36,192,128915,1,2,0:0:0:0:
256,192,128915,1,0,0:0:0:0:
109,192,129115,1,2,0:0:0:0:
329,192,129115,1,0,0:0:0:0:
475,192,129115,1,0,0:0:0:0:
109,192,129315,1,2,0:0:0:0:
329,192,129315,1,0,0:0:0:0:
36,192,129515,1,2,0:0:0:0:
256,192,129515,1,0,0:0:0:0:
402,192,129515,1,0,0:0:0:0:
182,192,129615,1,0,0:0:0:0:
475,192,129615,1,0,0:0:0:0:
36,192,129715,1,2,0:0:0:0:
256,192,129715,1,0,0:0:0:0:
402,192,129715,1,0,0:0:0:0:
109,192,129915,1,8,0:0:0:0:
329,192,129915,1,0,0:0:0:0:
475,192,129915,1,0,0:0:0:0:
109,192,130315,128,4,130715:0:0:0:0:
182,192,130315,1,2,0:0:0:0:
329,192,130315,1,0,0:0:0:0:
402,192,130315,1,0,0:0:0:0:
402,192,130615,1,8,0:0:0:0:
36,192,130715,1,2,0:0:0:0:
256,192,130715,1,0,0:0:0:0:
402,192,130915,128,8,131315:0:0:0:0:
475,192,130915,1,0,0:0:0:0:
329,192,131115,128,2,131315:0:0:0:0:
36,192,131315,1,8,0:0:0:0:
109,192,131315,1,0,0:0:0:0:
329,192,131515,1,8,0:0:0:0:
402,192,131515,1,0,0:0:0:0:
182,192,131715,1,0,0:0:0:0:
182,192,131915,128,2,132315:0:0:0:0:
475,192,131915,1,0,0:0:0:0:
475,192,132215,1,8,0:0:0:0:
36,192,132315,1,2,0:0:0:0:
109,192,132315,1,0,0:0:0:0:
329,192,132315,1,0,0:0:0:0:
182,192,132515,1,8,0:0:0:0:
475,192,132515,128,0,132915:0:0:0:0:
256,192,132715,1,2,0:0:0:0:
329,192,132715,128,0,132915:0:0:0:0:
36,192,132915,1,8,0:0:0:0:
109,192,132915,1,0,0:0:0:0:
329,192,133115,1,8,0:0:0:0:
402,192,133115,1,0,0:0:0:0:
475,192,133115,1,0,0:0:0:0:
329,192,133315,1,0,0:0:0:0:
36,192,133515,1,2,0:0:0:0:
109,192,133515,1,0,0:0:0:0:
256,192,133515,128,0,133715:0:0:0:0:
109,192,133815,1,8,0:0:0:0:
402,192,133815,1,0,0:0:0:0:
256,192,133915,1,2,0:0:0:0:
329,192,133915,128,0,134115:0:0:0:0:
109,192,134115,1,8,0:0:0:0:
475,192,134115,1,0,0:0:0:0:
182,192,134315,1,2,0:0:0:0:
402,192,134315,128,0,134515:0:0:0:0:
36,192,134515,1,8,0:0:0:0:
256,192,134515,1,0,0:0:0:0:
109,192,134715,1,8,0:0:0:0:
475,192,134715,128,0,135115:0:0:0:0:
182,192,134915,1,0,0:0:0:0:
109,192,135015,1,0,0:0:0:0:
36,192,135115,128,2,135315:0:0:0:0:
256,192,135115,1,0,0:0:0:0:
402,192,135115,1,0,0:0:0:0:
329,192,135415,1,8,0:0:0:0:
402,192,135415,1,0,0:0:0:0:
109,192,135515,128,2,135715:0:0:0:0:
182,192,135515,1,0,0:0:0:0:
329,192,135715,1,8,0:0:0:0:
475,192,135715,128,0,135915:0:0:0:0:
36,192,135915,128,2,136115:0:0:0:0:
109,192,135915,1,0,0:0:0:0:
256,192,136115,1,8,0:0:0:0:
402,192,136115,1,0,0:0:0:0:
182,192,136315,1,8,0:0:0:0:
475,192,136315,1,0,0:0:0:0:
182,192,136515,1,8,0:0:0:0:
475,192,136515,1,0,0:0:0:0:
402,192,136615,1,0,0:0:0:0:
36,192,136715,1,2,0:0:0:0:
109,192,136715,128,4,137115:0:0:0:0:
256,192,136715,1,0,0:0:0:0:
329,192,136715,1,0,0:0:0:0:
329,192,137015,1,8,0:0:0:0:
182,192,137115,1,2,0:0:0:0:
475,192,137115,1,0,0:0:0:0:
36,192,137315,1,8,0:0:0:0:
329,192,137315,128,0,137715:0:0:0:0:
402,192,137515,128,2,137715:0:0:0:0:
36,192,137715,1,8,0:0:0:0:
109,192,137715,1,0,0:0:0:0:
182,192,137915,1,8,0:0:0:0:
402,192,137915,1,0,0:0:0:0:
256,192,138115,1,0,0:0:0:0:
36,192,138315,1,2,0:0:0:0:
329,192,138315,128,0,138715:0:0:0:0:
36,192,138615,1,8,0:0:0:0:
182,192,138715,1,2,0:0:0:0:
402,192,138715,1,0,0:0:0:0:
475,192,138715,1,0,0:0:0:0:
36,192,138915,1,8,0:0:0:0:
109,192,138915,128,0,139315:0:0:0:0:
256,192,139115,128,2,139315:0:0:0:0:
402,192,139115,1,0,0:0:0:0:
182,192,139315,1,8,0:0:0:0:
329,192,139315,1,0,0:0:0:0:
36,192,139515,1,8,0:0:0:0:
109,192,139515,1,0,0:0:0:0:
475,192,139515,1,0,0:0:0:0:
329,192,139715,1,0,0:0:0:0:
36,192,139915,1,2,0:0:0:0:
109,192,139915,1,0,0:0:0:0:
475,192,139915,128,0,140115:0:0:0:0:
109,192,140215,1,8,0:0:0:0:
256,192,140215,1,0,0:0:0:0:
402,192,140315,128,2,140515:0:0:0:0:
475,192,140315,1,0,0:0:0:0:
109,192,140515,1,8,0:0:0:0:
182,192,140515,1,0,0:0:0:0:
329,192,140715,128,2,140915:0:0:0:0:
402,192,140715,1,0,0:0:0:0:
36,192,140915,1,8,0:0:0:0:
182,192,140915,1,0,0:0:0:0:
256,192,141115,128,8,141315:0:0:0:0:
329,192,141115,1,0,0:0:0:0:
109,192,141315,1,0,0:0:0:0:
36,192,141515,128,2,142115:0:0:0:0:
329,192,141515,1,0,0:0:0:0:
475,192,141515,1,0,0:0:0:0:
329,192,141715,1,0,0:0:0:0:
182,192,141815,1,8,0:0:0:0:
475,192,141915,1,2,0:0:0:0:
256,192,142115,1,8,0:0:0:0:
402,192,142115,1,0,0:0:0:0:
109,192,142315,128,2,142515:0:0:0:0:
182,192,142315,1,0,0:0:0:0:
329,192,142315,1,0,0:0:0:0:
329,192,142515,1,8,0:0:0:0:
109,192,142715,1,8,0:0:0:0:
475,192,142715,1,0,0:0:0:0:
402,192,142781,1,0,0:0:0:0:
329,192,142848,1,0,0:0:0:0:
109,192,142915,1,8,0:0:0:0:
182,192,143015,1,0,0:0:0:0:
36,192,143115,128,4,143515:0:0:0:0:
256,192,143115,1,2,0:0:0:0:
402,192,143115,1,0,0:0:0:0:
475,192,143115,1,0,0:0:0:0:
402,192,143415,1,8,0:0:0:0:
109,192,143515,1,2,0:0:0:0:
182,192,143515,1,0,0:0:0:0:
329,192,143715,128,8,144115:0:0:0:0:
402,192,143715,1,0,0:0:0:0:
109,192,143915,128,2,144115:0:0:0:0:
182,192,144115,1,8,0:0:0:0:
475,192,144115,1,0,0:0:0:0:
36,192,144315,1,8,0:0:0:0:
329,192,144315,1,0,0:0:0:0:
109,192,144515,1,0,0:0:0:0:
182,192,144715,1,2,0:0:0:0:
475,192,144715,128,0,145115:0:0:0:0:
182,192,145015,1,8,0:0:0:0:
36,192,145115,1,2,0:0:0:0:
329,192,145115,1,0,0:0:0:0:
402,192,145115,1,0,0:0:0:0:
109,192,145315,128,8,145715:0:0:0:0:
182,192,145315,1,0,0:0:0:0:
329,192,145515,128,2,145715:0:0:0:0:
475,192,145515,1,0,0:0:0:0:
36,192,145715,1,8,0:0:0:0:
256,192,145715,1,0,0:0:0:0:
182,192,145915,1,8,0:0:0:0:
402,192,145915,1,0,0:0:0:0:
475,192,145915,1,0,0:0:0:0:
182,192,146115,1,0,0:0:0:0:
36,192,146315,1,2,0:0:0:0:
402,192,146315,1,0,0:0:0:0:
475,192,146315,128,0,146515:0:0:0:0:
36,192,146615,1,8,0:0:0:0:
256,192,146615,1,0,0:0:0:0:
329,192,146715,1,2,0:0:0:0:
402,192,146715,128,0,146915:0:0:0:0:
36,192,146915,1,8,0:0:0:0:
109,192,146915,1,0,0:0:0:0:
182,192,147115,128,2,147315:0:0:0:0:
256,192,147115,1,0,0:0:0:0:
329,192,147315,1,8,0:0:0:0:
475,192,147315,1,0,0:0:0:0:
109,192,147515,128,8,147715:0:0:0:0:
182,192,147515,1,0,0:0:0:0:
329,192,147715,1,0,0:0:0:0:
109,192,147915,1,2,0:0:0:0:
256,192,147915,1,0,0:0:0:0:
402,192,147915,128,0,148115:0:0:0:0:
402,192,148215,1,8,0:0:0:0:
475,192,148215,1,0,0:0:0:0:
36,192,148315,1,2,0:0:0:0:
182,192,148315,128,0,148515:0:0:0:0:
256,192,148515,128,8,148715:0:0:0:0:
475,192,148515,1,0,0:0:0:0:
109,192,148715,1,2,0:0:0:0:
329,192,148715,128,0,148915:0:0:0:0:
402,192,148915,1,8,0:0:0:0:
475,192,148915,1,0,0:0:0:0:
36,192,149115,1,8,0:0:0:0:
182,192,149115,1,0,0:0:0:0:
36,192,149315,1,8,0:0:0:0:
475,192,149315,1,0,0:0:0:0:
109,192,149415,1,0,0:0:0:0:
182,192,149515,1,2,0:0:0:0:
329,192,149515,1,4,0:0:0:0:
402,192,149515,1,0,0:0:0:0:
475,192,149515,1,0,0:0:0:0:
36,192,149715,1,0,0:0:0:0:
329,192,149815,1,8,0:0:0:0:
475,192,149815,1,0,0:0:0:0:
36,192,149915,1,2,0:0:0:0:
109,192,150115,1,8,0:0:0:0:
256,192,150115,1,0,0:0:0:0:
256,192,150315,1,2,0:0:0:0:
402,192,150315,1,0,0:0:0:0:
36,192,150515,1,8,0:0:0:0:
109,192,150515,1,0,0:0:0:0:
402,192,150715,1,8,0:0:0:0:
475,192,150715,1,0,0:0:0:0:
182,192,150915,1,0,0:0:0:0:
182,192,151115,128,2,151315:0:0:0:0:
329,192,151115,1,0,0:0:0:0:
36,192,151415,128,8,151615:0:0:0:0:
182,192,151415,1,0,0:0:0:0:
402,192,151515,1,2,0:0:0:0:
475,192,151515,1,0,0:0:0:0:
182,192,151715,1,8,0:0:0:0:
256,192,151715,1,0,0:0:0:0:
36,192,151915,1,2,0:0:0:0:
402,192,151915,1,0,0:0:0:0:
475,192,151915,128,0,152115:0:0:0:0:
109,192,152115,1,8,0:0:0:0:
256,192,152115,1,0,0:0:0:0:
329,192,152215,128,0,152415:0:0:0:0:
36,192,152315,1,8,0:0:0:0:
475,192,152315,1,0,0:0:0:0:
182,192,152515,128,0,152715:0:0:0:0:
36,192,152715,1,2,0:0:0:0:
256,192,152715,1,0,0:0:0:0:
475,192,152715,128,0,153115:0:0:0:0:
256,192,153015,1,8,0:0:0:0:
109,192,153115,1,2,0:0:0:0:
402,192,153115,1,0,0:0:0:0:
36,192,153315,1,8,0:0:0:0:
329,192,153315,1,0,0:0:0:0:
256,192,153515,128,2,153715:0:0:0:0:
475,192,153515,1,0,0:0:0:0:
36,192,153715,1,8,0:0:0:0:
109,192,153715,128,0,153915:0:0:0:0:
256,192,153915,128,8,154115:0:0:0:0:
329,192,153915,1,0,0:0:0:0:
475,192,154115,128,0,155715:0:0:0:0:
36,192,154315,1,2,0:0:0:0:
182,192,154315,1,0,0:0:0:0:
402,192,154315,1,0,0:0:0:0:
182,192,154615,1,8,0:0:0:0:
329,192,154715,1,2,0:0:0:0:
36,192,154915,1,8,0:0:0:0:
182,192,154915,1,0,0:0:0:0:
402,192,155115,1,2,0:0:0:0:
36,192,155315,1,8,0:0:0:0:
109,192,155315,1,0,0:0:0:0:
256,192,155515,1,8,0:0:0:0:
402,192,155515,1,0,0:0:0:0:
109,192,155715,1,8,0:0:0:0:
182,192,155715,1,0,0:0:0:0:
182,192,159515,1,2,0:0:0:0:
329,192,159515,1,0,0:0:0:0:
182,192,165907,5,2,0:0:0:0:
329,192,165907,1,0,0:0:0:0:
36,192,169915,1,0,0:0:0:0:
109,192,170086,1,0,0:0:0:0:
256,192,170155,1,0,0:0:0:0:
329,192,170235,1,0,0:0:0:0:
402,192,170315,1,8,0:0:0:0:
475,192,170315,1,0,0:0:0:0:
109,192,170415,1,0,0:0:0:0:
329,192,170555,1,0,0:0:0:0:
402,192,170635,1,0,0:0:0:0:
36,192,170715,1,2,0:0:0:0:
109,192,170715,1,4,0:0:0:0:
182,192,170715,1,0,0:0:0:0:
475,192,170715,1,0,0:0:0:0:
329,192,170915,1,0,0:0:0:0:
36,192,171015,1,0,0:0:0:0:
182,192,171015,1,0,0:0:0:0:
402,192,171115,1,2,0:0:0:0:
475,192,171115,1,0,0:0:0:0:
36,192,171315,1,0,0:0:0:0:
329,192,171315,1,0,0:0:0:0:
36,192,171515,128,2,171915:0:0:0:0:
475,192,171515,1,0,0:0:0:0:
182,192,171715,1,0,0:0:0:0:
256,192,171915,128,2,172315:0:0:0:0:
402,192,171915,1,0,0:0:0:0:
36,192,172115,1,0,0:0:0:0:
475,192,172115,1,0,0:0:0:0:
109,192,172215,1,0,0:0:0:0:
182,192,172315,1,2,0:0:0:0:
329,192,172315,1,0,0:0:0:0:
475,192,172315,128,0,173515:0:0:0:0:
182,192,172615,1,0,0:0:0:0:
329,192,172715,1,2,0:0:0:0:
402,192,172715,1,0,0:0:0:0:
182,192,172915,1,0,0:0:0:0:
36,192,173115,128,2,173515:0:0:0:0:
329,192,173115,1,0,0:0:0:0:
256,192,173315,1,0,0:0:0:0:
109,192,173515,1,2,0:0:0:0:
402,192,173515,1,0,0:0:0:0:
402,192,173715,1,0,0:0:0:0:
329,192,173815,1,0,0:0:0:0:
36,192,173915,128,2,175215:0:0:0:0:
256,192,173915,1,0,0:0:0:0:
475,192,173915,128,0,174615:0:0:0:0:
182,192,174115,1,0,0:0:0:0:
256,192,174215,1,0,0:0:0:0:
329,192,174315,1,2,0:0:0:0:
182,192,174515,1,0,0:0:0:0:
329,192,174615,1,0,0:0:0:0:
475,192,174715,128,2,175315:0:0:0:0:
329,192,174915,1,0,0:0:0:0:
256,192,175015,1,0,0:0:0:0:
182,192,175115,1,2,0:0:0:0:
36,192,175315,128,0,176315:0:0:0:0:
475,192,175415,128,0,176315:0:0:0:0:
256,192,175515,128,2,176315:0:0:0:0:
402,192,175755,1,0,0:0:0:0:
329,192,176048,1,0,0:0:0:0:
109,192,176315,1,2,0:0:0:0:
402,192,176315,1,0,0:0:0:0:
182,192,176555,1,0,0:0:0:0:
36,192,176670,1,0,0:0:0:0:
329,192,176715,1,2,0:0:0:0:
182,192,176848,1,0,0:0:0:0:
475,192,176937,1,0,0:0:0:0:
36,192,177115,1,2,0:0:0:0:
109,192,177115,1,4,0:0:0:0:
182,192,177115,1,0,0:0:0:0:
402,192,177115,1,0,0:0:0:0:
475,192,177315,1,0,0:0:0:0:
329,192,177415,1,0,0:0:0:0:
36,192,177515,128,2,179515:0:0:0:0:
109,192,177515,1,0,0:0:0:0:
402,192,177615,1,0,0:0:0:0:
256,192,177715,1,0,0:0:0:0:
109,192,177815,1,0,0:0:0:0:
402,192,177915,1,2,0:0:0:0:
475,192,177915,128,0,179515:0:0:0:0:
329,192,178115,1,0,0:0:0:0:
109,192,178315,128,2,179515:0:0:0:0:
182,192,178315,1,0,0:0:0:0:
256,192,178515,1,0,0:0:0:0:
329,192,178715,1,2,0:0:0:0:
402,192,178715,128,0,179515:0:0:0:0:
256,192,179115,1,2,0:0:0:0:
256,192,179315,1,0,0:0:0:0:
182,192,179515,1,2,0:0:0:0:
329,192,179515,1,0,0:0:0:0:
402,192,179715,1,0,0:0:0:0:
475,192,179715,1,0,0:0:0:0:
36,192,179915,1,2,0:0:0:0:
109,192,179915,1,0,0:0:0:0:
256,192,180115,1,0,0:0:0:0:
402,192,180115,1,0,0:0:0:0:
36,192,180315,128,2,180615:0:0:0:0:
182,192,180315,128,0,180515:0:0:0:0:
475,192,180315,1,0,0:0:0:0:
329,192,180515,1,0,0:0:0:0:
182,192,180615,1,0,0:0:0:0:
36,192,180715,1,2,0:0:0:0:
475,192,180715,128,0,181115:0:0:0:0:
402,192,180915,128,0,181115:0:0:0:0:
36,192,181115,1,2,0:0:0:0:
109,192,181115,128,0,181515:0:0:0:0:
256,192,181115,128,0,181415:0:0:0:0:
329,192,181315,1,0,0:0:0:0:
475,192,181415,128,0,181915:0:0:0:0:
256,192,181515,1,2,0:0:0:0:
402,192,181648,128,0,181915:0:0:0:0:
182,192,181715,1,0,0:0:0:0:
36,192,181915,128,2,182315:0:0:0:0:
109,192,181915,128,0,182315:0:0:0:0:
329,192,181915,1,0,0:0:0:0:
402,192,182115,1,0,0:0:0:0:
329,192,182215,1,0,0:0:0:0:
182,192,182315,1,2,0:0:0:0:
256,192,182315,1,0,0:0:0:0:
475,192,182415,1,0,0:0:0:0:
402,192,182515,1,0,0:0:0:0:
329,192,182615,1,0,0:0:0:0:
36,192,182715,1,2,0:0:0:0:
475,192,182715,1,0,0:0:0:0:
402,192,182815,1,0,0:0:0:0:
329,192,182915,1,0,0:0:0:0:
182,192,182981,1,0,0:0:0:0:
109,192,183048,1,0,0:0:0:0:
36,192,183115,1,2,0:0:0:0:
475,192,183115,1,0,0:0:0:0:
475,192,183315,1,0,0:0:0:0:
402,192,183415,1,0,0:0:0:0:
36,192,183515,128,2,183715:0:0:0:0:
109,192,183515,1,4,0:0:0:0:
329,192,183515,128,0,183915:0:0:0:0:
36,192,183815,1,0,0:0:0:0:
182,192,183915,1,0,0:0:0:0:
36,192,184115,1,0,0:0:0:0:
36,192,184315,128,0,184715:0:0:0:0:
402,192,184315,1,0,0:0:0:0:
402,192,184515,1,0,0:0:0:0:
182,192,184715,1,0,0:0:0:0:
475,192,184715,1,0,0:0:0:0:
36,192,184915,1,0,0:0:0:0:
329,192,184915,1,0,0:0:0:0:
36,192,185115,128,0,185315:0:0:0:0:
329,192,185115,128,0,186315:0:0:0:0:
36,192,185400,1,0,0:0:0:0:
182,192,185515,1,0,0:0:0:0:
36,192,185715,1,0,0:0:0:0:
475,192,185715,1,0,0:0:0:0:
36,192,185915,128,0,186115:0:0:0:0:
402,192,185915,128,0,186315:0:0:0:0:
182,192,186115,1,0,0:0:0:0:
182,192,186315,1,0,0:0:0:0:
36,192,186515,1,0,0:0:0:0:
475,192,186515,1,0,0:0:0:0:
36,192,186715,128,0,186915:0:0:0:0:
329,192,186715,128,0,187915:0:0:0:0:
36,192,187015,1,0,0:0:0:0:
182,192,187115,1,0,0:0:0:0:
475,192,187115,1,0,0:0:0:0:
36,192,187315,1,0,0:0:0:0:
182,192,187415,1,0,0:0:0:0:
36,192,187515,128,0,187915:0:0:0:0:
402,192,187515,128,0,187915:0:0:0:0:
182,192,187915,1,0,0:0:0:0:
475,192,187915,1,0,0:0:0:0:
36,192,188115,1,0,0:0:0:0:
36,192,188315,128,0,188515:0:0:0:0:
329,192,188315,128,0,188715:0:0:0:0:
182,192,188715,1,0,0:0:0:0:
475,192,188715,128,0,189515:0:0:0:0:
36,192,188915,1,0,0:0:0:0:
329,192,188915,1,0,0:0:0:0:
36,192,189115,128,0,189315:0:0:0:0:
402,192,189115,128,0,189515:0:0:0:0:
182,192,189315,128,0,189515:0:0:0:0:
36,192,189515,128,0,189715:0:0:0:0:
182,192,189715,1,0,0:0:0:0:
36,192,189915,128,0,190115:0:0:0:0:
329,192,189915,128,0,190315:0:0:0:0:
475,192,189915,1,0,0:0:0:0:
36,192,190215,1,0,0:0:0:0:
182,192,190315,1,0,0:0:0:0:
36,192,190515,1,0,0:0:0:0:
36,192,190715,128,0,191115:0:0:0:0:
402,192,190715,1,0,0:0:0:0:
402,192,190915,1,0,0:0:0:0:
182,192,191115,1,0,0:0:0:0:
475,192,191115,1,0,0:0:0:0:
36,192,191315,1,0,0:0:0:0:
402,192,191315,1,0,0:0:0:0:
36,192,191515,128,0,191715:0:0:0:0:
475,192,191515,128,0,192715:0:0:0:0:
36,192,191815,1,0,0:0:0:0:
182,192,191915,1,0,0:0:0:0:
36,192,192115,1,0,0:0:0:0:
329,192,192115,1,0,0:0:0:0:
36,192,192315,128,0,192715:0:0:0:0:
402,192,192315,128,0,192715:0:0:0:0:
182,192,192715,128,0,192915:0:0:0:0:
36,192,192915,1,0,0:0:0:0:
402,192,192915,1,0,0:0:0:0:
36,192,193115,128,0,193315:0:0:0:0:
475,192,193115,128,0,193715:0:0:0:0:
36,192,193415,1,0,0:0:0:0:
182,192,193515,1,0,0:0:0:0:
402,192,193515,128,0,194115:0:0:0:0:
109,192,193715,1,0,0:0:0:0:
182,192,193815,1,0,0:0:0:0:
36,192,193915,1,0,0:0:0:0:
475,192,193915,128,0,194115:0:0:0:0:
109,192,194015,1,0,0:0:0:0:
36,192,194315,1,0,0:0:0:0:
402,192,194315,128,0,194515:0:0:0:0:
475,192,194315,128,0,194515:0:0:0:0:
182,192,194515,1,0,0:0:0:0:
36,192,194715,128,0,194915:0:0:0:0:
475,192,194715,128,0,195315:0:0:0:0:
402,192,194915,128,0,195315:0:0:0:0:
36,192,195015,1,0,0:0:0:0:
182,192,195115,1,0,0:0:0:0:
329,192,195115,128,0,195315:0:0:0:0:
109,192,195315,1,0,0:0:0:0:
36,192,195515,1,0,0:0:0:0:
329,192,195515,128,0,195715:0:0:0:0:
402,192,195515,128,0,195715:0:0:0:0:
475,192,195515,128,0,195715:0:0:0:0:
182,192,195715,1,0,0:0:0:0:
256,192,195715,1,0,0:0:0:0:
36,192,195915,1,0,0:0:0:0:
109,192,195915,1,0,0:0:0:0:
256,192,196115,1,0,0:0:0:0:
402,192,196115,1,0,0:0:0:0:
36,192,196315,1,2,0:0:0:0:
402,192,196315,128,0,196515:0:0:0:0:
109,192,196340,1,0,0:0:0:0:
182,192,196365,1,0,0:0:0:0:
256,192,196515,128,0,196715:0:0:0:0:
475,192,196715,128,0,197115:0:0:0:0:
329,192,196915,128,0,197115:0:0:0:0:
329,192,197315,128,0,197515:0:0:0:0:
475,192,197315,128,0,197515:0:0:0:0:
182,192,197715,128,0,197915:0:0:0:0:
36,192,197915,128,2,198115:0:0:0:0:
329,192,197915,1,0,0:0:0:0:
402,192,197940,1,0,0:0:0:0:
475,192,197965,1,0,0:0:0:0:
256,192,198115,128,0,198715:0:0:0:0:
109,192,198315,128,0,198715:0:0:0:0:
329,192,198715,128,0,199115:0:0:0:0:
182,192,199515,1,2,0:0:0:0:
475,192,199515,128,0,199915:0:0:0:0:
109,192,199540,1,0,0:0:0:0:
36,192,199565,1,0,0:0:0:0:
329,192,199715,128,0,199915:0:0:0:0:
182,192,199915,1,0,0:0:0:0:
329,192,200115,128,0,200515:0:0:0:0:
475,192,200115,128,0,200515:0:0:0:0:
109,192,200515,1,0,0:0:0:0:
256,192,200715,1,0,0:0:0:0:
402,192,200915,128,0,202315:0:0:0:0:
475,192,200915,128,0,202315:0:0:0:0:
36,192,201115,1,2,0:0:0:0:
109,192,201115,1,0,0:0:0:0:
36,192,201515,1,2,0:0:0:0:
109,192,201515,1,0,0:0:0:0:
256,192,201815,1,0,0:0:0:0:
36,192,201915,1,2,0:0:0:0:
109,192,201915,1,0,0:0:0:0:
256,192,202115,1,0,0:0:0:0:
109,192,202315,1,2,0:0:0:0:
329,192,202315,1,0,0:0:0:0:
36,192,202515,128,0,203915:0:0:0:0:
475,192,202515,128,0,203915:0:0:0:0:
256,192,202715,1,2,0:0:0:0:
256,192,202915,1,2,0:0:0:0:
109,192,203115,1,2,0:0:0:0:
402,192,203115,1,0,0:0:0:0:
109,192,203315,1,2,0:0:0:0:
402,192,203315,1,0,0:0:0:0:
182,192,203515,1,2,0:0:0:0:
329,192,203515,1,0,0:0:0:0:
182,192,203715,1,2,0:0:0:0:
329,192,203715,1,0,0:0:0:0:
256,192,203815,1,0,0:0:0:0:
182,192,203915,1,2,0:0:0:0:
329,192,203915,1,0,0:0:0:0:
182,192,204115,1,8,0:0:0:0:
256,192,204115,128,0,205915:0:0:0:0:
329,192,204115,1,0,0:0:0:0:
109,192,204715,128,0,204915:0:0:0:0:
402,192,204915,128,0,205115:0:0:0:0:
475,192,205115,128,0,205915:0:0:0:0:
182,192,205315,1,0,0:0:0:0:
36,192,205515,128,0,205915:0:0:0:0:
109,192,205915,1,0,0:0:0:0:
402,192,205915,1,0,0:0:0:0:
36,192,206315,1,4,0:0:0:0:
109,192,206315,1,2,0:0:0:0:
256,192,206315,1,0,0:0:0:0:
402,192,206315,128,0,206915:0:0:0:0:
475,192,206315,128,0,206915:0:0:0:0:
109,192,206615,1,8,0:0:0:0:
256,192,206715,1,2,0:0:0:0:
36,192,206915,128,8,207115:0:0:0:0:
109,192,206915,128,0,207115:0:0:0:0:
329,192,207115,128,2,207315:0:0:0:0:
475,192,207115,128,0,207315:0:0:0:0:
36,192,207315,1,8,0:0:0:0:
182,192,207315,1,0,0:0:0:0:
256,192,207515,128,8,207715:0:0:0:0:
402,192,207515,1,0,0:0:0:0:
36,192,207715,128,0,208315:0:0:0:0:
109,192,207915,128,2,208315:0:0:0:0:
256,192,208215,1,8,0:0:0:0:
182,192,208315,1,2,0:0:0:0:
402,192,208315,1,0,0:0:0:0:
475,192,208315,1,0,0:0:0:0:
256,192,208515,128,8,208715:0:0:0:0:
329,192,208515,128,0,208715:0:0:0:0:
36,192,208715,128,2,208915:0:0:0:0:
109,192,208715,128,0,208915:0:0:0:0:
475,192,208715,1,0,0:0:0:0:
256,192,208915,1,8,0:0:0:0:
329,192,208915,1,0,0:0:0:0:
36,192,209115,1,8,0:0:0:0:
109,192,209115,1,0,0:0:0:0:
402,192,209115,128,0,209515:0:0:0:0:
256,192,209315,1,0,0:0:0:0:
36,192,209515,1,2,0:0:0:0:
256,192,209515,128,0,210115:0:0:0:0:
475,192,209515,1,0,0:0:0:0:
36,192,209815,1,8,0:0:0:0:
475,192,209915,128,2,210115:0:0:0:0:
36,192,210115,1,8,0:0:0:0:
109,192,210115,1,0,0:0:0:0:
256,192,210315,1,2,0:0:0:0:
475,192,210315,128,0,210715:0:0:0:0:
109,192,210515,1,8,0:0:0:0:
182,192,210515,1,0,0:0:0:0:
36,192,210715,128,8,211515:0:0:0:0:
329,192,210715,1,0,0:0:0:0:
329,192,210915,1,0,0:0:0:0:
402,192,211015,1,0,0:0:0:0:
182,192,211115,128,2,211515:0:0:0:0:
475,192,211115,1,0,0:0:0:0:
475,192,211415,1,8,0:0:0:0:
256,192,211515,1,2,0:0:0:0:
329,192,211515,1,0,0:0:0:0:
182,192,211715,1,8,0:0:0:0:
475,192,211715,128,0,212115:0:0:0:0:
182,192,211915,128,2,212115:0:0:0:0:
256,192,212115,1,8,0:0:0:0:
402,192,212115,1,0,0:0:0:0:
36,192,212315,1,8,0:0:0:0:
109,192,212315,1,0,0:0:0:0:
182,192,212515,1,8,0:0:0:0:
329,192,212515,1,0,0:0:0:0:
256,192,212615,1,0,0:0:0:0:
36,192,212715,128,2,213315:0:0:0:0:
109,192,212715,128,4,213315:0:0:0:0:
402,192,212715,1,0,0:0:0:0:
475,192,212715,1,0,0:0:0:0:
475,192,213015,1,8,0:0:0:0:
256,192,213115,1,2,0:0:0:0:
402,192,213315,128,8,213515:0:0:0:0:
475,192,213315,128,0,213515:0:0:0:0:
109,192,213515,128,2,213715:0:0:0:0:
256,192,213515,128,0,213715:0:0:0:0:
402,192,213715,1,8,0:0:0:0:
475,192,213715,1,0,0:0:0:0:
109,192,213915,1,8,0:0:0:0:
256,192,213915,128,0,214315:0:0:0:0:
109,192,214115,128,0,214315:0:0:0:0:
36,192,214315,1,2,0:0:0:0:
475,192,214315,128,0,214915:0:0:0:0:
36,192,214615,1,8,0:0:0:0:
182,192,214715,1,2,0:0:0:0:
256,192,214715,1,0,0:0:0:0:
36,192,214915,128,8,215115:0:0:0:0:
329,192,214915,128,0,215115:0:0:0:0:
109,192,215115,128,2,215315:0:0:0:0:
402,192,215115,128,0,215315:0:0:0:0:
475,192,215115,1,0,0:0:0:0:
182,192,215315,1,8,0:0:0:0:
256,192,215315,1,0,0:0:0:0:
36,192,215515,1,8,0:0:0:0:
109,192,215515,1,0,0:0:0:0:
402,192,215515,1,0,0:0:0:0:
329,192,215715,1,0,0:0:0:0:
109,192,215915,1,2,0:0:0:0:
329,192,215915,128,0,216715:0:0:0:0:
475,192,215915,1,0,0:0:0:0:
109,192,216215,1,8,0:0:0:0:
475,192,216315,128,2,216715:0:0:0:0:
36,192,216515,1,8,0:0:0:0:
109,192,216515,1,0,0:0:0:0:
256,192,216715,128,2,217315:0:0:0:0:
402,192,216715,1,0,0:0:0:0:
36,192,216915,1,8,0:0:0:0:
109,192,216915,1,0,0:0:0:0:
109,192,217115,128,8,217315:0:0:0:0:
475,192,217115,1,0,0:0:0:0:
402,192,217315,1,0,0:0:0:0:
109,192,217515,1,2,0:0:0:0:
256,192,217515,128,0,217815:0:0:0:0:
329,192,217515,128,0,217815:0:0:0:0:
36,192,217815,1,8,0:0:0:0:
109,192,217815,1,0,0:0:0:0:
256,192,217915,1,2,0:0:0:0:
329,192,217915,1,0,0:0:0:0:
329,192,218115,1,8,0:0:0:0:
402,192,218115,1,0,0:0:0:0:
36,192,218315,1,2,0:0:0:0:
402,192,218315,128,0,218715:0:0:0:0:
475,192,218315,128,0,218715:0:0:0:0:
109,192,218515,1,8,0:0:0:0:
256,192,218515,1,0,0:0:0:0:
182,192,218715,1,8,0:0:0:0:
329,192,218715,1,0,0:0:0:0:
182,192,218915,1,8,0:0:0:0:
402,192,218915,1,0,0:0:0:0:
256,192,219015,1,0,0:0:0:0:
36,192,219115,1,2,0:0:0:0:
109,192,219115,1,4,0:0:0:0:
329,192,219115,128,0,219515:0:0:0:0:
475,192,219115,128,0,219715:0:0:0:0:
36,192,219415,1,8,0:0:0:0:
182,192,219515,1,2,0:0:0:0:
36,192,219715,1,8,0:0:0:0:
329,192,219715,128,0,220115:0:0:0:0:
475,192,219915,128,2,220115:0:0:0:0:
109,192,220115,1,8,0:0:0:0:
256,192,220115,1,0,0:0:0:0:
329,192,220315,128,8,220515:0:0:0:0:
475,192,220315,1,0,0:0:0:0:
36,192,220515,128,0,221315:0:0:0:0:
256,192,220715,1,2,0:0:0:0:
475,192,220715,128,0,221315:0:0:0:0:
256,192,221015,1,8,0:0:0:0:
182,192,221115,1,2,0:0:0:0:
329,192,221115,1,0,0:0:0:0:
109,192,221315,1,8,0:0:0:0:
402,192,221315,1,0,0:0:0:0:
36,192,221515,128,2,221715:0:0:0:0:
256,192,221515,1,0,0:0:0:0:
475,192,221515,128,0,221715:0:0:0:0:
182,192,221715,1,8,0:0:0:0:
329,192,221715,1,0,0:0:0:0:
36,192,221915,1,8,0:0:0:0:
256,192,221915,128,0,222115:0:0:0:0:
475,192,221915,1,0,0:0:0:0:
402,192,222115,128,0,222515:0:0:0:0:
109,192,222315,1,2,0:0:0:0:
256,192,222315,128,0,222515:0:0:0:0:
109,192,222615,1,8,0:0:0:0:
329,192,222715,128,2,222915:0:0:0:0:
402,192,222715,128,0,222915:0:0:0:0:
36,192,222915,1,8,0:0:0:0:
109,192,222915,1,0,0:0:0:0:
402,192,223115,128,2,223315:0:0:0:0:
475,192,223115,128,0,223315:0:0:0:0:
109,192,223315,1,8,0:0:0:0:
182,192,223315,1,0,0:0:0:0:
36,192,223515,128,8,223715:0:0:0:0:
182,192,223515,128,0,223715:0:0:0:0:
256,192,223715,1,0,0:0:0:0:
329,192,223915,1,2,0:0:0:0:
402,192,223915,128,0,224215:0:0:0:0:
475,192,223915,128,0,224215:0:0:0:0:
36,192,224215,1,8,0:0:0:0:
109,192,224215,1,0,0:0:0:0:
329,192,224315,1,2,0:0:0:0:
402,192,224315,1,0,0:0:0:0:
182,192,224515,1,8,0:0:0:0:
329,192,224515,1,0,0:0:0:0:
109,192,224715,128,2,225115:0:0:0:0:
182,192,224715,128,0,225115:0:0:0:0:
402,192,224915,1,8,0:0:0:0:
475,192,224915,1,0,0:0:0:0:
36,192,225115,1,8,0:0:0:0:
329,192,225115,1,0,0:0:0:0:
36,192,225315,1,8,0:0:0:0:
329,192,225315,1,0,0:0:0:0:
256,192,225415,1,0,0:0:0:0:
109,192,225515,1,2,0:0:0:0:
182,192,225515,1,4,0:0:0:0:
402,192,225515,1,0,0:0:0:0:
475,192,225515,1,0,0:0:0:0:
329,192,225715,1,0,0:0:0:0:
36,192,225815,1,8,0:0:0:0:
182,192,225815,1,0,0:0:0:0:
329,192,225915,1,2,0:0:0:0:
475,192,225915,1,0,0:0:0:0:
109,192,226115,1,8,0:0:0:0:
256,192,226115,1,0,0:0:0:0:
109,192,226315,1,2,0:0:0:0:
256,192,226315,1,0,0:0:0:0:
36,192,226515,1,8,0:0:0:0:
475,192,226515,1,0,0:0:0:0:
256,192,226715,1,8,0:0:0:0:
402,192,226715,1,0,0:0:0:0:
182,192,226915,128,0,227315:0:0:0:0:
36,192,227115,128,2,227315:0:0:0:0:
475,192,227115,1,0,0:0:0:0:
109,192,227415,128,8,227615:0:0:0:0:
256,192,227415,128,0,227615:0:0:0:0:
402,192,227515,1,2,0:0:0:0:
475,192,227515,1,0,0:0:0:0:
182,192,227715,128,8,227915:0:0:0:0:
329,192,227715,128,0,227915:0:0:0:0:
36,192,227915,1,2,0:0:0:0:
402,192,227915,1,0,0:0:0:0:
475,192,227915,128,0,228515:0:0:0:0:
182,192,228115,1,8,0:0:0:0:
329,192,228215,128,0,228515:0:0:0:0:
36,192,228315,1,8,0:0:0:0:
109,192,228315,1,0,0:0:0:0:
256,192,228515,1,0,0:0:0:0:
36,192,228715,128,2,229515:0:0:0:0:
182,192,228715,1,0,0:0:0:0:
475,192,228715,128,0,229515:0:0:0:0:
182,192,229015,1,8,0:0:0:0:
329,192,229115,1,2,0:0:0:0:
109,192,229315,1,8,0:0:0:0:
182,192,229315,1,0,0:0:0:0:
256,192,229515,1,2,0:0:0:0:
402,192,229515,1,0,0:0:0:0:
182,192,229715,128,8,229915:0:0:0:0:
475,192,229715,1,0,0:0:0:0:
36,192,229915,1,8,0:0:0:0:
329,192,229915,128,0,231315:0:0:0:0:
182,192,230115,128,0,231315:0:0:0:0:
109,192,230215,1,0,0:0:0:0:
36,192,230315,1,2,0:0:0:0:
475,192,230315,1,0,0:0:0:0:
475,192,230615,1,8,0:0:0:0:
256,192,230715,1,2,0:0:0:0:
36,192,230915,1,8,0:0:0:0:
475,192,230915,1,0,0:0:0:0:
109,192,231115,1,2,0:0:0:0:
256,192,231315,1,8,0:0:0:0:
402,192,231315,1,0,0:0:0:0:
36,192,231515,1,8,0:0:0:0:
109,192,231515,1,0,0:0:0:0:
182,192,231715,1,8,0:0:0:0:
475,192,231715,1,0,0:0:0:0:
256,192,231815,1,0,0:0:0:0:
36,192,231915,1,2,0:0:0:0:
109,192,231915,1,4,0:0:0:0:
329,192,231915,1,0,0:0:0:0:
402,192,231915,128,0,232315:0:0:0:0:
36,192,232215,1,8,0:0:0:0:
182,192,232315,1,2,0:0:0:0:
256,192,232315,128,0,232715:0:0:0:0:
36,192,232515,1,8,0:0:0:0:
402,192,232515,1,0,0:0:0:0:
109,192,232715,1,2,0:0:0:0:
475,192,232715,128,0,233115:0:0:0:0:
182,192,232915,1,8,0:0:0:0:
256,192,232915,1,0,0:0:0:0:
36,192,233115,1,8,0:0:0:0:
329,192,233115,1,0,0:0:0:0:
109,192,233315,1,0,0:0:0:0:
109,192,233515,128,2,234115:0:0:0:0:
256,192,233515,1,0,0:0:0:0:
256,192,233815,128,8,234115:0:0:0:0:
402,192,233915,1,2,0:0:0:0:
475,192,233915,1,0,0:0:0:0:
182,192,234115,1,8,0:0:0:0:
329,192,234115,1,0,0:0:0:0:
36,192,234315,1,2,0:0:0:0:
256,192,234315,1,0,0:0:0:0:
475,192,234315,128,0,234915:0:0:0:0:
109,192,234515,1,8,0:0:0:0:
329,192,234515,1,0,0:0:0:0:
402,192,234615,128,0,234915:0:0:0:0:
36,192,234715,1,8,0:0:0:0:
182,192,234715,1,0,0:0:0:0:
329,192,234915,1,0,0:0:0:0:
109,192,235115,128,2,236115:0:0:0:0:
256,192,235115,1,0,0:0:0:0:
402,192,235115,128,0,236115:0:0:0:0:
256,192,235415,1,8,0:0:0:0:
36,192,235515,1,2,0:0:0:0:
256,192,235715,1,8,0:0:0:0:
475,192,235715,1,0,0:0:0:0:
329,192,235915,1,2,0:0:0:0:
36,192,236115,1,8,0:0:0:0:
256,192,236115,1,0,0:0:0:0:
109,192,236315,1,8,0:0:0:0:
402,192,236315,1,0,0:0:0:0:
329,192,236515,1,0,0:0:0:0:
36,192,236715,1,2,0:0:0:0:
182,192,236715,1,0,0:0:0:0:
475,192,236715,128,0,237115:0:0:0:0:
329,192,236915,128,0,237115:0:0:0:0:
36,192,237015,1,8,0:0:0:0:
109,192,237115,1,2,0:0:0:0:
256,192,237115,1,0,0:0:0:0:
329,192,237315,128,8,238115:0:0:0:0:
475,192,237315,128,0,238115:0:0:0:0:
109,192,237515,1,2,0:0:0:0:
182,192,237715,1,8,0:0:0:0:
256,192,237715,1,0,0:0:0:0:
36,192,237915,1,8,0:0:0:0:
109,192,237915,1,0,0:0:0:0:
256,192,238115,1,8,0:0:0:0:
402,192,238115,1,0,0:0:0:0:
182,192,238215,1,0,0:0:0:0:
36,192,238315,1,4,0:0:0:0:
109,192,238315,1,2,0:0:0:0:
329,192,238315,1,0,0:0:0:0:
475,192,238315,1,0,0:0:0:0:
329,192,238615,1,8,0:0:0:0:
475,192,238615,1,0,0:0:0:0:
36,192,238715,1,2,0:0:0:0:
109,192,238715,1,0,0:0:0:0:
329,192,238915,1,8,0:0:0:0:
475,192,238915,1,0,0:0:0:0:
182,192,239115,1,2,0:0:0:0:
475,192,239115,128,0,240515:0:0:0:0:
256,192,239315,1,8,0:0:0:0:
329,192,239315,1,0,0:0:0:0:
36,192,239515,1,8,0:0:0:0:
109,192,239515,1,0,0:0:0:0:
109,192,239715,1,0,0:0:0:0:
182,192,239815,1,0,0:0:0:0:
256,192,239915,1,2,0:0:0:0:
329,192,239915,1,0,0:0:0:0:
256,192,240215,1,8,0:0:0:0:
36,192,240315,1,2,0:0:0:0:
109,192,240315,1,0,0:0:0:0:
182,192,240515,1,8,0:0:0:0:
402,192,240515,1,0,0:0:0:0:
36,192,240715,1,2,0:0:0:0:
256,192,240715,1,0,0:0:0:0:
475,192,240715,128,0,241115:0:0:0:0:
36,192,240915,128,8,241515:0:0:0:0:
182,192,241115,128,8,241515:0:0:0:0:
329,192,241115,1,0,0:0:0:0:
402,192,241115,1,0,0:0:0:0:
329,192,241315,128,0,241515:0:0:0:0:
109,192,241515,1,2,0:0:0:0:
402,192,241515,1,0,0:0:0:0:
475,192,241515,128,0,243115:0:0:0:0:
329,192,241815,1,8,0:0:0:0:
36,192,241915,1,2,0:0:0:0:
109,192,241915,1,0,0:0:0:0:
256,192,242115,1,8,0:0:0:0:
329,192,242115,1,0,0:0:0:0:
109,192,242315,1,2,0:0:0:0:
182,192,242515,1,8,0:0:0:0:
256,192,242515,1,0,0:0:0:0:
36,192,242715,1,8,0:0:0:0:
329,192,242715,1,0,0:0:0:0:
109,192,242915,1,0,0:0:0:0:
182,192,243115,1,2,0:0:0:0:
256,192,243115,1,0,0:0:0:0:
402,192,243115,1,0,0:0:0:0:
402,192,243415,1,8,0:0:0:0:
475,192,243415,1,0,0:0:0:0:
36,192,243515,1,2,0:0:0:0:
182,192,243515,1,0,0:0:0:0:
329,192,243715,1,8,0:0:0:0:
402,192,243715,1,0,0:0:0:0:
182,192,243915,1,2,0:0:0:0:
475,192,243915,128,0,246515:0:0:0:0:
109,192,244115,1,8,0:0:0:0:
256,192,244115,1,0,0:0:0:0:
36,192,244315,128,8,246515:0:0:0:0:
329,192,244315,1,0,0:0:0:0:
329,192,244515,1,8,0:0:0:0:
256,192,244615,1,0,0:0:0:0:
109,192,244715,1,2,0:0:0:0:
182,192,244715,1,4,0:0:0:0:
402,192,244715,128,0,246515:0:0:0:0:
256,192,245015,1,8,0:0:0:0:
109,192,245115,128,2,246515:0:0:0:0:
256,192,245315,1,8,0:0:0:0:
329,192,245515,1,2,0:0:0:0:
256,192,245715,1,8,0:0:0:0:
256,192,245915,1,8,0:0:0:0:
182,192,246115,1,0,0:0:0:0:
256,192,246315,1,2,0:0:0:0:
182,192,246615,1,8,0:0:0:0:
329,192,246615,1,0,0:0:0:0:
109,192,246715,1,2,0:0:0:0:
402,192,246715,1,0,0:0:0:0:
475,192,246715,1,0,0:0:0:0:
182,192,246915,1,8,0:0:0:0:
329,192,246915,1,0,0:0:0:0:
36,192,247115,128,2,247515:0:0:0:0:
402,192,247115,1,0,0:0:0:0:
475,192,247115,1,0,0:0:0:0:
329,192,247315,1,8,0:0:0:0:
402,192,247315,128,0,247915:0:0:0:0:
109,192,247515,1,8,0:0:0:0:
182,192,247515,1,0,0:0:0:0:
256,192,247515,128,0,247915:0:0:0:0:
109,192,247715,128,0,247915:0:0:0:0:
36,192,247915,1,2,0:0:0:0:
329,192,247915,1,0,0:0:0:0:
475,192,247915,128,0,248315:0:0:0:0:
36,192,248215,1,8,0:0:0:0:
182,192,248315,1,2,0:0:0:0:
329,192,248315,1,0,0:0:0:0:
402,192,248515,1,8,0:0:0:0:
475,192,248515,1,0,0:0:0:0:
36,192,248715,128,2,250515:0:0:0:0:
256,192,248715,1,0,0:0:0:0:
109,192,248915,1,8,0:0:0:0:
329,192,248915,1,0,0:0:0:0:
182,192,249115,1,8,0:0:0:0:
475,192,249115,128,0,250315:0:0:0:0:
256,192,249315,1,0,0:0:0:0:
329,192,249415,1,0,0:0:0:0:
109,192,249515,1,2,0:0:0:0:
402,192,249515,128,0,250115:0:0:0:0:
256,192,249715,1,0,0:0:0:0:
182,192,249815,1,8,0:0:0:0:
109,192,249915,128,2,250515:0:0:0:0:
256,192,250115,1,8,0:0:0:0:
402,192,250315,128,2,250915:0:0:0:0:
475,192,250515,128,8,250915:0:0:0:0:
256,192,250515,1,0,0:0:0:0:
36,192,250715,128,8,250915:0:0:0:0:
109,192,250715,128,0,250915:0:0:0:0:
182,192,250915,1,8,0:0:0:0:
329,192,250915,1,0,0:0:0:0:
256,192,251015,1,0,0:0:0:0:
36,192,251115,1,4,0:0:0:0:
109,192,251115,128,2,252715:0:0:0:0:
402,192,251115,128,0,252715:0:0:0:0:
475,192,251115,1,0,0:0:0:0:
256,192,251415,1,8,0:0:0:0:
329,192,251515,1,2,0:0:0:0:
256,192,251715,1,8,0:0:0:0:
36,192,251915,128,2,252715:0:0:0:0:
475,192,251915,128,0,252715:0:0:0:0:
256,192,252115,1,8,0:0:0:0:
256,192,252315,1,8,0:0:0:0:
329,192,252515,1,0,0:0:0:0:
256,192,252615,1,0,0:0:0:0:
182,192,252715,1,2,0:0:0:0:
36,192,253015,1,8,0:0:0:0:
182,192,253015,1,0,0:0:0:0:
256,192,253115,1,2,0:0:0:0:
402,192,253115,1,0,0:0:0:0:
475,192,253115,1,0,0:0:0:0:
36,192,253315,1,8,0:0:0:0:
109,192,253315,1,0,0:0:0:0:
182,192,253515,1,2,0:0:0:0:
329,192,253515,1,0,0:0:0:0:
475,192,253515,128,0,255715:0:0:0:0:
109,192,253715,1,8,0:0:0:0:
256,192,253715,1,0,0:0:0:0:
36,192,253915,1,8,0:0:0:0:
402,192,253915,1,0,0:0:0:0:
329,192,254115,1,0,0:0:0:0:
36,192,254315,1,2,0:0:0:0:
182,192,254315,1,0,0:0:0:0:
256,192,254315,1,0,0:0:0:0:
182,192,254615,1,8,0:0:0:0:
329,192,254715,1,2,0:0:0:0:
36,192,254915,1,8,0:0:0:0:
182,192,254915,1,0,0:0:0:0:
36,192,255115,128,2,255715:0:0:0:0:
182,192,255315,1,8,0:0:0:0:
329,192,255315,1,0,0:0:0:0:
109,192,255515,1,8,0:0:0:0:
402,192,255515,1,0,0:0:0:0:
256,192,255715,1,0,0:0:0:0:
182,192,255815,1,0,0:0:0:0:
36,192,255915,128,2,257315:0:0:0:0:
109,192,255915,1,0,0:0:0:0:
402,192,255915,1,0,0:0:0:0:
475,192,255915,128,0,257315:0:0:0:0:
329,192,256215,1,8,0:0:0:0:
256,192,256315,1,2,0:0:0:0:
182,192,256515,1,8,0:0:0:0:
329,192,256515,1,0,0:0:0:0:
256,192,256715,1,2,0:0:0:0:
256,192,256915,1,8,0:0:0:0:
182,192,257115,1,8,0:0:0:0:
329,192,257115,1,0,0:0:0:0:
109,192,257315,1,8,0:0:0:0:
402,192,257315,1,0,0:0:0:0:
256,192,257415,1,0,0:0:0:0:
36,192,257515,1,2,0:0:0:0:
109,192,257515,1,4,0:0:0:0:
402,192,257515,1,0,0:0:0:0:
475,192,257515,1,0,0:0:0:0:
256,192,257815,1,8,0:0:0:0:
402,192,257815,1,0,0:0:0:0:
109,192,257915,128,2,259715:0:0:0:0:
475,192,257915,1,0,0:0:0:0:
256,192,258115,1,8,0:0:0:0:
329,192,258115,1,0,0:0:0:0:
36,192,258315,128,2,259715:0:0:0:0:
256,192,258515,1,8,0:0:0:0:
402,192,258515,1,0,0:0:0:0:
475,192,258715,128,8,260315:0:0:0:0:
256,192,258915,1,0,0:0:0:0:
402,192,259115,128,2,260315:0:0:0:0:
256,192,259415,1,8,0:0:0:0:
329,192,259515,1,2,0:0:0:0:
182,192,259715,1,8,0:0:0:0:
256,192,259715,1,0,0:0:0:0:
36,192,259915,128,2,260315:0:0:0:0:
109,192,259915,128,0,260315:0:0:0:0:
256,192,260115,1,8,0:0:0:0:
182,192,260315,1,8,0:0:0:0:
329,192,260315,1,0,0:0:0:0:
36,192,260715,128,2,262115:0:0:0:0:
109,192,260715,1,0,0:0:0:0:
402,192,260715,1,0,0:0:0:0:
475,192,260715,128,0,262115:0:0:0:0:
182,192,261015,1,8,0:0:0:0:
256,192,261115,1,2,0:0:0:0:
182,192,261315,1,8,0:0:0:0:
329,192,261315,1,0,0:0:0:0:
256,192,261515,1,2,0:0:0:0:
182,192,261715,1,8,0:0:0:0:
329,192,261715,1,0,0:0:0:0:
109,192,261915,1,8,0:0:0:0:
402,192,261915,1,0,0:0:0:0:
256,192,262115,1,0,0:0:0:0:
182,192,262315,1,2,0:0:0:0:
329,192,262315,1,0,0:0:0:0:
475,192,262315,128,0,263715:0:0:0:0:
109,192,262615,1,8,0:0:0:0:
402,192,262715,128,2,263715:0:0:0:0:
36,192,262915,1,8,0:0:0:0:
256,192,262915,1,0,0:0:0:0:
109,192,263115,128,2,263715:0:0:0:0:
256,192,263315,1,8,0:0:0:0:
36,192,263515,128,8,263715:0:0:0:0:
182,192,263715,1,8,0:0:0:0:
329,192,263715,1,0,0:0:0:0:
256,192,263815,1,8,0:0:0:0:
36,192,263915,128,2,266315:0:0:0:0:
109,192,263915,128,4,264315:0:0:0:0:
402,192,263915,128,0,264315:0:0:0:0:
475,192,263915,128,0,266315:0:0:0:0:
182,192,264315,1,0,0:0:0:0:
329,192,264315,1,0,0:0:0:0:
109,192,264715,128,0,264915:0:0:0:0:
402,192,264715,128,0,264915:0:0:0:0:
182,192,264915,128,0,265115:0:0:0:0:
329,192,264915,128,0,265115:0:0:0:0:
109,192,265115,128,0,265315:0:0:0:0:
402,192,265115,128,0,265315:0:0:0:0:
182,192,265315,128,0,265515:0:0:0:0:
329,192,265315,128,0,265515:0:0:0:0:
109,192,265515,128,0,265915:0:0:0:0:
402,192,265515,128,0,265915:0:0:0:0:
182,192,266315,128,0,266915:0:0:0:0:
329,192,266315,128,0,266915:0:0:0:0:
36,192,266715,128,0,266915:0:0:0:0:
475,192,266715,128,0,266915:0:0:0:0:
109,192,266915,1,0,0:0:0:0:
402,192,266915,1,0,0:0:0:0:
182,192,267115,128,0,267715:0:0:0:0:
475,192,267115,128,0,267715:0:0:0:0:
36,192,267515,128,0,267715:0:0:0:0:
329,192,267515,128,0,267715:0:0:0:0:
36,192,267915,128,0,268115:0:0:0:0:
329,192,267915,128,0,268115:0:0:0:0:
182,192,268115,128,0,268315:0:0:0:0:
475,192,268115,128,0,268315:0:0:0:0:
36,192,268315,128,0,268915:0:0:0:0:
329,192,268315,128,0,268915:0:0:0:0:
109,192,268515,128,0,268915:0:0:0:0:
402,192,268515,128,0,268915:0:0:0:0:
182,192,268715,128,0,268915:0:0:0:0:
475,192,268715,128,0,268915:0:0:0:0:
109,192,269515,128,0,270115:0:0:0:0:
402,192,269515,128,0,270115:0:0:0:0:
182,192,269915,128,0,270115:0:0:0:0:
329,192,269915,128,0,270115:0:0:0:0:
36,192,270115,1,0,0:0:0:0:
475,192,270115,1,0,0:0:0:0:
109,192,270315,128,0,270915:0:0:0:0:
182,192,270315,1,0,0:0:0:0:
329,192,270315,1,0,0:0:0:0:
402,192,270315,128,0,270915:0:0:0:0:
36,192,270715,128,0,270915:0:0:0:0:
475,192,270715,128,0,270915:0:0:0:0:
36,192,271115,128,0,271315:0:0:0:0:
475,192,271115,128,0,271315:0:0:0:0:
109,192,271315,128,0,271515:0:0:0:0:
402,192,271315,128,0,271515:0:0:0:0:
36,192,271515,128,0,272315:0:0:0:0:
475,192,271515,128,0,272315:0:0:0:0:
182,192,271715,128,0,272315:0:0:0:0:
329,192,271715,128,0,272315:0:0:0:0:
109,192,271915,128,0,272315:0:0:0:0:
402,192,271915,128,0,272315:0:0:0:0:
256,192,272315,1,0,0:0:0:0:
36,192,272512,1,0,0:0:0:0:
475,192,272512,1,0,0:0:0:0:
109,192,272709,128,0,273053:0:0:0:0:
402,192,272709,128,0,273053:0:0:0:0:
182,192,273201,1,0,0:0:0:0:
182,192,273792,1,0,0:0:0:0:
182,192,274383,1,0,0:0:0:0:
182,192,274974,1,0,0:0:0:0:
182,192,275565,1,0,0:0:0:0:
182,192,276159,1,0,0:0:0:0:
182,192,276753,1,0,0:0:0:0:
182,192,277347,1,0,0:0:0:0:
109,192,277941,1,0,0:0:0:0:
109,192,278541,1,0,0:0:0:0:
36,192,279141,1,0,0:0:0:0:
36,192,279741,1,0,0:0:0:0:
