osu file format v14

[General]
AudioFilename: audio.mp3
AudioLeadIn: 0
PreviewTime: 22950
Countdown: 0
SampleSet: Soft
StackLeniency: 0.7
Mode: 0
LetterboxInBreaks: 0
WidescreenStoryboard: 0

[Editor]
DistanceSpacing: 1.4
BeatDivisor: 2
GridSize: 8
TimelineZoom: 0.5999999

[Metadata]
Title:Ryuusei Aika
TitleUnicode:流星哀歌
Artist:Shota Kageyama
ArtistUnicode:景山将太
Creator:Ryuusei Aika
Version:Easy
Source:ポケットモンスター オメガルビー・アルファサファイア
Tags:ポケモン Pokémon Pokemon Pocket Monster Omega Ruby Alpha Sapphire ORAS The Lament of Falling Stars
BeatmapID:1412557
BeatmapSetID:667602

[Difficulty]
HPDrainRate:2
CircleSize:3
OverallDifficulty:2
ApproachRate:3
SliderMultiplier:1.2
SliderTickRate:1

[Events]
//Background and Video events
0,0,"BG.png",0,0
//Break Periods
//Storyboard Layer 0 (Background)
//Storyboard Layer 1 (Fail)
//Storyboard Layer 2 (Pass)
//Storyboard Layer 3 (Foreground)
//Storyboard Sound Samples

[TimingPoints]
0,722.89156626506,4,2,1,20,1,0
4698,-100,4,2,1,35,0,0
11425,722.89156626506,4,2,1,35,1,0
11566,722.89156626506,4,2,1,35,1,0
16264,-100,4,2,1,50,0,0
20090,722.89156626506,4,2,1,50,1,0
20240,722.89156626506,4,2,1,50,1,0
22981,722.89156626506,4,2,1,60,1,0
23131,722.89156626506,4,2,1,60,1,0
33251,-100,4,2,1,70,0,0
33974,-100,4,2,1,80,0,0
34697,-100,4,2,1,70,0,0
35058,-100,4,2,1,60,0,0
54215,-100,4,2,1,5,0,0
55075,722.89156626506,4,2,1,30,1,0
59773,-100,4,2,1,20,0,0

[Colours]
Combo1 : 151,34,79
Combo2 : 0,79,169
Combo3 : 129,70,224
Combo4 : 46,27,133

[HitObjects]
110,32,0,6,0,P|139:28|173:33,1,60,6|0,0:0|0:0,0:0:0:0:
224,97,722,2,0,P|253:101|287:96,1,60
357,57,1445,1,2,0:0:0:0:
398,220,2168,2,0,P|402:249|397:283,1,60
340,340,2891,6,0,P|283:323|224:335,1,120,2|0,0:0|0:0,0:0:0:0:
168,272,3975,2,0,L|174:210,1,60,0|2,0:0|0:0,0:0:0:0:
118,149,4698,2,0,L|55:142,2,60,0|0|0,0:0|0:0|0:0,0:0:0:0:
181,93,5783,6,0,P|210:89|244:94,1,60,2|0,0:0|0:0,0:0:0:0:
301,151,6506,2,0,L|360:145,1,60,0|0,0:0|0:0,0:0:0:0:
423,88,7228,2,0,L|413:-6,2,90,2|2|2,0:0|0:0|0:0,0:0:0:0:
485,145,8674,6,0,P|489:174|484:207,1,60,2|0,0:0|0:0,0:0:0:0:
420,257,9397,2,0,L|414:316,1,60,0|2,0:0|0:0,0:0:0:0:
350,372,10120,2,0,P|293:355|234:367,1,120,2|2,0:0|0:0,0:0:0:0:
108,254,11566,6,0,L|114:191,1,60,6|0,0:0|0:0,0:0:0:0:
50,138,12288,2,0,L|43:75,1,60
107,22,13011,1,2,0:0:0:0:
259,90,13734,2,0,P|263:119|260:149,1,60
200,209,14457,6,0,P|258:197|315:214,1,120,2|0,0:0|0:0,0:0:0:0:
369,278,15541,2,0,L|429:285,1,60,0|2,0:0|0:0,0:0:0:0:
489,227,16264,2,0,P|494:198|490:168,2,60
410,196,17349,6,0,L|350:189,1,60,2|0,0:0|0:0,0:0:0:0:
273,154,18072,2,0,L|213:161,1,60
157,97,18794,2,0,P|163:52|155:8,2,90,2|2|2,0:0|0:0|0:0,0:0:0:0:
90,148,20240,6,0,P|85:177|89:207,1,60,2|0,0:0|0:0,0:0:0:0:
150,265,20962,2,0,P|155:294|150:324,1,60,0|2,0:0|0:0,0:0:0:0:
92,382,21685,2,0,P|150:371|209:379,1,120,2|2,0:0|0:0,0:0:0:0:
330,265,23131,5,6,0:0:0:0:
386,328,23492,2,0,L|446:335,2,60,0|0|0,0:0|0:0|0:0,0:0:0:0:
413,249,24576,1,2,0:0:0:0:
440,170,24938,2,0,L|447:110,2,60,0|0|0,0:0|0:0|0:0,0:0:0:0:
359,187,26022,5,2,0:0:0:0:
280,160,26384,2,0,L|220:153,2,60
253,239,27468,2,0,P|193:241|137:190,1,120,2|2,0:0|0:0,0:0:0:0:
116,44,28914,6,0,P|87:39|57:43,2,60,2|0|0,0:0|0:0|0:0,0:0:0:0:
194,72,29998,1,2,0:0:0:0:
131,126,30359,2,0,P|112:148|100:176,2,60,2|0|0,0:0|0:0|0:0,0:0:0:0:
194,72,31444,1,2,0:0:0:0:
210,154,31805,6,0,P|220:181|238:205,2,60,2|0|0,0:0|0:0|0:0,0:0:0:0:
194,72,32890,1,2,0:0:0:0:
271,44,33251,6,0,L|331:47,1,60,6|0,0:0|0:0,0:0:0:0:
407,75,33974,1,6,0:0:0:0:
380,152,34335,1,0,0:0:0:0:
353,229,34697,5,6,0:0:0:0:
289,172,35058,2,0,P|271:148|261:120,2,60,0|0|0,0:0|0:0|0:0,0:0:0:0:
369,145,36143,1,2,0:0:0:0:
448,118,36504,2,0,P|476:114|506:119,2,60,0|0|0,0:0|0:0|0:0,0:0:0:0:
431,198,37588,5,2,0:0:0:0:
457,278,37950,2,0,P|460:306|455:336,2,60,0|0|0,0:0|0:0|0:0,0:0:0:0:
379,304,39034,2,0,P|320:309|270:278,1,120,2|2,0:0|0:0,0:0:0:0:
114,224,40480,6,0,L|54:221,2,60,6|0|0,0:0|0:0|0:0,0:0:0:0:
177,171,41564,1,2,0:0:0:0:
100,143,41926,2,0,L|72:89,2,60,2|0|0,0:0|0:0|0:0,0:0:0:0:
177,171,43010,1,2,0:0:0:0:
163,91,43371,6,0,L|195:40,2,60,2|0|0,0:0|0:0|0:0,0:0:0:0:
177,171,44456,1,2,0:0:0:0:
240,119,44817,2,0,P|270:111|298:114,2,60,2|0|2,0:0|0:0|0:0,0:0:0:0:
114,224,46263,5,2,0:0:0:0:
421,335,47709,1,2,0:0:0:0:
357,6,49155,6,0,P|349:66|360:125,1,120,6|0,0:0|0:0,0:0:0:0:
415,187,50239,1,0,0:0:0:0:
332,203,50600,2,0,L|272:200,1,60,2|0,0:0|0:0,0:0:0:0:
191,217,51323,2,0,L|131:220,1,60,0|0,0:0|0:0,0:0:0:0:
76,158,52046,6,0,P|65:99|73:39,1,120,2|0,0:0|0:0,0:0:0:0:
155,20,53130,2,0,P|184:24|213:19,1,60,0|2,0:0|0:0,0:0:0:0:
298,364,55075,6,0,P|356:352|413:369,1,120,6|0,0:0|0:0,0:0:0:0:
456,299,56159,1,0,0:0:0:0:
499,229,56520,1,2,0:0:0:0:
438,72,57243,2,0,P|408:75|378:71,1,60,0|0,0:0|0:0,0:0:0:0:
305,31,57966,6,0,P|248:13|189:25,1,120,2|0,0:0|0:0,0:0:0:0:
149,98,59050,2,0,L|87:92,1,60,0|2,0:0|0:0,0:0:0:0:
49,165,59773,2,0,P|52:194|48:224,2,60,0|0|0,0:0|0:0|0:0,0:0:0:0:
5,93,60858,5,2,0:0:0:0:
