osu file format v14

[General]
AudioFilename: audio.mp3
AudioLeadIn: 0
PreviewTime: 22950
Countdown: 0
SampleSet: Soft
StackLeniency: 0.7
Mode: 0
LetterboxInBreaks: 0
WidescreenStoryboard: 0

[Editor]
DistanceSpacing: 1.3
BeatDivisor: 4
GridSize: 8
TimelineZoom: 0.8

[Metadata]
Title:Ryuusei Aika
TitleUnicode:流星哀歌
Artist:Shota Kageyama
ArtistUnicode:景山将太
Creator:Ryuusei Aika
Version:Normal
Source:ポケットモンスター オメガルビー・アルファサファイア
Tags:ポケモン Pokémon Pokemon Pocket Monster Omega Ruby Alpha Sapphire ORAS The Lament of Falling Stars
BeatmapID:1412555
BeatmapSetID:667602

[Difficulty]
HPDrainRate:3
CircleSize:3.5
OverallDifficulty:3
ApproachRate:4
SliderMultiplier:1.4
SliderTickRate:1

[Events]
//Background and Video events
0,0,"BG.png",0,0
//Break Periods
//Storyboard Layer 0 (Background)
//Storyboard Layer 1 (Fail)
//Storyboard Layer 2 (Pass)
//Storyboard Layer 3 (Foreground)
//Storyboard Sound Samples

[TimingPoints]
0,722.89156626506,4,2,1,30,1,0
4698,-100,4,2,1,40,0,0
11425,722.89156626506,4,2,1,40,1,0
11566,722.89156626506,4,2,1,40,1,0
16264,-100,4,2,1,50,0,0
20090,722.89156626506,4,2,1,50,1,0
20240,722.89156626506,4,2,1,50,1,0
22981,722.89156626506,4,2,1,60,1,0
23131,722.89156626506,4,2,1,60,1,0
27829,-100,4,2,1,5,0,0
28191,-100,4,2,1,60,0,0
33251,-100,4,2,1,70,0,0
33974,-100,4,2,1,80,0,0
34697,-100,4,2,1,70,0,0
35058,-100,4,2,1,60,0,0
46986,-100,4,2,1,5,0,0
47347,-100,4,2,1,60,0,0
48070,-100,4,2,1,5,0,0
48432,-100,4,2,1,60,0,0
48793,-100,4,2,1,5,0,0
49155,-100,4,2,1,60,0,0
55075,722.89156626506,4,2,1,30,1,0
59773,-100,4,2,1,20,0,0

[Colours]
Combo1 : 151,34,79
Combo2 : 0,79,169
Combo3 : 129,70,224
Combo4 : 46,27,133

[HitObjects]
8,124,0,6,0,L|80:124,1,70,6|0,0:0|0:0,0:0:0:0:
137,192,722,2,0,L|209:192,1,70
266,124,1445,1,2,0:0:0:0:
438,54,2168,2,0,L|438:124,1,70,0|0,0:0|0:0,0:0:0:0:
393,202,2891,5,2,0:0:0:0:
348,280,3253,1,0,0:0:0:0:
303,358,3614,2,0,L|233:358,1,70,0|0,0:0|0:0,0:0:0:0:
188,280,4337,1,2,0:0:0:0:
143,358,4698,2,0,L|73:358,1,70,0|0,0:0|0:0,0:0:0:0:
28,280,5421,1,0,0:0:0:0:
106,235,5783,6,0,L|106:165,1,70,2|0,0:0|0:0,0:0:0:0:
28,120,6506,2,0,L|28:50,1,70,0|0,0:0|0:0,0:0:0:0:
106,6,7228,2,0,L|219:6,1,105,2|2,0:0|0:0,0:0:0:0:
308,102,8313,1,2,0:0:0:0:
386,57,8674,6,0,L|455:57,1,70,2|0,0:0|0:0,0:0:0:0:
501,134,9397,2,0,L|501:204,1,70,0|2,0:0|0:0,0:0:0:0:
423,249,10120,2,0,L|283:249,1,140,2|2,0:0|0:0,0:0:0:0:
125,340,11566,6,0,L|56:340,1,70,6|0,0:0|0:0,0:0:0:0:
9,261,12288,2,0,L|9:187,1,70,0|0,0:0|0:0,0:0:0:0:
54,113,13011,1,2,0:0:0:0:
171,261,13734,2,0,L|241:261,1,70,0|0,0:0|0:0,0:0:0:0:
286,339,14457,6,0,L|356:339,1,70,2|0,0:0|0:0,0:0:0:0:
434,294,15180,2,0,L|434:224,1,70,0|0,0:0|0:0,0:0:0:0:
512,179,15903,1,2,0:0:0:0:
467,101,16264,2,0,L|397:101,1,70,0|0,0:0|0:0,0:0:0:0:
352,23,16987,1,0,0:0:0:0:
307,101,17349,6,0,L|237:101,1,70,2|0,0:0|0:0,0:0:0:0:
192,179,18072,2,0,L|122:179,1,70,0|0,0:0|0:0,0:0:0:0:
44,134,18794,2,0,L|44:21,1,105,2|2,0:0|0:0,0:0:0:0:
180,42,19879,1,2,0:0:0:0:
243,107,20240,6,0,L|243:177,1,70,2|0,0:0|0:0,0:0:0:0:
181,242,20962,2,0,L|111:242,1,70,0|2,0:0|0:0,0:0:0:0:
46,180,21685,1,2,0:0:0:0:
46,362,22408,1,2,0:0:0:0:
204,271,23131,6,0,P|239:264|275:269,1,70,6|0,0:0|0:0,0:0:0:0:
336,331,23853,1,0,0:0:0:0:
398,267,24215,1,0,0:0:0:0:
419,180,24576,6,0,P|423:145|416:111,1,70,2|0,0:0|0:0,0:0:0:0:
352,49,25299,1,0,0:0:0:0:
290,113,25661,1,0,0:0:0:0:
204,137,26022,6,0,P|169:143|135:139,1,70,2|0,0:0|0:0,0:0:0:0:
71,77,26745,1,0,0:0:0:0:
9,141,27106,1,0,0:0:0:0:
73,203,27468,6,0,P|79:238|75:272,1,70,2|0,0:0|0:0,0:0:0:0:
10,334,28191,1,2,0:0:0:0:
186,366,28914,5,2,0:0:0:0:
248,302,29275,2,0,P|252:267|245:233,1,70,0|0,0:0|0:0,0:0:0:0:
183,169,29998,1,2,0:0:0:0:
158,254,30359,5,2,0:0:0:0:
245,233,30721,2,0,P|279:229|313:236,1,70,0|0,0:0|0:0,0:0:0:0:
400,257,31444,1,2,0:0:0:0:
338,321,31805,5,2,0:0:0:0:
313,236,32167,2,0,P|309:202|316:168,1,70,0|0,0:0|0:0,0:0:0:0:
341,82,32890,1,2,0:0:0:0:
403,147,33251,5,6,0:0:0:0:
316,167,33612,1,0,0:0:0:0:
229,147,33974,1,6,0:0:0:0:
142,167,34335,1,0,0:0:0:0:
81,101,34697,6,0,P|77:67|92:20,1,70,6|0,0:0|0:0,0:0:0:0:
166,72,35420,1,0,0:0:0:0:
149,161,35781,1,0,0:0:0:0:
132,250,36143,6,0,P|104:270|56:280,1,70,2|0,0:0|0:0,0:0:0:0:
64,190,36866,1,0,0:0:0:0:
149,161,37227,1,0,0:0:0:0:
235,132,37588,6,0,P|266:145|299:182,1,70,2|0,0:0|0:0,0:0:0:0:
217,220,38311,1,0,0:0:0:0:
149,161,38672,1,0,0:0:0:0:
166,72,39034,6,0,P|179:41|216:8,1,70,2|0,0:0|0:0,0:0:0:0:
254,90,39757,1,2,0:0:0:0:
398,201,40480,5,6,0:0:0:0:
449,126,40841,2,0,P|414:111|380:112,1,70
297,80,41564,1,2,0:0:0:0:
227,138,41926,5,2,0:0:0:0:
313,169,42287,2,0,P|330:199|334:234,1,70
262,291,43010,1,2,0:0:0:0:
175,259,43371,5,2,0:0:0:0:
166,168,43733,2,0,P|169:133|187:103,1,70
240,29,44455,1,2,0:0:0:0:
149,19,44817,6,0,P|118:41|102:71,1,70,2|0,0:0|0:0,0:0:0:0:
69,153,45540,1,2,0:0:0:0:
49,334,46263,6,0,P|119:334|184:311,1,140,2|0,0:0|0:0,0:0:0:0:
261,262,47347,1,0,0:0:0:0:
337,212,47709,2,0,P|344:178|341:144,1,70,2|0,0:0|0:0,0:0:0:0:
416,93,48432,2,0,P|450:100|484:96,1,70,0|0,0:0|0:0,0:0:0:0:
455,14,49155,6,0,P|420:6|386:10,1,70,6|0,0:0|0:0,0:0:0:0:
310,59,49877,2,0,P|275:67|241:63,1,70,0|0,0:0|0:0,0:0:0:0:
165,14,50600,1,2,0:0:0:0:
116,90,50962,1,0,0:0:0:0:
111,180,51323,2,0,P|107:214|115:248,1,70,0|0,0:0|0:0,0:0:0:0:
189,297,52046,6,0,P|224:300|258:292,1,70,2|0,0:0|0:0,0:0:0:0:
306,218,52769,1,0,0:0:0:0:
310,129,53130,1,0,0:0:0:0:
234,81,53492,1,2,0:0:0:0:
234,81,55075,6,0,L|317:81,1,70,6|0,0:0|0:0,0:0:0:0:
394,81,55797,1,0,0:0:0:0:
484,81,56159,1,0,0:0:0:0:
484,171,56520,1,2,0:0:0:0:
354,301,57243,2,0,L|354:384,1,70
266,346,57966,5,2,0:0:0:0:
178,321,58328,1,0,0:0:0:0:
90,296,58689,2,0,L|7:296,1,70,0|0,0:0|0:0,0:0:0:0:
0,207,59412,1,2,0:0:0:0:
20,118,59773,2,0,L|90:118,1,70,0|0,0:0|0:0,0:0:0:0:
113,29,60496,2,0,L|183:29,1,70,0|2,0:0|0:0,0:0:0:0:
