osu file format v14

[General]
AudioFilename: audio.mp3
AudioLeadIn: 0
PreviewTime: 22950
Countdown: 0
SampleSet: Soft
StackLeniency: 0.5
Mode: 0
LetterboxInBreaks: 0
WidescreenStoryboard: 1

[Editor]
DistanceSpacing: 1.3
BeatDivisor: 1
GridSize: 8
TimelineZoom: 1.2

[Metadata]
Title:Ryuusei Aika
TitleUnicode:流星哀歌
Artist:Shota Kageyama
ArtistUnicode:景山将太
Creator:Ryuusei Aika
Version:Forever
Source:ポケットモンスター オメガルビー・アルファサファイア
Tags:ポケモン Pokémon Pokemon Pocket Monster Omega Ruby Alpha Sapphire ORAS The Lament of Falling Stars
BeatmapID:1413829
BeatmapSetID:667602

[Difficulty]
HPDrainRate:4
CircleSize:4
OverallDifficulty:5
ApproachRate:5
SliderMultiplier:1.6
SliderTickRate:1

[Events]
//Background and Video events
0,0,"BG.png",0,0
//Break Periods
//Storyboard Layer 0 (Background)
//Storyboard Layer 1 (Fail)
//Storyboard Layer 2 (Pass)
//Storyboard Layer 3 (Foreground)
//Storyboard Sound Samples

[TimingPoints]
0,722.89156626506,4,2,1,30,1,0
4698,-100,4,2,1,40,0,0
10481,-100,4,2,1,5,0,0
10843,-100,4,2,1,40,0,0
11425,722.89156626506,4,2,1,40,1,0
11566,722.89156626506,4,2,1,40,1,0
16264,-100,4,2,1,50,0,0
20090,722.89156626506,4,2,1,50,1,0
20240,722.89156626506,4,2,1,50,1,0
22981,722.89156626506,4,2,1,60,1,0
23131,722.89156626506,4,2,1,60,1,0
27829,-100,4,2,1,5,0,0
28191,-100,4,2,1,60,0,0
33251,-100,4,2,1,70,0,0
33974,-100,4,2,1,80,0,0
34697,-100,4,2,1,70,0,0
35058,-100,4,2,1,60,0,0
46986,-100,4,2,1,5,0,0
47347,-100,4,2,1,60,0,0
54215,-100,4,2,1,5,0,0
55075,722.89156626506,4,2,1,30,1,0
59773,-100,4,2,1,20,0,0

[Colours]
Combo1 : 151,34,79
Combo2 : 0,79,169
Combo3 : 129,70,224
Combo4 : 46,27,133

[HitObjects]
4,129,0,6,0,P|43:119|93:126,1,80,6|0,0:0|0:0,0:0:0:0:
167,182,722,1,0,0:0:0:0:
177,79,1084,1,0,0:0:0:0:
261,139,1445,1,2,0:0:0:0:
453,59,2168,1,0,0:0:0:0:
359,14,2530,1,0,0:0:0:0:
368,117,2891,6,0,L|377:207,1,80,2|0,0:0|0:0,0:0:0:0:
469,241,3614,2,0,L|460:331,1,80,0|0,0:0|0:0,0:0:0:0:
367,365,4337,1,2,0:0:0:0:
288,204,4698,5,0,0:0:0:0:
107,190,5060,1,0,0:0:0:0:
185,354,5421,1,0,0:0:0:0:
201,144,5783,6,0,P|204:105|194:66,1,80,2|0,0:0|0:0,0:0:0:0:
123,140,6506,2,0,P|161:149|201:145,1,80
331,106,7228,5,2,0:0:0:0:
459,88,7771,1,2,0:0:0:0:
476,214,8313,1,2,0:0:0:0:
323,280,8674,6,0,P|287:296|258:325,1,80,2|0,0:0|0:0,0:0:0:0:
358,351,9397,2,0,P|346:313|324:281,1,80,0|2,0:0|0:0,0:0:0:0:
223,187,10120,2,0,L|130:183,1,80,2|0,0:0|0:0,0:0:0:0:
71,259,10843,1,2,0:0:0:0:
349,122,11566,6,0,L|428:122,1,80,6|0,0:0|0:0,0:0:0:0:
493,201,12288,1,0,0:0:0:0:
510,302,12650,1,0,0:0:0:0:
431,367,13011,1,2,0:0:0:0:
228,319,13734,1,0,0:0:0:0:
163,241,14096,1,0,0:0:0:0:
222,156,14457,6,0,P|235:118|232:79,1,80,2|0,0:0|0:0,0:0:0:0:
133,106,15180,2,0,P|93:109|55:96,1,80,0|0,0:0|0:0,0:0:0:0:
105,6,15903,1,2,0:0:0:0:
232,79,16264,5,0,0:0:0:0:
309,276,16626,1,0,0:0:0:0:
161,206,16987,1,0,0:0:0:0:
332,52,17349,6,0,P|365:29|404:21,1,80,2|0,0:0|0:0,0:0:0:0:
493,71,18072,1,0,0:0:0:0:
495,174,18433,1,0,0:0:0:0:
378,243,18794,5,2,0:0:0:0:
251,224,19337,1,2,0:0:0:0:
227,348,19879,1,2,0:0:0:0:
100,297,20240,6,0,P|60:300|23:288,1,80,2|0,0:0|0:0,0:0:0:0:
73,199,20963,2,0,P|70:159|83:121,1,80,0|2,0:0|0:0,0:0:0:0:
233,137,21685,1,2,0:0:0:0:
51,37,22408,1,2,0:0:0:0:
274,0,23131,5,6,0:0:0:0:
313,96,23492,1,0,0:0:0:0:
378,14,23853,1,0,0:0:0:0:
209,82,24215,1,0,0:0:0:0:
353,195,24576,5,2,0:0:0:0:
455,210,24938,1,0,0:0:0:0:
391,293,25299,1,0,0:0:0:0:
417,112,25661,1,0,0:0:0:0:
248,180,26022,5,2,0:0:0:0:
209,84,26384,1,0,0:0:0:0:
313,96,26745,1,0,0:0:0:0:
144,168,27106,1,0,0:0:0:0:
391,288,27468,6,0,P|404:250|401:210,1,80,2|0,0:0|0:0,0:0:0:0:
185,260,28191,1,2,0:0:0:0:
106,67,28914,5,2,0:0:0:0:
134,167,29275,2,0,P|94:170|56:157,1,80
106,67,29998,1,2,0:0:0:0:
234,139,30359,5,2,0:0:0:0:
308,211,30721,2,0,P|311:251|298:289,1,80,0|0,0:0|0:0,0:0:0:0:
208,239,31444,1,2,0:0:0:0:
280,111,31805,5,2,0:0:0:0:
352,37,32167,2,0,P|392:34|430:47,1,80,0|0,0:0|0:0,0:0:0:0:
380,137,32890,1,2,0:0:0:0:
181,87,33251,5,6,0:0:0:0:
252,12,33612,1,0,0:0:0:0:
161,276,33974,5,6,0:0:0:0:
132,178,34335,1,0,0:0:0:0:
331,229,34697,5,6,0:0:0:0:
396,311,35058,1,0,0:0:0:0:
435,215,35419,1,0,0:0:0:0:
292,325,35781,1,0,0:0:0:0:
182,182,36143,5,2,0:0:0:0:
100,247,36504,1,0,0:0:0:0:
86,143,36865,1,0,0:0:0:0:
196,286,37227,1,0,0:0:0:0:
339,176,37589,5,2,0:0:0:0:
435,217,37950,1,0,0:0:0:0:
421,113,38311,1,0,0:0:0:0:
352,280,38673,1,0,0:0:0:0:
253,43,39034,6,0,P|213:37|175:46,1,80,2|0,0:0|0:0,0:0:0:0:
368,3,39757,1,2,0:0:0:0:
204,184,40480,5,6,0:0:0:0:
144,271,40841,2,0,P|105:280|65:274,1,80,0|0,0:0|0:0,0:0:0:0:
7,187,41564,1,2,0:0:0:0:
198,178,41926,5,2,0:0:0:0:
303,186,42287,2,0,P|330:215|344:252,1,80,0|0,0:0|0:0,0:0:0:0:
299,347,43010,1,2,0:0:0:0:
192,172,43371,5,2,0:0:0:0:
146,77,43732,2,0,P|157:38|182:7,1,80,0|0,0:0|0:0,0:0:0:0:
287,0,44455,1,2,0:0:0:0:
186,166,44817,5,2,0:0:0:0:
82,159,45179,1,0,0:0:0:0:
39,64,45540,1,2,0:0:0:0:
125,254,46263,5,2,0:0:0:0:
125,254,47347,1,0,0:0:0:0:
280,130,47709,1,2,0:0:0:0:
389,330,48432,1,2,0:0:0:0:
410,124,49155,6,0,L|418:44,1,80,6|0,0:0|0:0,0:0:0:0:
322,0,49877,1,0,0:0:0:0:
227,44,50239,1,0,0:0:0:0:
166,129,50600,2,0,P|157:167|161:207,1,80,2|0,0:0|0:0,0:0:0:0:
243,145,51323,2,0,P|205:131|166:128,1,80
60,193,52046,5,2,0:0:0:0:
99,288,52408,1,0,0:0:0:0:
283,258,52769,1,0,0:0:0:0:
202,320,53130,1,0,0:0:0:0:
204,114,53492,1,2,0:0:0:0:
374,323,55075,6,0,L|382:243,1,80,6|0,0:0|0:0,0:0:0:0:
421,149,55797,1,0,0:0:0:0:
383,55,56159,1,0,0:0:0:0:
312,136,56520,1,2,0:0:0:0:
129,35,57243,1,0,0:0:0:0:
105,135,57604,1,0,0:0:0:0:
81,235,57966,6,0,L|171:232,1,80,2|0,0:0|0:0,0:0:0:0:
248,286,58689,2,0,L|338:288,1,80,0|0,0:0|0:0,0:0:0:0:
415,342,59412,1,2,0:0:0:0:
468,254,59773,2,0,P|473:214|466:175,1,80,0|0,0:0|0:0,0:0:0:0:
413,87,60496,1,0,0:0:0:0:
413,87,60858,5,2,0:0:0:0:
