osu file format v14

[General]
AudioFilename: audio.mp3
AudioLeadIn: 0
PreviewTime: 6958
Countdown: 0
SampleSet: None
StackLeniency: 0.7
Mode: 0
LetterboxInBreaks: 0
WidescreenStoryboard: 1

[Editor]
Bookmarks: 19458,24458,28208,29458,34458
DistanceSpacing: 4.7
BeatDivisor: 6
GridSize: 32
TimelineZoom: 1.9

[Metadata]
Title:N's Dragon
TitleUnicode:N's Dragon
Artist:Shota Kageyama
ArtistUnicode:Shota Kageyama
Creator:TheAlphaSheep
Version:AR 9.0
Source:Pokemon Black/White
Tags:
BeatmapID:1811481
BeatmapSetID:821563

[Difficulty]
HPDrainRate:4
CircleSize:3.8
OverallDifficulty:8
ApproachRate:9
SliderMultiplier:1.4
SliderTickRate:1

[Events]
//Background and Video events
0,0,"asd.jpg",0,0
//Break Periods
//Storyboard Layer 0 (Background)
//Storyboard Layer 1 (Fail)
//Storyboard Layer 2 (Pass)
//Storyboard Layer 3 (Foreground)
//Storyboard Sound Samples

[TimingPoints]
6958.98239483851,625,4,1,0,100,1,0
29458,-100,4,1,0,100,0,1
34458,-100,4,1,0,100,0,0

[HitObjects]
256,192,708,12,0,2583,0:0:0:0:
256,192,2792,12,0,3729,0:0:0:0:
256,192,4875,12,0,6854,0:0:0:0:
107,53,6958,5,0,0:0:0:0:
273,178,7271,5,0,0:0:0:0:
111,208,7375,1,0,0:0:0:0:
283,177,7479,1,0,0:0:0:0:
58,131,7583,1,0,0:0:0:0:
199,279,7896,5,0,0:0:0:0:
211,114,8000,1,0,0:0:0:0:
197,288,8104,1,0,0:0:0:0:
300,83,8208,1,0,0:0:0:0:
358,311,8521,5,0,0:0:0:0:
249,187,8625,1,0,0:0:0:0:
397,260,8729,1,0,0:0:0:0:
195,297,8833,5,0,0:0:0:0:
338,186,8938,1,0,0:0:0:0:
319,362,9042,1,0,0:0:0:0:
169,229,9146,5,0,0:0:0:0:
358,311,9250,1,0,0:0:0:0:
230,150,9354,1,0,0:0:0:0:
436,209,9458,5,0,0:0:0:0:
188,309,9771,5,0,0:0:0:0:
150,149,9875,1,0,0:0:0:0:
99,316,9979,1,0,0:0:0:0:
239,134,10083,1,0,0:0:0:0:
386,271,10396,5,0,0:0:0:0:
226,233,10500,1,0,0:0:0:0:
393,182,10604,1,0,0:0:0:0:
211,322,10708,1,0,0:0:0:0:
456,327,11021,5,0,0:0:0:0:
328,222,11125,1,0,0:0:0:0:
493,224,11229,1,0,0:0:0:0:
305,308,11333,5,0,0:0:0:0:
411,161,11438,1,0,0:0:0:0:
378,335,11542,1,0,0:0:0:0:
332,140,11646,5,0,0:0:0:0:
205,302,11750,1,0,0:0:0:0:
408,267,11854,1,0,0:0:0:0:
221,163,11958,5,0,0:0:0:0:
488,97,12271,5,0,0:0:0:0:
329,54,12375,1,0,0:0:0:0:
451,162,12479,1,0,0:0:0:0:
221,163,12583,1,0,0:0:0:0:
364,303,12896,5,0,0:0:0:0:
364,138,13000,1,0,0:0:0:0:
291,284,13104,1,0,0:0:0:0:
231,62,13208,1,0,0:0:0:0:
95,259,13521,5,0,0:0:0:0:
241,181,13625,1,0,0:0:0:0:
100,93,13729,1,0,0:0:0:0:
197,274,13833,5,0,0:0:0:0:
198,93,13938,1,0,0:0:0:0:
41,175,14042,1,0,0:0:0:0:
241,181,14146,5,0,0:0:0:0:
71,297,14250,1,0,0:0:0:0:
100,93,14354,1,0,0:0:0:0:
189,288,14458,5,0,0:0:0:0:
347,124,14771,5,0,0:0:0:0:
381,285,14875,1,0,0:0:0:0:
241,181,14979,1,0,0:0:0:0:
470,172,15083,1,0,0:0:0:0:
275,342,15396,5,0,0:0:0:0:
241,181,15500,1,0,0:0:0:0:
381,285,15604,1,0,0:0:0:0:
152,294,15708,1,0,0:0:0:0:
300,75,16021,5,0,0:0:0:0:
303,240,16125,1,0,0:0:0:0:
215,100,16229,1,0,0:0:0:0:
417,136,16333,5,0,0:0:0:0:
241,181,16438,1,0,0:0:0:0:
378,69,16542,1,0,0:0:0:0:
323,262,16646,5,0,0:0:0:0:
460,107,16750,1,0,0:0:0:0:
256,132,16854,1,0,0:0:0:0:
445,233,16958,5,0,0:0:0:0:
181,225,17271,5,0,0:0:0:0:
220,65,17375,1,0,0:0:0:0:
334,198,17479,1,0,0:0:0:0:
212,4,17583,1,0,0:0:0:0:
103,223,17896,5,0,0:0:0:0:
263,184,18000,1,0,0:0:0:0:
130,70,18104,1,0,0:0:0:0:
324,192,18208,1,0,0:0:0:0:
123,315,18521,5,0,0:0:0:0:
164,155,18625,1,0,0:0:0:0:
221,310,18729,1,0,0:0:0:0:
91,151,18833,5,0,0:0:0:0:
263,208,18938,1,0,0:0:0:0:
123,315,19042,1,0,0:0:0:0:
232,146,19146,5,0,0:0:0:0:
39,217,19250,1,0,0:0:0:0:
184,363,19354,1,0,0:0:0:0:
126,157,19458,5,0,0:0:0:0:
299,320,19771,5,0,0:0:0:0:
327,221,19875,1,0,0:0:0:0:
355,122,19979,1,0,0:0:0:0:
398,294,20083,1,0,0:0:0:0:
256,148,20396,6,0,L|256:65,1,70
132,213,21021,1,0,0:0:0:0:
263,275,21333,1,0,0:0:0:0:
359,114,21646,1,0,0:0:0:0:
394,337,21958,5,0,0:0:0:0:
211,333,22271,1,0,0:0:0:0:
248,193,22583,1,0,0:0:0:0:
72,129,22896,1,0,0:0:0:0:
285,53,23208,5,0,0:0:0:0:
410,187,23521,1,0,0:0:0:0:
204,231,23833,5,0,0:0:0:0:
318,106,23938,1,0,0:0:0:0:
306,278,24042,1,0,0:0:0:0:
237,110,24146,5,0,0:0:0:0:
236,296,24250,1,0,0:0:0:0:
374,164,24354,1,0,0:0:0:0:
140,198,24458,5,0,0:0:0:0:
332,69,24771,5,0,0:0:0:0:
328,241,24875,1,0,0:0:0:0:
336,59,24979,1,0,0:0:0:0:
212,260,25083,1,0,0:0:0:0:
425,149,25396,5,0,0:0:0:0:
253,145,25500,1,0,0:0:0:0:
435,153,25604,1,0,0:0:0:0:
234,29,25708,1,0,0:0:0:0:
314,245,26021,5,0,0:0:0:0:
353,77,26125,1,0,0:0:0:0:
406,241,26229,1,0,0:0:0:0:
239,106,26333,5,0,0:0:0:0:
429,114,26438,1,0,0:0:0:0:
300,252,26542,1,0,0:0:0:0:
346,48,26646,5,0,0:0:0:0:
202,207,26750,1,0,0:0:0:0:
414,238,26854,1,0,0:0:0:0:
239,99,26958,5,0,0:0:0:0:
277,323,27271,5,0,0:0:0:0:
331,159,27375,1,0,0:0:0:0:
368,339,27479,1,0,0:0:0:0:
240,140,27583,1,0,0:0:0:0:
110,316,27896,5,0,0:0:0:0:
110,203,28000,1,0,0:0:0:0:
110,90,28104,1,0,0:0:0:0:
207,259,28208,5,0,0:0:0:0:
47,259,28313,1,0,0:0:0:0:
173,147,28417,1,0,0:0:0:0:
110,343,28521,5,0,0:0:0:0:
29,177,28625,1,0,0:0:0:0:
199,253,28729,1,0,0:0:0:0:
4,333,28833,5,0,0:0:0:0:
101,162,28938,1,0,0:0:0:0:
191,335,29042,1,0,0:0:0:0:
10,204,29146,5,0,0:0:0:0:
215,172,29250,1,0,0:0:0:0:
97,343,29354,1,0,0:0:0:0:
192,120,29458,5,0,0:0:0:0:
38,282,29563,1,0,0:0:0:0:
253,333,29667,1,0,0:0:0:0:
97,154,29771,5,0,0:0:0:0:
130,366,29875,1,0,0:0:0:0:
261,196,29979,1,0,0:0:0:0:
21,196,30083,5,0,0:0:0:0:
226,120,30188,1,0,0:0:0:0:
187,333,30292,1,0,0:0:0:0:
107,112,30396,5,0,0:0:0:0:
287,224,30500,1,0,0:0:0:0:
85,288,30604,1,0,0:0:0:0:
265,133,30708,5,0,0:0:0:0:
58,195,30813,1,0,0:0:0:0:
250,290,30917,1,0,0:0:0:0:
138,86,31021,5,0,0:0:0:0:
128,295,31125,1,0,0:0:0:0:
323,218,31229,1,0,0:0:0:0:
100,142,31333,5,0,0:0:0:0:
313,125,31438,1,0,0:0:0:0:
122,217,31542,1,0,0:0:0:0:
244,21,31646,5,0,0:0:0:0:
222,227,31750,1,0,0:0:0:0:
167,27,31854,1,0,0:0:0:0:
341,215,31958,5,0,0:0:0:0:
243,1,32063,1,0,0:0:0:0:
172,223,32167,1,0,0:0:0:0:
397,58,32271,5,0,0:0:0:0:
141,46,32375,1,0,0:0:0:0:
259,274,32479,1,0,0:0:0:0:
316,41,32583,5,0,0:0:0:0:
352,257,32688,1,0,0:0:0:0:
176,131,32792,1,0,0:0:0:0:
411,136,32896,5,0,0:0:0:0:
230,245,33000,1,0,0:0:0:0:
213,34,33104,1,0,0:0:0:0:
343,233,33208,5,0,0:0:0:0:
145,146,33313,1,0,0:0:0:0:
333,44,33417,1,0,0:0:0:0:
219,248,33521,5,0,0:0:0:0:
205,38,33625,1,0,0:0:0:0:
391,135,33729,1,0,0:0:0:0:
167,206,33833,5,0,0:0:0:0:
315,51,33938,1,0,0:0:0:0:
121,137,34042,1,0,0:0:0:0:
337,218,34146,5,0,0:0:0:0:
204,59,34250,1,0,0:0:0:0:
264,258,34354,1,0,0:0:0:0:
315,51,34458,5,0,0:0:0:0:
256,192,34563,12,0,39458,0:0:0:0:
