osu file format v14

[General]
AudioFilename: audio.mp3
AudioLeadIn: 0
PreviewTime: 13782
Countdown: 0
SampleSet: Normal
StackLeniency: 0.7
Mode: 0
LetterboxInBreaks: 0
EpilepsyWarning: 1
WidescreenStoryboard: 0

[Editor]
Bookmarks: 56687
DistanceSpacing: 1.2
BeatDivisor: 4
GridSize: 4
TimelineZoom: 1.2

[Metadata]
Title:Battle! Lorekeeper Zinnia
TitleUnicode:戦闘! 伝承者ヒガナ
Artist:Shota Kageyama
ArtistUnicode:景山将太
Creator:Kei
Version:Insane
Source:Pokemon Omega Ruby/Alpha Sapphire
Tags:
BeatmapID:1004368
BeatmapSetID:469673

[Difficulty]
HPDrainRate:7
CircleSize:4
OverallDifficulty:7.5
ApproachRate:9
SliderMultiplier:1.8
SliderTickRate:1

[Events]
//Background and Video events
0,0,"bg.jpg",0,0
//Break Periods
2,3258,7821
//Storyboard Layer 0 (Background)
//Storyboard Layer 1 (Fail)
//Storyboard Layer 2 (Pass)
//Storyboard Layer 3 (Foreground)
//Storyboard Sound Samples

[TimingPoints]
377,335.195530726257,4,1,1,60,1,0
56691,-181.818181818181,4,1,1,60,0,0
62054,-181.818181818181,4,1,1,75,0,0
67418,-100,4,1,1,60,0,1
80825,-100,4,1,1,60,0,0

[Colours]
Combo1 : 242,177,106
Combo2 : 183,0,0
Combo3 : 9,196,135
Combo4 : 79,200,193

[HitObjects]
256,192,379,12,4,1719,0:0:0:0:
256,192,1885,12,4,3058,0:0:0:0:
140,224,8421,6,0,L|228:172,1,90,4|0,0:0|0:0,0:0:0:0:
320,144,8756,1,8,0:0:0:0:
416,192,8924,1,0,0:0:0:0:
456,216,9008,1,0,0:0:0:0:
476,256,9092,2,0,P|464:304|436:336,1,90
416,192,9427,2,0,P|428:144|456:112,1,90,8|0,0:0|0:0,0:0:0:0:
380,268,9762,6,0,P|316:256|292:228,1,90
240,148,10097,1,8,0:0:0:0:
348,148,10265,1,0,0:0:0:0:
300,244,10432,1,0,0:0:0:0:
192,236,10600,1,0,0:0:0:0:
112,160,10768,2,0,P|96:124|100:64,1,90,8|0,0:0|0:0,0:0:0:0:
112,32,11019,1,0,0:0:0:0:
152,12,11103,5,0,0:0:0:0:
244,68,11270,1,0,0:0:0:0:
324,140,11438,2,0,P|360:156|416:160,1,90,8|0,0:0|0:0,0:0:0:0:
428,56,11773,2,0,P|392:40|336:36,1,90
409,160,12108,2,0,L|469:244,1,90,8|0,0:0|0:0,0:0:0:0:
488,272,12360,1,0,0:0:0:0:
480,316,12444,6,0,P|428:340|376:332,1,90
312,304,12779,2,0,L|252:228,1,90,8|0,0:0|0:0,0:0:0:0:
200,140,13114,1,0,0:0:0:0:
168,120,13198,1,0,0:0:0:0:
132,108,13282,1,0,0:0:0:0:
96,112,13365,1,0,0:0:0:0:
64,124,13449,1,8,0:0:0:0:
64,160,13533,1,8,0:0:0:0:
68,196,13617,1,0,0:0:0:0:
68,232,13701,1,0,0:0:0:0:
60,268,13784,5,4,0:0:0:0:
128,352,13952,1,0,0:0:0:0:
228,308,14120,2,0,P|280:300|328:312,1,90,8|0,0:0|0:0,0:0:0:0:
420,284,14455,2,0,L|376:192,1,90
444,116,14790,2,8,L|488:196,1,90,8|0,0:0|0:0,0:0:0:0:
340,104,15125,6,8,L|296:24,1,90,0|0,0:0|0:0,0:0:0:0:
200,72,15460,2,0,P|164:100|104:120,1,90,8|0,0:0|0:0,0:0:0:0:
120,8,15795,1,0,0:0:0:0:
228,244,16131,1,8,0:0:0:0:
360,36,16466,6,0,P|436:96|436:180,1,180,0|8,0:0|0:0,0:0:0:0:
344,228,16969,2,0,P|268:168|268:84,1,180
368,124,17471,2,0,L|216:228,1,180,8|0,0:0|0:0,0:0:0:0:
304,360,17974,5,0,0:0:0:0:
404,324,18142,2,0,P|444:312|500:308,1,90,8|0,0:0|0:0,0:0:0:0:
332,272,18477,2,0,P|344:236|380:188,1,90
248,292,18812,2,0,P|224:264|208:212,1,90,8|0,0:0|0:0,0:0:0:0:
208,368,19147,6,0,P|116:336|68:272,1,180,0|8,0:0|0:0,0:0:0:0:
68,164,19650,2,0,P|160:136|204:68,1,180
96,68,20153,2,0,L|192:220,1,180,8|0,0:0|0:0,0:0:0:0:
320,304,20656,5,0,0:0:0:0:
412,248,20823,2,0,P|444:208|448:152,1,90,8|0,0:0|0:0,0:0:0:0:
340,163,21159,2,0,P|301:187|259:204,1,90
280,96,21494,2,0,P|368:80|376:84,1,90,8|0,0:0|0:0,0:0:0:0:
408,92,21745,1,0,0:0:0:0:
440,124,21829,5,0,0:0:0:0:
340,163,21997,1,0,0:0:0:0:
344,272,22164,2,0,P|364:324|408:356,1,90,8|0,0:0|0:0,0:0:0:0:
496,340,22499,2,0,P|476:288|432:256,1,90
344,272,22835,2,0,P|208:252|176:212,1,180,8|0,0:0|0:0,0:0:0:0:
208,120,23337,2,0,P|344:140|376:180,1,180,8|0,0:0|0:0,0:0:0:0:
184,225,23840,5,8,0:0:0:0:
152,240,23924,1,0,0:0:0:0:
128,268,24008,1,0,0:0:0:0:
116,300,24092,1,0,0:0:0:0:
112,336,24175,1,8,0:0:0:0:
148,340,24259,1,0,0:0:0:0:
184,340,24343,1,0,0:0:0:0:
220,348,24427,1,0,0:0:0:0:
256,360,24511,5,4,0:0:0:0:
364,360,24678,1,0,0:0:0:0:
460,308,24846,2,0,P|496:264|512:216,1,90,8|0,0:0|0:0,0:0:0:0:
400,220,25181,2,0,P|356:204|324:168,1,90
384,80,25516,2,0,P|428:96|460:132,1,90,8|0,0:0|0:0,0:0:0:0:
288,84,25851,6,0,L|208:28,1,90
168,24,26103,1,0,0:0:0:0:
124,36,26187,2,0,P|84:88|76:128,1,90,8|0,0:0|0:0,0:0:0:0:
92,220,26522,2,0,P|48:220|8:196,2,90,0|0|8,0:0|0:0|0:0,0:0:0:0:
264,172,27025,1,0,0:0:0:0:
304,152,27108,1,0,0:0:0:0:
348,144,27192,6,0,P|424:160|496:232,1,180,0|8,0:0|0:0,0:0:0:0:
460,332,27695,2,0,L|283:368,1,180
220,280,28198,2,0,L|396:243,1,180,8|0,0:0|0:0,0:0:0:0:
212,180,28701,5,0,0:0:0:0:
104,184,28868,2,0,P|52:192|16:220,1,90,8|0,0:0|0:0,0:0:0:0:
160,96,29203,2,0,P|124:76|72:72,1,90
264,88,29539,2,0,P|240:32|208:8,1,90,8|0,0:0|0:0,0:0:0:0:
332,168,29874,6,0,P|368:104|340:0,1,180,0|8,0:0|0:0,0:0:0:0:
452,24,30377,2,0,P|496:96|512:196,1,180
476,292,30879,2,0,P|372:268|304:308,1,180,8|0,0:0|0:0,0:0:0:0:
400,360,31382,2,0,L|376:180,1,180
280,132,31885,2,0,L|176:108,1,90,8|0,0:0|0:0,0:0:0:0:
112,184,32220,2,0,L|224:212,1,90,8|0,0:0|0:0,0:0:0:0:
100,92,32555,6,0,P|64:104|28:144,1,90
28,248,32890,1,8,0:0:0:0:
112,184,33058,1,0,0:0:0:0:
152,284,33226,2,0,P|208:316|256:312,1,90
340,296,33561,2,0,L|361:208,1,90,8|0,0:0|0:0,0:0:0:0:
464,172,33896,2,0,L|442:259,1,90
416,364,34231,1,8,0:0:0:0:
512,336,34399,1,0,0:0:0:0:
464,172,34566,5,8,0:0:0:0:
212,32,34902,1,8,0:0:0:0:
204,76,34985,1,0,0:0:0:0:
192,120,35069,1,0,0:0:0:0:
180,164,35153,1,0,0:0:0:0:
160,204,35237,6,0,P|112:244|72:260,1,90,4|0,0:0|0:0,0:0:0:0:
28,164,35572,2,0,L|8:40,1,90,8|0,0:0|0:0,0:0:0:0:
108,20,35907,2,0,P|160:40|196:72,1,90
248,152,36242,1,8,0:0:0:0:
296,56,36410,1,0,0:0:0:0:
268,248,36578,2,0,L|252:356,1,90,0|8,0:0|0:0,0:0:0:0:
352,288,36913,2,0,P|416:240|448:232,1,90
444,344,37248,5,8,0:0:0:0:
296,88,37583,1,8,0:0:0:0:
252,72,37667,1,0,0:0:0:0:
208,68,37751,1,0,0:0:0:0:
164,72,37835,1,0,0:0:0:0:
120,84,37918,6,0,P|80:100|24:100,1,90
36,212,38254,2,0,L|64:312,1,90,8|0,0:0|0:0,0:0:0:0:
148,364,38589,2,0,P|188:372|236:360,1,90
184,264,38924,2,0,L|160:176,1,90,8|0,0:0|0:0,0:0:0:0:
304,300,39259,1,0,0:0:0:0:
396,360,39427,1,8,0:0:0:0:
412,252,39594,2,0,P|448:212|488:200,1,90
504,308,39930,5,8,0:0:0:0:
228,96,40265,1,8,0:0:0:0:
208,136,40349,1,0,0:0:0:0:
208,180,40432,1,0,0:0:0:0:
216,224,40516,1,0,0:0:0:0:
240,264,40600,6,0,P|308:308|336:308,1,90
320,200,40935,2,0,L|300:92,1,90,8|0,0:0|0:0,0:0:0:0:
204,72,41270,2,0,P|144:64|112:40,1,90
32,112,41606,2,0,P|44:148|36:208,1,90,8|0,0:0|0:0,0:0:0:0:
24,240,41857,1,0,0:0:0:0:
20,284,41941,2,0,P|60:336|112:340,1,90,0|8,0:0|0:0,0:0:0:0:
188,328,42276,1,0,0:0:0:0:
116,248,42444,1,0,0:0:0:0:
220,228,42611,5,8,0:0:0:0:
480,316,42946,1,8,0:0:0:0:
444,344,43030,1,0,0:0:0:0:
404,360,43114,1,0,0:0:0:0:
360,364,43198,1,0,0:0:0:0:
316,360,43282,6,0,P|264:352|232:328,1,90
312,256,43617,2,0,L|404:200,1,90,8|0,0:0|0:0,0:0:0:0:
448,120,43952,2,0,P|404:104|356:108,1,90
252,104,44287,2,0,L|196:24,1,90,8|0,0:0|0:0,0:0:0:0:
128,112,44622,2,0,L|140:212,1,90,0|8,0:0|0:0,0:0:0:0:
156,308,44958,1,0,0:0:0:0:
236,236,45125,1,0,0:0:0:0:
136,200,45293,5,8,0:0:0:0:
400,72,45628,1,8,0:0:0:0:
420,112,45712,1,0,0:0:0:0:
436,156,45795,1,0,0:0:0:0:
448,200,45879,1,0,0:0:0:0:
456,244,45963,6,0,P|452:308|440:336,1,90,4|0,0:0|0:0,0:0:0:0:
336,316,46298,2,0,P|340:252|352:224,1,90,8|0,0:0|0:0,0:0:0:0:
328,124,46633,2,0,L|232:80,1,90
328,16,46969,2,0,L|420:56,1,90,8|0,0:0|0:0,0:0:0:0:
432,160,47304,1,0,0:0:0:0:
349,228,47471,1,8,0:0:0:0:
248,196,47639,2,0,P|208:168|188:128,1,90
292,104,47974,5,8,0:0:0:0:
88,288,48309,1,8,0:0:0:0:
56,256,48393,1,0,0:0:0:0:
32,216,48477,1,0,0:0:0:0:
20,172,48561,1,0,0:0:0:0:
20,128,48645,6,0,L|72:44,1,90
156,112,48980,2,0,P|240:152|268:144,1,90,8|0,0:0|0:0,0:0:0:0:
328,100,49315,1,0,0:0:0:0:
236,44,49483,1,0,0:0:0:0:
156,112,49650,2,0,P|128:164|128:200,1,90,8|0,0:0|0:0,0:0:0:0:
124,240,49902,1,0,0:0:0:0:
108,280,49985,2,0,P|64:312|12:312,2,90,0|8|0,0:0|0:0|0:0,0:0:0:0:
204,228,50488,1,0,0:0:0:0:
276,308,50656,5,8,0:0:0:0:
408,92,50991,1,8,0:0:0:0:
436,128,51075,1,0,0:0:0:0:
460,164,51159,1,0,0:0:0:0:
476,208,51242,1,0,0:0:0:0:
488,252,51326,6,0,P|472:304|452:336,1,90
356,284,51661,2,0,P|372:232|392:200,1,90,8|0,0:0|0:0,0:0:0:0:
344,104,51997,2,0,L|256:48,1,90
164,20,52332,1,8,0:0:0:0:
188,124,52499,1,0,0:0:0:0:
80,260,52667,6,0,L|44:308,2,60,8|8|0,0:0|0:0|0:0,0:0:0:0:
164,256,53002,2,0,L|200:208,2,60,8|0|0,0:0|0:0|0:0,0:0:0:0:
220,320,53337,2,0,L|184:368,2,60,8|0|0,0:0|0:0|0:0,0:0:0:0:
304,340,53673,2,0,L|340:292,2,60,8|0|0,0:0|0:0|0:0,0:0:0:0:
412,348,54008,6,0,P|456:288|480:152,1,180,4|8,0:0|0:0,0:0:0:0:
456,80,54511,1,0,0:0:0:0:
360,132,54678,2,0,L|264:176,1,90
172,184,55013,1,8,0:0:0:0:
128,84,55181,5,0,0:0:0:0:
112,40,55265,1,0,0:0:0:0:
68,28,55349,1,0,0:0:0:0:
24,40,55432,1,0,0:0:0:0:
8,84,55516,1,8,0:0:0:0:
20,128,55600,1,0,0:0:0:0:
56,156,55684,1,8,0:0:0:0:
100,164,55768,1,0,0:0:0:0:
144,156,55851,1,0,0:0:0:0:
184,132,55935,1,0,0:0:0:0:
224,108,56019,5,8,0:0:0:0:
256,76,56103,1,0,0:0:0:0:
300,64,56187,1,0,0:0:0:0:
344,60,56270,1,0,0:0:0:0:
388,76,56354,1,8,0:0:0:0:
404,116,56438,1,0,0:0:0:0:
428,156,56522,1,0,0:0:0:0:
460,188,56606,1,0,0:0:0:0:
500,208,56689,5,4,0:0:0:0:
124,336,58030,1,0,0:0:0:0:
256,32,59371,1,0,0:0:0:0:
388,336,60712,1,0,0:0:0:0:
40,128,61717,1,0,0:0:0:0:
48,128,62052,6,0,P|96:120|140:96,1,99.0000030212403,0|2,0:0|3:0,0:0:0:0:
220,36,62723,1,0,0:0:0:0:
316,68,63058,2,0,P|280:124|252:140,1,99.0000030212403,2|0,3:0|0:0,0:0:0:0:
164,184,63728,1,2,3:0:0:0:
196,280,64064,2,0,P|236:320|296:336,1,99.0000030212403
164,184,64734,6,0,P|128:140|88:128,1,99.0000030212403,0|2,0:0|3:0,0:0:0:0:
76,224,65404,1,0,0:0:0:0:
56,268,65572,1,0,0:0:0:0:
28,308,65740,1,2,3:0:0:0:
8,116,66075,2,0,P|32:72|76:48,1,99.0000030212403
232,56,66745,5,0,0:0:0:0:
252,80,66829,1,0,0:0:0:0:
268,104,66913,1,0,0:0:0:0:
280,132,66997,1,0,0:0:0:0:
304,152,67080,1,2,3:0:0:0:
332,160,67164,1,0,0:0:0:0:
360,156,67248,1,2,3:0:0:0:
388,144,67332,1,0,0:0:0:0:
408,120,67416,5,4,0:0:0:0:
