osu file format v14

[General]
AudioFilename: audio.mp3
AudioLeadIn: 0
PreviewTime: 43619
Countdown: 0
SampleSet: Soft
StackLeniency: 0.7
Mode: 0
LetterboxInBreaks: 0
WidescreenStoryboard: 1

[Editor]
Bookmarks: 3258,65114,123259,181402,245732,285319,295062,300165
DistanceSpacing: 0.2
BeatDivisor: 4
GridSize: 32
TimelineZoom: 3.299999

[Metadata]
Title:Fairytale,
TitleUnicode:Fairytale,
Artist:Shoohey
ArtistUnicode:周平
Creator:Chiga
Version:Collab Insane,
Source:
Tags:utaite buzzG vocaloid vocaloid4 cover japanese shuhei rock FuJu kudosu modding queue DeRandom Ren Otaku So0p soop Ermi
BeatmapID:2481889
BeatmapSetID:1183122

[Difficulty]
HPDrainRate:5.5
CircleSize:4
OverallDifficulty:8
ApproachRate:9
SliderMultiplier:1.4
SliderTickRate:1

[Events]
//Background and Video events
0,0,"BG.jpg",0,0
//Break Periods
2,41809,43097
//Storyboard Layer 0 (Background)
//Storyboard Layer 1 (Fail)
//Storyboard Layer 2 (Pass)
//Storyboard Layer 3 (Foreground)
//Storyboard Layer 4 (Overlay)
//Storyboard Sound Samples

[TimingPoints]
784,309.278350515464,4,2,1,40,1,0
2894,377.358490566038,4,2,1,40,1,0
3259,309.278350515464,4,2,1,40,1,0
5655,-100,4,2,1,5,0,0
5733,-100,4,2,1,40,0,0
7511,-100,4,2,1,5,0,0
7588,-100,4,2,1,40,0,0
8903,-100,4,2,1,5,0,0
8980,-100,4,2,1,40,0,0
9985,-100,4,2,1,5,0,0
10063,-100,4,2,1,40,0,0
10604,-100,4,2,1,5,0,0
10681,-100,4,2,1,40,0,0
10913,-100,4,2,1,5,0,0
10990,-100,4,2,1,40,0,0
13387,-100,4,2,1,5,0,0
13465,-100,4,2,1,40,0,0
13851,-100,4,2,1,5,0,0
13929,-100,4,2,1,40,0,0
14934,-100,4,2,1,5,0,0
15011,-100,4,2,1,40,0,0
15243,-100,4,2,1,5,0,0
15320,-100,4,2,1,40,0,0
15552,-100,4,2,1,5,0,0
15630,-100,4,2,1,40,0,0
15862,-100,4,2,1,5,0,0
15939,-100,4,2,1,40,0,0
16326,-100,4,2,1,5,0,0
16403,-100,4,2,1,40,0,0
17099,-100,4,2,1,5,0,0
17176,-100,4,2,1,40,0,0
17408,-100,4,2,1,5,0,0
17485,-100,4,2,1,40,0,0
17872,-100,4,2,1,5,0,0
17949,-100,4,2,1,40,0,0
20191,-100,4,2,1,5,0,0
20269,-100,4,2,1,40,0,0
20501,-100,4,2,1,5,0,0
20578,-100,4,2,1,40,0,0
22666,-100,4,2,1,5,0,0
22743,-100,4,2,1,40,0,0
22975,-100,4,2,1,5,0,0
23052,-100,4,2,1,40,0,0
25140,-100,4,2,1,5,0,0
25217,-100,4,2,1,40,0,0
27614,-100,4,2,1,5,0,0
27691,-100,4,2,1,40,0,0
30398,-100,4,2,1,5,0,0
30475,-100,4,2,1,40,0,0
31326,-100,4,2,1,5,0,0
31403,-100,4,2,1,40,0,0
32563,-100,4,2,1,5,0,0
32640,-100,4,2,1,40,0,0
32872,-100,4,2,1,5,0,0
32949,-100,4,2,1,40,0,0
33181,-100,4,2,1,5,0,0
33259,-100,4,2,1,40,0,0
33645,-100,4,2,1,5,0,0
33722,-100,4,2,1,40,0,0
34418,-100,4,2,1,5,0,0
34496,-100,4,2,1,40,0,0
35346,-100,4,2,1,5,0,0
35423,-100,4,2,1,40,0,0
35655,-100,4,2,1,5,0,0
35734,-100,4,2,1,40,0,0
36119,-100,4,2,1,5,0,0
36197,-100,4,2,1,40,0,0
36893,-100,4,2,1,5,0,0
36970,-100,4,2,1,40,0,0
37820,-100,4,2,1,5,0,0
37898,-100,4,2,1,40,0,0
40295,-100,4,2,1,5,0,0
40372,-1000,4,2,1,40,0,0
40391,-1000,4,2,1,5,0,0
41532,-1000,4,2,1,5,0,0
41609,-1000,4,2,1,40,0,0
43619,-1000,4,2,1,5,0,0
43697,-100,4,2,1,40,0,0
43929,-100,4,2,1,5,0,0
44006,-133.333333333333,4,2,1,40,0,0
44393,-133.333333333333,4,2,1,5,0,0
44470,-133.333333333333,4,2,1,5,0,0
44547,-83.3333333333333,4,2,1,40,0,0
44934,-83.3333333333333,4,2,1,5,0,0
45011,-83.3333333333333,4,2,1,40,0,0
45166,-83.3333333333333,4,1,1,5,0,0
45320,-83.3333333333333,4,1,1,65,0,1
45552,-83.3333333333333,4,1,1,5,0,1
45630,-83.3333333333333,4,1,1,65,0,1
47717,-83.3333333333333,4,1,1,5,0,1
47795,-83.3333333333333,4,1,1,65,0,1
48027,-83.3333333333333,4,1,1,5,0,1
48104,-83.3333333333333,4,1,1,65,0,1
48954,-83.3333333333333,4,1,1,5,0,1
49032,-83.3333333333333,4,1,1,65,0,1
50501,-83.3333333333333,4,1,1,5,0,1
50578,-83.3333333333333,4,1,1,65,0,1
52356,-83.3333333333333,4,1,1,5,0,1
52434,-83.3333333333333,4,1,1,65,0,1
56996,-83.3333333333333,4,1,1,5,0,1
57073,-83.3333333333333,4,1,1,65,0,1
58233,-83.3333333333333,4,1,1,5,0,1
58310,-83.3333333333333,4,1,1,65,0,1
58851,-83.3333333333333,4,1,1,5,0,1
58929,-83.3333333333333,4,1,1,65,0,1
60166,-71.4285714285714,4,1,1,65,0,0
60398,-71.4285714285714,4,1,1,5,0,0
60475,-71.4285714285714,4,1,1,65,0,0
60862,-71.4285714285714,4,1,1,5,0,0
60939,-71.4285714285714,4,1,1,65,0,0
61094,-83.3333333333333,4,1,1,65,0,0
61326,-83.3333333333333,4,1,1,5,0,0
61403,-83.3333333333333,4,1,1,65,0,0
65114,-83.3333333333333,4,1,1,65,0,1
65346,-83.3333333333333,4,1,1,5,0,1
65423,-83.3333333333333,4,1,1,65,0,1
66583,-83.3333333333333,4,1,1,5,0,1
66661,-83.3333333333333,4,1,1,65,0,1
68130,-83.3333333333333,4,1,1,5,0,1
68207,-83.3333333333333,4,1,1,65,0,1
71532,-83.3333333333333,4,1,1,5,0,1
71609,-83.3333333333333,4,1,1,65,0,1
71841,-83.3333333333333,4,1,1,5,0,1
71918,-83.3333333333333,4,1,1,65,0,1
72460,-83.3333333333333,4,1,1,5,0,1
72537,-83.3333333333333,4,1,1,65,0,1
73078,-83.3333333333333,4,1,1,5,0,1
73155,-83.3333333333333,4,1,1,65,0,1
74934,-83.3333333333333,4,1,1,5,0,1
75011,-83.3333333333333,4,1,1,65,0,1
75862,-83.3333333333333,4,1,1,5,0,1
75939,-83.3333333333333,4,1,1,65,0,1
77408,-83.3333333333333,4,1,1,65,0,1
77485,-83.3333333333333,4,1,1,65,0,1
77717,-83.3333333333333,4,1,1,5,0,1
77795,-83.3333333333333,4,1,1,65,0,1
78027,-83.3333333333333,4,1,1,5,0,1
78104,-83.3333333333333,4,1,1,65,0,1
78645,-83.3333333333333,4,1,1,5,0,1
78722,-83.3333333333333,4,1,1,65,0,1
79264,-83.3333333333333,4,1,1,5,0,1
79341,-83.3333333333333,4,1,1,65,0,1
79882,-83.3333333333333,4,1,1,5,0,1
79960,-83.3333333333333,4,1,1,65,0,1
82434,-83.3333333333333,4,1,1,65,0,0
86609,-100,4,1,1,65,0,0
88233,-100,4,1,1,5,0,0
88310,-100,4,1,1,65,0,0
89470,-100,4,1,1,5,0,0
89547,-100,4,1,1,65,0,0
91403,-100,4,1,1,65,0,0
91557,-100,4,1,1,5,0,0
91712,-100,4,1,1,65,0,0
91944,-100,4,1,1,5,0,0
92021,-100,4,1,1,65,0,0
92253,-100,4,1,1,5,0,0
92331,-90.9090909090909,4,1,1,65,0,0
92563,-90.9090909090909,4,1,1,5,0,0
92640,-90.9090909090909,4,1,1,65,0,0
94728,-90.9090909090909,4,1,1,5,0,0
94805,-90.9090909090909,4,1,1,65,0,0
95037,-90.9090909090909,4,1,1,5,0,0
95114,-90.9090909090909,4,1,1,65,0,0
97511,-90.9090909090909,4,1,1,5,0,0
97588,-90.9090909090909,4,1,1,65,0,0
98439,-90.9090909090909,4,1,1,5,0,0
98516,-90.9090909090909,4,1,1,65,0,0
99985,-90.9090909090909,4,1,1,5,0,0
100063,-90.9090909090909,4,1,1,65,0,0
100913,-90.9090909090909,4,1,1,5,0,0
100990,-90.9090909090909,4,1,1,65,0,0
102150,-90.9090909090909,4,1,1,5,0,0
102228,-166.666666666667,4,1,2,65,0,0
102614,-166.666666666667,4,1,2,5,0,0
102691,-90.9090909090909,4,1,2,65,0,0
102769,-90.9090909090909,4,2,1,5,0,0
102846,-90.9090909090909,4,2,1,65,0,0
103001,-90.9090909090909,4,2,1,5,0,0
103078,-90.9090909090909,4,2,1,65,0,0
103155,-90.9090909090909,4,2,1,5,0,0
103310,-90.9090909090909,4,2,1,65,0,0
103465,-90.9090909090909,4,1,1,65,0,0
105862,-90.9090909090909,4,1,1,5,0,0
105939,-90.9090909090909,4,1,1,65,0,0
108645,-90.9090909090909,4,1,1,5,0,0
108722,-90.9090909090909,4,1,1,65,0,0
112047,-90.9090909090909,4,1,1,5,0,0
112124,-90.9090909090909,4,1,1,65,0,0
113594,-90.9090909090909,4,1,1,5,0,0
113671,-90.9090909090909,4,1,1,65,0,0
116068,-90.9090909090909,4,1,1,5,0,0
116145,-90.9090909090909,4,1,1,65,0,0
120707,-90.9090909090909,4,1,1,5,0,0
120784,-90.9090909090909,4,1,1,65,0,0
122795,-90.9090909090909,4,1,1,50,0,0
122949,-90.9090909090909,4,1,1,45,0,0
123104,-90.9090909090909,4,1,1,40,0,0
123181,-90.9090909090909,4,1,1,5,0,0
123259,309.278350515464,6,2,1,40,1,0
123259,-111.111111111111,6,2,1,35,0,0
123413,-111.111111111111,6,2,1,30,0,0
126893,-111.111111111111,6,2,1,5,0,0
126970,-111.111111111111,6,2,1,30,0,0
130604,-111.111111111111,6,2,1,5,0,0
130681,-111.111111111111,6,2,1,40,0,0
131532,-111.111111111111,6,2,1,5,0,0
131609,-111.111111111111,6,2,1,40,0,0
133697,-111.111111111111,6,2,1,5,0,0
133774,-111.111111111111,6,2,1,40,0,0
135243,-111.111111111111,6,2,1,5,0,0
135320,-111.111111111111,6,2,1,40,0,0
136171,-111.111111111111,6,2,1,5,0,0
136248,-111.111111111111,6,2,1,40,0,0
137099,-111.111111111111,6,2,1,5,0,0
137176,-111.111111111111,6,2,1,40,0,0
137408,-111.111111111111,6,2,1,5,0,0
137485,-100,6,2,1,40,0,0
137717,-100,6,2,1,5,0,0
137795,-100,6,2,1,40,0,0
138104,-111.111111111111,6,2,1,40,0,0
143594,-111.111111111111,6,2,1,5,0,0
143671,-111.111111111111,6,2,1,40,0,0
143903,-111.111111111111,6,2,1,5,0,0
143980,-111.111111111111,6,2,1,40,0,0
144831,-111.111111111111,6,2,1,5,0,0
144908,-111.111111111111,6,1,1,40,0,0
145527,-95.2380952380952,6,1,1,50,0,0
148078,-95.2380952380952,6,1,1,5,0,0
148155,-95.2380952380952,6,1,1,50,0,0
149470,-95.2380952380952,6,1,1,5,0,0
149547,-95.2380952380952,6,1,1,50,0,0
153181,-95.2380952380952,6,1,1,5,0,0
153259,-95.2380952380952,6,1,1,50,0,0
156660,309.278350515464,4,1,1,65,1,0
156660,-86.9565217391304,4,1,1,65,0,0
156969,-86.9565217391304,4,1,1,65,0,0
161840,-86.9565217391304,4,1,1,5,0,0
161917,-86.9565217391304,4,1,1,65,0,0
162304,-86.9565217391304,4,1,1,5,0,0
162381,-86.9565217391304,4,1,1,65,0,0
164314,-86.9565217391304,4,1,1,5,0,0
164391,-86.9565217391304,4,1,1,65,0,0
164778,-86.9565217391304,4,1,1,5,0,0
164855,-86.9565217391304,4,1,1,65,0,0
166788,-86.9565217391304,4,1,1,5,0,0
166866,-86.9565217391304,4,1,1,65,0,0
167252,-86.9565217391304,4,1,1,5,0,0
167330,-86.9565217391304,4,1,1,65,0,0
169263,-86.9565217391304,4,1,1,5,0,0
169340,-86.9565217391304,4,1,1,65,0,0
169727,-86.9565217391304,4,1,1,65,0,0
169804,-86.9565217391304,4,1,1,65,0,0
171505,-105.263157894737,4,2,1,45,0,0
171969,-86.9565217391306,4,1,1,65,0,0
181402,-90.9090909090909,4,1,1,65,0,0
181634,-90.9090909090909,4,1,1,5,0,0
181711,-90.9090909090909,4,1,1,65,0,0
182871,-90.9090909090909,4,1,1,5,0,0
182948,-90.9090909090909,4,1,1,65,0,0
183799,-90.9090909090909,4,1,1,5,0,0
183876,-90.9090909090909,4,1,1,65,0,0
184417,-90.9090909090909,4,1,1,5,0,0
184495,-90.9090909090909,4,1,1,65,0,0
185345,-90.9090909090909,4,1,1,5,0,0
185422,-90.9090909090909,4,1,1,65,0,0
186273,-90.9090909090909,4,1,1,5,0,0
186350,-90.9090909090909,4,1,1,65,0,0
187819,-90.9090909090909,4,1,1,5,0,0
187897,-90.9090909090909,4,1,1,65,0,0
191299,-86.9565217391304,4,1,1,65,0,0
191531,-86.9565217391304,4,1,1,5,0,0
191608,-86.9565217391304,4,1,1,65,0,0
193077,-86.9565217391304,4,1,1,5,0,0
193154,-86.9565217391304,4,1,1,65,0,0
194005,-86.9565217391304,4,1,1,5,0,0
194082,-86.9565217391304,4,1,1,65,0,0
194933,-86.9565217391304,4,1,1,5,0,0
195010,-86.9565217391304,4,1,1,65,0,0
195242,-86.9565217391304,4,1,1,5,0,0
195319,-86.9565217391304,4,1,1,65,0,0
196170,-86.9565217391304,4,1,1,5,0,0
196247,-86.9565217391304,4,1,1,65,0,0
197716,-86.9565217391304,4,1,1,5,0,0
197794,-86.9565217391304,4,1,1,65,0,0
199881,-86.9565217391304,4,1,1,5,0,0
199958,-333.333333333334,4,2,1,30,0,0
200345,-333.333333333334,4,2,1,5,0,0
200422,-333.333333333334,4,2,1,30,0,0
200809,-333.333333333334,4,2,1,5,0,0
200886,-333.333333333334,4,2,1,30,0,0
201118,-333.333333333334,4,2,1,5,0,0
201196,-333.333333333334,4,2,1,30,0,0
201969,-333.333333333334,4,2,1,5,0,0
202046,-333.333333333334,4,2,1,5,0,0
202123,-333.333333333334,4,2,1,30,0,0
202433,-1000,4,2,1,30,0,0
202510,-1000,4,2,1,30,0,0
203824,-1000,4,2,1,30,0,0
204288,-1000,4,2,1,5,0,0
204598,-90.9090909090909,4,2,1,30,0,0
204617,-90.9090909090909,4,2,1,5,0,0
204830,-90.9090909090909,4,2,1,5,0,0
204907,-117.647058823529,4,2,1,35,0,0
204926,-117.647058823529,4,2,1,5,0,0
205294,-117.647058823529,4,2,1,5,0,0
205371,-80,4,2,1,50,0,0
205390,-80,4,2,1,5,0,0
205757,-80,4,2,1,5,0,0
205835,-90.9090909090909,4,2,1,50,0,0
205854,-90.9090909090909,4,2,1,5,0,0
206144,-80,4,1,1,70,0,1
206376,-80,4,1,1,5,0,1
206453,-80,4,1,1,70,0,1
207613,-80,4,1,1,5,0,1
207690,-80,4,1,1,70,0,1
207922,-80,4,1,1,5,0,1
208000,-80,4,1,1,70,0,1
208850,-80,4,1,1,5,0,1
208928,-80,4,1,1,70,0,1
209778,-80,4,1,1,5,0,1
209855,-80,4,1,1,70,0,1
210087,-80,4,1,1,5,0,1
210165,-80,4,1,1,70,0,1
211324,-80,4,1,1,5,0,1
211402,-80,4,1,1,70,0,1
213180,-80,4,1,1,5,0,1
213257,-80,4,1,1,70,0,1
213489,-80,4,1,1,5,0,1
213567,-80,4,1,1,70,0,1
214108,-80,4,1,1,5,0,1
214185,-80,4,1,1,70,0,1
214727,-80,4,1,1,5,0,1
214804,-80,4,1,1,70,0,1
218129,-80,4,1,1,5,0,1
218206,-80,4,1,1,70,0,1
218438,-80,4,1,1,5,0,1
218515,-80,4,1,1,70,0,1
218747,-80,4,1,1,5,0,1
218824,-80,4,1,1,70,0,1
219056,-80,4,1,1,5,0,1
219134,-80,4,1,1,70,0,1
220912,-80,4,1,1,5,0,1
220989,-66.6666666666667,4,1,1,70,0,0
221221,-66.6666666666667,4,1,1,5,0,0
221299,-66.6666666666667,4,1,1,70,0,0
221685,-66.6666666666667,4,1,1,5,0,0
221763,-66.6666666666667,4,1,1,70,0,0
222149,-66.6666666666667,4,1,1,5,0,0
222227,-66.6666666666667,4,1,1,70,0,0
222613,-66.6666666666667,4,1,1,5,0,0
222690,-66.6666666666667,4,1,1,70,0,0
223464,-80,4,1,1,70,0,0
225938,-80,4,1,1,70,0,1
226170,-80,4,1,1,5,0,1
226247,-80,4,1,1,70,0,1
226479,-80,4,1,1,5,0,1
226556,-80,4,1,1,70,0,1
227716,-80,4,1,1,5,0,1
227794,-80,4,1,1,70,0,1
228644,-80,4,1,1,5,0,1
228721,-80,4,1,1,70,0,1
228953,-80,4,1,1,5,0,1
229031,-80,4,1,1,70,0,1
231118,-80,4,1,1,5,0,1
231196,-80,4,1,1,70,0,1
231428,-80,4,1,1,5,0,1
231505,-80,4,1,1,70,0,1
232665,-80,4,1,1,5,0,1
232742,-80,4,1,1,70,0,1
232974,-80,4,1,1,5,0,1
233051,-80,4,1,1,70,0,1
233902,-80,4,1,1,5,0,1
233979,-80,4,1,1,70,0,1
234675,-80,4,1,1,5,0,1
234752,-80,4,1,1,70,0,1
236067,-80,4,1,1,5,0,1
236144,-80,4,1,1,70,0,1
236685,-80,4,1,1,5,0,1
236763,-80,4,1,1,70,0,1
237304,-80,4,1,1,5,0,1
237381,-80,4,1,1,70,0,1
237613,-80,4,1,1,5,0,1
237690,-80,4,1,1,70,0,1
238541,-80,4,1,1,5,0,1
238618,-80,4,1,1,70,0,1
238850,-80,4,1,1,5,0,1
238928,-80,4,1,1,70,0,1
239469,-80,4,1,1,5,0,1
239546,-80,4,1,1,70,0,1
239778,-80,4,1,1,5,0,1
239855,-80,4,1,1,70,0,1
241015,-80,4,1,1,5,0,1
241092,-80,4,1,1,70,0,1
242252,-80,4,1,1,5,0,1
242330,-80,4,1,1,70,0,1
243721,-66.6666666666667,4,1,1,70,0,1
244495,-66.6666666666667,4,2,1,70,0,0
244881,-66.6666666666667,4,2,1,5,0,0
244958,-66.6666666666667,4,2,1,70,0,0
245345,-66.6666666666667,4,2,1,5,0,0
245422,-66.6666666666667,4,1,1,70,0,0
245732,-80,4,1,1,70,0,0
246891,-80,4,1,1,5,0,0
246969,-80,4,1,1,70,0,0
248129,-80,4,1,1,5,0,0
248206,-80,4,1,1,70,0,0
249366,-80,4,1,1,5,0,0
249443,-80,4,1,1,70,0,0
249675,-80,4,1,1,5,0,0
249752,-80,4,1,1,70,0,0
252149,-80,4,1,1,5,0,0
252227,-80,4,1,1,70,0,0
252458,-80,4,1,1,5,0,0
252536,-80,4,1,1,70,0,0
253077,-80,4,1,1,5,0,0
253154,-80,4,1,1,70,0,0
253696,-80,4,1,1,5,0,0
253773,-80,4,1,1,70,0,0
254623,-80,4,1,1,5,0,0
254701,-80,4,1,1,70,0,0
255551,-80,4,1,1,5,0,0
255629,-80,4,1,1,70,0,0
257407,-80,4,1,1,5,0,0
257484,-80,4,1,1,70,0,0
258025,-80,4,1,1,5,0,0
258103,-80,4,1,1,70,0,0
259263,-80,4,1,1,5,0,0
259340,-80,4,1,1,70,0,0
260500,-80,4,1,1,5,0,0
260577,-80,4,1,1,70,0,0
260964,-80,4,1,1,5,0,0
261041,-80,4,1,1,70,0,0
264366,-80,4,1,1,5,0,0
264443,-80,4,1,1,70,0,0
264984,-80,4,1,1,5,0,0
265062,-80,4,1,1,70,0,0
267304,-80,4,1,1,5,0,0
267381,-80,4,1,1,70,0,0
268232,-80,4,1,1,5,0,0
268309,-80,4,1,1,70,0,0
271943,-80,4,1,1,5,0,0
272020,-80,4,1,1,70,0,0
285319,-833.333333333333,4,1,1,70,0,0
285339,-833.333333333333,4,1,1,5,0,0
295062,-833.333333333333,4,1,1,5,0,0
295139,-833.333333333333,4,1,1,70,0,0
300165,-833.333333333333,4,1,1,5,0,0

[Colours]
Combo1 : 101,0,202
Combo2 : 255,74,74
Combo3 : 255,99,23
Combo4 : 255,255,0
Combo5 : 0,88,176

[HitObjects]
146,255,2894,6,0,L|135:347,1,70,2|2,0:0|0:0,0:0:0:0:
307,241,3259,6,0,P|274:192|198:184,1,140,2|2,0:0|0:0,0:0:0:0:
260,310,3722,2,0,P|324:283|390:260,1,140,2|2,0:0|0:0,0:0:0:0:
458,371,4186,2,0,B|432:336|408:309|408:309|434:254|455:183,1,210,2|0,0:0|0:0,0:0:0:0:
493,79,4805,6,0,P|461:59|424:63,1,70,2|0,0:0|0:0,0:0:0:0:
333,5,5114,2,0,P|331:42|353:72,1,70,2|0,0:0|0:0,0:0:0:0:
349,181,5423,2,0,P|382:163|397:129,1,70,2|0,0:0|0:0,0:0:0:0:
219,55,5733,6,0,P|231:136|238:200,1,140,2|2,0:0|0:0,0:0:0:0:
256,282,6197,2,0,P|263:212|274:143,1,140,2|2,0:0|0:0,0:0:0:0:
371,301,6661,2,0,P|266:314|162:328,1,210,2|0,0:0|0:0,0:0:0:0:
91,383,7279,2,0,B|67:339|67:339|103:249,1,140
109,242,7898,6,0,P|104:205|102:165,1,70,2|2,0:0|0:0,0:0:0:0:
155,115,8207,2,0,P|116:78|35:89,1,140,2|2,0:0|0:0,0:0:0:0:
184,192,8671,2,0,P|250:207|303:165,1,140,2|2,0:0|0:0,0:0:0:0:
383,60,9135,6,0,P|320:133|384:206,1,210,2|0,0:0|0:0,0:0:0:0:
458,311,9753,2,0,B|466:252|466:252|461:239|461:239|471:172,1,140,2|0,0:0|0:0,0:0:0:0:
476,160,10372,2,0,P|446:140|403:139,1,70,2|0,0:0|0:0,0:0:0:0:
243,218,10681,6,0,L|382:205,1,140,2|0,0:0|0:0,0:0:0:0:
190,143,11145,2,0,P|200:212|208:281,1,140,2|0,0:0|0:0,0:0:0:0:
66,84,11609,2,0,B|125:46|173:83|156:99|193:129|260:102,1,210,2|0,0:0|0:0,0:0:0:0:
308,35,12228,2,0,B|350:82|350:82|324:165,1,140
318,175,12846,6,0,L|325:253,1,70,2|2,0:0|0:0,0:0:0:0:
367,333,13155,2,0,P|332:282|258:282,1,140,2|2,0:0|0:0,0:0:0:0:
175,377,13619,2,0,B|183:310|183:310|180:307|180:307|189:222,1,140,2|2,0:0|0:0,0:0:0:0:
308,170,14083,6,0,B|224:178|224:178|195:201|195:201|103:209,1,210,2|0,0:0|0:0,0:0:0:0:
11,121,14702,2,0,P|20:164|27:212,1,70,2|0,0:0|0:0,0:0:0:0:
136,82,15011,2,0,P|94:68|49:50,1,70,2|0,0:0|0:0,0:0:0:0:
107,209,15320,2,0,P|139:179|177:149,1,70,2|0,0:0|0:0,0:0:0:0:
287,12,15630,6,0,P|271:80|260:149,1,140,2|2,0:0|0:0,0:0:0:0:
248,223,16094,2,0,P|237:153|221:85,1,140,2|2,0:0|0:0,0:0:0:0:
93,270,16557,2,0,B|148:233|194:268|183:283|228:318|288:290,1,210,2|0,0:0|0:0,0:0:0:0:
392,237,17176,6,0,P|352:215|317:220,1,70,2|0,0:0|0:0,0:0:0:0:
432,371,17485,1,2,0:0:0:0:
432,371,17640,2,0,P|442:320|453:289,1,70,2|0,0:0|0:0,0:0:0:0:
499,221,17949,1,2,0:0:0:0:
369,125,18104,6,0,P|328:130|281:135,1,70,2|0,0:0|0:0,0:0:0:0:
171,57,18413,1,2,0:0:0:0:
171,57,18568,2,0,P|179:102|185:144,1,70,2|0,0:0|0:0,0:0:0:0:
250,257,18877,1,2,0:0:0:0:
250,257,19032,2,0,P|268:146|287:36,1,210,2|0,0:0|0:0,0:0:0:0:
163,7,19650,2,0,P|176:83|186:155,1,140,2|0,0:0|0:0,0:0:0:0:
183,160,20269,6,0,P|176:198|171:234,1,70,2|0,0:0|0:0,0:0:0:0:
83,114,20578,2,0,P|119:100|153:87,1,70,2|0,0:0|0:0,0:0:0:0:
94,224,20887,1,2,0:0:0:0:
94,224,21042,2,0,P|64:198|35:176,1,70,2|0,0:0|0:0,0:0:0:0:
183,160,21351,1,2,0:0:0:0:
183,160,21506,2,0,B|237:128|288:169|269:183|304:224|373:191,1,210,2|0,0:0|0:0,0:0:0:0:
432,118,22124,2,0,B|400:166|400:166|433:262,1,140
434,257,22743,6,0,L|429:330,1,70,2|0,0:0|0:0,0:0:0:0:
337,373,23052,2,0,P|297:319|229:314,1,140,2|0,0:0|0:0,0:0:0:0:
121,373,23516,2,0,P|188:368|229:313,1,140,2|0,0:0|0:0,0:0:0:0:
165,112,23980,2,0,B|139:147|115:172|115:172|135:232|151:300,1,210,2|0,0:0|0:0,0:0:0:0:
336,155,24599,2,0,B|278:166|278:166|270:176|270:176|204:190,1,140,2|0,0:0|0:0,0:0:0:0:
196,191,25217,6,0,B|127:176,1,70,2|0,0:0|0:0,0:0:0:0:
252,122,25527,2,0,P|236:192|224:259,1,140,2|2,0:0|0:0,0:0:0:0:
176,60,26145,1,2,0:0:0:0:
387,11,26454,6,0,P|482:38|497:138,1,210,2|2,0:0|0:0,0:0:0:0:
399,236,27073,2,0,B|408:166|408:166|406:162|406:162|415:98,1,140,2|0,0:0|0:0,0:0:0:0:
418,85,27691,2,0,B|409:15,1,70,2|0,0:0|0:0,0:0:0:0:
256,0,28001,6,0,P|192:74|247:155,1,210,2|0,0:0|0:0,0:0:0:0:
299,225,28619,2,0,P|289:157|281:86,1,140,2|0,0:0|0:0,0:0:0:0:
90,7,29238,2,0,P|82:75|72:145,1,140,2|0,0:0|0:0,0:0:0:0:
0,359,29856,2,0,P|52:262|142:267,1,210,2|0,0:0|0:0,0:0:0:0:
257,376,30475,6,0,B|305:305|305:305|261:188,1,210,2|0,0:0|0:0,0:0:0:0:
192,140,31094,2,0,B|255:144|255:144|262:150|262:150|339:156,1,140,0|2,0:0|0:0,0:0:0:0:
512,33,31712,2,0,B|449:37|449:37|442:43|442:43|365:49,1,140,2|0,0:0|0:0,0:0:0:0:
361,50,32640,6,0,B|286:44,1,70,2|0,0:0|0:0,0:0:0:0:
256,180,32949,2,0,B|298:118,1,70,2|0,0:0|0:0,0:0:0:0:
195,24,33259,1,2,0:0:0:0:
195,24,33413,2,0,B|227:91,1,70,2|0,0:0|0:0,0:0:0:0:
349,220,33722,1,2,0:0:0:0:
349,220,33877,2,0,B|218:181|256:260|139:224,1,210,2|0,0:0|0:0,0:0:0:0:
99,155,34496,2,0,P|110:235|119:315,1,140,2|0,0:0|0:0,0:0:0:0:
115,309,35114,6,0,P|148:324|184:323,1,70,2|0,0:0|0:0,0:0:0:0:
284,213,35423,2,0,P|249:212|217:227,1,70,2|0,0:0|0:0,0:0:0:0:
260,363,35733,1,2,0:0:0:0:
260,363,35887,2,0,P|267:324|274:288,1,70,2|0,0:0|0:0,0:0:0:0:
404,228,36197,1,2,0:0:0:0:
404,228,36351,2,0,P|335:228|306:103,1,210,2|0,0:0|0:0,0:0:0:0:
370,67,36970,2,0,P|333:14|256:16,1,140,2|0,0:0|0:0,0:0:0:0:
250,21,37588,6,0,P|200:17|161:12,1,70,2|0,0:0|0:0,0:0:0:0:
15,112,37898,2,0,P|84:103|154:98,1,140,2|0,0:0|0:0,0:0:0:0:
363,182,38516,1,2,0:0:0:0:
193,370,38826,2,0,B|145:306|145:306|208:180,1,210,2|0,0:0|0:0,0:0:0:0:
270,134,39444,2,0,B|206:143|206:143|204:147|204:147|122:159,2,140,2|0|0,0:0|0:0|0:0,0:0:0:0:
506,240,40372,6,0,L|450:234,1,56
449,233,43697,6,0,P|433:185|454:139,1,105,2|0,0:0|0:0,0:0:0:0:
462,156,44006,6,0,B|395:162|395:162|380:172|380:172|303:178,1,157.500006008148
247,82,44547,6,0,B|305:135|305:135|253:266,1,209.999993591309,2|0,0:0|0:0,0:0:0:0:
246,336,45011,6,0,L|229:235,1,83.9999974365235,2|0,0:0|0:0,0:0:0:0:
82,85,45320,6,0,P|112:33|190:39,1,125.999996154785,14|0,0:2|0:0,0:0:0:0:
190,45,45630,2,0,L|287:32,1,83.9999974365235,8|0,0:0|0:0,0:0:0:0:
435,101,45939,1,0,0:0:0:0:
348,2,46094,1,8,0:2:0:0:
306,127,46248,2,0,L|316:210,1,83.9999974365235,10|0,0:0|0:0,0:0:0:0:
273,354,46557,5,8,0:2:0:0:
382,274,46712,1,0,0:0:0:0:
231,253,46867,2,0,L|147:271,1,83.9999974365235,8|0,0:0|0:0,0:0:0:0:
8,304,47176,1,0,0:0:0:0:
143,357,47331,1,8,0:2:0:0:
64,237,47485,2,0,P|51:197|64:153,1,83.9999974365235,8|0,0:0|0:0,0:0:0:0:
126,18,47795,6,0,L|271:28,1,125.999996154785,8|0,0:2|0:0,0:0:0:0:
277,28,48104,2,0,P|288:73|271:107,1,83.9999974365235,8|0,0:0|0:0,0:0:0:0:
181,228,48413,1,0,0:0:0:0:
130,98,48568,1,8,0:2:0:0:
278,192,48722,2,0,L|388:184,1,83.9999974365235,10|0,0:0|0:0,0:0:0:0:
472,46,49032,6,0,P|447:89|447:133,1,83.9999974365235,10|0,0:2|0:0,0:0:0:0:
388,262,49341,2,0,P|383:220|360:185,1,83.9999974365235,10|0,0:0|0:0,0:0:0:0:
244,85,49650,1,2,0:0:0:0:
308,247,49805,1,8,0:2:0:0:
372,85,49960,2,0,L|363:-2,1,83.9999974365235,10|0,0:0|0:0,0:0:0:0:
212,158,50269,6,0,P|172:114|206:15,1,167.999994873047,10|8,0:2|0:0,0:0:0:0:
293,162,50733,1,2,0:0:0:0:
130,226,50887,2,0,L|43:219,1,83.9999974365235,2|8,0:0|0:2,0:0:0:0:
249,287,51197,2,0,P|261:334|248:373,1,83.9999974365235,10|0,0:0|0:0,0:0:0:0:
293,162,51506,6,0,L|376:168,1,83.9999974365235,10|0,0:2|0:0,0:0:0:0:
491,337,51815,2,0,L|407:343,1,83.9999974365235,10|0,0:0|0:0,0:0:0:0:
440,122,52124,2,0,P|454:162|445:209,1,83.9999974365235,2|0,0:0|0:0,0:0:0:0:
298,306,52434,1,10,0:0:0:0:
376,168,52588,1,0,0:0:0:0:
218,170,52743,5,10,0:2:0:0:
356,248,52898,1,0,0:0:0:0:
215,321,53052,2,0,L|130:315,1,83.9999974365235,8|0,0:0|0:0,0:0:0:0:
34,147,53362,1,0,0:0:0:0:
152,238,53516,1,8,0:2:0:0:
16,328,53671,2,0,P|4:289|19:245,1,83.9999974365235,10|0,0:0|0:0,0:0:0:0:
178,80,53980,6,0,L|164:174,1,83.9999974365235,10|0,3:2|0:0,0:0:0:0:
21,40,54289,2,0,P|60:15|107:22,1,83.9999974365235,10|0,3:1|0:0,0:0:0:0:
253,102,54599,2,0,P|211:103|178:80,1,83.9999974365235,2|8,3:1|0:2,0:0:0:0:
352,12,54908,1,10,3:1:0:0:
350,32,54985,1,0,3:0:0:0:
348,53,55062,1,0,3:0:0:0:
346,74,55139,1,0,3:0:0:0:
344,97,55217,6,0,B|418:90|418:90|450:104|450:104|510:98,1,167.999994873047,14|8,0:2|0:0,0:0:0:0:
352,12,55681,1,0,0:0:0:0:
396,186,55836,1,2,0:0:0:0:
508,98,55990,1,8,0:2:0:0:
495,297,56145,2,0,P|489:252|485:197,1,83.9999974365235,10|0,0:0|0:0,0:0:0:0:
337,284,56454,5,8,0:2:0:0:
486,381,56609,1,0,0:0:0:0:
388,226,56764,2,0,P|344:206|304:214,1,83.9999974365235,8|0,0:0|0:0,0:0:0:0:
167,361,57073,2,0,L|261:352,1,83.9999974365235,2|8,0:0|0:2,0:0:0:0:
188,149,57382,2,0,P|197:199|201:253,1,83.9999974365235,10|0,0:0|0:0,0:0:0:0:
290,78,57691,5,10,0:2:0:0:
127,53,57846,1,0,0:0:0:0:
267,151,58001,1,8,0:0:0:0:
127,249,58155,1,0,0:0:0:0:
267,347,58310,2,0,L|353:335,1,83.9999974365235,0|8,0:0|0:2,0:0:0:0:
501,234,58619,2,0,L|417:222,1,83.9999974365235,10|0,0:0|0:0,0:0:0:0:
267,151,58929,6,0,P|257:110|275:67,1,83.9999974365235,10|0,0:2|0:0,0:0:0:0:
346,256,59238,2,0,P|360:294|350:335,1,83.9999974365235,10|0,0:0|0:0,0:0:0:0:
164,238,59547,2,0,L|248:242,1,83.9999974365235,2|8,0:0|3:2,0:0:0:0:
430,111,59856,2,0,L|346:115,1,83.9999974365235,8|0,3:1|3:0,0:0:0:0:
162,9,60166,6,0,B|125:55|125:55|149:144,1,146.999995513916,10|0,0:2|0:0,0:0:0:0:
153,164,60475,1,0,0:0:0:0:
260,305,60630,2,0,B|165:289|165:289|125:336,1,146.999995513916,10|0,0:0|0:0,0:0:0:0:
118,348,60939,1,0,3:0:0:0:
5,223,61094,2,0,P|51:227|98:229,1,83.9999974365235,10|0,0:0|0:0,0:0:0:0:
281,199,61403,6,0,P|293:159|280:120,1,83.9999974365235,0|8,3:0|0:0,0:0:0:0:
200,20,61712,1,0,0:0:0:0:
359,65,61867,2,0,L|455:55,1,83.9999974365235,10|8,0:2|0:0,0:0:0:0:
203,99,62176,1,0,0:0:0:0:
365,144,62331,1,10,0:2:0:0:
277,2,62485,1,8,0:0:0:0:
266,182,62640,6,0,L|277:281,1,83.9999974365235,10|0,0:2|3:0,0:0:0:0:
281,304,62872,1,0,3:0:0:0:
281,304,62949,1,0,3:0:0:0:
180,172,63104,1,0,0:0:0:0:
365,144,63259,2,0,L|456:152,1,83.9999974365235,8|0,0:0|0:0,0:0:0:0:
266,182,63568,1,10,0:2:0:0:
402,69,63722,1,8,0:0:0:0:
366,227,63877,6,0,L|374:310,1,83.9999974365235,10|0,0:2|0:0,0:0:0:0:
480,112,64186,1,8,0:0:0:0:
322,30,64341,2,0,L|236:37,1,83.9999974365235,14|0,0:2|0:0,0:0:0:0:
78,141,64650,1,8,3:2:0:0:
78,141,64728,1,0,3:0:0:0:
78,141,64805,1,10,3:2:0:0:
162,2,64960,1,8,3:1:0:0:
287,119,65114,6,0,P|318:176|298:232,1,125.999996154785,14|0,0:2|0:0,0:0:0:0:
296,259,65423,2,0,L|213:246,1,83.9999974365235,8|0,0:0|0:0,0:0:0:0:
134,384,65733,1,0,0:0:0:0:
240,326,65887,1,8,0:2:0:0:
117,188,66042,2,0,L|104:270,1,83.9999974365235,10|0,0:0|0:0,0:0:0:0:
48,139,66351,5,10,0:2:0:0:
186,237,66506,1,0,0:0:0:0:
287,119,66661,2,0,P|251:98|210:104,1,83.9999974365235,8|0,0:0|0:0,0:0:0:0:
186,237,66970,1,0,0:0:0:0:
122,76,67124,1,8,0:2:0:0:
278,213,67279,2,0,L|262:304,1,83.9999974365235,8|0,0:0|0:0,0:0:0:0:
218,384,67588,5,8,0:2:0:0:
352,276,67743,1,0,0:0:0:0:
186,237,67898,2,0,B|127:246|127:246|118:257|118:257|64:268,1,125.999996154785,8|0,0:0|0:0,0:0:0:0:
40,286,68207,2,0,P|20:250|31:210,1,83.9999974365235,0|8,0:0|0:2,0:0:0:0:
70,83,68516,1,10,0:0:0:0:
168,145,68671,1,0,0:0:0:0:
291,54,68826,6,0,P|249:50|207:44,1,83.9999974365235,10|0,0:2|0:0,0:0:0:0:
332,240,69135,2,0,P|373:234|415:230,1,83.9999974365235,10|0,0:0|0:0,0:0:0:0:
243,384,69444,2,0,B|225:348|225:348|237:305,1,83.9999974365235,2|8,0:0|0:2,0:0:0:0:
186,237,69753,1,10,0:0:0:0:
307,339,69908,1,0,0:0:0:0:
183,144,70063,6,0,P|146:148|105:180,1,83.9999974365235,10|0,0:2|0:0,0:0:0:0:
250,83,70372,2,0,P|228:53|179:33,1,83.9999974365235,10|0,0:0|0:0,0:0:0:0:
331,126,70681,1,2,0:0:0:0:
396,57,70836,1,8,0:2:0:0:
363,216,70990,2,0,P|321:209|279:204,1,83.9999974365235,10|0,0:0|0:0,0:0:0:0:
137,303,71300,6,0,P|178:307|215:286,1,83.9999974365235,10|0,0:2|0:0,0:0:0:0:
185,109,71609,2,0,B|115:107|127:143|60:141,1,125.999996154785,10|0,0:0|0:0,0:0:0:0:
3,184,71918,2,0,B|-15:143|-15:143|0:104,1,83.9999974365235,2|8,0:0|3:2,0:0:0:0:
239,40,72228,6,0,P|224:122|210:205,1,167.999994873047,10|8,0:0|0:2,0:0:0:0:
159,28,72691,1,0,0:0:0:0:
305,148,72846,2,0,P|346:143|393:139,1,83.9999974365235,10|0,0:0|0:0,0:0:0:0:
297,277,73155,5,2,0:0:0:0:
221,207,73310,1,8,0:2:0:0:
305,148,73465,1,8,0:0:0:0:
206,298,73619,2,0,B|137:288|137:288|122:266|122:266|38:255,1,167.999994873047
284,356,74083,2,0,P|300:317|296:276,1,83.9999974365235,10|0,0:0|0:0,0:0:0:0:
186,382,74393,1,2,0:0:0:0:
296,276,74547,1,8,0:2:0:0:
150,99,74702,2,0,P|156:161|162:224,1,125.999996154785,10|0,3:1|3:0,0:0:0:0:
163,247,75011,6,0,B|211:255|248:228|226:212|268:182|327:196,1,167.999994873047,14|8,0:2|0:0,0:0:0:0:
393,251,75475,1,2,0:0:0:0:
460,121,75630,2,0,P|418:115|376:109,1,83.9999974365235,2|0,0:0|0:0,0:0:0:0:
216,75,75939,1,8,0:0:0:0:
319,4,76094,1,2,0:0:0:0:
265,159,76248,6,0,P|223:164|181:170,1,83.9999974365235,10|0,0:2|0:0,0:0:0:0:
94,96,76557,2,0,P|81:56|97:18,1,83.9999974365235,10|0,0:0|0:0,0:0:0:0:
163,198,76867,1,2,0:0:0:0:
30,341,77021,1,8,3:2:0:0:
9,206,77176,1,10,3:1:0:0:
9,206,77331,1,0,3:0:0:0:
156,331,77485,6,0,L|240:321,1,83.9999974365235,10|0,0:2|0:0,0:0:0:0:
393,384,77795,2,0,B|423:346|423:346|397:272,1,125.999996154785,10|0,0:0|0:0,0:0:0:0:
408,245,78104,1,2,0:0:0:0:
267,45,78259,1,8,0:2:0:0:
452,149,78413,2,0,B|393:156|393:156|389:161|389:161|327:170,1,125.999996154785,10|0,0:0|3:0,0:0:0:0:
261,217,78722,6,0,B|243:180|243:180|254:138,1,83.9999974365235,10|0,0:2|0:0,0:0:0:0:
374,0,79032,2,0,P|368:41|363:83,1,83.9999974365235,8|0,0:0|0:0,0:0:0:0:
267,45,79341,1,2,0:0:0:0:
360,176,79496,1,8,0:2:0:0:
234,252,79650,2,0,P|179:222|119:243,1,125.999996154785,10|0,3:1|3:0,0:0:0:0:
94,233,79960,6,0,P|100:274|106:316,1,83.9999974365235,14|0,0:2|0:0,0:0:0:0:
40,88,80269,1,8,0:0:0:0:
160,134,80423,1,0,0:0:0:0:
0,197,80578,1,2,0:0:0:0:
135,36,80733,1,8,0:2:0:0:
234,202,80887,2,0,L|317:189,1,83.9999974365235,8|0,3:1|3:0,0:0:0:0:
457,116,81197,5,14,0:2:0:0:
457,116,81274,1,0,0:0:0:0:
457,116,81351,2,0,L|373:103,1,83.9999974365235,0|8,3:0|3:1,0:0:0:0:
317,189,81661,1,8,0:2:0:0:
438,355,81815,1,10,3:1:0:0:
438,355,81893,1,0,0:0:0:0:
437,355,81970,2,0,P|457:319|453:278,1,83.9999974365235,8|8,3:1|3:1,0:0:0:0:
414,195,82279,1,8,3:1:0:0:
299,331,82434,5,12,3:1:0:0:
414,195,84908,6,0,L|422:146,1,41.9999987182618,8|0,0:0|0:0,0:0:0:0:
474,375,86609,5,10,0:2:0:0:
388,303,86764,2,0,L|379:378,1,70,10|10,0:0|0:2,0:0:0:0:
494,265,87073,1,0,0:0:0:0:
494,265,87228,1,2,0:0:0:0:
311,331,87382,6,0,L|240:316,1,70,8|0,0:2|0:0,0:0:0:0:
167,232,87691,2,0,L|238:217,1,70,2|0,0:0|0:2,0:0:0:0:
142,321,88001,1,10,0:0:0:0:
76,221,88155,2,0,P|71:186|86:155,1,70,0|2,0:0|0:2,0:0:0:0:
167,12,88465,6,0,L|184:151,1,140,2|2,0:0|0:2,0:0:0:0:
259,64,88929,1,2,0:0:0:0:
259,64,89083,1,2,0:0:0:0:
332,196,89238,2,0,L|339:126,1,70,10|0,0:0|0:0,0:0:0:0:
431,212,89547,1,10,0:2:0:0:
397,308,89702,1,10,0:0:0:0:
304,351,89856,6,0,L|296:281,1,70,2|2,0:2|0:0,0:0:0:0:
397,308,90166,1,0,0:2:0:0:
252,210,90320,2,0,B|189:217|189:217|174:232|174:232|113:242,1,140,10|8,0:0|0:2,0:0:0:0:
47,158,90784,1,10,0:0:0:0:
119,71,90939,1,10,0:2:0:0:
21,24,91094,5,10,3:2:0:0:
21,24,91248,1,10,0:2:0:0:
135,153,91403,2,0,P|170:145|203:139,1,70,10|8,3:2|0:2,0:0:0:0:
249,42,91712,2,0,P|284:49|317:55,1,70,10|0,3:1|0:0,0:0:0:0:
443,10,92021,2,0,B|470:53|470:53|451:105,1,105,10|0,3:1|0:0,0:0:0:0:
430,119,92331,5,12,0:2:0:0:
481,223,92485,1,0,0:0:0:0:
393,294,92640,2,0,B|356:288|356:288|352:290|352:290|303:283,1,77.0000023498536,10|0,0:0|0:0,0:0:0:0:
182,281,92949,2,0,B|205:251|205:251|206:246|206:246|236:208,1,77.0000023498536,2|8,0:0|0:2,0:0:0:0:
300,106,93259,2,0,B|313:141|313:141|317:142|317:142|335:189,1,77.0000023498536,10|0,0:0|0:0,0:0:0:0:
249,327,93568,5,10,0:2:0:0:
149,194,93722,1,0,0:0:0:0:
45,354,93877,2,0,P|84:348|121:345,1,77.0000023498536,8|0,0:0|0:0,0:0:0:0:
149,194,94186,2,0,P|110:189|72:184,1,77.0000023498536,0|8,0:0|0:2,0:0:0:0:
139,51,94496,2,0,P|184:19|239:33,1,115.50000352478,8|0,0:0|3:0,0:0:0:0:
263,19,94805,6,0,L|249:94,1,77.0000023498536,8|0,0:2|0:0,0:0:0:0:
322,240,95114,2,0,P|340:206|334:168,1,77.0000023498536,10|0,0:0|0:0,0:0:0:0:
139,51,95423,2,0,L|64:65,1,77.0000023498536,2|8,0:0|0:2,0:0:0:0:
0,212,95733,1,10,0:0:0:0:
110,152,95887,1,0,3:0:0:0:
132,285,96042,6,0,L|57:271,1,77.0000023498536,10|0,0:2|0:0,0:0:0:0:
201,370,96351,2,0,L|126:384,1,77.0000023498536,10|0,3:1|3:0,3:0:0:0:
218,218,96661,2,0,B|252:222|252:222|256:226|256:226|292:232,1,77.0000023498536,2|8,3:1|0:2,0:0:0:0:
375,308,96970,1,10,0:0:0:0:
509,96,97124,6,0,B|433:109|433:109|426:118|426:118|361:130,1,154.000004699707,2|0,3:1|0:0,0:0:0:0:
395,319,97588,2,0,P|415:286|411:248,1,77.0000023498536,10|0,0:0|0:0,0:0:0:0:
253,180,97898,2,0,L|264:256,1,77.0000023498536,2|8,0:0|0:2,0:0:0:0:
182,357,98207,2,0,B|148:361|148:361|144:365|144:365|108:371,1,77.0000023498536,10|0,0:0|0:0,0:0:0:0:
4,247,98516,5,10,0:2:0:0:
139,276,98671,1,0,0:0:0:0:
92,100,98826,2,0,L|80:176,1,77.0000023498536,8|0,0:0|0:0,0:0:0:0:
1,123,99135,1,0,0:0:0:0:
106,15,99289,1,8,0:2:0:0:
178,156,99444,2,0,L|254:144,1,77.0000023498536,8|0,0:0|3:0,0:0:0:0:
400,55,99753,6,0,B|365:48|365:48|359:50|359:50|324:44,1,77.0000023498536,10|0,0:2|0:0,0:0:0:0:
481,124,100063,1,8,0:0:0:0:
414,264,100217,2,0,P|397:229|403:192,1,77.0000023498536,2|0,0:0|0:0,0:0:0:0:
473,356,100527,1,8,0:2:0:0:
320,240,100681,6,0,B|263:221|263:221|231:263|181:263,1,154.000004699707,10|10,0:0|0:2,0:0:0:0:
66,246,101145,1,2,0:0:0:0:
131,150,101300,1,10,3:1:0:0:
49,69,101454,1,2,3:1:0:0:
86,264,101609,2,0,P|125:258|163:252,1,77.0000023498536,2|8,0:0|3:2,0:0:0:0:
224,119,101918,2,0,P|262:124|300:130,1,77.0000023498536,10|0,0:0|0:0,0:0:0:0:
460,265,102228,6,2,B|407:261|407:261|403:267|403:267|355:264,1,104.999996795654,2|0,0:0|0:0,0:0:0:0:
306,322,102691,2,0,P|289:323|304:315,1,38.5000011749268,2|2,0:0|0:0,0:0:0:0:
210,384,102846,2,0,P|188:352|187:314,1,77.0000023498536,10|0,0:0|0:0,0:0:0:0:
230,243,103078,2,0,P|246:239|232:249,1,38.5000011749268,2|0,0:0|0:0,0:0:0:0:
248,135,103310,1,2,0:0:0:0:
131,46,103465,6,0,L|121:124,1,77.0000023498536,10|0,0:2|0:0,0:0:0:0:
166,200,103774,1,10,0:0:0:0:
299,61,103929,2,0,L|221:51,1,77.0000023498536,2|0,0:0|0:0,0:0:0:0:
392,1,104238,1,2,0:0:0:0:
457,89,104393,6,0,P|488:156|456:224,1,154.000004699707,10|8,0:0|0:2,0:0:0:0:
345,226,104856,1,0,0:0:0:0:
255,211,105011,2,0,P|262:248|269:286,1,77.0000023498536,10|0,0:0|0:0,0:0:0:0:
411,156,105320,2,0,P|374:143|338:129,1,77.0000023498536,2|0,0:0|0:0,0:0:0:0:
374,315,105629,2,0,P|401:288|431:263,1,77.0000023498536,10|0,0:0|0:0,0:0:0:0:
253,121,105939,6,0,B|168:109|182:166|88:159,1,154.000004699707,10|8,0:2|0:0,0:0:0:0:
21,116,106403,2,0,P|25:78|29:39,1,77.0000023498536,2|0,0:0|0:0,0:0:0:0:
107,159,106712,1,0,0:0:0:0:
8,297,106867,2,0,P|-5:260|1:222,1,77.0000023498536,10|0,0:0|0:0,0:0:0:0:
82,363,107176,5,8,0:2:0:0:
82,363,107331,1,0,0:0:0:0:
205,273,107485,2,0,L|129:264,1,77.0000023498536,8|0,0:0|0:0,0:0:0:0:
183,384,107795,2,0,L|259:375,1,77.0000023498536
331,284,108104,1,10,0:0:0:0:
408,375,108259,1,2,0:0:0:0:
479,225,108413,6,0,P|446:206|408:207,1,77.0000023498536,8|0,0:2|0:0,0:0:0:0:
261,158,108722,1,10,0:0:0:0:
359,62,108877,2,0,L|349:138,1,77.0000023498536,2|0,0:0|0:0,0:0:0:0:
305,255,109186,1,2,0:0:0:0:
188,99,109341,2,0,P|114:88|65:143,1,154.000004699707,10|8,0:0|0:2,0:0:0:0:
4,219,109805,5,0,0:0:0:0:
37,323,109960,2,0,B|114:328,1,77.0000023498536,10|0,0:0|0:0,0:0:0:0:
144,166,110269,2,0,B|101:229,1,77.0000023498536,2|0,0:0|0:0,0:0:0:0:
224,337,110578,2,0,B|191:267,1,77.0000023498536,10|0,0:0|0:0,0:0:0:0:
276,124,110887,6,0,P|295:156|294:194,1,77.0000023498536,10|0,0:2|0:0,0:0:0:0:
191,267,111197,1,10,0:0:0:0:
292,384,111351,2,0,B|369:379,1,77.0000023498536,2|0,0:0|0:0,0:0:0:0:
295,282,111661,1,2,0:0:0:0:
123,349,111815,2,0,P|87:282|109:211,1,154.000004699707,10|8,0:0|0:2,0:0:0:0:
14,163,112279,5,0,0:0:0:0:
89,79,112434,2,0,L|165:86,1,77.0000023498536,8|0,0:0|0:0,0:0:0:0:
3,77,112743,1,8,0:2:0:0:
108,211,112898,1,8,3:1:0:0:
134,7,113052,1,2,3:1:0:0:
14,163,113207,1,10,3:2:0:0:
87,306,113362,6,0,L|163:293,1,77.0000023498536,10|0,0:2|0:0,0:0:0:0:
253,367,113671,1,10,0:0:0:0:
331,226,113826,2,0,L|255:213,1,77.0000023498536,2|0,0:0|0:0,0:0:0:0:
367,338,114135,1,2,0:0:0:0:
441,206,114289,6,0,P|472:138|440:71,1,154.000004699707,10|8,0:0|0:2,0:0:0:0:
331,226,114753,1,0,0:0:0:0:
440,71,114908,2,0,P|403:59|368:73,1,77.0000023498536,10|0,0:0|0:0,0:0:0:0:
331,226,115217,2,0,P|358:200|363:159,1,77.0000023498536,2|0,0:0|0:0,0:0:0:0:
253,51,115527,2,0,P|260:88|288:112,1,77.0000023498536,10|0,0:0|0:0,0:0:0:0:
301,312,115836,6,0,P|339:306|377:303,1,77.0000023498536,10|0,0:2|0:0,0:0:0:0:
331,226,116145,1,10,0:0:0:0:
196,384,116300,2,0,P|179:350|184:312,1,77.0000023498536,2|0,0:0|0:0,0:0:0:0:
244,211,116609,1,2,0:0:0:0:
143,126,116764,6,0,B|101:116|61:142|74:147|38:175|-3:166,1,154.000004699707,10|8,0:0|0:2,0:0:0:0:
45,247,117228,1,0,0:0:0:0:
190,59,117382,2,0,P|176:134|164:210,1,154.000004699707,10|2,0:0|0:0,0:0:0:0:
131,365,117846,2,0,P|125:326|119:288,1,77.0000023498536,2|8,0:0|0:0,0:0:0:0:
47,344,118155,1,2,0:0:0:0:
164,210,118310,6,0,B|230:216|230:216|253:232|253:232|317:240,1,154.000004699707,10|10,0:2|0:0,0:0:0:0:
398,177,118774,2,0,P|372:149|335:139,1,77.0000023498536,2|0,0:0|0:0,0:0:0:0:
404,264,119083,1,2,0:0:0:0:
368,53,119238,2,0,P|293:57|243:113,1,154.000004699707,10|8,0:0|0:2,0:0:0:0:
112,88,119702,1,0,0:0:0:0:
164,210,119856,6,0,L|241:200,1,77.0000023498536,10|0,0:0|0:0,0:0:0:0:
70,186,120166,1,0,0:0:0:0:
137,316,120320,1,0,0:0:0:0:
209,128,120475,2,0,P|269:125|311:166,1,115.50000352478,10|0,0:0|0:0,0:0:0:0:
335,172,120784,6,0,P|326:209|318:247,1,77.0000023498536,10|0,0:2|3:0,0:0:0:0:
367,343,121094,1,8,3:2:0:0:
257,372,121248,2,0,P|249:334|240:296,1,77.0000023498536,10|0,0:0|0:0,0:0:0:0:
367,343,121557,1,10,3:2:0:0:
240,200,121712,6,0,B|200:168|148:178|148:178|129:207|92:212,1,154.000004699707,2|0,0:0|0:0,0:0:0:0:
84,135,122176,1,10,0:2:0:0:
204,23,122331,2,0,L|209:99,1,77.0000023498536,10|0,0:0|0:0,0:0:0:0:
321,250,122640,2,0,L|326:173,1,77.0000023498536,8|8,3:2|3:2,0:0:0:0:
294,58,122949,2,0,P|349:47|398:81,1,115.50000352478,8|0,3:2|0:0,0:0:0:0:
422,79,123259,6,0,P|447:112|437:152,1,62.9999980773926,4|0,0:0|0:0,0:0:0:0:
486,221,123568,1,0,0:0:0:0:
486,221,123722,2,0,P|428:205|352:194,1,125.999996154785,2|0,0:0|0:0,0:0:0:0:
263,297,124186,2,0,P|306:283|342:277,1,62.9999980773926,2|0,0:0|0:0,0:0:0:0:
219,169,124496,2,0,P|216:200|210:231,2,62.9999980773926,2|0|2,0:0|0:0|0:0,0:0:0:0:
170,106,124960,1,0,0:0:0:0:
170,106,125114,6,0,P|120:104|88:182,1,125.999996154785,2|0,0:0|0:0,0:0:0:0:
32,223,125578,2,0,P|60:257|102:260,1,62.9999980773926,2|0,0:0|0:0,0:0:0:0:
149,312,125887,1,0,0:0:0:0:
149,312,126042,2,0,P|177:299|193:272,1,62.9999980773926,2|0,0:0|0:0,0:0:0:0:
256,167,126351,2,0,L|266:239,1,62.9999980773926,2|0,0:0|0:0,0:0:0:0:
328,314,126661,2,0,B|386:292|363:334|446:298,1,94.499997116089,2|0,0:0|0:0,0:0:0:0:
445,298,126970,6,0,P|478:246|432:187,1,125.999996154785,2|0,0:0|0:0,0:0:0:0:
399,136,127434,1,2,0:0:0:0:
399,136,127588,2,0,P|361:153|337:158,1,62.9999980773926
276,220,127898,2,0,P|238:203|214:198,1,62.9999980773926,2|0,0:0|0:0,0:0:0:0:
106,148,128207,2,0,P|136:140|164:126,2,62.9999980773926,2|0|2,0:0|0:0|0:0,0:0:0:0:
4,108,128671,1,0,0:0:0:0:
4,108,128826,6,0,P|32:175|40:245,1,125.999996154785,2|0,0:0|0:0,0:0:0:0:
13,329,129289,2,0,P|50:301|87:305,1,62.9999980773926,2|0,0:0|0:0,0:0:0:0:
134,238,129599,2,0,P|164:245|186:267,1,62.9999980773926,0|2,0:0|0:0,0:0:0:0:
250,371,129908,1,2,0:0:0:0:
250,371,129985,1,2,0:0:0:0:
250,371,130063,2,0,L|265:288,1,62.9999980773926,2|2,0:0|0:0,0:0:0:0:
360,265,130372,2,0,L|339:142,1,94.499997116089,2|0,0:0|0:0,0:0:0:0:
349,147,130681,6,0,B|324:152|271:153|246:102|246:78|246:78|271:104|316:100,1,188.999994232178,2|0,0:0|0:0,0:0:0:0:
354,5,131300,2,0,P|310:12|300:28,1,62.9999980773926,2|0,0:0|0:0,0:0:0:0:
146,38,131609,2,0,P|219:40|248:106,1,125.999996154785,2|0,0:0|0:0,0:0:0:0:
189,153,132073,1,0,0:0:0:0:
189,153,132228,2,0,P|201:189|209:226,1,62.9999980773926,2|0,0:0|0:0,0:0:0:0:
310,224,132537,6,0,B|281:253|267:315|288:348|288:348|295:309|330:293,1,188.999994232178,2|0,0:0|0:0,0:0:0:0:
387,328,133155,2,0,P|354:295|318:296,1,62.9999980773926,2|0,0:0|0:0,0:0:0:0:
165,339,133465,2,0,P|234:354|266:304,1,125.999996154785,2|0,0:0|0:0,0:0:0:0:
262,219,133929,2,0,P|232:229|214:254,1,62.9999980773926,0|2,0:0|0:0,0:0:0:0:
214,254,134393,6,0,L|198:109,1,125.999996154785,2|0,0:0|0:0,0:0:0:0:
133,76,134856,1,0,0:0:0:0:
133,76,135011,2,0,P|179:47|204:50,1,62.9999980773926,2|0,0:0|0:0,0:0:0:0:
255,1,135320,2,0,P|311:21|311:105,1,125.999996154785
364,157,135784,1,0,0:0:0:0:
364,157,135939,2,0,P|333:193|316:194,1,62.9999980773926
242,241,136248,2,0,P|172:217|105:210,1,125.999996154785
120,210,136867,6,0,P|83:237|83:273,1,62.9999980773926,2|0,0:0|0:0,0:0:0:0:
59,334,137176,2,0,P|100:353|132:335,1,62.9999980773926,2|0,0:0|0:0,0:0:0:0:
205,358,137485,6,0,P|277:341|324:336,1,105,2|0,0:0|0:0,0:0:0:0:
326,318,137795,2,0,P|360:325|395:327,1,70,2|0,0:0|0:0,0:0:0:0:
495,286,138104,6,0,P|485:202|375:198,1,188.999994232178,2|0,0:0|0:0,0:0:0:0:
335,242,138722,2,0,P|273:227|266:222,1,62.9999980773926,2|0,0:0|0:0,0:0:0:0:
207,145,139032,2,0,B|156:132|118:172|118:172|153:182,1,125.999996154785
183,288,139496,1,0,0:0:0:0:
183,288,139650,2,0,P|195:245|205:221,1,62.9999980773926,2|0,0:0|0:0,0:0:0:0:
91,361,139960,6,0,P|83:330|43:232,1,125.999996154785,2|0,0:0|0:0,0:0:0:0:
163,119,140423,2,0,P|151:148|144:178,1,62.9999980773926,0|2,0:0|0:0,0:0:0:0:
15,92,140733,1,0,0:0:0:0:
15,92,140887,2,0,P|46:37|121:44,1,125.999996154785,2|0,0:0|0:0,0:0:0:0:
163,119,141351,1,0,0:0:0:0:
163,119,141506,2,0,L|247:100,1,62.9999980773926,2|0,0:0|0:0,0:0:0:0:
294,25,141815,6,0,L|426:44,1,125.999996154785,2|0,0:0|0:0,0:0:0:0:
364,176,142279,1,0,0:0:0:0:
364,176,142434,2,0,P|351:120|348:98,1,62.9999980773926,2|0,0:0|0:0,0:0:0:0:
483,185,142743,2,0,P|495:248|434:294,1,125.999996154785,2|0,0:0|0:0,0:0:0:0:
367,255,143207,1,0,0:0:0:0:
367,255,143362,2,0,L|288:269,1,62.9999980773926,2|0,0:0|0:0,0:0:0:0:
255,352,143671,6,0,L|125:321,1,125.999996154785,2|0,0:0|0:0,0:0:0:0:
48,329,144135,1,0,0:0:0:0:
115,252,144289,2,0,P|96:206|87:168,1,62.9999980773926,0|2,0:0|0:0,0:0:0:0:
65,51,144599,2,0,P|55:80|42:109,1,62.9999980773926,2|0,0:0|0:0,0:0:0:0:
3,175,144908,1,8,0:2:0:0:
167,109,145063,5,8,0:0:0:0:
115,252,145217,1,2,0:0:0:0:
104,158,145372,1,8,0:2:0:0:
195,271,145527,6,0,L|353:246,1,146.999995513916,14|0,0:2|0:0,0:0:0:0:
409,302,145990,1,8,0:2:0:0:
349,172,146145,2,0,P|362:118|370:94,1,73.4999977569581,10|0,0:0|0:0,0:0:0:0:
488,8,146454,6,0,P|458:30|427:49,1,73.4999977569581,10|0,0:0|3:0,0:0:0:0:
427,49,146686,1,0,3:0:0:0:
427,49,146764,1,0,3:0:0:0:
322,10,146918,1,8,0:2:0:0:
260,127,147073,2,0,P|210:114|161:113,1,73.4999977569581,10|0,0:0|0:0,0:0:0:0:
39,167,147382,6,0,L|56:257,1,73.4999977569581,10|0,0:0|0:0,0:0:0:0:
22,321,147691,1,0,0:0:0:0:
202,227,147846,2,0,L|181:342,1,110.249996635437,8|0,0:2|0:0,0:0:0:0:
182,335,148155,1,8,0:2:0:0:
147,175,148310,6,0,P|207:150|239:162,1,73.4999977569581,10|0,0:0|3:0,0:0:0:0:
280,219,148542,1,0,3:0:0:0:
280,219,148619,2,0,P|314:208|328:199,1,36.749998878479,10|0,3:2|3:0,3:0:0:0:
452,191,148774,2,0,P|434:185|418:177,1,36.749998878479,8|0,3:1|3:0,3:0:0:0:
327,67,148929,1,10,3:2:0:0:
327,67,149006,1,0,0:0:0:0:
327,67,149083,2,0,P|339:106|341:132,1,36.749998878479
344,177,149238,6,0,L|247:163,1,73.4999977569581,10|0,0:0|0:0,0:0:0:0:
155,48,149547,2,0,L|252:34,1,73.4999977569581,8|8,0:2|0:0,0:0:0:0:
111,207,149856,2,0,L|38:196,1,73.4999977569581,2|8,0:0|0:2,0:0:0:0:
271,166,150166,6,0,P|301:216|296:251,1,73.4999977569581,10|0,0:0|3:0,0:0:0:0:
301,229,150398,1,0,3:0:0:0:
301,229,150475,1,8,3:2:0:0:
227,308,150630,1,8,0:0:0:0:
359,362,150784,2,0,P|424:348|448:350,1,73.4999977569581,2|8,0:0|3:2,0:0:0:0:
227,308,151094,6,0,P|192:319|155:321,1,73.4999977569581,10|0,3:1|0:0,0:0:0:0:
66,255,151403,1,8,0:2:0:0:
171,108,151557,2,0,L|162:198,1,73.4999977569581,8|0,0:0|0:0,0:0:0:0:
209,289,151867,1,8,0:2:0:0:
283,140,152021,5,10,0:0:0:0:
209,289,152176,1,0,0:0:0:0:
163,181,152331,1,10,0:2:0:0:
307,277,152485,1,8,0:0:0:0:
407,199,152640,2,0,P|455:218|469:242,1,73.4999977569581,10|8,3:2|3:2,0:0:0:0:
326,384,152949,6,0,B|314:339|314:339|319:324|319:324|305:266,1,110.249996635437,10|0,0:2|0:0,0:0:0:0:
307,277,153259,1,10,0:2:0:0:
167,260,153413,2,0,L|186:161,1,73.4999977569581,8|0,0:0|0:0,0:0:0:0:
197,106,153722,1,8,0:2:0:0:
273,202,153877,5,10,0:0:0:0:
87,181,154032,1,0,3:0:0:0:
87,181,154109,1,0,3:0:0:0:
87,181,154186,1,10,3:2:0:0:
213,100,154341,1,8,0:0:0:0:
45,0,154496,2,0,L|59:77,1,73.4999977569581,10|0,0:2|0:0,0:0:0:0:
213,100,154805,6,0,L|199:177,1,73.4999977569581,10|0,0:0|0:0,0:0:0:0:
182,249,155114,1,0,0:0:0:0:
44,203,155269,2,0,L|58:280,1,73.4999977569581,10|8,0:0|0:2,0:0:0:0:
75,352,155578,1,0,0:0:0:0:
182,249,155733,6,0,B|245:259|245:259|264:281|264:281|343:294,1,146.999995513916,10|8,0:0|0:2,0:0:0:0:
398,316,156119,1,0,0:0:0:0:
397,315,156197,2,0,P|415:312|431:302,1,36.749998878479,10|0,0:2|0:0,0:0:0:0:
424,218,156351,1,8,3:1:0:0:
418,190,156428,1,0,3:0:0:0:
413,163,156505,1,0,3:0:0:0:
408,136,156582,1,0,3:0:0:0:
403,109,156661,6,0,P|360:56|324:61,1,80.5000015354157,10|0,0:0|0:0,0:0:0:0:
290,104,156891,1,0,0:0:0:0:
290,104,156969,2,0,L|221:86,1,40.2500007677078,8|0,3:2|3:2,3:2:0:0:
210,18,157123,6,0,L|171:28,5,40.2500007677078,10|0|0|0|8|0,0:0|0:0|0:0|0:0|0:2|0:0,0:0:0:0:
103,90,157587,2,0,L|65:79,3,40.2500007677078,8|0|0|0,1:1|1:1|1:1|1:1,0:0:0:0:
178,151,157897,6,0,L|167:217,5,40.2500007677078,8|0|0|0|8|0,0:0|0:0|0:0|0:0|3:1|3:1,0:0:0:0:
58,224,158361,2,0,L|64:263,5,40.2500007677078,8|0|0|0|8|0,0:0|0:0|0:0|0:0|3:2|3:0,0:0:0:0:
5,368,158824,1,8,3:1:0:0:
33,359,158901,1,0,3:0:0:0:
62,350,158978,1,0,3:0:0:0:
91,341,159055,1,0,3:0:0:0:
120,333,159133,5,8,0:2:0:0:
213,363,159288,1,0,0:0:0:0:
272,259,159443,1,0,0:0:0:0:
386,362,159598,2,0,L|405:276,1,80.5000015354157,8|8,0:0|0:2,0:0:0:0:
272,259,159907,1,0,0:0:0:0:
393,165,160062,2,0,P|455:185|499:186,1,80.5000015354157,8|0,0:2|0:0,0:0:0:0:
311,35,160371,6,0,P|249:41|228:83,1,80.5000015354157,8|0,0:2|0:0,0:0:0:0:
161,78,160603,1,0,0:0:0:0:
161,78,160680,2,0,L|175:172,1,80.5000015354157,8|0,0:2|3:0,0:0:0:0:
180,189,160912,1,0,3:0:0:0:
180,189,160989,1,8,3:1:0:0:
290,106,161144,1,8,0:2:0:0:
85,147,161299,2,0,L|44:133,1,40.2500007677078,8|0,3:1|3:0,0:0:0:0:
109,230,161453,2,0,L|63:215,1,40.2500007677078,0|0,3:0|3:0,0:0:0:0:
117,336,161608,6,0,B|139:265|139:265|96:215,1,120.750002303124,8|0,0:0|0:0,0:0:0:0:
70,217,161917,1,8,0:2:0:0:
231,313,162072,6,0,B|278:297|278:297|305:303|305:303|377:280,1,120.750002303124,8|0,0:0|0:0,0:0:0:0:
373,280,162381,1,8,0:2:0:0:
280,383,162536,1,8,3:1:0:0:
303,219,162690,1,0,3:0:0:0:
303,219,162768,1,0,3:0:0:0:
303,219,162845,6,0,L|278:133,1,80.5000015354157,8|0,0:2|0:0,0:0:0:0:
327,58,163154,1,0,0:0:0:0:
190,161,163309,2,0,P|132:139|102:133,1,80.5000015354157,8|8,0:0|0:2,0:0:0:0:
36,192,163618,1,0,3:0:0:0:
36,192,163696,1,0,3:0:0:0:
36,192,163773,2,0,L|45:238,1,40.2500007677078,8|0,3:2|3:0,3:0:0:0:
59,307,163928,2,0,L|66:346,1,40.2500007677078,0|0,3:2|3:0,3:0:0:0:
209,301,164082,6,0,B|206:282|172:249|124:263|124:263|153:293,1,120.750002303124,8|0,0:0|0:0,0:0:0:0:
144,297,164391,1,8,0:2:0:0:
259,384,164546,2,0,P|314:356|403:327,1,120.750002303124,8|0,0:0|0:0,0:0:0:0:
397,338,164855,1,8,0:2:0:0:
461,250,165010,1,8,3:1:0:0:
461,250,165087,1,0,3:0:0:0:
461,250,165165,2,0,P|421:239|400:227,1,40.2500007677078,0|0,3:0|3:0,3:0:0:0:
319,139,165319,6,0,B|339:169|339:169|314:224,1,80.5000015354157,8|0,0:2|0:0,0:0:0:0:
244,267,165629,1,0,0:0:0:0:
157,113,165783,2,0,P|216:82|255:101,1,80.5000015354157,8|8,0:0|0:2,0:0:0:0:
307,122,166092,1,0,0:0:0:0:
146,228,166247,2,0,P|63:200|44:197,1,80.5000015354157,8|8,0:2|3:2,0:0:0:0:
0,323,166479,1,0,3:0:0:0:
0,323,166556,6,0,B|81:293|36:351|148:307,1,120.750002303124,8|0,0:0|0:0,0:0:0:0:
142,305,166866,1,8,0:2:0:0:
271,157,167020,6,0,P|216:186|202:262,1,120.750002303124,8|0,0:0|0:0,0:0:0:0:
203,259,167330,1,8,0:2:0:0:
301,362,167484,2,0,L|281:249,1,80.5000015354157,8|0,0:0|3:0,0:0:0:0:
286,258,167716,1,0,3:0:0:0:
286,258,167794,5,8,3:2:0:0:
194,351,167948,1,0,0:0:0:0:
371,277,168103,1,0,0:0:0:0:
219,146,168257,2,0,L|204:225,1,80.5000015354157,8|8,0:0|0:2,0:0:0:0:
348,124,168567,1,0,3:0:0:0:
348,124,168644,1,0,3:0:0:0:
348,124,168721,2,0,L|298:111,1,40.2500007677078,8|0,3:2|3:0,3:0:0:0:
232,57,168876,2,0,L|193:67,1,40.2500007677078,0|0,3:2|3:0,3:0:0:0:
132,149,169031,6,0,B|56:105|56:105|104:95,1,120.750002303124,8|0,0:0|0:0,0:0:0:0:
111,95,169340,1,8,0:2:0:0:
136,256,169495,6,0,B|169:239|192:240|192:240|236:259|283:226,1,120.750002303124,8|0,0:0|0:0,0:0:0:0:
279,234,169804,1,8,0:2:0:0:
193,322,169958,1,8,3:1:0:0:
193,322,170036,1,0,3:0:0:0:
193,322,170113,2,0,L|204:371,1,40.2500007677078,0|0,3:0|3:0,3:0:0:0:
225,172,170268,6,0,L|216:132,2,40.2500007677078,8|0|0,0:2|0:0|0:0,0:0:0:0:
325,262,170577,1,0,0:0:0:0:
159,223,170732,1,8,3:1:0:0:
325,128,170886,1,8,0:2:0:0:
237,246,171041,1,0,0:0:0:0:
368,334,171196,2,0,P|425:324|456:324,1,80.5000015354157,8|0,3:2|3:2,3:0:0:0:
457,337,171428,1,0,3:0:0:0:
457,337,171505,6,0,B|472:307|472:307|469:261,1,66.4999982242585,10|2,0:0|0:0,0:0:0:0:
403,208,171814,1,2,0:0:0:0:
229,356,171969,6,0,B|187:280|187:280|200:238|235:229,1,161.000003070831,12|0,0:2|0:0,0:0:0:0:
403,208,172433,2,0,P|343:172|339:150,1,80.5000015354157,8|0,0:2|3:0,0:0:0:0:
270,29,172665,1,0,3:0:0:0:
270,29,172742,6,0,L|257:124,1,80.5000015354157,8|0,0:2|0:0,0:0:0:0:
343,86,173051,1,0,0:0:0:0:
144,122,173206,2,0,L|157:217,1,80.5000015354157,8|0,0:0|3:0,0:0:0:0:
263,237,173438,1,0,3:0:0:0:
263,237,173515,2,0,P|237:221|206:223,1,40.2500007677078,8|0,3:2|3:0,3:0:0:0:
143,304,173670,2,0,P|210:299|225:269,1,80.5000015354157,8|0,0:0|3:0,0:0:0:0:
332,192,173902,1,0,3:0:0:0:
332,192,173979,6,0,L|438:214,1,80.5000015354157,8|0,3:2|0:0,0:0:0:0:
493,161,174288,1,8,0:2:0:0:
367,318,174443,2,0,L|358:261,2,40.2500007677078,8|0|0,3:1|3:0|3:0,0:0:0:0:
493,161,174752,2,0,L|486:200,1,40.2500007677078,8|0,0:2|0:0,0:0:0:0:
332,192,174907,1,8,3:1:0:0:
336,162,174984,1,0,3:0:0:0:
341,132,175061,1,0,3:0:0:0:
346,102,175138,1,0,3:0:0:0:
350,72,175216,6,0,P|391:69|414:69,1,40.2500007677078,8|0,0:2|0:0,0:0:0:0:
257,207,175371,2,0,P|236:205|216:204,2,40.2500007677078,8|0|0,3:1|3:0|3:0,3:0:0:0:
367,267,175680,1,8,0:2:0:0:
235,368,175835,2,0,B|214:319|214:319|228:273,1,80.5000015354157,8|0,0:0|3:0,0:0:0:0:
199,151,176067,1,0,3:0:0:0:
199,151,176144,2,0,L|167:247,1,80.5000015354157,8|0,3:2|0:0,0:0:0:0:
13,270,176453,6,0,P|48:234|106:242,1,80.5000015354157
285,208,176763,1,8,3:2:0:0:
119,89,176917,1,8,3:1:0:0:
173,227,177072,1,0,3:0:0:0:
290,87,177227,2,0,P|241:49|203:65,1,80.5000015354157,0|8,0:0|0:0,0:0:0:0:
285,208,177536,1,0,3:0:0:0:
285,208,177613,1,0,3:0:0:0:
285,208,177690,6,0,L|357:197,1,40.2500007677078,8|0,3:2|0:0,0:0:0:0:
466,132,177845,2,0,P|425:97|388:109,1,80.5000015354157,8|0,0:0|0:0,0:0:0:0:
442,312,178154,1,8,0:2:0:0:
442,312,178231,1,0,0:0:0:0:
442,312,178309,6,0,L|459:213,1,80.5000015354157,8|0,0:0|3:0,0:0:0:0:
324,201,178541,1,0,3:0:0:0:
324,201,178618,2,0,L|336:272,1,40.2500007677078,8|0,3:2|0:0,0:0:0:0:
395,139,178773,2,0,L|402:100,1,40.2500007677078,8|0,3:1|3:0,0:0:0:0:
244,21,178928,6,0,P|204:24|176:60,1,80.5000015354157,8|0,3:2|0:0,0:0:0:0:
157,244,179237,1,8,0:0:0:0:
240,92,179391,1,8,0:2:0:0:
69,195,179546,1,0,0:0:0:0:
291,158,179701,1,8,0:0:0:0:
78,26,179855,6,0,P|98:102|103:139,1,80.5000015354157,8|0,0:2|3:0,0:0:0:0:
291,158,180165,1,8,3:1:0:0:
291,158,180242,1,0,0:0:0:0:
291,158,180319,6,0,P|271:234|266:271,1,80.5000015354157,8|0,0:2|0:0,0:0:0:0:
48,275,180629,1,8,0:0:0:0:
48,275,180706,1,0,0:0:0:0:
48,275,180783,6,0,B|90:255|90:255|145:273,1,80.5000015354157,8|0,3:2|3:0,0:0:0:0:
182,329,181015,1,0,3:0:0:0:
182,329,181092,2,0,L|234:319,1,40.2500007677078,10|0,3:1|3:0,0:0:0:0:
270,235,181247,2,0,L|309:242,1,40.2500007677078,8|8,3:1|3:1,0:0:0:0:
433,360,181402,6,0,P|464:312|455:257,1,115.50000352478,14|0,0:2|0:0,0:0:0:0:
467,229,181711,2,0,P|433:209|395:206,1,77.0000023498536,8|2,0:0|0:0,0:0:0:0:
270,235,182020,2,0,P|303:215|324:184,1,77.0000023498536
349,24,182330,1,10,0:0:0:0:
416,134,182484,1,0,0:0:0:0:
263,68,182639,6,0,P|206:58|148:57,1,115.50000352478,8|0,0:2|0:0,0:0:0:0:
124,80,182948,2,0,L|130:156,1,77.0000023498536,10|0,0:0|0:0,0:0:0:0:
143,283,183257,1,0,0:0:0:0:
143,283,183412,1,0,0:0:0:0:
34,153,183567,2,0,L|24:268,1,115.50000352478,10|0,0:0|0:0,0:0:0:0:
3,291,183876,6,0,P|40:297|64:326,1,77.0000023498536,10|0,0:2|0:0,0:0:0:0:
263,339,184185,2,0,P|225:345|201:374,1,77.0000023498536,10|0,0:0|0:0,0:0:0:0:
189,216,184495,2,0,P|226:223|265:226,1,77.0000023498536
339,84,184804,1,10,0:0:0:0:
247,144,184958,1,0,0:0:0:0:
419,215,185113,6,0,B|397:142|397:142|417:107,1,115.50000352478,8|0,0:2|0:0,0:0:0:0:
441,90,185422,2,0,L|518:98,1,77.0000023498536,10|0,0:0|0:0,0:0:0:0:
390,9,185732,1,0,0:0:0:0:
390,9,185886,1,0,0:0:0:0:
493,191,186041,2,0,P|492:247|452:290,1,115.50000352478,10|0,0:0|0:0,0:0:0:0:
443,317,186350,6,0,B|398:280|343:312|357:317|325:330|293:317,1,154.000004699707,10|8,0:2|0:0,0:0:0:0:
177,255,186814,1,0,0:0:0:0:
294,226,186969,1,2,0:0:0:0:
294,226,187123,1,0,0:0:0:0:
182,362,187278,2,0,P|145:354|103:350,1,77.0000023498536,8|0,0:0|0:0,0:0:0:0:
6,172,187587,6,0,P|63:168|120:159,1,115.50000352478,10|0,0:2|0:0,0:0:0:0:
150,170,187897,2,0,L|156:93,1,77.0000023498536,8|0,0:0|0:0,0:0:0:0:
70,11,188206,1,2,0:0:0:0:
70,11,188361,1,0,0:0:0:0:
248,119,188515,2,0,L|242:42,1,77.0000023498536,10|0,0:0|0:0,0:0:0:0:
374,135,188824,5,10,0:2:0:0:
393,36,188979,1,8,3:2:0:0:
393,36,189056,1,0,3:0:0:0:
393,36,189134,1,0,3:0:0:0:
476,204,189288,2,0,P|440:218|403:211,1,77.0000023498536,8|0,0:2|0:0,0:0:0:0:
305,260,189598,1,0,0:0:0:0:
476,316,189752,2,0,P|440:301|403:308,1,77.0000023498536,8|0,0:0|0:0,0:0:0:0:
271,380,190062,5,8,0:2:0:0:
205,262,190216,2,0,B|208:226|208:226|214:222|214:222|217:187,1,77.0000023498536,8|0,3:1|3:0,0:0:0:0:
387,380,190525,2,0,B|383:344|383:344|377:340|377:340|374:305,1,77.0000023498536,8|0,0:0|0:0,0:0:0:0:
190,350,190835,5,8,0:2:0:0:
116,257,190989,2,0,L|119:297,1,38.5000011749268,8|0,3:1|3:0,0:0:0:0:
42,350,191144,2,0,L|45:310,1,38.5000011749268,2|0,3:1|3:0,3:0:0:0:
1,148,191299,6,0,B|51:154|51:154|66:165|66:165|118:171,1,120.750002303124,10|0,0:2|0:0,0:0:0:0:
144,155,191608,1,10,0:0:0:0:
46,1,191763,2,0,L|50:83,1,80.5000015354157,2|0,0:0|0:0,0:0:0:0:
60,210,192072,1,2,0:0:0:0:
203,77,192227,2,0,P|163:66|122:81,1,80.5000015354157,10|0,0:0|0:0,0:0:0:0:
246,197,192536,6,0,B|284:159|340:171|340:171|357:201|387:210,1,161.000003070831,8|10,0:2|0:0,0:0:0:0:
504,218,193000,1,0,0:0:0:0:
413,138,193154,1,0,0:0:0:0:
413,138,193309,1,0,0:0:0:0:
404,312,193464,2,0,B|443:325|443:325|481:314,1,80.5000015354157,10|0,0:0|0:0,0:0:0:0:
300,373,193773,6,0,P|320:317|289:268,1,120.750002303124,10|0,0:2|0:0,0:0:0:0:
279,238,194082,1,10,0:0:0:0:
157,334,194237,2,0,L|248:327,1,80.5000015354157,2|0,0:0|0:0,0:0:0:0:
81,208,194546,1,2,0:0:0:0:
68,376,194701,2,0,L|75:285,1,80.5000015354157,10|0,0:0|0:0,0:0:0:0:
198,101,195010,6,0,B|154:70|154:70|47:88,1,161.000003070831,8|10,0:2|0:0,0:0:0:0:
136,154,195474,1,0,3:0:0:0:
117,30,195629,1,0,3:0:0:0:
117,30,195783,1,0,0:0:0:0:
248,174,195938,2,0,P|307:161|367:157,1,120.750002303124,10|0,3:1|3:0,0:0:0:0:
393,176,196247,6,0,P|362:106|417:54,1,161.000003070831,10|8,0:2|0:0,0:0:0:0:
468,268,196711,1,0,0:0:0:0:
467,267,196866,2,0,P|427:257|387:254,1,80.5000015354157,2|0,0:0|0:0,0:0:0:0:
257,364,197175,2,0,P|291:383|330:378,1,80.5000015354157,10|0,0:0|0:0,0:0:0:0:
175,226,197484,6,0,B|167:283|167:283|159:286|159:286|152:340,1,120.750002303124,8|0,0:2|3:0,0:0:0:0:
127,359,197794,2,0,P|93:340|54:345,1,80.5000015354157,10|0,3:1|3:0,0:0:0:0:
0,290,198103,1,2,3:1:0:0:
75,181,198257,2,0,P|86:144|74:104,2,80.5000015354157,8|8|0,0:2|3:1|3:0,0:0:0:0:
270,113,198721,5,8,0:2:0:0:
170,120,198876,1,0,3:0:0:0:
213,31,199031,1,0,0:0:0:0:
228,238,199185,5,8,0:0:0:0:
282,127,199340,1,8,0:2:0:0:
157,136,199495,1,0,0:0:0:0:
371,242,199649,5,8,3:2:0:0:
215,254,199804,1,0,0:0:0:0:
303,307,199958,6,0,B|299:337|299:337|301:341|301:341|298:369,2,62.9999980773926,10|2|2,0:0|0:0|0:0,0:0:0:0:
403,165,201196,6,0,P|444:194|450:245,1,104.999996795654,2|0,0:0|0:0,0:0:0:0:
425,331,202123,5,2,0:0:0:0:
425,331,202433,2,0,P|458:324|487:322,1,63
200,291,204598,6,0,P|180:238|209:191,1,115.50000352478,2|0,0:0|0:0,0:0:0:0:
224,208,204907,6,0,B|134:200|134:200|111:176|121:146,1,148.750002837181,2|0,0:0|0:0,0:0:0:0:
205,88,205371,6,0,B|140:85|121:146|121:146|96:90|34:96,1,218.75,2|0,0:0|0:0,0:0:0:0:
115,0,205835,6,0,L|118:76,1,77.0000023498536,2|0,0:0|0:0,0:0:0:0:
414,181,206144,6,0,P|445:127|424:66,1,131.25,14|0,0:2|0:0,0:0:0:0:
434,28,206453,2,0,P|395:9|351:10,1,87.5,8|0,0:0|0:0,0:0:0:0:
273,171,206763,1,0,0:0:0:0:
365,119,206917,1,8,0:2:0:0:
201,63,207072,1,10,0:0:0:0:
298,248,207227,6,0,L|288:160,1,87.5,0|8,0:0|0:2,0:0:0:0:
200,322,207536,1,0,0:0:0:0:
383,296,207690,2,0,L|392:209,1,87.5,8|0,0:0|0:0,0:0:0:0:
200,322,208000,1,0,0:0:0:0:
298,248,208154,1,8,0:2:0:0:
126,194,208309,2,0,P|101:229|106:272,1,87.5,8|0,0:0|0:0,0:0:0:0:
0,106,208618,6,0,B|91:121|91:121|123:99,1,131.25,8|0,0:2|0:0,0:0:0:0:
162,110,208928,2,0,P|157:67|156:19,1,87.5,8|0,0:0|0:0,0:0:0:0:
270,149,209237,1,0,0:0:0:0:
126,194,209391,1,8,0:2:0:0:
268,60,209546,2,0,B|321:66|321:66|342:80|342:80|394:86,1,131.25,10|0,0:0|0:0,0:0:0:0:
434,70,209855,6,0,P|418:116|434:156,1,87.5,10|0,0:2|0:0,0:0:0:0:
244,193,210165,2,0,P|291:183|318:150,1,87.5,10|0,0:0|0:0,0:0:0:0:
446,297,210474,2,0,P|414:260|371:254,1,87.5,2|8,0:0|0:2,0:0:0:0:
246,378,210783,1,10,3:1:0:0:
379,331,210938,1,0,3:0:0:0:
222,285,211092,6,0,B|208:328|208:328|223:367,1,87.5,10|0,0:2|0:0,0:0:0:0:
377,253,211402,2,0,B|391:210|391:210|375:170,1,87.5,10|0,0:0|0:0,0:0:0:0:
288,80,211711,2,0,L|193:88,1,87.5,2|8,3:1|0:2,0:0:0:0:
53,219,212020,2,0,L|148:227,1,87.5,10|0,0:0|3:0,0:0:0:0:
123,28,212330,5,10,3:2:0:0:
13,112,212484,1,0,0:0:0:0:
159,201,212639,2,0,P|202:193|245:190,1,87.5,10|0,0:0|3:0,0:0:0:0:
392,109,212948,2,0,P|346:65|286:81,1,131.25,2|0,3:1|0:0,0:0:0:0:
257,111,213257,2,0,P|213:103|170:100,1,87.5,10|0,0:0|0:0,0:0:0:0:
418,239,213567,5,10,0:2:0:0:
402,123,213721,1,0,0:0:0:0:
501,291,213876,2,0,P|472:319|426:318,1,87.5,8|0,0:0|0:0,0:0:0:0:
313,208,214185,2,0,L|324:315,1,87.5,0|8,0:0|3:2,0:0:0:0:
113,345,214495,2,0,P|131:284|192:270,1,131.25,10|0,3:1|0:0,0:0:0:0:
224,298,214804,6,0,L|235:389,1,87.5,10|0,0:2|0:0,0:0:0:0:
44,228,215113,2,0,L|33:319,1,87.5,10|0,0:0|0:0,0:0:0:0:
158,141,215422,2,0,L|169:232,1,87.5,2|8,0:0|3:2,0:0:0:0:
26,88,215732,1,10,3:1:0:0:
36,69,215809,1,0,0:0:0:0:
52,54,215886,1,0,3:0:0:0:
72,44,215963,1,0,3:0:0:0:
94,41,216041,6,0,B|166:49|166:49|195:72|195:72|260:80,1,175,10|8,0:2|0:0,0:0:0:0:
406,92,216505,1,2,0:0:0:0:
258,0,216660,1,0,0:0:0:0:
321,192,216814,1,8,0:2:0:0:
476,10,216969,1,10,0:0:0:0:
490,210,217123,6,0,P|445:200|398:197,1,87.5,0|8,0:0|0:2,0:0:0:0:
290,259,217433,1,0,0:0:0:0:
435,365,217587,2,0,P|445:320|448:273,1,87.5,8|0,0:0|3:0,0:0:0:0:
311,370,217897,2,0,P|269:383|227:372,1,87.5,2|0,3:1|0:0,0:0:0:0:
119,235,218206,1,10,0:0:0:0:
90,356,218361,1,0,0:0:0:0:
61,186,218515,5,10,0:2:0:0:
160,310,218670,1,0,0:0:0:0:
152,104,218824,2,0,P|87:96|17:84,1,131.25,8|0,0:0|0:0,0:0:0:0:
0,53,219134,2,0,P|29:22|72:16,1,87.5,0|8,0:0|0:2,0:0:0:0:
252,83,219443,6,0,B|246:125|246:125|242:129|242:129|237:167,1,87.5,10|0,3:1|3:0,0:0:0:0:
417,98,219752,2,0,B|382:72|382:72|381:66|381:66|350:43,1,87.5,10|0,0:2|0:0,0:0:0:0:
322,234,220062,2,0,B|361:217|361:217|366:219|366:219|402:204,1,87.5,10|0,0:0|0:0,0:0:0:0:
215,280,220371,5,2,0:0:0:0:
438,338,220525,1,8,3:2:0:0:
287,383,220680,2,0,B|274:346|274:346|290:301,1,87.5,10|0,0:0|0:0,0:0:0:0:
50,195,220989,6,0,B|154:166|154:166|197:188,1,157.500006008148,10|0,0:2|0:0,0:0:0:0:
212,212,221299,1,8,0:2:0:0:
94,40,221453,2,0,B|198:69|198:69|241:46,1,157.500006008148,10|0,0:0|0:0,0:0:0:0:
256,23,221763,1,8,0:2:0:0:
483,98,221917,2,0,P|431:102|380:113,1,105.000004005432,10|0,0:0|0:0,0:0:0:0:
417,362,222227,5,10,0:2:0:0:
439,186,222381,2,0,B|430:253|430:253|413:269|413:269|405:337,1,157.500006008148,8|0,0:0|0:0,0:0:0:0:
417,362,222690,1,10,0:2:0:0:
208,307,222845,5,8,0:0:0:0:
360,214,223000,1,0,0:0:0:0:
145,255,223154,2,0,P|127:308|146:361,1,105.000004005432,10|8,0:2|0:0,0:0:0:0:
206,191,223464,6,0,L|212:145,3,43.75,10|0|0|0,3:2|3:0|3:0|3:0,3:0:0:0:
114,102,223773,2,0,L|119:145,3,43.75,0|0|8|0,3:0|3:0|3:2|3:0,0:0:0:0:
56,46,224082,5,8,3:1:0:0:
83,26,224159,1,0,0:0:0:0:
115,19,224236,1,8,0:2:0:0:
147,25,224313,1,0,0:0:0:0:
174,44,224391,1,2,0:0:0:0:
202,62,224469,1,0,0:0:0:0:
234,68,224546,1,8,0:2:0:0:
265,61,224623,1,0,0:0:0:0:
292,42,224700,5,10,0:0:0:0:
206,191,224855,1,0,0:0:0:0:
379,191,225010,1,8,0:2:0:0:
379,191,225087,1,0,0:0:0:0:
379,191,225165,2,0,L|286:197,1,87.5,10|0,0:0|0:0,0:0:0:0:
465,42,225474,1,8,3:2:0:0:
509,153,225629,1,10,3:1:0:0:
507,174,225706,1,0,3:0:0:0:
506,196,225783,1,8,3:2:0:0:
504,218,225860,1,8,3:1:0:0:
503,240,225938,6,0,L|513:370,1,131.25,14|0,0:2|0:0,0:0:0:0:
475,341,226247,2,0,P|435:323|391:324,1,87.5,8|0,0:0|0:0,0:0:0:0:
270,377,226556,1,0,0:0:0:0:
346,250,226711,1,8,0:2:0:0:
151,290,226866,1,10,0:0:0:0:
326,151,227020,6,0,P|333:204|336:241,1,87.5,0|10,0:0|0:2,0:0:0:0:
193,121,227330,1,0,0:0:0:0:
325,61,227484,2,0,P|374:81|407:97,1,87.5,8|0,0:0|0:0,0:0:0:0:
193,121,227794,1,0,0:0:0:0:
251,2,227948,1,10,0:2:0:0:
263,209,228103,1,10,0:0:0:0:
106,160,228257,1,2,0:0:0:0:
130,303,228412,6,0,B|152:240|152:240|130:179,1,131.25,10|0,0:2|0:0,0:0:0:0:
106,160,228721,2,0,P|59:170|15:171,1,87.5,8|0,0:0|0:0,0:0:0:0:
140,14,229031,2,0,P|183:15|226:25,1,87.5,0|8,0:0|0:2,0:0:0:0:
283,195,229340,1,10,0:0:0:0:
167,108,229495,1,0,0:0:0:0:
315,35,229649,6,0,L|402:44,1,87.5,10|0,0:2|0:0,0:0:0:0:
377,205,229958,2,0,L|341:125,1,87.5,10|0,0:0|0:0,0:0:0:0:
493,66,230268,2,0,L|441:136,1,87.5,2|8,0:0|3:2,0:0:0:0:
310,278,230577,1,10,3:1:0:0:
464,218,230732,1,2,0:0:0:0:
354,355,230886,6,0,P|309:327|301:292,1,87.5,8|0,0:2|0:0,0:0:0:0:
130,322,231196,2,0,P|163:268|141:208,1,131.25,10|0,0:0|0:0,0:0:0:0:
141,173,231505,2,0,P|104:149|60:153,1,87.5,2|8,0:0|0:2,0:0:0:0:
37,345,231814,2,0,L|125:330,1,87.5,10|0,0:0|0:0,0:0:0:0:
216,183,232123,5,10,0:2:0:0:
87,260,232278,1,0,0:0:0:0:
133,71,232433,2,0,P|169:47|213:51,1,87.5,10|0,0:0|0:0,0:0:0:0:
336,178,232742,2,0,B|313:144|330:108|335:122|353:83|327:47,1,131.25,10|0,3:2|0:0,0:0:0:0:
350,17,233051,2,0,P|391:6|437:2,1,87.5,10|0,3:1|0:0,0:0:0:0:
447,210,233361,5,8,0:2:0:0:
415,77,233515,1,0,0:0:0:0:
378,251,233670,2,0,B|413:283|413:283|452:288,1,87.5,10|0,0:0|0:0,0:0:0:0:
339,320,233979,1,0,0:0:0:0:
447,210,234134,1,8,0:2:0:0:
491,384,234288,1,8,0:0:0:0:
298,252,234443,6,0,B|250:210|189:242|189:242|182:274|157:291,1,175,8|8,0:2|0:2,0:0:0:0:
6,366,234907,2,0,P|26:316|12:281,1,87.5,10|0,0:0|0:0,0:0:0:0:
150,112,235216,1,2,0:0:0:0:
114,228,235370,1,8,0:2:0:0:
61,70,235525,2,0,P|94:27|131:22,1,87.5,10|0,3:1|3:0,0:0:0:0:
290,110,235835,6,0,B|344:138|344:138|455:112,1,175,14|8,0:2|0:0,0:0:0:0:
356,56,236299,1,0,0:0:0:0:
335,217,236453,1,2,0:0:0:0:
219,152,236608,1,8,0:2:0:0:
257,336,236763,1,8,0:0:0:0:
343,227,236917,5,0,0:0:0:0:
171,262,237072,2,0,P|117:254|94:226,1,87.5,10|0,0:2|0:0,0:0:0:0:
73,47,237381,2,0,P|116:36|169:35,1,87.5,10|0,0:0|0:0,0:0:0:0:
27,182,237690,2,0,P|6:131|19:98,1,87.5,2|8,0:0|3:2,0:0:0:0:
247,38,238000,6,0,L|240:133,1,87.5,10|0,3:1|0:0,0:0:0:0:
286,192,238232,1,0,0:0:0:0:
286,192,238309,2,0,P|329:181|382:180,1,87.5,10|0,0:2|0:0,0:0:0:0:
504,320,238618,2,0,P|444:295|380:284,1,131.25,10|0,0:0|0:0,0:0:0:0:
342,303,238928,2,0,B|325:345|325:345|339:384,1,87.5,2|8,0:0|0:2,0:0:0:0:
477,227,239237,2,0,B|500:144|500:144|478:104,1,131.25,10|0,0:0|0:0,0:0:0:0:
489,67,239546,6,0,P|416:100|377:30,1,175,10|8,0:2|0:0,0:0:0:0:
286,192,240010,1,0,0:0:0:0:
233,91,240165,2,0,P|188:77|137:100,1,87.5,2|8,0:0|0:2,0:0:0:0:
50,227,240474,2,0,L|56:314,1,87.5,10|0,0:0|3:0,0:0:0:0:
190,152,240783,6,0,B|184:236|184:236|187:239|187:239|181:323,1,175,10|8,3:2|0:0,0:0:0:0:
80,143,241247,1,0,0:0:0:0:
218,68,241402,2,0,L|310:74,1,87.5,2|8,0:0|0:2,0:0:0:0:
491,84,241711,1,10,0:0:0:0:
345,9,241866,1,0,0:0:0:0:
431,247,242020,6,0,P|470:262|512:251,1,87.5,8|0,0:0|0:0,0:0:0:0:
386,78,242330,2,0,P|346:62|304:73,1,87.5,10|0,0:0|0:0,0:0:0:0:
267,290,242639,1,8,0:0:0:0:
341,138,242794,1,8,0:2:0:0:
383,363,242948,1,8,3:1:0:0:
282,198,243103,1,0,3:0:0:0:
282,198,243180,1,0,3:0:0:0:
282,198,243257,2,0,L|185:209,1,87.5,8|8,0:0|0:2,0:0:0:0:
4,236,243567,5,8,0:0:0:0:
140,352,243721,2,0,B|197:285|138:214|138:214|156:239|150:268,1,210.000008010865,8|8,0:2|0:2,0:0:0:0:
19,384,244185,1,10,0:0:0:0:
16,347,244263,1,0,0:0:0:0:
13,310,244340,1,8,0:2:0:0:
10,273,244417,1,0,0:0:0:0:
4,236,244495,1,2,0:0:0:0:
4,236,245500,1,0,0:0:0:0:
12,229,245577,2,0,L|16:172,1,52.5000020027161,0|0,3:0|3:0,0:0:0:0:
98,82,245732,6,0,P|114:37|94:0,1,87.5,14|0,0:2|0:0,0:0:0:0:
175,179,246041,2,0,B|212:137|276:132|276:132|296:168|355:173,1,175,8|0,0:0|0:0,0:0:0:0:
323,167,246505,1,8,0:2:0:0:
491,87,246660,1,8,0:0:0:0:
391,21,246814,6,0,P|407:116|421:210,1,175
313,265,247278,2,0,P|266:250|221:267,1,87.5,8|0,0:0|0:0,0:0:0:0:
408,291,247587,1,0,0:0:0:0:
323,167,247742,1,8,0:2:0:0:
217,289,247897,2,0,L|231:375,1,87.5,8|0,0:0|0:0,0:0:0:0:
148,217,248206,6,0,P|82:165|3:193,2,175,8|8|0,0:2|0:0|0:0,0:0:0:0:
148,217,248979,1,8,0:2:0:0:
306,124,249134,1,8,0:0:0:0:
215,91,249288,6,0,L|228:178,1,87.5,0|8,0:0|0:2,0:0:0:0:
136,58,249598,1,0,0:0:0:0:
306,124,249752,2,0,P|349:130|392:137,1,87.5,8|0,0:0|0:0,0:0:0:0:
479,98,250062,2,0,P|495:54|473:13,1,87.5,0|8,0:0|0:2,0:0:0:0:
505,173,250371,1,8,0:0:0:0:
381,248,250525,6,0,B|251:220|251:220|204:253,1,175
122,144,250989,2,0,P|129:102|137:49,1,87.5,8|0,0:0|0:0,0:0:0:0:
221,122,251299,1,0,0:0:0:0:
61,219,251453,1,8,0:2:0:0:
226,310,251608,2,0,L|312:296,1,87.5,8|0,0:0|0:0,0:0:0:0:
438,185,251917,6,0,P|445:134|413:92,1,87.5
510,297,252227,1,8,0:0:0:0:
338,197,252381,2,0,B|274:186|274:186|222:211|222:211|143:198,1,175,0|8,0:0|0:2,0:0:0:0:
8,251,252845,2,0,P|0:293|17:332,1,87.5,8|0,0:0|0:0,0:0:0:0:
72,172,253154,6,0,P|65:122|54:61,1,87.5,8|0,0:2|0:0,0:0:0:0:
164,213,253464,2,0,P|156:256|151:299,1,87.5,8|0,0:0|0:0,0:0:0:0:
227,134,253773,2,0,P|265:115|308:120,1,87.5,0|8,0:0|0:2,0:0:0:0:
137,92,254082,1,10,0:0:0:0:
276,195,254237,1,0,0:0:0:0:
403,45,254391,6,0,P|391:123|375:218,1,175,10|8,0:2|0:0,0:0:0:0:
461,355,254855,2,0,P|388:299|302:343,1,175,2|8,0:0|3:2,0:0:0:0:
178,251,255319,2,0,L|193:156,1,87.5,10|0,0:0|0:0,0:0:0:0:
83,68,255629,6,0,P|29:54|-22:77,1,87.5,12|0,0:2|0:0,0:0:0:0:
162,6,255938,1,10,0:0:0:0:
36,139,256092,2,0,L|51:233,1,87.5
0,318,256402,1,8,0:2:0:0:
134,183,256556,1,8,0:0:0:0:
134,183,256711,6,0,L|307:210,1,175
380,125,257175,2,0,P|399:83|374:34,1,87.5,8|0,0:0|0:0,0:0:0:0:
426,228,257484,2,0,L|512:241,1,87.5,0|8,0:0|3:2,0:0:0:0:
352,312,257794,2,0,P|297:273|216:307,1,131.25,10|0,3:1|0:0,0:0:0:0:
149,253,258103,6,0,L|162:339,1,87.5,10|0,0:2|0:0,0:0:0:0:
66,229,258412,2,0,B|75:183|79:146|79:146|75:141|75:141|90:50,1,175,8|0,0:0|0:0,0:0:0:0:
89,57,258876,1,8,0:2:0:0:
201,180,259031,2,0,P|261:190|296:163,1,87.5,8|0,0:0|0:0,0:0:0:0:
464,297,259340,6,0,P|395:247|317:277,1,175,8|8,0:2|0:0,0:0:0:0:
241,112,259804,2,0,L|256:17,1,87.5
331,92,260113,1,8,0:2:0:0:
207,199,260268,2,0,L|64:176,1,131.25,8|0,0:0|0:0,0:0:0:0:
3,131,260577,6,0,B|-13:171|-13:171|5:235,1,87.5,8|0,0:2|0:0,0:0:0:0:
111,93,260886,2,0,L|93:-17,1,87.5,8|0,0:0|0:0,0:0:0:0:
220,112,261196,2,0,L|206:198,1,87.5,0|8,0:0|0:2,0:0:0:0:
302,342,261505,1,8,0:0:0:0:
386,313,261660,6,0,P|320:259|239:281,1,175
447,176,262123,2,0,L|460:262,1,87.5,8|0,0:0|0:0,0:0:0:0:
349,166,262433,2,0,L|362:79,1,87.5,0|8,0:0|0:2,0:0:0:0:
273,229,262742,1,8,0:0:0:0:
140,90,262897,1,0,0:0:0:0:
235,61,263051,6,0,L|221:147,1,87.5,8|8,0:2|0:2,0:0:0:0:
120,248,263361,2,0,L|133:334,1,87.5,8|0,3:1|0:0,0:0:0:0:
39,203,263670,1,8,3:1:0:0:
208,278,263824,1,0,0:0:0:0:
39,203,263979,1,8,0:2:0:0:
188,94,264134,6,0,B|225:52|289:47|289:47|309:83|368:88,1,175,8|8,0:0|0:2,0:0:0:0:
435,220,264598,1,8,0:0:0:0:
435,220,264752,2,0,L|417:330,1,87.5,0|2,0:0|0:0,0:0:0:0:
190,288,265062,6,0,L|142:280,1,43.75,8|0,0:2|0:0,0:0:0:0:
296,236,265216,1,8,0:0:0:0:
296,236,265294,1,0,0:0:0:0:
296,236,265371,2,0,L|343:228,1,43.75,0|0,3:0|3:0,0:0:0:0:
210,83,265525,6,0,L|192:193,1,87.5,14|0,0:2|0:0,0:0:0:0:
137,26,265835,1,8,0:0:0:0:
276,150,265989,1,0,0:0:0:0:
122,201,266144,2,0,L|35:187,1,87.5,0|8,0:0|0:2,0:0:0:0:
190,288,266453,1,10,0:0:0:0:
91,107,266608,1,0,0:0:0:0:
0,276,266763,6,0,L|15:370,1,87.5,10|0,0:2|0:0,0:0:0:0:
122,201,267072,2,0,P|215:171|260:210,1,131.25,8|0,0:0|0:0,0:0:0:0:
321,238,267381,2,0,L|336:143,1,87.5,0|8,0:0|0:2,0:0:0:0:
386,297,267690,1,10,0:0:0:0:
238,183,267845,1,0,0:0:0:0:
410,110,268000,6,0,P|472:98|518:116,1,87.5,10|0,0:2|0:0,0:0:0:0:
328,25,268309,2,0,L|314:111,1,87.5,8|0,0:0|0:0,0:0:0:0:
405,216,268618,1,0,0:0:0:0:
314,111,268773,1,8,0:2:0:0:
249,238,268928,2,0,L|262:324,1,87.5,10|0,0:0|0:0,0:0:0:0:
167,186,269237,5,10,0:2:0:0:
338,272,269391,1,0,0:0:0:0:
178,377,269546,2,0,L|91:363,1,87.5,8|0,0:0|3:0,0:0:0:0:
227,278,269855,1,0,3:0:0:0:
167,186,270010,1,8,3:2:0:0:
167,186,270087,1,0,3:0:0:0:
167,186,270165,2,0,L|123:192,1,43.75,10|0,3:1|3:0,3:0:0:0:
259,125,270319,1,0,3:0:0:0:
259,125,270397,1,0,3:0:0:0:
259,125,270474,6,0,P|268:83|242:42,1,87.5,14|0,0:2|0:0,0:0:0:0:
351,185,270783,2,0,L|335:279,1,87.5,8|0,0:0|0:0,0:0:0:0:
423,372,271092,1,0,0:0:0:0:
337,271,271247,1,8,0:2:0:0:
247,362,271402,2,0,P|183:369|149:348,1,87.5,10|0,0:0|0:0,0:0:0:0:
73,268,271711,6,0,L|96:125,1,131.25,10|0,0:2|0:0,0:0:0:0:
141,64,272020,2,0,B|101:48|101:48|37:66,1,87.5,8|0,0:0|0:0,0:0:0:0:
177,218,272330,1,0,0:0:0:0:
93,138,272484,1,8,0:2:0:0:
257,52,272639,2,0,L|351:67,1,87.5,10|0,0:0|0:0,0:0:0:0:
261,206,272948,6,0,L|347:192,1,87.5,10|0,0:2|0:0,0:0:0:0:
443,291,273257,2,0,P|462:345|444:383,1,87.5,8|0,0:0|0:0,0:0:0:0:
466,175,273567,1,0,0:0:0:0:
378,334,273721,1,8,0:2:0:0:
261,206,273876,2,0,L|278:95,1,87.5,10|0,0:0|0:0,0:0:0:0:
144,236,274185,6,0,L|157:322,1,87.5,10|0,0:2|0:0,0:0:0:0:
51,205,274495,1,8,0:0:0:0:
229,282,274649,2,0,P|286:287|316:268,1,87.5,0|0,3:0|3:0,0:0:0:0:
261,206,274958,1,8,0:2:0:0:
157,322,275113,2,0,L|167:385,1,43.75,10|0,3:1|3:0,0:0:0:0:
37,291,275268,1,8,3:2:0:0:
37,291,275345,1,0,3:0:0:0:
37,291,275422,6,0,L|52:196,1,87.5,14|0,0:2|0:0,0:0:0:0:
229,282,275732,2,0,L|215:195,1,87.5,8|0,0:0|0:0,0:0:0:0:
131,146,276041,1,0,0:0:0:0:
311,224,276196,1,8,0:2:0:0:
259,86,276350,2,0,P|251:38|276:-24,1,87.5,10|0,0:0|0:0,0:0:0:0:
131,146,276660,6,0,L|146:240,1,87.5,10|0,0:2|0:0,0:0:0:0:
41,104,276969,1,8,0:0:0:0:
220,182,277123,1,0,0:0:0:0:
86,287,277278,2,0,L|-8:302,1,87.5,0|8,0:0|0:2,0:0:0:0:
178,327,277587,1,10,0:0:0:0:
62,200,277742,1,0,0:0:0:0:
233,95,277897,6,0,L|215:205,1,87.5,10|0,0:2|0:0,0:0:0:0:
325,290,278206,2,0,P|390:296|414:275,1,87.5,8|0,0:0|0:0,0:0:0:0:
271,380,278515,1,0,0:0:0:0:
359,218,278670,1,8,0:2:0:0:
172,300,278824,2,0,L|85:286,1,87.5,10|0,0:0|0:0,0:0:0:0:
244,175,279134,6,0,L|157:161,1,87.5,10|0,0:2|0:0,0:0:0:0:
274,262,279443,1,8,3:1:0:0:
214,96,279598,1,0,3:0:0:0:
337,191,279752,2,0,L|423:177,1,87.5,0|8,0:0|0:2,0:0:0:0:
274,262,280062,1,10,3:1:0:0:
371,108,280216,1,8,3:2:0:0:
475,249,280371,6,0,L|461:335,1,87.5,14|0,0:2|0:0,0:0:0:0:
274,262,280680,2,0,L|287:348,1,87.5,8|0,0:0|0:0,0:0:0:0:
200,182,280989,2,0,L|213:95,1,87.5,0|8,0:0|0:2,0:0:0:0:
131,236,281299,1,10,0:0:0:0:
285,144,281453,1,8,0:2:0:0:
131,76,281608,6,0,L|44:89,1,87.5,10|0,0:2|0:0,0:0:0:0:
240,10,281917,2,0,L|326:23,1,87.5,8|0,0:0|0:0,0:0:0:0:
404,141,282227,2,0,P|414:197|379:240,1,87.5,0|8,0:0|0:2,0:0:0:0:
459,79,282536,1,10,0:0:0:0:
332,176,282690,1,8,0:2:0:0:
473,267,282845,6,0,L|457:361,1,87.5,10|0,0:2|0:0,0:0:0:0:
332,176,283154,2,0,L|347:270,1,87.5,8|0,0:0|0:0,0:0:0:0:
257,132,283464,1,0,0:0:0:0:
413,202,283618,1,8,0:2:0:0:
274,302,283773,2,0,P|222:292|185:304,1,87.5,10|8,0:0|0:2,0:0:0:0:
75,177,284082,6,0,L|92:66,1,87.5,10|0,3:1|0:0,0:0:0:0:
189,301,284391,1,10,3:1:0:0:
257,132,284546,2,0,L|239:26,1,87.5,8|8,0:2|3:2,0:0:0:0:
333,202,284855,1,8,3:2:0:0:
157,107,285010,1,10,3:1:0:0:
327,2,285165,1,8,3:2:0:0:
389,259,285319,6,0,B|456:188|409:93|409:93|439:130|480:131|480:131|510:71|469:-1|394:-10|344:27|332:76,1,529.200012919922,12|0,0:2|0:0,0:0:0:0:
256,192,295216,12,0,300165,0:0:0:0:
