osu file format v14

[General]
AudioFilename: audio.mp3
AudioLeadIn: 0
PreviewTime: 27508
Countdown: 0
SampleSet: Soft
StackLeniency: 0.7
Mode: 0
LetterboxInBreaks: 0
WidescreenStoryboard: 1

[Editor]
DistanceSpacing: 1
BeatDivisor: 4
GridSize: 4
TimelineZoom: 1

[Metadata]
Title:KING OF THE WILD
TitleUnicode:KING OF THE WILD
Artist:Shounan no Kaze
ArtistUnicode:湘南乃風
Creator:ezek
Version:Easy
Source:タイガーマスクW
Tags:Tiger Mask W sharkie polkamocha ezek
BeatmapID:1183169
BeatmapSetID:550956

[Difficulty]
HPDrainRate:3
CircleSize:2.5
OverallDifficulty:3
ApproachRate:3
SliderMultiplier:1.19999990463257
SliderTickRate:1

[Events]
//Background and Video events
Video,32,"TM.avi"
0,0,"Tiger Maskuu.png",0,0
//Break Periods
//Storyboard Layer 0 (Background)
//Storyboard Layer 1 (Fail)
//Storyboard Layer 2 (Pass)
//Storyboard Layer 3 (Foreground)
//Storyboard Sound Samples

[TimingPoints]
981,555.555555555556,4,2,1,100,1,0
981,-200,4,2,1,100,0,0
26536,-100,4,2,1,100,0,0
63203,-100,4,2,1,100,0,1
71814,-100,4,2,1,100,0,0
72092,-100,4,2,1,100,0,1
80981,-100,4,2,1,100,0,0
85147,-100,4,2,1,100,0,1
85425,-100,4,2,1,100,0,0

[Colours]
Combo1 : 224,224,224
Combo2 : 248,210,1
SliderBorder : 248,210,1
SliderTrackOverride : 0,0,0

[HitObjects]
256,340,981,6,0,L|256:244,1,89.9999928474427,0|0,0:0|0:0,0:0:0:0:
256,116,2647,1,0,0:0:0:0:
212,36,3203,2,0,P|256:24|300:36,2,89.9999928474427,0|0|0,0:0|0:0|0:0,0:0:0:0:
136,84,5425,6,0,B|128:128|128:128|136:172,1,89.9999928474427,0|0,0:0|0:0,0:0:0:0:
312,316,7647,2,0,B|332:248|332:248|312:172,1,149.999988079071,0|0,0:0|0:0,0:0:0:0:
264,44,9869,5,2,0:0:0:0:
140,176,10981,2,0,B|104:176|104:176|96:168|96:168|96:184|96:184|88:176|88:176|32:176,1,119.999990463257,2|2,0:0|0:0,0:0:0:0:
168,304,13203,5,0,0:0:0:0:
256,328,13758,1,0,0:0:0:0:
344,304,14314,1,2,0:0:0:0:
316,126,15425,6,0,L|302:68,1,59.9999952316285,0|0,0:0|0:0,0:0:0:0:
210,68,16536,2,0,L|196:126,1,59.9999952316285,2|0,0:0|0:0,0:0:0:0:
256,192,17647,1,2,0:0:0:0:
256,284,18203,1,0,0:0:0:0:
328,340,18758,6,0,B|360:340|360:340|404:340|440:304,1,119.999990463257,2|2,0:0|0:0,0:0:0:0:
496,236,20425,1,0,0:0:0:0:
408,212,20981,2,0,L|384:156,1,59.9999952316285,2|0,0:0|0:0,0:0:0:0:
308,112,22092,2,0,L|284:56,1,59.9999952316285,0|0,0:0|0:0,0:0:0:0:
256,192,23203,12,4,25425,0:0:0:0:
200,32,27647,6,0,L|80:32,2,119.999990463257,4|0|2,1:2|0:0|1:0,0:0:0:0:
252,140,29314,1,0,0:0:0:0:
308,248,29869,2,0,L|428:248,2,119.999990463257,4|0|2,1:2|0:0|1:0,0:0:0:0:
252,356,31536,1,0,0:0:0:0:
144,304,32092,6,0,P|92:280|64:224,1,119.999990463257,4|0,1:2|0:0,0:0:0:0:
92,108,33203,2,0,P|145:133|171:185,1,119.999990463257,2|0,1:0|0:0,0:0:0:0:
244,280,34314,2,0,P|324:308|412:280,2,179.999985694886,2|8|2,1:0|1:0|3:1,0:0:0:0:
192,172,36536,6,0,P|204:108|240:64,2,119.999990463257,4|0|2,0:0|0:0|1:0,0:0:0:0:
312,160,38203,1,0,0:0:0:0:
384,256,38758,2,0,P|419:208|429:150,2,119.999990463257,4|0|2,1:2|0:0|1:0,0:0:0:0:
276,304,40425,1,0,0:0:0:0:
164,344,40981,5,4,1:2:0:0:
68,272,41536,1,0,0:0:0:0:
72,152,42092,1,2,1:0:0:0:
164,76,42647,1,0,0:0:0:0:
252,160,43203,6,0,P|328:204|428:108,1,239.999980926514,2|8,1:0|1:0,0:0:0:0:
192,60,45425,5,4,1:2:0:0:
72,68,45981,1,2,3:1:0:0:
40,184,46536,1,2,1:0:0:0:
124,272,47092,2,0,L|184:280,1,59.9999952316285,0|8,0:0|1:0,0:0:0:0:
236,252,47647,6,0,P|292:228|372:236,1,119.999990463257,4|2,1:2|3:1,0:0:0:0:
440,308,48758,1,2,1:0:0:0:
456,188,49314,2,0,L|432:120,1,59.9999952316285,0|8,0:0|1:0,0:0:0:0:
404,80,49869,6,0,B|344:80|344:80|288:108,1,119.999990463257,4|2,1:2|3:1,0:0:0:0:
180,152,50981,1,2,1:0:0:0:
148,268,51536,2,0,P|176:272|208:268,1,59.9999952316285,0|8,0:0|1:0,0:0:0:0:
260,236,52092,2,0,P|316:224|376:236,2,119.999990463257,4|0|2,1:2|0:0|1:0,0:0:0:0:
484,328,54314,5,4,1:2:0:0:
468,208,54869,1,2,1:0:0:0:
452,88,55425,1,2,1:0:0:0:
216,40,56536,5,4,1:2:0:0:
232,160,57091,1,2,1:0:0:0:
248,280,57647,1,2,1:0:0:0:
256,192,58758,12,4,60981,0:0:0:0:
368,76,63203,6,0,P|424:60|484:76,2,119.999990463257,4|0|4,1:2|0:0|1:2,0:0:0:0:
428,180,64869,1,0,0:0:0:0:
340,260,65425,2,0,P|284:276|224:260,2,119.999990463257,4|0|4,1:2|0:0|1:2,0:0:0:0:
280,156,67091,1,0,0:0:0:0:
176,96,67647,6,0,B|112:96|112:96|68:132,1,119.999990463257,4|0,1:2|0:0,0:0:0:0:
68,252,68758,2,0,B|112:288|112:288|176:288,1,119.999990463257,4|0,1:2|0:0,0:0:0:0:
248,192,69869,6,0,B|296:176|336:192|336:192|380:208|424:192,1,179.999985694886,4|2,1:2|1:2,0:0:0:0:
460,144,70981,2,0,L|464:80,2,59.9999952316285,4|0|0,1:2|0:0|0:0,0:0:0:0:
424,272,72092,6,0,B|482:296|482:296|536:272,2,119.999990463257,4|0|4,1:2|0:0|1:2,0:0:0:0:
312,224,73758,1,0,0:0:0:0:
204,172,74314,2,0,B|146:148|146:148|92:172,2,119.999990463257,4|0|4,1:2|0:0|1:2,0:0:0:0:
312,224,75981,1,0,0:0:0:0:
236,316,76536,5,4,1:2:0:0:
116,320,77092,1,0,0:0:0:0:
40,228,77647,1,4,1:2:0:0:
40,108,78203,1,0,0:0:0:0:
156,72,78758,2,0,P|256:96|308:216,1,239.999980926514,4|4,1:2|1:2,0:0:0:0:
312,332,80425,1,2,1:0:0:0:
428,304,80981,5,4,1:2:0:0:
256,192,81536,12,4,85147,1:2:0:0:
