osu file format v14

[General]
AudioFilename: audio.mp3
AudioLeadIn: 0
PreviewTime: 48005
Countdown: 0
SampleSet: Soft
StackLeniency: 0.4
Mode: 0
LetterboxInBreaks: 0
WidescreenStoryboard: 0

[Editor]
Bookmarks: 48170,87089,219413
DistanceSpacing: 2.1
BeatDivisor: 4
GridSize: 4
TimelineZoom: 1.8

[Metadata]
Title:PUNCH LINE!
TitleUnicode:PUNCH LINE!
Artist:Shokotan Daisuki Dempagumi
ArtistUnicode:しょこたん♥でんぱ組
Creator:Nevo
Version:Korai
Source:PUNCH LINE
Tags:パンチライン 中川翔子 Nakagawa Shouko opening op agatsu onlybiscuit frostwich
BeatmapID:1827432
BeatmapSetID:874345

[Difficulty]
HPDrainRate:6
CircleSize:4
OverallDifficulty:9
ApproachRate:9.3
SliderMultiplier:1.7
SliderTickRate:1

[Events]
//Background and Video events
0,0,"punch-line-wallpapers-26055-7037504.jpg",0,0
//Break Periods
//Storyboard Layer 0 (Background)
//Storyboard Layer 1 (Fail)
//Storyboard Layer 2 (Pass)
//Storyboard Layer 3 (Foreground)
//Storyboard Sound Samples

[TimingPoints]
-3562,324.324324324324,4,2,1,60,1,0
13137,-83.3333333333333,4,2,1,70,0,0
14681,-83.3333333333333,4,2,1,5,0,0
14762,-83.3333333333333,4,2,1,70,0,0
18572,-83.3333333333333,4,2,1,5,0,0
18654,-83.3333333333333,4,2,1,70,0,0
19870,-83.3333333333333,4,2,1,5,0,0
19951,-83.3333333333333,4,2,1,70,0,0
21167,-83.3333333333333,4,2,1,5,0,0
21248,-83.3333333333333,4,2,1,70,0,0
25302,-133.333333333333,4,2,1,60,0,0
25462,-133.333333333333,4,2,1,55,0,0
25624,-133.333333333333,4,2,1,50,0,0
25786,-133.333333333333,4,2,1,45,0,0
25948,-133.333333333333,4,2,1,40,0,0
26110,-133.333333333333,4,2,1,35,0,0
26272,-133.333333333333,4,2,1,50,0,0
27572,-117.647058823529,4,2,1,45,0,0
28140,-117.647058823529,4,2,1,5,0,0
28221,-117.647058823529,4,2,1,45,0,0
28789,-117.647058823529,4,2,1,5,0,0
28870,-117.647058823529,4,2,1,45,0,0
48167,-79.9999999999998,4,2,1,80,0,1
57410,-79.9999999999998,4,2,1,80,0,0
58705,-79.9999999999998,4,2,1,60,0,0
63894,-79.9999999999998,4,2,1,70,0,0
67464,-79.9999999999998,4,2,1,5,0,0

[Colours]
Combo1 : 128,230,219
Combo2 : 255,155,55
Combo3 : 71,206,245
Combo4 : 252,131,252

[HitObjects]
108,88,1302,5,8,0:2:0:0:
108,88,1627,6,0,L|123:199,1,85,2|0,3:2|0:2,0:2:0:0:
194,264,1951,2,0,L|209:153,1,85,0|0,3:2|3:2,0:2:0:0:
109,270,2275,1,0,3:2:0:0:
272,302,2437,1,0,3:2:0:0:
150,190,2599,1,0,3:2:0:0:
164,340,2762,2,0,P|193:281|191:247,1,85,2|0,3:2|3:2,0:2:0:0:
98,126,3086,2,0,P|134:180|165:195,1,85,0|0,3:2|3:2,0:2:0:0:
314,167,3410,1,0,0:2:0:0:
183,105,3572,1,0,3:2:0:0:
380,24,3897,1,8,0:2:0:0:
380,24,4221,6,0,L|365:135,1,85,2|0,3:2|3:2,3:2:0:0:
294,200,4545,2,0,L|279:89,1,85,0|0,3:2|3:2,3:2:0:0:
379,206,4869,1,0,3:2:0:0:
216,238,5031,1,0,3:2:0:0:
338,126,5193,1,0,3:2:0:0:
324,276,5356,2,0,P|295:217|297:183,1,85,2|0,3:2|0:2,0:2:0:0:
390,62,5680,2,0,P|353:116|322:131,1,85,0|0,3:2|3:2,0:2:0:0:
168,116,6005,1,0,3:2:0:0:
309,41,6167,1,0,3:2:0:0:
78,20,6492,1,8,0:2:0:0:
78,20,6816,6,0,L|93:131,1,85,2|0,3:2|0:2,0:2:0:0:
156,200,7140,2,0,L|171:89,1,85,0|0,3:2|3:2,0:2:0:0:
82,253,7464,1,0,3:2:0:0:
250,301,7626,2,0,L|235:190,1,85,0|0,3:2|3:2,0:2:0:0:
346,156,7951,2,0,L|331:267,1,85,2|0,3:2|3:2,0:2:0:0:
156,200,8275,2,0,P|181:155|239:133,1,85,0|0,3:2|3:2,0:2:0:0:
423,208,8599,1,0,3:2:0:0:
238,216,8762,1,0,3:2:0:0:
352,343,9086,1,8,0:2:0:0:
352,343,9410,6,0,L|249:339,1,85,2|0,3:2|0:2,0:2:0:0:
404,272,9735,2,0,L|507:268,1,85,0|0,3:2|3:2,0:2:0:0:
368,132,10059,1,0,3:2:0:0:
336,214,10221,1,0,3:2:0:0:
313,62,10383,1,0,3:2:0:0:
196,147,10545,2,0,L|299:143,1,85,2|0,3:2|3:2,0:2:0:0:
155,224,10870,2,0,L|70:220,1,85,0|0,3:2|3:2,0:2:0:0:
148,72,11194,1,0,3:2:0:0:
240,224,11356,1,0,3:2:0:0:
251,71,11518,2,0,L|256:22,2,42.5,0|0|0,3:2|3:2|3:2,3:2:0:0:
302,159,11843,1,0,3:2:0:0:
302,159,11924,1,0,3:2:0:0:
302,159,12005,5,10,0:2:0:0:
421,7,12167,1,8,0:2:0:0:
501,272,12329,1,8,0:2:0:0:
112,216,13140,6,0,L|223:207,1,101.999996887207,6|0,3:2|0:2,0:2:0:0:
395,103,13464,1,0,3:2:0:0:
300,328,13626,1,8,0:2:0:0:
221,177,13789,1,0,3:2:0:0:
420,256,13951,1,8,0:2:0:0:
178,303,14113,1,8,0:2:0:0:
469,170,14275,1,8,0:2:0:0:
245,40,14437,6,0,B|207:77|207:77|224:204,1,152.999995330811,6|0,0:2|0:2,0:2:0:0:
311,206,14762,2,0,B|308:206|313:206|301:140,1,50.9999984436036,6|0,0:2|0:2,0:2:0:0:
127,114,14924,2,0,L|141:215,1,101.999996887207,8|0,0:2|3:2,0:2:0:0:
139,378,15248,1,0,3:2:0:0:
220,176,15410,1,0,3:2:0:0:
285,353,15572,1,8,0:2:0:0:
383,307,15735,6,0,P|344:264|193:295,1,203.999993774414,6|0,3:2|3:2,0:2:0:0:
43,228,16221,2,0,P|92:233|148:208,1,101.999996887207,8|0,0:2|3:2,0:2:0:0:
242,53,16545,2,0,P|213:94|206:145,1,101.999996887207,0|0,3:2|0:2,0:2:0:0:
293,312,16870,1,8,0:2:0:0:
512,155,17032,6,0,B|462:181|404:154|443:128|379:102|322:128,1,203.999993774414,6|0,0:2|3:2,0:2:0:0:
476,75,17518,1,8,0:2:0:0:
361,203,17681,1,0,3:2:0:0:
287,38,17843,1,0,3:2:0:0:
419,139,18005,1,8,0:2:0:0:
438,0,18167,1,8,0:2:0:0:
281,270,18329,6,0,B|260:222|260:222|283:75,1,152.999995330811,6|0,0:2|0:2,0:2:0:0:
287,38,18654,1,0,3:2:0:0:
419,139,18816,2,0,L|402:239,1,101.999996887207,8|0,0:2|3:2,0:2:0:0:
246,351,19140,1,2,3:2:0:0:
427,259,19302,1,0,3:2:0:0:
204,198,19464,1,8,0:2:0:0:
409,366,19626,6,0,L|228:358,1,152.999995330811,6|0,0:2|0:2,0:2:0:0:
233,276,19951,2,0,L|310:279,1,50.9999984436036,6|0,0:2|0:2,0:2:0:0:
117,366,20113,2,0,P|88:312|100:240,1,101.999996887207,8|0,0:2|3:2,0:2:0:0:
82,85,20437,1,0,3:2:0:0:
233,276,20599,1,0,3:2:0:0:
251,111,20762,1,8,0:2:0:0:
0,235,20924,6,0,P|59:179|157:198,1,152.999995330811,2|0,0:2|0:2,0:2:0:0:
233,276,21248,1,0,3:2:0:0:
121,78,21410,2,0,L|127:187,1,101.999996887207,8|0,0:2|3:2,0:2:0:0:
326,270,21735,2,0,L|332:161,1,101.999996887207,0|0,3:2|0:2,0:2:0:0:
403,37,22059,1,8,0:2:0:0:
121,78,22221,6,0,L|250:69,1,101.999996887207,2|0,3:2|0:2,0:2:0:0:
506,168,22545,1,0,3:2:0:0:
278,150,22708,1,8,0:2:0:0:
448,279,22870,1,0,3:2:0:0:
382,169,23032,1,8,0:2:0:0:
307,345,23194,1,0,3:2:0:0:
289,236,23356,1,8,0:2:0:0:
440,384,23518,6,0,L|450:182,1,152.999995330811,6|0,0:2|0:2,0:2:0:0:
382,169,23843,1,0,3:2:0:0:
307,345,24005,2,0,P|242:331|203:299,1,101.999996887207,8|0,0:2|3:2,0:2:0:0:
149,189,24329,1,0,3:2:0:0:
289,236,24491,1,0,0:2:0:0:
69,322,24654,1,8,0:2:0:0:
109,104,24816,1,2,3:2:0:0:
102,119,25302,6,0,B|151:92|212:108|212:108|275:131|344:109|337:43|270:22|248:64|273:115,1,318.750012159348,2|2,0:2|0:2,0:2:0:0:
299,193,26275,5,10,0:2:0:0:
388,54,26437,1,8,0:2:0:0:
444,241,26599,1,8,0:2:0:0:
384,153,26762,1,8,0:2:0:0:
384,153,26843,1,8,0:2:0:0:
384,153,26924,1,8,0:2:0:0:
512,178,27086,5,8,0:2:0:0:
319,284,27248,1,8,0:2:0:0:
444,241,27410,1,8,0:2:0:0:
299,193,27572,6,0,P|266:187|219:206,1,72.2500013780594,2|0,3:2|0:2,0:2:0:0:
186,282,27897,2,0,L|191:194,1,72.2500013780594,8|0,0:2|0:2,0:2:0:0:
116,139,28221,2,0,L|110:224,1,72.2500013780594,0|0,0:2|3:2,0:2:0:0:
164,74,28545,2,0,P|122:54|70:65,1,72.2500013780594,8|0,0:2|0:2,0:2:0:0:
116,139,28870,6,0,L|263:128,1,144.500002756119,2|8,3:2|0:2,0:2:0:0:
334,187,29356,1,0,0:2:0:0:
334,187,29518,2,0,L|478:197,1,144.500002756119,0|8,3:2|0:2,0:2:0:0:
439,295,30005,1,0,0:2:0:0:
439,295,30167,6,0,L|338:304,1,72.2500013780594,2|0,3:2|0:2,0:2:0:0:
294,363,30491,2,0,L|193:354,1,72.2500013780594,8|0,0:2|0:2,0:2:0:0:
149,295,30816,2,0,P|133:261|140:194,1,72.2500013780594,2|0,0:2|0:2,0:2:0:0:
188,150,31140,2,0,P|204:116|197:49,1,72.2500013780594,8|0,0:2|0:2,0:2:0:0:
148,15,31464,5,2,3:2:0:0:
368,38,31789,1,8,0:2:0:0:
258,213,32113,2,0,L|250:131,1,72.2500013780594,2|0,0:2|0:2,0:2:0:0:
384,206,32437,2,0,L|376:288,1,72.2500013780594,8|0,0:2|0:2,0:2:0:0:
335,131,32762,6,0,P|403:119|474:182,1,144.500002756119,2|8,3:2|0:2,0:2:0:0:
495,240,33248,1,0,0:2:0:0:
495,240,33410,2,0,L|486:331,1,72.2500013780594,2|0,0:2|3:2,0:2:0:0:
397,384,33735,2,0,L|388:293,1,72.2500013780594,8|0,0:2|0:2,0:2:0:0:
335,131,34059,6,0,P|287:156|193:109,1,144.500002756119,2|8,3:2|0:2,0:2:0:0:
122,81,34545,1,0,0:2:0:0:
122,81,34708,2,0,L|127:164,1,72.2500013780594,2|0,3:2|3:2,0:2:0:0:
210,226,35032,2,0,L|205:309,1,72.2500013780594,8|0,0:2|0:2,0:2:0:0:
75,234,35356,6,0,P|141:207|220:233,1,144.500002756119,2|8,3:2|0:2,0:2:0:0:
343,163,35843,1,0,0:2:0:0:
343,163,36005,2,0,P|280:168|266:177,1,72.2500013780594,2|0,0:2|3:2,0:2:0:0:
259,319,36329,2,0,P|286:261|285:245,1,72.2500013780594,8|0,0:2|0:2,0:2:0:0:
214,99,36654,5,10,0:2:0:0:
118,316,36978,1,10,0:2:0:0:
47,80,37302,1,8,0:2:0:0:
130,176,37464,1,8,0:2:0:0:
147,8,37626,1,8,0:2:0:0:
283,159,37951,6,0,L|364:155,1,72.2500013780594,2|0,3:2|0:2,0:2:0:0:
480,229,38275,2,0,L|399:225,1,72.2500013780594,8|0,0:2|0:2,0:2:0:0:
270,146,38599,2,0,L|351:142,1,72.2500013780594,2|0,3:2|0:2,0:2:0:0:
489,247,38923,2,0,L|408:243,1,72.2500013780594,8|0,0:2|0:2,0:2:0:0:
386,71,39248,6,0,P|420:117|421:147,1,72.2500013780594,2|0,3:2|0:2,0:2:0:0:
367,312,39572,2,0,P|333:266|332:236,1,72.2500013780594,8|0,0:2|0:2,0:2:0:0:
395,59,39897,2,0,P|429:105|430:135,1,72.2500013780594,2|0,3:2|0:2,0:2:0:0:
358,326,40221,2,0,P|324:280|323:250,1,72.2500013780594,8|0,0:2|0:2,0:2:0:0:
441,361,40546,6,0,L|273:351,1,144.500002756119,2|8,3:2|0:2,0:2:0:0:
47,362,41194,1,2,0:2:0:0:
217,214,41519,2,0,L|208:311,1,72.2500013780594,8|2,0:2|0:2,0:2:0:0:
139,176,41843,5,10,0:2:0:0:
278,154,42005,1,0,3:2:0:0:
108,95,42167,5,10,0:2:0:0:
294,167,42329,1,0,3:2:0:0:
112,261,42491,5,10,0:2:0:0:
309,176,42654,1,0,3:2:0:0:
108,95,42816,5,10,0:2:0:0:
202,363,42978,1,0,3:2:0:0:
242,93,43140,6,0,P|305:78|336:84,1,72.2500013780594,14|0,0:2|0:2,0:2:0:0:
470,124,43464,2,8,L|479:167,3,36.1250006890297,8|8|8|8,0:2|0:2|0:2|0:2,0:2:0:0:
444,40,43789,6,0,P|381:25|350:31,1,72.2500013780594,14|0,0:2|0:2,0:2:0:0:
216,71,44113,2,8,L|207:114,3,36.1250006890297,8|8|8|8,0:2|0:2|0:2|0:2,0:2:0:0:
129,140,44437,6,0,L|147:232,1,72.2500013780594,14|0,0:2|0:2,0:2:0:0:
298,81,44762,2,0,L|280:173,1,72.2500013780594,14|0,0:2|0:2,0:2:0:0:
29,50,45086,2,0,L|47:142,1,72.2500013780594,14|0,0:2|0:2,0:2:0:0:
73,282,45410,2,8,L|63:320,3,36.1250006890297,8|8|8|8,0:2|0:2|0:2|0:2,0:2:0:0:
143,209,45735,6,0,P|185:202|234:219,1,72.2500013780594,14|0,0:2|0:2,0:2:0:0:
357,293,46059,2,8,L|411:287,3,36.1250006890297,8|8|8|8,0:2|0:2|0:2|0:2,0:2:0:0:
274,331,46383,2,0,L|278:237,1,72.2500013780594,14|0,0:2|0:2,0:2:0:0:
240,120,46708,2,8,L|229:80,3,36.1250006890297,8|8|8|8,0:2|0:2|0:2|0:2,0:2:0:0:
303,178,47032,6,0,L|405:165,1,72.2500013780594,14|0,0:2|0:2,0:2:0:0:
464,298,47356,2,0,L|362:285,1,72.2500013780594,14|0,0:2|0:2,0:2:0:0:
242,384,47681,2,0,L|344:371,1,72.2500013780594,12|0,0:2|0:2,0:2:0:0:
189,284,48005,1,0,0:2:0:0:
76,384,48167,6,0,L|86:275,1,106.25,6|0,0:2|0:2,0:2:0:0:
110,71,48492,1,0,3:2:0:0:
204,306,48654,5,8,0:2:0:0:
298,46,48816,1,0,3:2:0:0:
30,136,48978,5,8,0:2:0:0:
360,291,49140,1,0,3:2:0:0:
9,248,49302,5,8,0:2:0:0:
392,109,49464,1,0,3:2:0:0:
12,151,49626,5,8,0:2:0:0:
181,364,49789,1,0,3:2:0:0:
199,56,49951,1,8,0:2:0:0:
310,251,50113,6,0,P|237:237|200:200,1,106.25,2|8,3:2|0:2,0:2:0:0:
300,30,50437,2,0,L|292:142,1,106.25,0|8,0:2|0:2,0:2:0:0:
417,298,50762,6,0,L|409:186,1,106.25,6|0,0:2|3:2,0:2:0:0:
187,45,51086,1,0,3:2:0:0:
481,108,51248,5,8,0:2:0:0:
160,221,51410,1,0,3:2:0:0:
406,59,51573,5,8,0:2:0:0:
98,60,51735,1,0,3:2:0:0:
373,152,51897,5,8,0:2:0:0:
60,225,52059,1,0,3:2:0:0:
288,104,52221,5,8,0:2:0:0:
241,356,52383,1,0,3:2:0:0:
192,58,52545,1,8,0:2:0:0:
63,316,52708,6,0,L|51:203,1,106.25,2|0,0:2|3:2,0:2:0:0:
288,104,53032,2,0,L|276:217,1,106.25,0|8,3:2|0:2,0:2:0:0:
1,125,53356,6,0,P|58:116|111:136,1,106.25,6|0,0:2|0:2,0:2:0:0:
276,209,53681,1,0,3:2:0:0:
166,317,53843,2,0,L|159:196,1,106.25,8|0,0:2|0:2,0:2:0:0:
343,278,54167,2,0,L|336:399,1,106.25,8|0,0:2|0:2,0:2:0:0:
276,209,54491,1,8,0:2:0:0:
512,228,54654,6,0,L|390:219,1,106.25,6|0,0:2|3:2,0:2:0:0:
310,141,54978,1,0,0:2:0:0:
438,37,55140,2,0,P|465:98|458:155,1,106.25,8|0,0:2|0:2,0:2:0:0:
170,79,55464,2,0,P|209:25|262:2,1,106.25,8|0,0:2|0:2,0:2:0:0:
341,291,55789,2,0,P|274:283|228:249,1,106.25,8|0,0:2|0:2,0:2:0:0:
47,42,56113,5,14,0:2:0:0:
61,29,56437,5,8,0:2:0:0:
128,275,56599,1,12,0:2:0:0:
121,298,56924,5,8,0:2:0:0:
183,50,57086,1,8,0:2:0:0:
198,62,57410,6,8,L|193:126,2,53.125,8|8|8,0:2|0:2|0:2,0:2:0:0:
276,109,57735,2,8,L|271:173,2,53.125,8|8|8,0:2|0:2|0:2,0:2:0:0:
354,156,58059,2,8,L|349:220,2,53.125,8|8|8,0:2|0:2|0:2,0:2:0:0:
432,203,58383,2,8,L|427:267,2,53.125,8|8|8,0:2|0:2|0:2,0:2:0:0:
351,307,58708,6,0,L|237:298,1,106.25,6|0,0:2|0:2,0:2:0:0:
148,299,59032,1,0,0:2:0:0:
136,313,59843,5,14,0:2:0:0:
239,46,60167,1,14,0:2:0:0:
255,36,60491,5,8,0:2:0:0:
346,207,60654,1,8,0:2:0:0:
43,148,60978,1,12,0:2:0:0:
30,164,61302,5,14,0:2:0:0:
20,180,62437,5,14,0:2:0:0:
361,120,62762,1,14,0:2:0:0:
372,132,63086,5,8,0:2:0:0:
187,72,63248,1,8,0:2:0:0:
173,58,63572,6,0,L|191:179,1,106.25,2|0,0:2|0:2,0:2:0:0:
367,259,63897,2,0,P|301:215|259:212,1,106.25,14|0,0:2|0:2,0:2:0:0:
0,176,64221,2,0,P|66:132|108:129,1,106.25,8|0,0:2|0:2,0:2:0:0:
395,136,64545,5,8,0:2:0:0:
173,58,64708,1,0,0:2:0:0:
435,24,64870,5,8,0:2:0:0:
146,223,65032,1,0,0:2:0:0:
462,271,65194,5,8,0:2:0:0:
271,15,65356,1,0,0:2:0:0:
296,338,65518,5,8,0:2:0:0:
68,141,65681,2,8,L|130:135,1,53.125,0|8,3:2|0:2,0:2:0:0:
385,114,65843,5,0,0:2:0:0:
128,310,66005,2,0,L|64:326,2,53.125,0|8|0,3:2|0:2|3:2,3:2:0:0:
433,288,66329,1,14,0:2:0:0:
256,192,66410,12,0,67465,0:2:0:0:
