osu file format v14

[General]
AudioFilename: audio.mp3
AudioLeadIn: 0
PreviewTime: 198572
Countdown: 0
SampleSet: Soft
StackLeniency: 0.6
Mode: 0
LetterboxInBreaks: 0
WidescreenStoryboard: 0

[Editor]
Bookmarks: 13140,27572,43140,48167,58708,66491,68924,79464,89843,101356,115789,131356,136383,146924,154708,157140,167681,172870,178059,183248,188275,198654,201248,209194,216978,219410,229951
DistanceSpacing: 1.2
BeatDivisor: 4
GridSize: 4
TimelineZoom: 2

[Metadata]
Title:PUNCH LINE!
TitleUnicode:PUNCH LINE!
Artist:Shokotan Daisuki Dempagumi
ArtistUnicode:しょこたん♥でんぱ組
Creator:Kowari
Version:Extra
Source:PUNCH LINE
Tags:パンチライン 中川翔子 Nakagawa Shouko opening op
BeatmapID:1868285
BeatmapSetID:894020

[Difficulty]
HPDrainRate:6
CircleSize:4
OverallDifficulty:9
ApproachRate:9.4
SliderMultiplier:1.9
SliderTickRate:1

[Events]
//Background and Video events
0,0,"punch-line-wallpapers-26055-7037504.jpg",0,0
//Break Periods
2,131556,135843
2,172870,177519
//Storyboard Layer 0 (Background)
//Storyboard Layer 1 (Fail)
//Storyboard Layer 2 (Pass)
//Storyboard Layer 3 (Foreground)
//Storyboard Sound Samples

[TimingPoints]
1627,324.324324324324,4,2,1,80,1,0
1627,-142.857142857143,4,2,1,80,0,0
13140,-100,4,2,1,80,0,0
25302,-151.515151515152,4,2,1,80,0,0
27572,-125,4,2,1,80,0,0
42816,-66.6666666666667,4,2,1,80,0,0
42897,-66.6666666666667,4,2,1,5,0,0
42978,-66.6666666666667,4,2,1,80,0,0
43059,-66.6666666666667,4,2,1,5,0,0
43140,-100,4,2,1,80,0,0
48329,-83.3333333333333,4,2,1,80,0,1
58708,-125,4,2,1,80,0,1
66491,-100,4,2,1,80,0,0
69086,-100,4,2,1,80,0,1
87086,-100,4,2,1,80,0,0
89843,-142.857142857143,4,2,1,80,0,0
101356,-100,4,2,1,80,0,0
113518,-125,4,2,1,80,0,0
115789,-125,4,2,1,80,0,0
136383,-83.3333333333333,4,2,1,80,0,0
136545,-83.3333333333333,4,2,1,80,0,1
146924,-100,4,2,1,80,0,1
154708,-100,4,2,1,80,0,0
157140,-83.3333333333333,4,2,1,80,0,0
157302,-100,4,2,1,80,0,1
172870,-100,4,2,1,80,0,0
183248,-125,4,2,1,80,0,0
188437,-100,4,2,1,80,0,0
201248,-83.3333333333333,4,2,1,80,0,0
201410,-83.3333333333333,4,2,1,80,0,1
216978,-100,4,2,1,80,0,0
219572,-83.3333333333333,4,2,1,80,0,1
237735,-100,4,2,1,80,0,0

[Colours]
Combo1 : 255,140,26
Combo2 : 255,170,85
Combo3 : 255,159,159
Combo4 : 255,55,55

[HitObjects]
84,110,1302,5,0,0:0:0:0:
84,110,1627,6,0,L|164:118,1,66.4999979705811
46,208,1951,2,0,L|112:201,1,66.4999979705811
212,186,2275,1,0,0:0:0:0:
213,323,2437,2,0,L|130:315,1,66.4999979705811
300,262,2762,6,0,P|322:301|323:343,1,66.4999979705811
212,186,3086,2,0,P|218:153|237:125,1,66.4999979705811
309,70,3410,1,0,0:0:0:0:
431,183,3572,2,0,L|292:179,1,132.999995941162
298,179,4221,6,0,L|287:260,1,66.4999979705811
407,331,4545,2,0,L|398:265,1,66.4999979705811
381,171,4870,1,0,0:0:0:0:
289,244,5032,2,0,P|250:260|195:257,1,66.4999979705811
69,182,5356,6,0,P|101:186|131:200,1,66.4999979705811
138,384,5681,2,0,P|125:353|122:320,1,66.4999979705811
131,200,6005,1,0,0:0:0:0:
280,203,6167,2,0,B|296:295|296:295|285:342,1,132.999995941162
286,333,6816,6,0,L|210:328,1,66.4999979705811
82,239,7140,2,0,L|158:234,1,66.4999979705811
297,225,7464,1,0,0:0:0:0:
231,83,7626,2,0,P|202:105|183:137,1,66.4999979705811
402,129,7951,6,0,L|408:56,1,66.4999979705811
297,225,8275,2,0,L|291:152,1,66.4999979705811
447,274,8599,1,0,0:0:0:0:
304,324,8762,2,0,P|254:313|203:243,1,132.999995941162
204,251,9410,6,0,L|209:175,1,66.4999979705811
63,81,9735,2,0,L|67:147,1,66.4999979705811
237,45,10059,1,0,0:0:0:0:
70,0,10221,2,0,P|16:14|-7:32,1,66.4999979705811
12,211,10545,6,0,P|41:225|74:230,1,66.4999979705811
248,130,10870,2,0,P|215:134|185:149,1,66.4999979705811
143,314,11194,1,0,0:0:0:0:
259,358,11356,6,0,L|251:311,3,33.2499989852906
334,342,11681,2,0,L|326:295,3,33.2499989852906
311,212,12005,5,0,0:0:0:0:
449,367,12167,1,0,0:0:0:0:
458,139,12329,1,0,0:0:0:0:
34,111,13140,6,0,B|134:151|125:71|239:118,1,190
312,235,13626,1,0,0:0:0:0:
183,206,13789,1,0,0:0:0:0:
388,115,13951,1,0,0:0:0:0:
218,110,14113,1,0,0:0:0:0:
348,300,14275,1,0,0:0:0:0:
305,73,14437,2,0,B|292:22|292:22|292:180,1,190
291,356,14924,5,0,0:0:0:0:
392,237,15086,1,0,0:0:0:0:
392,237,15167,1,0,0:0:0:0:
392,237,15248,1,0,0:0:0:0:
179,189,15410,1,0,0:0:0:0:
282,268,15572,1,0,0:0:0:0:
189,103,15735,6,0,P|108:128|111:245,1,190
180,356,16221,2,0,L|58:373,1,95
247,243,16545,2,0,B|461:269,1,190
401,87,17032,6,0,P|331:68|358:148,1,190
478,127,17518,1,0,0:0:0:0:
318,30,17681,1,0,0:0:0:0:
346,247,17843,1,0,0:0:0:0:
313,6,18005,5,0,0:0:0:0:
350,275,18167,1,0,0:0:0:0:
235,142,18329,6,0,B|175:119|175:119|39:123,1,190
21,271,18816,1,0,0:0:0:0:
124,216,18978,1,0,0:0:0:0:
10,52,19140,2,0,L|17:252,1,190
134,1,19626,2,0,L|127:201,1,190
120,349,20113,5,0,0:0:0:0:
241,203,20275,1,0,0:0:0:0:
241,203,20356,1,0,0:0:0:0:
241,203,20437,1,0,0:0:0:0:
336,363,20599,1,0,0:0:0:0:
213,307,20762,1,0,0:0:0:0:
280,115,20924,6,0,P|319:151|297:286,1,190
146,213,21410,2,0,L|243:202,1,95
240,202,21654,1,0,0:0:0:0:
240,202,21735,1,0,0:0:0:0:
328,309,21897,1,0,0:0:0:0:
208,295,22059,1,0,0:0:0:0:
382,195,22221,6,0,L|375:389,1,190
269,225,22708,1,0,0:0:0:0:
467,156,22870,1,0,0:0:0:0:
382,297,23032,1,0,0:0:0:0:
343,88,23194,5,0,0:0:0:0:
387,320,23356,1,0,0:0:0:0:
227,153,23518,6,0,L|219:350,1,190
78,371,24005,1,0,0:0:0:0:
138,239,24167,1,0,0:0:0:0:
293,367,24329,1,0,0:0:0:0:
39,298,24491,1,0,0:0:0:0:
211,177,24654,1,0,0:0:0:0:
205,329,24816,5,0,0:0:0:0:
83,94,25302,6,0,B|119:81|156:91|156:91|191:81|210:59|210:59|229:74|259:84|259:84|307:71|363:99|363:99|311:93|281:137,1,376.199998851929
207,246,26437,1,0,0:0:0:0:
370,192,26599,1,0,0:0:0:0:
158,73,26762,5,0,0:0:0:0:
160,91,26843,1,0,0:0:0:0:
162,108,26924,1,0,0:0:0:0:
171,337,27086,1,0,0:0:0:0:
291,161,27248,1,0,0:0:0:0:
23,103,27410,1,0,0:0:0:0:
2,264,27572,6,0,L|82:260,1,76
125,157,27897,2,0,L|200:160,1,76
259,249,28221,2,0,P|266:294|261:346,1,76
370,240,28545,2,0,P|369:202|375:164,1,76
442,75,28870,5,0,0:0:0:0:
503,274,29194,1,0,0:0:0:0:
363,315,29518,2,0,L|370:227,1,76
273,182,29843,2,0,L|266:94,1,76
305,8,30167,6,0,B|227:-9|231:31|148:0,2,152
377,68,30978,1,0,0:0:0:0:
266,106,31140,2,0,L|172:103,1,76
70,220,31464,6,0,L|145:217,1,76
198,343,31789,2,0,L|273:345,1,76
387,286,32113,1,0,0:0:0:0:
234,180,32437,1,0,0:0:0:0:
354,76,32762,6,0,L|349:167,1,76
238,255,33086,2,0,L|233:179,1,76
155,80,33410,2,0,P|115:72|65:77,1,76
27,189,33735,2,0,P|67:181|117:186,1,76
156,284,34059,6,0,P|223:299|304:273,2,152
101,182,34870,1,0,0:0:0:0:
235,130,35032,2,0,L|227:219,1,76
120,86,35356,6,0,L|113:10,1,76
235,130,35681,2,0,L|241:54,1,76
365,17,36005,2,0,L|358:65,2,38
454,116,36329,2,0,L|438:202,1,76
388,340,36654,5,0,0:0:0:0:
207,295,36978,1,0,0:0:0:0:
332,207,37302,5,0,0:0:0:0:
196,309,37464,1,0,0:0:0:0:
170,111,37626,1,0,0:0:0:0:
170,111,37951,6,0,L|263:112,1,76
353,18,38275,2,0,L|260:19,1,76
165,124,38599,2,0,L|258:125,1,76
357,2,38924,2,0,L|264:3,1,76
322,171,39248,6,0,P|333:122|320:85,1,76
169,50,39572,2,0,P|158:99|171:136,1,76
335,179,39897,2,0,P|346:130|333:93,1,76
155,44,40221,2,0,P|144:93|157:130,1,76
236,237,40545,2,0,P|162:219|89:238,1,152
48,344,41032,1,0,0:0:0:0:
161,383,41194,2,0,L|159:298,1,76
91,161,41518,2,0,L|89:236,1,76
265,168,41843,5,0,0:0:0:0:
91,84,42005,1,0,0:0:0:0:
270,4,42167,1,0,0:0:0:0:
61,86,42329,1,0,0:0:0:0:
281,185,42491,5,0,0:0:0:0:
160,20,42654,1,0,0:0:0:0:
137,251,42816,6,0,P|133:204|150:169,1,71.2500027179719
242,0,42978,2,0,P|246:47|229:82,1,71.2500027179719
252,216,43140,6,0,L|373:215,1,95
493,328,43464,1,0,0:0:0:0:
461,312,43545,1,0,0:0:0:0:
426,307,43626,1,0,0:0:0:0:
390,312,43707,1,0,0:0:0:0:
358,327,43789,2,0,P|312:346|255:342,1,95
144,264,44113,1,0,0:0:0:0:
145,228,44194,1,0,0:0:0:0:
146,192,44275,1,0,0:0:0:0:
147,157,44356,1,0,0:0:0:0:
148,121,44437,6,0,P|188:104|268:118,1,95
385,222,44762,2,0,P|337:224|294:205,1,95
327,53,45086,1,0,0:0:0:0:
327,53,45410,1,0,0:0:0:0:
291,52,45491,1,0,0:0:0:0:
255,52,45572,1,0,0:0:0:0:
220,52,45653,1,0,0:0:0:0:
184,52,45735,6,0,L|73:49,1,95
20,158,46059,1,0,0:0:0:0:
6,190,46140,1,0,0:0:0:0:
0,225,46221,1,0,0:0:0:0:
4,261,46302,1,0,0:0:0:0:
17,294,46383,2,0,P|39:348|32:388,1,95
150,253,46708,1,0,0:0:0:0:
185,252,46789,1,0,0:0:0:0:
221,251,46870,1,0,0:0:0:0:
256,250,46951,1,0,0:0:0:0:
292,249,47032,6,0,L|388:247,1,95
291,100,47356,2,0,L|195:97,1,95
399,35,47681,2,0,P|418:80|412:136,1,95
396,262,48005,1,0,0:0:0:0:
202,184,48167,6,0,L|306:183,1,95
479,184,48491,1,0,0:0:0:0:
282,311,48654,5,0,0:0:0:0:
320,114,48816,1,0,0:0:0:0:
190,308,48978,5,0,0:0:0:0:
228,111,49140,1,0,0:0:0:0:
97,306,49302,5,0,0:0:0:0:
264,203,49464,1,0,0:0:0:0:
32,127,49626,1,0,0:0:0:0:
191,20,49789,6,0,L|193:147,1,113.999996520996
193,270,50113,1,0,0:0:0:0:
60,108,50275,5,0,0:0:0:0:
262,56,50437,1,0,0:0:0:0:
111,206,50599,1,0,0:0:0:0:
295,324,50762,6,0,L|288:201,1,113.999996520996
270,34,51086,1,0,0:0:0:0:
381,166,51248,5,0,0:0:0:0:
180,121,51410,1,0,0:0:0:0:
389,255,51572,5,0,0:0:0:0:
188,210,51734,1,0,0:0:0:0:
384,348,51897,5,0,0:0:0:0:
293,171,52059,1,0,0:0:0:0:
246,377,52221,1,0,0:0:0:0:
381,166,52383,6,0,P|361:117|302:85,1,113.999996520996
132,254,52708,6,0,L|260:249,1,113.999996520996
82,132,53032,1,0,0:0:0:0:
149,357,53194,1,0,0:0:0:0:
149,357,53275,1,0,0:0:0:0:
149,357,53356,1,0,0:0:0:0:
245,249,53518,6,0,P|261:193|250:133,1,113.999996520996
74,21,53843,2,0,P|65:76|81:131,1,113.999996520996
306,51,54167,5,0,0:0:0:0:
177,203,54329,1,0,0:0:0:0:
211,2,54491,1,0,0:0:0:0:
294,237,54654,5,0,0:0:0:0:
294,237,54735,1,0,0:0:0:0:
294,237,54816,2,0,L|304:353,1,113.999996520996
470,150,55140,2,0,L|460:266,1,113.999996520996
300,105,55464,1,0,0:0:0:0:
501,44,55626,1,0,0:0:0:0:
440,237,55789,1,0,0:0:0:0:
506,25,55951,1,0,0:0:0:0:
309,19,56113,6,0,B|282:85|282:85|300:210,1,170.999994781494
316,271,56437,1,0,0:0:0:0:
154,172,56599,1,0,0:0:0:0:
384,125,56762,5,0,0:0:0:0:
203,240,56924,1,0,0:0:0:0:
415,221,57086,5,0,0:0:0:0:
234,106,57248,1,0,0:0:0:0:
469,47,57410,5,0,0:0:0:0:
414,242,57572,1,0,0:0:0:0:
319,28,57735,5,0,0:0:0:0:
319,28,57816,1,0,0:0:0:0:
319,28,57897,1,0,0:0:0:0:
116,130,58059,1,0,0:0:0:0:
116,130,58140,1,0,0:0:0:0:
116,130,58221,1,0,0:0:0:0:
265,233,58383,1,0,0:0:0:0:
265,233,58464,1,0,0:0:0:0:
265,233,58545,1,0,0:0:0:0:
131,306,58708,5,0,0:0:0:0:
131,306,58789,1,0,0:0:0:0:
131,306,58870,2,0,L|131:356,4,38
191,210,59356,2,0,P|259:187|351:212,1,152
423,292,59843,1,0,0:0:0:0:
423,292,60167,5,0,0:0:0:0:
366,119,60329,1,0,0:0:0:0:
314,333,60491,1,0,0:0:0:0:
207,165,60654,6,0,P|163:158|116:165,1,76
366,91,60978,2,0,P|410:84|457:91,1,76
226,12,61302,5,0,0:0:0:0:
226,12,61383,1,0,0:0:0:0:
226,12,61464,2,0,L|224:71,4,38
302,157,61951,2,0,P|245:178|143:145,1,152
86,57,62437,1,0,0:0:0:0:
86,57,62762,5,0,0:0:0:0:
114,262,62924,1,0,0:0:0:0:
207,90,63086,1,0,0:0:0:0:
276,278,63248,6,0,P|319:291|358:287,1,76
449,166,63572,1,0,0:0:0:0:
324,72,63735,1,0,0:0:0:0:
324,72,63816,1,0,0:0:0:0:
324,72,63897,6,0,L|325:150,1,76
193,284,64221,2,0,L|193:208,1,76
168,31,64545,5,0,0:0:0:0:
325,169,64708,1,0,0:0:0:0:
88,134,64870,5,0,0:0:0:0:
363,95,65032,1,0,0:0:0:0:
189,201,65194,6,0,P|170:265|190:323,1,114
206,314,65518,2,0,L|297:314,1,76
386,153,65843,1,0,0:0:0:0:
281,214,66005,1,0,0:0:0:0:
437,353,66167,2,0,L|436:269,1,76
315,101,66491,5,0,0:0:0:0:
354,278,66653,1,0,0:0:0:0:
376,31,66816,2,0,P|306:13|235:45,1,142.5
207,129,67140,5,0,0:0:0:0:
429,155,67302,1,0,0:0:0:0:
177,259,67464,6,0,L|228:274,1,47.5
400,334,67626,1,0,0:0:0:0:
400,334,67951,5,0,0:0:0:0:
340,78,68113,1,0,0:0:0:0:
273,370,68275,1,0,0:0:0:0:
433,187,68437,5,0,0:0:0:0:
400,172,68518,1,0,0:0:0:0:
365,166,68599,1,0,0:0:0:0:
330,170,68680,1,0,0:0:0:0:
296,182,68761,1,0,0:0:0:0:
166,306,68924,6,0,L|166:178,1,95
162,24,69248,1,0,0:0:0:0:
330,170,69410,5,0,0:0:0:0:
113,103,69572,1,0,0:0:0:0:
386,111,69735,5,0,0:0:0:0:
169,178,69897,1,0,0:0:0:0:
444,174,70059,5,0,0:0:0:0:
227,107,70221,1,0,0:0:0:0:
431,36,70383,5,0,0:0:0:0:
376,238,70545,1,0,0:0:0:0:
284,16,70708,1,0,0:0:0:0:
186,192,70870,6,0,L|293:191,1,95
427,182,71194,1,0,0:0:0:0:
245,103,71356,1,0,0:0:0:0:
382,266,71518,6,0,P|380:321|344:378,1,95
231,383,71843,1,0,0:0:0:0:
251,122,72005,5,0,0:0:0:0:
336,357,72167,1,0,0:0:0:0:
331,65,72329,5,0,0:0:0:0:
246,300,72491,1,0,0:0:0:0:
244,9,72654,5,0,0:0:0:0:
329,244,72816,1,0,0:0:0:0:
142,83,72978,5,0,0:0:0:0:
354,62,73140,1,0,0:0:0:0:
201,199,73302,1,0,0:0:0:0:
415,267,73464,6,0,L|410:162,1,95
282,360,73789,2,0,L|287:255,1,95
291,107,74113,1,0,0:0:0:0:
121,244,74275,6,0,P|163:276|214:278,1,95
285,87,74599,2,0,P|243:55|192:53,1,95
376,226,74924,2,0,L|397:73,1,142.5
406,6,75248,1,0,0:0:0:0:
468,235,75410,5,0,0:0:0:0:
468,235,75491,1,0,0:0:0:0:
468,235,75572,6,0,P|447:294|412:316,1,95
262,203,75897,2,0,P|323:191|360:210,1,95
194,304,76221,2,0,P|153:256|151:215,1,95
263,113,76545,2,0,P|274:174|255:211,1,95
73,31,76870,6,0,L|236:23,1,142.5
299,16,77194,1,0,0:0:0:0:
21,153,77356,6,0,L|163:159,1,142.5
251,170,77681,1,0,0:0:0:0:
282,341,77843,2,0,L|176:333,1,95
369,197,78167,5,0,0:0:0:0:
369,197,78248,1,0,0:0:0:0:
369,197,78329,1,0,0:0:0:0:
199,229,78491,1,0,0:0:0:0:
199,229,78572,1,0,0:0:0:0:
199,229,78654,1,0,0:0:0:0:
258,41,78816,5,0,0:0:0:0:
258,41,78897,1,0,0:0:0:0:
258,41,78978,1,0,0:0:0:0:
427,117,79140,1,0,0:0:0:0:
427,117,79221,1,0,0:0:0:0:
427,117,79302,1,0,0:0:0:0:
311,278,79464,5,0,0:0:0:0:
311,278,80599,1,0,0:0:0:0:
70,194,80924,1,0,0:0:0:0:
70,194,81248,5,0,0:0:0:0:
281,77,81410,1,0,0:0:0:0:
281,77,81735,1,0,0:0:0:0:
186,345,82059,5,0,0:0:0:0:
186,345,83194,1,0,0:0:0:0:
204,111,83518,1,0,0:0:0:0:
204,111,83843,5,0,0:0:0:0:
336,244,84005,1,0,0:0:0:0:
374,27,84329,1,0,0:0:0:0:
374,27,84654,6,0,L|259:37,1,95
91,61,84978,1,0,0:0:0:0:
91,61,85302,5,0,0:0:0:0:
164,266,85464,1,0,0:0:0:0:
281,46,85626,5,0,0:0:0:0:
59,139,85789,1,0,0:0:0:0:
304,192,85951,6,0,P|330:241|328:310,1,95
276,384,86275,1,0,0:0:0:0:
193,254,86437,2,0,L|255:253,1,47.5
417,241,86599,1,0,0:0:0:0:
261,104,86762,5,0,0:0:0:0:
261,104,86843,1,0,0:0:0:0:
261,104,86924,1,0,0:0:0:0:
185,268,87086,1,0,0:0:0:0:
107,205,87248,5,0,0:0:0:0:
92,215,87572,1,0,0:0:0:0:
24,157,87735,1,0,0:0:0:0:
79,87,87897,2,0,L|176:86,1,95
267,31,88221,1,0,0:0:0:0:
190,0,88383,1,0,0:0:0:0:
253,156,88545,2,0,L|355:152,1,95
449,19,88870,6,0,B|436:84|436:84|469:138|469:138|453:212,1,190
419,358,89518,1,0,0:0:0:0:
419,358,89843,6,0,L|326:348,1,66.4999979705811
279,271,90167,2,0,L|212:278,1,66.4999979705811
148,359,90491,1,0,0:0:0:0:
83,207,90654,2,0,L|149:214,1,66.4999979705811
270,123,90978,6,0,L|203:130,1,66.4999979705811
261,38,91302,2,0,L|194:45,1,66.4999979705811
356,151,91626,1,0,0:0:0:0:
439,57,91789,1,0,0:0:0:0:
198,19,92113,1,0,0:0:0:0:
198,19,92437,6,0,L|192:103,1,66.4999979705811
80,86,92762,2,0,L|86:170,1,66.4999979705811
128,261,93086,1,0,0:0:0:0:
3,287,93248,2,0,L|7:220,1,66.4999979705811
144,267,93572,6,0,L|137:356,1,66.4999979705811
229,264,93897,2,0,L|222:353,1,66.4999979705811
131,182,94221,1,0,0:0:0:0:
300,131,94383,1,0,0:0:0:0:
352,327,94708,1,0,0:0:0:0:
352,327,95032,6,0,L|346:254,1,66.4999979705811
438,196,95356,2,0,L|444:123,1,66.4999979705811
350,44,95681,1,0,0:0:0:0:
495,0,95843,2,0,L|500:66,1,66.4999979705811
325,71,96167,6,0,L|330:1,1,66.4999979705811
241,67,96491,2,0,L|246:-3,1,66.4999979705811
316,167,96816,1,0,0:0:0:0:
156,210,96978,1,0,0:0:0:0:
367,365,97302,1,0,0:0:0:0:
367,365,97626,6,0,L|276:352,1,66.4999979705811
239,258,97951,2,0,L|173:267,1,66.4999979705811
77,365,98275,1,0,0:0:0:0:
14,209,98437,2,0,L|79:218,1,66.4999979705811
219,85,98762,6,0,L|153:94,1,66.4999979705811
199,0,99086,2,0,L|133:9,1,66.4999979705811
325,62,99410,1,0,0:0:0:0:
251,212,99572,1,0,0:0:0:0:
34,77,99897,1,0,0:0:0:0:
63,300,100059,5,0,0:0:0:0:
63,300,100140,1,0,0:0:0:0:
63,300,100221,1,0,0:0:0:0:
181,99,100383,1,0,0:0:0:0:
201,365,100545,1,0,0:0:0:0:
448,83,101356,6,0,B|383:95|383:95|329:72|329:72|249:81,1,190
198,210,101843,1,0,0:0:0:0:
331,190,102005,1,0,0:0:0:0:
117,69,102167,1,0,0:0:0:0:
264,79,102329,1,0,0:0:0:0:
185,296,102491,1,0,0:0:0:0:
46,176,102654,2,0,B|105:152|105:152|241:154,1,190
368,157,103140,5,0,0:0:0:0:
223,270,103302,1,0,0:0:0:0:
223,270,103383,1,0,0:0:0:0:
223,270,103464,1,0,0:0:0:0:
399,347,103626,1,0,0:0:0:0:
343,247,103789,1,0,0:0:0:0:
211,367,103951,6,0,P|142:385|14:348,1,190
80,183,104437,2,0,P|110:222|122:275,1,95
121,265,104681,1,0,0:0:0:0:
121,265,104762,1,0,0:0:0:0:
209,108,104924,1,0,0:0:0:0:
268,204,105086,1,0,0:0:0:0:
99,100,105248,6,0,P|128:40|263:14,1,190
358,116,105735,1,0,0:0:0:0:
209,90,105897,1,0,0:0:0:0:
209,90,105978,1,0,0:0:0:0:
209,90,106059,1,0,0:0:0:0:
423,14,106221,5,0,0:0:0:0:
374,236,106383,1,0,0:0:0:0:
279,12,106545,6,0,L|292:225,1,190
168,313,107032,1,0,0:0:0:0:
192,175,107194,1,0,0:0:0:0:
355,315,107356,2,0,B|301:339|301:339|158:338,1,190
168,156,107843,2,0,P|214:192|136:188,1,190
120,57,108329,5,0,0:0:0:0:
319,125,108491,1,0,0:0:0:0:
319,125,108572,1,0,0:0:0:0:
319,125,108654,1,0,0:0:0:0:
116,201,108816,1,0,0:0:0:0:
243,7,108978,1,0,0:0:0:0:
278,205,109140,6,0,B|373:240|371:167|484:204,1,190
319,125,109626,1,0,0:0:0:0:
431,279,109789,1,0,0:0:0:0:
431,279,109870,1,0,0:0:0:0:
431,279,109951,2,0,P|447:333|444:372,1,95
241,313,110275,1,0,0:0:0:0:
331,138,110437,6,0,B|334:273|334:273|315:220,1,190
223,70,110924,5,0,0:0:0:0:
418,90,111086,1,0,0:0:0:0:
235,217,111248,5,0,0:0:0:0:
286,4,111410,1,0,0:0:0:0:
342,272,111572,1,0,0:0:0:0:
202,70,111735,6,0,B|151:56|151:56|98:132|159:189,1,190
318,257,112221,1,0,0:0:0:0:
165,324,112383,1,0,0:0:0:0:
280,107,112545,1,0,0:0:0:0:
278,348,112708,1,0,0:0:0:0:
151,181,112870,1,0,0:0:0:0:
443,222,113032,5,0,0:0:0:0:
97,52,113518,6,0,B|128:167|15:195|86:347|86:347|147:265|92:182,1,456
19,99,114654,1,0,0:0:0:0:
192,37,114816,1,0,0:0:0:0:
229,243,114978,5,0,0:0:0:0:
211,245,115059,1,0,0:0:0:0:
194,247,115140,1,0,0:0:0:0:
7,281,115302,1,0,0:0:0:0:
158,108,115464,1,0,0:0:0:0:
259,353,115626,1,0,0:0:0:0:
364,160,115789,6,0,L|384:326,1,152
382,310,116275,1,0,0:0:0:0:
470,127,116437,2,0,L|471:209,1,76
364,52,116762,1,0,0:0:0:0:
364,52,117086,6,0,L|276:45,1,76
245,143,117410,2,0,L|170:150,1,76
59,36,117735,2,0,L|136:50,1,76
19,193,118059,1,0,0:0:0:0:
19,193,118383,6,0,P|3:238|13:269,1,76
108,307,118708,2,0,P|124:352|114:383,1,76
218,233,119032,1,0,0:0:0:0:
103,203,119194,1,0,0:0:0:0:
216,346,119356,1,0,0:0:0:0:
216,346,119681,6,0,L|296:343,1,76
300,244,120005,2,0,L|375:246,1,76
503,360,120329,2,0,L|427:362,1,76
510,234,120654,1,0,0:0:0:0:
510,234,120978,6,0,L|499:73,1,152
499,82,121464,1,0,0:0:0:0:
395,245,121626,2,0,L|404:164,1,76
480,356,121951,1,0,0:0:0:0:
480,356,122275,6,0,L|396:350,1,76
362,244,122599,2,0,L|286:249,1,76
145,355,122924,2,0,L|229:361,1,76
80,232,123248,1,0,0:0:0:0:
80,232,123572,6,0,P|69:186|80:151,1,76
176,95,123897,2,0,P|187:49|176:14,1,76
276,181,124221,1,0,0:0:0:0:
158,208,124383,1,0,0:0:0:0:
302,69,124545,2,0,P|349:62|388:66,1,76
481,160,124870,5,0,0:0:0:0:
349,142,125032,1,0,0:0:0:0:
496,238,125194,1,0,0:0:0:0:
366,225,125356,1,0,0:0:0:0:
484,84,125518,2,0,L|480:166,1,76
471,345,125843,1,0,0:0:0:0:
471,345,126167,6,0,P|432:317|322:331,1,152
269,384,126654,2,0,P|195:398|130:362,1,152
122,237,127140,1,0,0:0:0:0:
240,186,127302,5,0,0:0:0:0:
240,186,127383,1,0,0:0:0:0:
240,186,127464,2,0,L|224:271,1,76
91,143,127789,2,0,L|107:228,1,76
144,38,128113,2,0,P|93:25|58:31,1,76
178,123,128437,1,0,0:0:0:0:
178,123,128762,6,0,L|331:114,1,152
282,13,129248,2,0,L|433:21,1,152
478,154,129735,1,0,0:0:0:0:
329,114,129897,1,0,0:0:0:0:
281,289,130059,5,0,0:0:0:0:
309,288,130140,1,0,0:0:0:0:
337,287,130221,1,0,0:0:0:0:
366,286,130302,1,0,0:0:0:0:
395,284,130383,2,0,L|488:278,1,76
204,150,130708,5,0,0:0:0:0:
232,150,130789,1,0,0:0:0:0:
260,151,130870,1,0,0:0:0:0:
289,152,130951,1,0,0:0:0:0:
318,154,131032,2,0,L|411:160,1,76
490,374,131356,5,0,0:0:0:0:
51,308,136383,6,0,L|175:302,1,113.999996520996
352,289,136708,1,0,0:0:0:0:
192,114,136870,5,0,0:0:0:0:
165,333,137032,1,0,0:0:0:0:
283,98,137194,5,0,0:0:0:0:
256,317,137356,1,0,0:0:0:0:
377,85,137518,5,0,0:0:0:0:
211,224,137680,1,0,0:0:0:0:
476,248,137843,1,0,0:0:0:0:
287,49,138005,6,0,L|287:180,1,113.999996520996
279,326,138329,1,0,0:0:0:0:
158,164,138491,5,0,0:0:0:0:
418,157,138654,1,0,0:0:0:0:
151,25,138816,1,0,0:0:0:0:
413,25,138978,6,0,L|413:156,1,113.999996520996
418,314,139302,1,0,0:0:0:0:
270,126,139464,5,0,0:0:0:0:
505,156,139626,1,0,0:0:0:0:
277,49,139789,5,0,0:0:0:0:
512,79,139951,1,0,0:0:0:0:
327,209,140113,5,0,0:0:0:0:
450,16,140275,1,0,0:0:0:0:
448,285,140437,1,0,0:0:0:0:
369,116,140599,6,0,P|304:107|258:127,1,113.999996520996
93,235,140924,2,0,P|145:254|201:244,1,113.999996520996
250,103,141248,1,0,0:0:0:0:
357,260,141410,1,0,0:0:0:0:
357,260,141491,1,0,0:0:0:0:
357,260,141572,1,0,0:0:0:0:
424,69,141735,6,0,L|311:51,1,113.999996520996
145,233,142059,2,0,L|258:215,1,113.999996520996
52,158,142383,5,0,0:0:0:0:
135,336,142545,1,0,0:0:0:0:
207,74,142708,1,0,0:0:0:0:
288,298,142870,5,0,0:0:0:0:
288,298,142951,1,0,0:0:0:0:
288,298,143032,2,0,P|348:317|410:299,1,113.999996520996
413,84,143356,2,0,P|353:65|291:83,1,113.999996520996
182,211,143681,1,0,0:0:0:0:
344,154,143843,1,0,0:0:0:0:
135,57,144005,1,0,0:0:0:0:
364,160,144167,1,0,0:0:0:0:
210,21,144329,6,0,L|203:217,1,170.999994781494
195,297,144654,1,0,0:0:0:0:
336,142,144816,5,0,0:0:0:0:
121,83,144978,1,0,0:0:0:0:
399,68,145140,5,0,0:0:0:0:
182,144,145302,1,0,0:0:0:0:
426,216,145464,1,0,0:0:0:0:
290,38,145626,5,0,0:0:0:0:
265,66,145707,1,0,0:0:0:0:
255,102,145788,1,0,0:0:0:0:
261,140,145869,1,0,0:0:0:0:
276,171,145951,1,0,0:0:0:0:
301,187,146032,1,0,0:0:0:0:
324,190,146113,1,0,0:0:0:0:
176,299,146275,1,0,0:0:0:0:
176,299,146356,1,0,0:0:0:0:
176,299,146437,1,0,0:0:0:0:
361,367,146599,1,0,0:0:0:0:
361,367,146680,1,0,0:0:0:0:
361,367,146761,1,0,0:0:0:0:
136,172,146924,5,0,0:0:0:0:
97,189,147005,1,0,0:0:0:0:
72,220,147086,1,0,0:0:0:0:
57,251,147167,1,0,0:0:0:0:
55,284,147248,1,0,0:0:0:0:
65,309,147329,1,0,0:0:0:0:
84,325,147410,1,0,0:0:0:0:
246,225,147572,2,0,P|249:142|154:66,1,190
50,84,148059,1,0,0:0:0:0:
50,84,148383,5,0,0:0:0:0:
269,83,148545,1,0,0:0:0:0:
55,195,148708,1,0,0:0:0:0:
333,190,148870,5,0,0:0:0:0:
146,93,149032,1,0,0:0:0:0:
345,17,149194,1,0,0:0:0:0:
202,204,149356,1,0,0:0:0:0:
379,293,149518,5,0,0:0:0:0:
418,276,149599,1,0,0:0:0:0:
443,245,149680,1,0,0:0:0:0:
458,214,149761,1,0,0:0:0:0:
462,183,149842,1,0,0:0:0:0:
453,156,149923,1,0,0:0:0:0:
442,137,150004,1,0,0:0:0:0:
255,195,150167,2,0,P|223:273|283:385,1,190
391,374,150654,1,0,0:0:0:0:
391,374,150978,5,0,0:0:0:0:
185,291,151140,1,0,0:0:0:0:
425,249,151302,1,0,0:0:0:0:
140,171,151464,5,0,0:0:0:0:
329,279,151626,1,0,0:0:0:0:
72,349,151789,1,0,0:0:0:0:
241,152,151951,1,0,0:0:0:0:
241,152,152032,1,0,0:0:0:0:
241,152,152113,6,0,L|234:263,1,95
58,67,152437,2,0,L|65:178,1,95
310,37,152762,5,0,0:0:0:0:
104,3,152924,1,0,0:0:0:0:
390,13,153086,5,0,0:0:0:0:
152,86,153248,1,0,0:0:0:0:
387,138,153410,6,0,P|419:202|398:292,1,142.5
375,274,153735,2,0,L|265:275,1,95
160,147,154059,1,0,0:0:0:0:
293,179,154221,1,0,0:0:0:0:
79,320,154383,2,0,L|76:212,1,95
230,73,154708,5,0,0:0:0:0:
197,245,154870,1,0,0:0:0:0:
165,11,155032,2,0,P|215:-10|307:30,1,142.5
336,106,155356,5,0,0:0:0:0:
97,133,155518,1,0,0:0:0:0:
355,241,155681,6,0,L|281:240,1,47.5
71,239,155843,1,0,0:0:0:0:
71,239,156167,5,0,0:0:0:0:
181,51,156329,1,0,0:0:0:0:
227,318,156491,1,0,0:0:0:0:
316,130,156654,5,0,0:0:0:0:
349,118,156735,1,0,0:0:0:0:
384,114,156816,1,0,0:0:0:0:
422,115,156897,1,0,0:0:0:0:
454,127,156978,1,0,0:0:0:0:
501,318,157140,6,0,L|371:314,1,113.999996520996
188,316,157464,1,0,0:0:0:0:
350,93,157626,5,0,0:0:0:0:
306,338,157789,1,0,0:0:0:0:
222,40,157951,5,0,0:0:0:0:
368,279,158113,1,0,0:0:0:0:
410,8,158275,5,0,0:0:0:0:
291,228,158437,1,0,0:0:0:0:
143,7,158599,5,0,0:0:0:0:
350,93,158762,1,0,0:0:0:0:
105,158,158924,1,0,0:0:0:0:
252,1,159086,6,0,L|253:123,1,95
251,255,159410,1,0,0:0:0:0:
160,80,159572,1,0,0:0:0:0:
348,53,159735,6,0,P|403:49|449:61,1,95
505,182,160059,1,0,0:0:0:0:
228,265,160221,5,0,0:0:0:0:
409,135,160383,1,0,0:0:0:0:
133,125,160545,5,0,0:0:0:0:
377,212,160708,1,0,0:0:0:0:
131,331,160870,5,0,0:0:0:0:
294,147,161032,1,0,0:0:0:0:
66,53,161194,5,0,0:0:0:0:
229,264,161356,1,0,0:0:0:0:
237,6,161518,1,0,0:0:0:0:
69,177,161681,6,0,L|174:173,1,95
345,21,162005,2,0,L|240:17,1,95
123,8,162329,1,0,0:0:0:0:
219,242,162491,6,0,P|244:193|238:150,1,95
52,97,162816,2,0,P|27:146|33:189,1,95
188,322,163140,1,0,0:0:0:0:
139,155,163302,1,0,0:0:0:0:
16,374,163464,2,0,L|125:372,1,95
199,228,163789,6,0,L|293:229,1,95
452,348,164113,2,0,L|357:349,1,95
293,131,164437,2,0,L|387:132,1,95
512,265,164762,2,0,L|417:266,1,95
432,47,165086,6,0,P|481:104|466:195,1,142.5
432,242,165410,1,0,0:0:0:0:
305,10,165572,2,0,P|256:67|271:158,1,142.5
305,205,165896,1,0,0:0:0:0:
60,99,166059,2,0,L|166:80,1,95
349,43,166383,5,0,0:0:0:0:
349,43,166464,1,0,0:0:0:0:
349,43,166545,1,0,0:0:0:0:
393,217,166708,1,0,0:0:0:0:
393,217,166789,1,0,0:0:0:0:
393,217,166870,1,0,0:0:0:0:
158,131,167032,5,0,0:0:0:0:
158,131,167113,1,0,0:0:0:0:
158,131,167194,1,0,0:0:0:0:
117,324,167356,1,0,0:0:0:0:
117,324,167437,1,0,0:0:0:0:
117,324,167518,1,0,0:0:0:0:
271,164,167681,5,0,0:0:0:0:
271,164,168816,1,0,0:0:0:0:
57,98,169140,1,0,0:0:0:0:
57,98,169464,5,0,0:0:0:0:
106,303,169626,1,0,0:0:0:0:
106,303,169951,1,0,0:0:0:0:
226,87,170275,5,0,0:0:0:0:
226,87,171410,1,0,0:0:0:0:
344,282,171735,1,0,0:0:0:0:
344,282,172059,5,0,0:0:0:0:
447,117,172221,1,0,0:0:0:0:
207,180,172545,1,0,0:0:0:0:
322,65,178059,5,0,0:0:0:0:
116,155,178383,1,0,0:0:0:0:
116,155,178708,5,0,0:0:0:0:
293,209,178870,1,0,0:0:0:0:
179,322,179032,1,0,0:0:0:0:
231,70,179356,5,0,0:0:0:0:
349,282,179681,1,0,0:0:0:0:
349,282,180005,5,0,0:0:0:0:
422,131,180167,1,0,0:0:0:0:
497,240,180329,1,0,0:0:0:0:
298,370,180654,5,0,0:0:0:0:
217,169,180978,1,0,0:0:0:0:
217,169,181302,5,0,0:0:0:0:
108,310,181464,1,0,0:0:0:0:
26,205,181626,1,0,0:0:0:0:
206,62,181951,5,0,0:0:0:0:
422,174,182275,1,0,0:0:0:0:
422,174,182599,5,0,0:0:0:0:
359,36,182762,1,0,0:0:0:0:
275,197,182924,1,0,0:0:0:0:
275,197,183248,6,0,L|278:288,1,76
148,135,183572,2,0,L|145:226,1,76
266,59,183897,1,0,0:0:0:0:
72,26,184059,1,0,0:0:0:0:
287,63,184221,1,0,0:0:0:0:
119,298,184545,6,0,P|100:255|108:217,1,76
289,164,184870,2,0,P|308:207|300:245,1,76
184,361,185194,1,0,0:0:0:0:
389,322,185356,1,0,0:0:0:0:
160,369,185518,1,0,0:0:0:0:
427,99,185843,6,0,L|339:97,1,76
214,5,186167,2,0,L|302:3,1,76
387,190,186491,1,0,0:0:0:0:
215,92,186654,1,0,0:0:0:0:
405,201,186816,1,0,0:0:0:0:
200,213,187140,5,0,0:0:0:0:
288,21,187302,1,0,0:0:0:0:
396,252,187464,1,0,0:0:0:0:
253,105,187626,1,0,0:0:0:0:
138,327,187789,1,0,0:0:0:0:
326,183,187951,1,0,0:0:0:0:
99,72,188113,1,0,0:0:0:0:
200,223,188275,5,0,0:0:0:0:
200,223,188356,1,0,0:0:0:0:
200,223,188437,2,0,L|208:117,1,95
340,301,188762,2,0,L|332:195,1,95
421,72,189086,1,0,0:0:0:0:
421,72,189248,1,0,0:0:0:0:
326,318,189410,2,0,L|318:212,1,95
154,90,189735,5,0,0:0:0:0:
154,90,189897,1,0,0:0:0:0:
308,343,190059,2,0,L|300:237,1,95
248,82,190383,5,0,0:0:0:0:
111,224,190545,1,0,0:0:0:0:
376,270,190708,1,0,0:0:0:0:
225,52,190870,6,0,B|221:90|236:128|236:128|219:170|219:170|233:209|219:246,1,190
90,342,191356,1,0,0:0:0:0:
135,216,191518,1,0,0:0:0:0:
283,347,191681,1,0,0:0:0:0:
243,146,191843,1,0,0:0:0:0:
204,277,192005,1,0,0:0:0:0:
395,193,192167,1,0,0:0:0:0:
179,78,192329,5,0,0:0:0:0:
383,224,192491,2,0,L|380:115,1,95
159,78,192816,1,0,0:0:0:0:
370,239,192978,2,0,L|367:130,1,95
346,15,193302,1,0,0:0:0:0:
136,78,193464,6,0,B|82:103|82:103|238:104,1,190
370,103,193951,1,0,0:0:0:0:
214,212,194113,1,0,0:0:0:0:
408,261,194275,1,0,0:0:0:0:
291,108,194437,1,0,0:0:0:0:
182,304,194599,1,0,0:0:0:0:
418,239,194762,6,0,P|361:201|225:204,1,190
156,337,195248,1,0,0:0:0:0:
306,288,195410,1,0,0:0:0:0:
101,167,195572,1,0,0:0:0:0:
331,182,195735,1,0,0:0:0:0:
64,288,195897,1,0,0:0:0:0:
378,350,196059,1,0,0:0:0:0:
214,108,196221,6,0,B|174:163|219:219|219:219|229:262|188:301,1,190
434,212,196708,2,0,B|415:194|411:163|411:163|345:187|273:153,1,190
64,59,197194,2,0,B|102:20|102:20|133:101|133:101|91:156,1,190
2,240,197681,5,0,0:0:0:0:
164,322,197843,1,0,0:0:0:0:
164,322,197924,1,0,0:0:0:0:
164,322,198005,1,0,0:0:0:0:
284,182,198167,1,0,0:0:0:0:
284,182,198248,1,0,0:0:0:0:
284,182,198329,1,0,0:0:0:0:
92,196,198491,1,0,0:0:0:0:
92,196,198572,1,0,0:0:0:0:
92,196,198654,1,0,0:0:0:0:
402,60,200599,6,0,L|399:130,1,47.5
441,285,200762,1,0,0:0:0:0:
406,269,200843,1,0,0:0:0:0:
369,261,200924,1,0,0:0:0:0:
331,260,201005,1,0,0:0:0:0:
294,267,201086,1,0,0:0:0:0:
259,281,201167,1,0,0:0:0:0:
229,305,201248,6,0,P|177:318|111:306,1,113.999996520996
6,198,201572,1,0,0:0:0:0:
164,19,201735,5,0,0:0:0:0:
127,285,201897,1,0,0:0:0:0:
264,29,202059,5,0,0:0:0:0:
227,295,202221,1,0,0:0:0:0:
364,36,202383,5,0,0:0:0:0:
140,177,202545,1,0,0:0:0:0:
446,194,202708,1,0,0:0:0:0:
264,29,202870,6,0,L|260:150,1,113.999996520996
372,308,203194,2,0,L|368:194,1,113.999996520996
183,104,203518,1,0,0:0:0:0:
256,260,203681,1,0,0:0:0:0:
256,260,203762,1,0,0:0:0:0:
256,260,203843,1,0,0:0:0:0:
373,44,204005,6,0,P|305:24|245:35,1,113.999996520996
146,244,204329,2,0,P|213:263|274:253,1,113.999996520996
83,91,204654,5,0,0:0:0:0:
112,338,204816,1,0,0:0:0:0:
251,82,204978,1,0,0:0:0:0:
361,344,205140,5,0,0:0:0:0:
361,344,205221,1,0,0:0:0:0:
361,344,205302,2,0,L|247:350,1,113.999996520996
455,192,205626,2,0,L|341:186,1,113.999996520996
194,44,205951,1,0,0:0:0:0:
380,94,206113,1,0,0:0:0:0:
166,33,206275,1,0,0:0:0:0:
267,261,206437,1,0,0:0:0:0:
42,130,206599,6,0,L|241:119,1,170.999994781494
300,110,206924,1,0,0:0:0:0:
132,301,207086,5,0,0:0:0:0:
218,40,207248,1,0,0:0:0:0:
311,340,207410,5,0,0:0:0:0:
199,127,207572,1,0,0:0:0:0:
68,371,207735,1,0,0:0:0:0:
210,243,207897,6,0,L|286:232,1,56.9999982604981
327,336,208059,2,0,L|383:344,1,56.9999982604981
457,243,208221,1,0,0:0:0:0:
457,243,208302,1,0,0:0:0:0:
457,243,208383,1,0,0:0:0:0:
322,112,208545,1,0,0:0:0:0:
322,112,208626,1,0,0:0:0:0:
322,112,208708,1,0,0:0:0:0:
463,5,208870,1,0,0:0:0:0:
463,5,208951,1,0,0:0:0:0:
463,5,209032,1,0,0:0:0:0:
401,174,209194,5,0,0:0:0:0:
363,194,209275,1,0,0:0:0:0:
321,200,209356,1,0,0:0:0:0:
280,189,209437,1,0,0:0:0:0:
246,164,209518,2,0,P|216:148|185:143,1,56.9999982604981
50,227,209681,2,0,P|77:220|102:205,1,56.9999982604981
126,46,209843,2,0,B|230:-2|247:101|366:32,1,227.999993041992
470,112,210329,1,0,0:0:0:0:
470,112,210654,5,0,0:0:0:0:
377,293,210817,1,0,0:0:0:0:
323,31,210979,1,0,0:0:0:0:
261,322,211140,5,0,0:0:0:0:
372,140,211302,1,0,0:0:0:0:
460,368,211464,1,0,0:0:0:0:
296,183,211626,1,0,0:0:0:0:
201,382,211789,5,0,0:0:0:0:
221,344,211870,1,0,0:0:0:0:
227,302,211951,1,0,0:0:0:0:
217,261,212032,1,0,0:0:0:0:
191,231,212113,2,0,P|171:197|164:160,1,56.9999982604981
264,52,212275,2,0,P|254:78|239:102,1,56.9999982604981
62,56,212437,2,0,B|45:136|45:136|75:196|75:196|58:287,1,227.999993041992
166,102,212924,1,0,0:0:0:0:
166,102,213248,5,0,0:0:0:0:
388,162,213410,1,0,0:0:0:0:
117,208,213572,1,0,0:0:0:0:
389,57,213735,5,0,0:0:0:0:
315,289,213897,1,0,0:0:0:0:
275,14,214059,1,0,0:0:0:0:
414,165,214221,1,0,0:0:0:0:
414,165,214302,1,0,0:0:0:0:
414,165,214383,6,0,P|433:217|415:282,1,113.999996520996
210,282,214708,2,0,P|191:230|209:165,1,113.999996520996
340,49,215032,5,0,0:0:0:0:
306,300,215194,1,0,0:0:0:0:
179,31,215356,5,0,0:0:0:0:
399,153,215518,1,0,0:0:0:0:
214,197,215681,6,0,L|31:209,1,170.999994781494
18,178,216005,2,0,L|143:187,1,113.999996520996
298,228,216329,1,0,0:0:0:0:
139,284,216491,1,0,0:0:0:0:
267,131,216654,2,0,P|337:132|380:162,1,113.999996520996
451,299,216978,5,0,0:0:0:0:
213,246,217140,1,0,0:0:0:0:
504,372,217302,2,0,P|528:326|500:225,1,142.5
453,188,217626,5,0,0:0:0:0:
357,370,217789,1,0,0:0:0:0:
282,92,217951,6,0,L|278:164,1,47.5
263,360,218113,1,0,0:0:0:0:
263,360,218437,5,0,0:0:0:0:
160,119,218599,1,0,0:0:0:0:
403,250,218762,1,0,0:0:0:0:
93,384,218924,5,0,0:0:0:0:
93,336,219005,1,0,0:0:0:0:
94,289,219086,1,0,0:0:0:0:
95,241,219167,1,0,0:0:0:0:
96,194,219248,1,0,0:0:0:0:
99,33,219410,6,0,P|159:23|218:35,1,95
351,117,219735,1,0,0:0:0:0:
195,253,219897,5,0,0:0:0:0:
294,27,220059,1,0,0:0:0:0:
438,267,220221,5,0,0:0:0:0:
233,110,220383,1,0,0:0:0:0:
512,71,220545,5,0,0:0:0:0:
275,199,220708,1,0,0:0:0:0:
378,7,220870,5,0,0:0:0:0:
339,264,221032,2,0,P|276:289|221:273,1,113.999996520996
68,114,221356,2,0,P|123:105|174:129,1,113.999996520996
220,295,221681,1,0,0:0:0:0:
111,207,221843,1,0,0:0:0:0:
329,52,222005,6,0,L|323:186,1,113.999996520996
315,337,222329,1,0,0:0:0:0:
154,172,222491,5,0,0:0:0:0:
421,250,222654,1,0,0:0:0:0:
107,295,222816,5,0,0:0:0:0:
372,168,222978,1,0,0:0:0:0:
40,176,223140,5,0,0:0:0:0:
336,241,223302,1,0,0:0:0:0:
163,29,223464,5,0,0:0:0:0:
224,221,223626,2,0,P|234:290|205:360,1,113.999996520996
58,148,223951,2,0,L|181:132,1,113.999996520996
449,255,224275,2,0,L|326:239,1,113.999996520996
235,66,224599,1,0,0:0:0:0:
386,14,224762,6,0,P|402:70|384:133,1,113.999996520996
140,125,225086,2,0,P|124:69|142:6,1,113.999996520996
264,223,225410,2,0,L|95:263,1,170.999994781494
11,290,225735,1,0,0:0:0:0:
336,340,225897,1,0,0:0:0:0:
336,340,225978,1,0,0:0:0:0:
336,340,226059,6,0,L|210:339,1,113.999996520996
382,215,226383,2,0,L|495:215,1,113.999996520996
256,121,226708,2,0,L|142:120,1,113.999996520996
360,12,227032,2,0,L|473:12,1,113.999996520996
263,209,227356,6,0,P|212:148|236:40,1,170.999994781494
276,4,227681,1,0,0:0:0:0:
401,283,227843,2,0,P|452:222|428:114,1,170.999994781494
388,78,228168,1,0,0:0:0:0:
170,202,228329,2,0,L|295:210,1,113.999996520996
83,313,228654,5,0,0:0:0:0:
83,313,228735,1,0,0:0:0:0:
83,313,228816,1,0,0:0:0:0:
127,122,228978,1,0,0:0:0:0:
127,122,229059,1,0,0:0:0:0:
127,122,229140,1,0,0:0:0:0:
356,290,229302,5,0,0:0:0:0:
356,290,229383,1,0,0:0:0:0:
356,290,229464,1,0,0:0:0:0:
245,29,229626,1,0,0:0:0:0:
245,29,229707,1,0,0:0:0:0:
245,29,229788,1,0,0:0:0:0:
153,239,229951,5,0,0:0:0:0:
153,239,231086,1,0,0:0:0:0:
349,126,231410,1,0,0:0:0:0:
349,126,231735,5,0,0:0:0:0:
324,327,231897,1,0,0:0:0:0:
324,327,232221,1,0,0:0:0:0:
161,93,232545,5,0,0:0:0:0:
161,93,233681,1,0,0:0:0:0:
428,151,234005,1,0,0:0:0:0:
428,151,234329,5,0,0:0:0:0:
276,270,234491,1,0,0:0:0:0:
311,35,234816,1,0,0:0:0:0:
311,35,235140,6,0,L|178:45,1,113.999996520996
85,180,235464,1,0,0:0:0:0:
85,180,235789,5,0,0:0:0:0:
329,142,235952,1,0,0:0:0:0:
11,109,236114,5,0,0:0:0:0:
283,229,236276,1,0,0:0:0:0:
80,384,236437,6,0,L|84:255,1,113.999996520996
96,83,236762,1,0,0:0:0:0:
269,239,236924,2,0,L|194:245,1,56.9999982604981
5,267,237086,1,0,0:0:0:0:
206,90,237248,5,0,0:0:0:0:
206,90,237329,1,0,0:0:0:0:
206,90,237410,1,0,0:0:0:0:
344,337,237572,1,0,0:0:0:0:
