osu file format v14

[General]
AudioFilename: audio.mp3
AudioLeadIn: 0
PreviewTime: 48003
Countdown: 0
SampleSet: Soft
StackLeniency: 0.7
Mode: 0
LetterboxInBreaks: 0
WidescreenStoryboard: 1

[Editor]
DistanceSpacing: 1.8
BeatDivisor: 4
GridSize: 4
TimelineZoom: 1.1

[Metadata]
Title:PUNCH LINE!
TitleUnicode:PUNCH LINE!
Artist:Shokotan Daisuki Dempagumi
ArtistUnicode:しょこたん♥でんぱ組
Creator:H i r o k i
Version:Normal
Source:パンチライン
Tags:punch line anime japanese
BeatmapID:1945487
BeatmapSetID:915571

[Difficulty]
HPDrainRate:3
CircleSize:3
OverallDifficulty:3
ApproachRate:5
SliderMultiplier:1
SliderTickRate:1

[Events]
//Background and Video events
0,0,"punch-line-wallpapers-26055-7501420.jpg",0,0
//Break Periods
//Storyboard Layer 0 (Background)
//Storyboard Layer 1 (Fail)
//Storyboard Layer 2 (Pass)
//Storyboard Layer 3 (Foreground)
//Storyboard Sound Samples

[TimingPoints]
1625.48421531488,324.324324324324,4,2,0,50,1,0
4220,-90.9090909090909,4,2,0,50,0,0
6814,-83.3333333333333,4,2,0,50,0,0
9409,-76.9230769230769,4,2,0,50,0,0
13138,-66.6666666666667,4,2,0,50,0,0
25301,-125,4,2,0,50,0,0
26274,-100,4,2,0,50,0,0
31138,-125,4,2,0,50,0,0
32111,-100,4,2,0,50,0,0
33084,-125,4,2,0,50,0,0
33733,-100,4,2,0,50,0,0
35355,-153.846153846153,4,2,0,50,0,0
37706,-153.846153846153,4,2,0,5,0,0
37949,-90.9090909090909,4,2,0,50,0,0
43138,-76.9230769230769,4,2,0,50,0,0
47679,-166.666666666667,4,2,0,50,0,0
48166,-66.6666666666667,4,2,0,50,0,1
58706,-111.111111111111,4,2,0,50,0,0
63247,-76.9230769230769,4,2,0,50,0,0

[Colours]
Combo1 : 255,255,255
Combo2 : 255,0,0
Combo3 : 255,99,23
Combo4 : 244,244,0

[HitObjects]
174,125,1625,6,0,L|164:244,1,100
259,283,2274,2,0,L|264:219,1,50
270,136,2760,2,0,P|225:120|156:133,1,100
116,223,3409,2,0,P|144:227|174:223,1,50
89,142,3895,1,0,0:0:0:0:
183,15,4220,6,0,L|172:135,1,110.000003356934
264,176,4869,2,0,L|273:108,1,55.0000016784668
288,22,5355,2,0,P|243:6|170:21,1,110.000003356934
122,120,6004,2,0,P|152:125|186:119,1,55.0000016784668
89,36,6490,1,0,0:0:0:0:
24,143,6814,6,0,L|24:265,1,119.999996337891
127,306,7463,2,0,L|127:244,1,59.9999981689454
122,120,7949,2,0,P|185:101|252:128,1,119.999996337891
341,172,8598,2,0,P|347:135|339:100,1,59.9999981689454
256,202,9084,1,0,0:0:0:0:
226,85,9409,6,0,L|92:73,1,129.999994049073
17,146,10057,2,0,P|16:178|24:209,1,64.9999970245363
159,290,10544,2,0,P|179:222|157:157,1,129.999994049073
63,298,11193,2,0,P|57:342|60:371,1,64.9999970245363
237,345,12003,6,0,P|274:341|308:344,2,64.9999970245363
47,359,13138,6,0,P|58:296|38:195,1,150.000005722046
22,120,13625,2,0,P|80:111|116:124,1,75.0000028610231
209,127,13949,2,0,P|208:177|209:286,2,150.000005722046
206,35,14760,2,0,P|258:27|306:42,1,75.0000028610231
394,61,15084,6,0,P|430:133|382:214,1,150.000005722046
361,227,15571,1,0,0:0:0:0:
312,247,15733,2,0,P|266:279|251:376,1,150.000005722046
352,384,16220,2,0,P|371:336|360:281,1,75.0000028610231
370,189,16544,6,0,P|406:183|443:192,2,75.0000028610231
268,174,17030,2,0,L|268:88,1,75.0000028610231
264,5,17355,2,0,P|182:-9|114:10,1,150.000005722046
21,75,17841,2,0,L|21:0,2,75.0000028610231
36,192,18328,6,0,P|81:183|125:201,1,75.0000028610231
202,255,18652,2,0,P|219:222|223:185,2,75.0000028610231
167,353,19138,2,0,L|246:353,1,75.0000028610231
349,351,19463,2,0,P|364:278|350:204,1,150.000005722046
316,104,19949,2,0,B|355:98|355:98|398:104,1,75.0000028610231
489,134,20274,2,0,L|489:285,1,150.000005722046
364,277,20922,6,0,P|292:296|223:271,1,150.000005722046
169,188,21409,2,0,P|222:169|262:180,1,75.0000028610231
331,196,21733,2,0,P|368:195|401:179,1,75.0000028610231
496,154,22057,2,0,L|496:229,2,75.0000028610231
493,53,22544,2,0,P|455:53|420:65,2,75.0000028610231
287,101,23030,6,0,B|279:57|279:57|242:14,2,75.0000028610231
279,207,23517,6,0,P|326:199|374:216,1,75.0000028610231
415,299,23841,2,0,P|368:307|320:290,2,75.0000028610231
502,272,24328,2,0,L|502:197,1,75.0000028610231
502,95,24652,2,0,B|461:88|461:88|408:100,1,75.0000028610231
326,129,25301,6,0,P|302:74|173:88,1,200
116,149,26274,6,0,P|112:198|126:246,1,100
212,277,26760,2,0,L|212:315,2,25
214,186,27084,2,0,P|243:186|268:191,2,50
112,189,27571,1,0,0:0:0:0:
123,82,27895,6,0,L|235:82,1,100
319,80,28544,2,0,L|319:148,1,50
321,223,28868,2,0,P|266:219|226:169,1,100
216,89,29517,2,0,P|271:93|311:143,1,100
392,157,30166,2,0,P|400:108|377:65,2,100
309,199,31138,5,0,0:0:0:0:
234,141,31463,2,0,L|234:80,2,60
229,241,32111,6,0,P|190:222|165:222,1,50
62,257,32436,2,0,P|81:218|81:193,1,50
106,103,32760,2,0,P|145:122|170:122,1,50
262,138,33084,1,0,0:0:0:0:
209,46,33409,5,0,0:0:0:0:
318,45,33733,2,0,L|368:45,1,50
431,134,34057,2,0,L|368:134,1,50
322,209,34382,1,0,0:0:0:0:
361,361,34706,6,0,P|385:329|411:315,1,50
477,294,35030,1,0,0:0:0:0:
256,192,35355,12,0,37787,0:0:0:0:
256,192,37949,6,0,L|256:78,1,110.000003356934
380,22,38598,2,0,L|380:132,1,110.000003356934
382,269,39247,2,0,P|323:288|263:260,1,110.000003356934
178,219,39895,2,0,P|119:201|60:228,1,110.000003356934
16,154,40544,2,0,L|16:41,1,110.000003356934
140,0,41193,2,0,L|140:113,1,110.000003356934
138,223,41841,6,0,P|183:226|206:219,1,55.0000016784668
247,133,42166,2,0,P|202:130|179:137,1,55.0000016784668
103,147,42490,6,0,P|100:102|107:79,1,55.0000016784668
121,0,42814,2,0,P|107:0|93:1,2,27.5000008392334
212,18,43138,6,0,P|210:57|192:88,1,64.9999970245363
107,139,43463,2,0,P|108:122|112:107,2,32.4999985122681
94,228,43787,6,0,P|88:266|97:299,1,64.9999970245363
135,382,44112,2,0,P|118:380|103:376,2,32.4999985122681
236,372,44436,2,0,L|247:242,1,129.999994049073
358,215,45084,1,0,0:0:0:0:
388,116,45409,2,0,P|404:116|419:120,2,32.4999985122681
295,101,45733,6,0,P|250:112|225:131,1,64.9999970245363
154,185,46057,2,0,P|153:168|156:152,2,32.4999985122681
154,274,46382,6,0,P|165:319|184:344,1,64.9999970245363
273,377,46706,2,0,P|256:377|240:374,2,32.4999985122681
325,311,47030,2,0,L|390:311,1,64.9999970245363
433,229,47355,2,0,L|368:229,1,64.9999970245363
329,147,47679,6,0,L|389:147,1,59.9999981689454
489,153,48166,6,0,P|489:71|411:39,1,150.000005722046
330,48,48652,2,0,L|330:198,1,150.000005722046
215,279,49301,2,0,L|215:125,1,150.000005722046
67,166,49949,6,0,L|67:250,1,75.0000028610231
87,343,50274,2,0,P|50:335|15:347,2,75.0000028610231
195,372,50760,6,0,L|195:221,1,150.000005722046
196,101,51247,2,0,P|276:74|358:122,1,150.000005722046
423,190,51895,2,0,P|343:217|261:169,1,150.000005722046
192,183,52382,2,0,P|161:208|143:252,1,75.0000028610231
110,337,52706,6,0,P|189:321|272:344,1,150.000005722046
385,384,53355,2,0,L|385:226,1,150.000005722046
384,133,53841,2,0,P|346:129|310:139,1,75.0000028610231
210,174,54166,2,0,P|200:209|203:247,2,75.0000028610231
243,83,54652,6,0,P|196:27|123:29,1,150.000005722046
57,104,55138,2,0,L|57:259,1,150.000005722046
153,273,55787,1,0,0:0:0:0:
180,150,56111,6,0,P|265:127|336:157,1,150.000005722046
397,226,56598,2,0,P|325:245|255:222,1,150.000005722046
180,150,57084,1,0,0:0:0:0:
33,115,57409,6,0,P|76:114|103:107,2,37.5000014305115
113,199,57733,2,0,P|70:200|43:207,2,37.5000014305115
22,285,58057,2,0,P|65:284|92:277,2,37.5000014305115
114,368,58382,2,0,P|71:369|44:376,2,37.5000014305115
214,367,58706,5,0,0:0:0:0:
236,260,59841,1,0,0:0:0:0:
144,216,60166,1,0,0:0:0:0:
228,159,60490,1,0,0:0:0:0:
183,137,60652,1,0,0:0:0:0:
267,80,60976,1,0,0:0:0:0:
175,36,61301,5,0,0:0:0:0:
70,94,62436,1,0,0:0:0:0:
162,137,62761,1,0,0:0:0:0:
77,194,63085,1,0,0:0:0:0:
123,216,63247,1,0,0:0:0:0:
38,273,63571,1,0,0:0:0:0:
129,346,63895,6,0,L|199:346,1,64.9999970245363
269,248,64220,2,0,L|199:248,1,64.9999970245363
137,151,64544,1,0,0:0:0:0:
137,151,64706,2,0,L|218:151,2,64.9999970245363
45,174,65193,6,0,L|38:94,1,64.9999970245363
125,74,65517,2,0,L|129:9,1,64.9999970245363
222,32,65841,2,0,P|270:25|312:37,1,64.9999970245363
350,114,66166,2,0,P|317:111|286:118,1,64.9999970245363
