osu file format v14

[General]
AudioFilename: audio.mp3
AudioLeadIn: 0
PreviewTime: 48003
Countdown: 0
SampleSet: Soft
StackLeniency: 0.7
Mode: 0
LetterboxInBreaks: 0
WidescreenStoryboard: 1

[Editor]
DistanceSpacing: 1.2
BeatDivisor: 4
GridSize: 4
TimelineZoom: 1.5

[Metadata]
Title:PUNCH LINE!
TitleUnicode:PUNCH LINE!
Artist:Shokotan Daisuki Dempagumi
ArtistUnicode:しょこたん♥でんぱ組
Creator:H i r o k i
Version:Insane
Source:パンチライン
Tags:punch line anime japanese
BeatmapID:1916764
BeatmapSetID:915571

[Difficulty]
HPDrainRate:6
CircleSize:3.9
OverallDifficulty:6
ApproachRate:8.9
SliderMultiplier:1
SliderTickRate:1

[Events]
//Background and Video events
0,0,"punch-line-wallpapers-26055-7501420.jpg",0,0
//Break Periods
//Storyboard Layer 0 (Background)
//Storyboard Layer 1 (Fail)
//Storyboard Layer 2 (Pass)
//Storyboard Layer 3 (Foreground)
//Storyboard Sound Samples

[TimingPoints]
1625.48421531488,324.324324324324,4,2,0,50,1,0
4220,-90.9090909090909,4,2,0,50,0,0
6814,-83.3333333333333,4,2,0,50,0,0
9409,-76.9230769230769,4,2,0,50,0,0
13138,-66.6666666666667,4,2,0,50,0,0
25301,-125,4,2,0,50,0,0
26274,-100,4,2,0,50,0,0
31138,-125,4,2,0,50,0,0
32111,-100,4,2,0,50,0,0
33084,-125,4,2,0,50,0,0
33733,-100,4,2,0,50,0,0
35355,-153.846153846153,4,2,0,50,0,0
37949,-90.9090909090909,4,2,0,50,0,0
43138,-76.9230769230769,4,2,0,50,0,0
47679,-166.666666666667,4,2,0,50,0,0
48166,-66.6666666666667,4,2,0,50,0,1
58706,-111.111111111111,4,2,0,50,0,0
63247,-76.9230769230769,4,2,0,50,0,0

[Colours]
Combo1 : 255,255,255
Combo2 : 255,0,0
Combo3 : 255,99,23
Combo4 : 244,244,0

[HitObjects]
287,315,1625,6,0,P|282:273|271:250,1,50
357,249,1949,2,0,P|362:207|373:184,1,50
415,144,2274,1,0,0:0:0:0:
474,188,2436,2,0,L|474:250,1,50
415,144,2760,6,0,L|415:82,1,50
337,17,3084,2,0,L|337:67,1,50
314,138,3409,1,0,0:0:0:0:
254,83,3571,2,0,P|234:119|213:133,1,50
143,165,3895,1,0,0:0:0:0:
51,94,4220,6,0,P|83:88|111:94,1,55.0000016784668
223,165,4544,2,0,P|192:172|165:165,1,55.0000016784668
194,91,4868,1,0,0:0:0:0:
282,94,5030,2,0,P|315:124|323:147,1,55.0000016784668
287,260,5355,6,0,L|292:192,1,55.0000016784668
208,174,5679,2,0,L|202:106,1,55.0000016784668
196,21,6003,1,0,0:0:0:0:
196,21,6166,2,0,P|235:14|258:21,1,55.0000016784668
349,69,6490,1,0,0:0:0:0:
275,166,6814,6,0,L|269:101,1,59.9999981689454
133,132,7138,2,0,L|202:138,1,59.9999981689454
200,55,7463,1,0,0:0:0:0:
112,33,7625,2,0,L|42:39,1,59.9999981689454
25,139,7949,6,0,P|37:177|35:209,1,59.9999981689454
132,210,8274,2,0,P|120:248|122:280,1,59.9999981689454
181,341,8598,1,0,0:0:0:0:
269,240,8760,2,0,L|265:300,1,59.9999981689454
201,225,9084,1,0,0:0:0:0:
360,174,9409,6,0,L|366:99,1,64.9999970245363
477,100,9733,2,0,L|470:25,1,64.9999970245363
372,18,10057,1,0,0:0:0:0:
365,109,10220,2,0,L|360:174,1,64.9999970245363
347,300,10544,6,0,L|276:293,1,64.9999970245363
183,184,10868,2,0,L|253:190,1,64.9999970245363
356,227,11193,1,0,0:0:0:0:
331,119,11355,1,0,0:0:0:0:
255,223,11517,2,0,L|258:261,2,32.4999985122681
180,152,11841,2,0,L|176:113,1,32.4999985122681
78,27,12003,5,0,0:0:0:0:
53,162,12166,1,0,0:0:0:0:
202,48,12328,1,0,0:0:0:0:
163,246,13138,6,0,L|237:252,1,75.0000028610231
339,162,13463,1,0,0:0:0:0:
339,162,13625,2,0,L|264:155,1,75.0000028610231
133,143,13949,1,0,0:0:0:0:
201,191,14111,1,0,0:0:0:0:
209,109,14274,1,0,0:0:0:0:
58,178,14436,2,0,P|60:220|67:273,1,75.0000028610231
65,95,14760,5,0,0:0:0:0:
126,226,14922,1,0,0:0:0:0:
185,58,15084,6,0,P|228:51|269:58,1,75.0000028610231
346,100,15409,1,0,0:0:0:0:
268,149,15571,1,0,0:0:0:0:
258,55,15733,2,0,P|177:71|153:134,1,150.000005722046
195,219,16220,2,0,P|228:190|237:147,1,75.0000028610231
246,31,16544,6,0,P|287:49|330:46,1,75.0000028610231
434,32,16868,1,0,0:0:0:0:
434,32,17030,2,0,L|441:114,1,75.0000028610231
421,197,17355,1,0,0:0:0:0:
354,135,17517,1,0,0:0:0:0:
441,107,17679,1,0,0:0:0:0:
401,287,17841,5,0,0:0:0:0:
267,163,18003,1,0,0:0:0:0:
441,107,18165,1,0,0:0:0:0:
308,39,18328,6,0,L|223:46,1,75.0000028610231
161,158,18652,1,0,0:0:0:0:
161,158,18814,2,0,L|153:77,1,75.0000028610231
59,239,19138,2,0,L|66:158,1,75.0000028610231
157,300,19463,1,0,0:0:0:0:
157,300,19625,2,0,L|149:219,1,75.0000028610231
119,87,19949,5,0,0:0:0:0:
44,270,20111,1,0,0:0:0:0:
142,156,20274,6,0,P|183:150|218:156,1,75.0000028610231
293,243,20598,1,0,0:0:0:0:
317,146,20760,1,0,0:0:0:0:
389,215,20922,2,0,P|334:263|324:353,1,150.000005722046
462,354,21409,6,0,P|468:309|459:265,1,75.0000028610231
389,215,21733,2,0,P|383:170|392:126,1,75.0000028610231
455,60,22057,1,0,0:0:0:0:
455,60,22220,2,0,P|418:53|380:58,1,75.0000028610231
305,100,22544,5,0,0:0:0:0:
379,143,22706,1,0,0:0:0:0:
380,58,22868,1,0,0:0:0:0:
304,184,23030,5,0,0:0:0:0:
453,101,23193,1,0,2:0:0:0:
307,15,23355,1,0,0:0:0:0:
379,143,23517,6,0,P|341:151|297:142,1,75.0000028610231
229,30,23841,1,0,0:0:0:0:
199,179,24003,2,0,L|192:258,1,75.0000028610231
57,158,24328,2,0,P|115:151|160:165,1,75.0000028610231
84,229,24652,1,0,0:0:0:0:
170,70,24814,1,0,0:0:0:0:
261,184,25301,6,0,B|220:154|161:179|161:179|110:199|64:156,1,200
209,245,26274,5,0,0:0:0:0:
212,97,26436,1,0,0:0:0:0:
338,172,26598,1,0,0:0:0:0:
341,25,26760,1,0,0:0:0:0:
341,25,26841,1,0,0:0:0:0:
341,25,26922,5,0,0:0:0:0:
161,73,27084,1,0,0:0:0:0:
341,121,27247,1,0,0:0:0:0:
161,169,27409,1,0,0:0:0:0:
156,0,27571,1,0,0:0:0:0:
63,180,27895,6,0,L|57:115,1,50
149,135,28220,2,0,L|154:69,1,50
242,96,28544,2,0,L|236:30,1,50
322,148,28868,6,0,L|317:197,1,50
229,175,29193,2,0,L|233:224,1,50
146,202,29517,2,0,L|141:251,1,50
53,234,29841,2,0,L|57:283,1,50
7,180,30166,6,0,P|60:163|106:180,1,100
188,284,30652,2,0,P|135:301|89:284,1,100
188,168,31138,2,0,L|188:226,1,40
120,133,31463,2,0,P|156:93|175:88,2,60
88,202,32111,6,0,P|117:209|150:202,1,50
182,276,32436,2,0,P|208:262|229:236,1,50,0|0,2:0|2:0,0:0:0:0:
300,270,32760,2,0,P|311:242|310:208,1,50,0|0,2:0|2:0,0:0:0:0:
285,151,33084,2,0,P|315:143|339:147,1,40
401,157,33409,1,0,0:0:0:0:
448,248,33733,6,0,P|396:234|349:254,2,100
478,181,34706,2,0,L|478:74,1,100
387,36,35355,2,0,B|345:24|306:38|306:38|265:49|223:36,1,162.499992561341
116,42,36328,1,0,0:0:0:0:
124,233,36652,5,0,0:0:0:0:
226,37,36976,1,0,0:0:0:0:
124,233,37301,5,0,0:0:0:0:
175,134,37463,1,0,0:0:0:0:
64,140,37625,1,0,0:0:0:0:
73,332,37949,6,0,L|18:327,1,55.0000016784668
149,268,38274,2,0,L|203:263,1,55.0000016784668
81,195,38598,2,0,L|26:190,1,55.0000016784668
154,128,38922,2,0,L|208:123,1,55.0000016784668
343,150,39247,6,0,L|282:155,1,55.0000016784668
141,223,39571,2,0,L|201:228,1,55.0000016784668
337,304,39895,2,0,L|276:309,1,55.0000016784668
132,374,40220,2,0,L|192:379,1,55.0000016784668
209,297,40544,6,0,L|154:292,1,55.0000016784668
277,239,40869,2,0,L|332:233,1,55.0000016784668
216,173,41193,2,0,L|160:166,1,55.0000016784668
281,113,41517,2,0,L|335:107,1,55.0000016784668
425,110,41841,5,0,0:0:0:0:
377,187,42003,1,0,0:0:0:0:
335,107,42166,1,0,0:0:0:0:
420,268,42328,5,0,0:0:0:0:
286,183,42490,1,0,0:0:0:0:
427,110,42652,1,0,0:0:0:0:
328,264,42814,2,0,L|308:297,2,27.5000008392334
406,137,43138,6,0,P|364:131|321:140,1,64.9999970245363
225,181,43463,2,0,P|209:177|196:169,2,32.4999985122681
335,276,43787,6,0,P|293:282|250:273,1,64.9999970245363
154,231,44112,2,0,P|138:235|124:243,2,32.4999985122681
302,196,44436,6,0,P|312:156|304:121,1,64.9999970245363
182,184,44760,2,0,P|208:165|239:158,1,64.9999970245363
231,295,45084,2,0,P|240:264|237:231,1,64.9999970245363
158,105,45409,6,0,P|153:89|145:75,2,32.4999985122681
154,260,45733,2,0,P|156:292|150:324,1,64.9999970245363
43,165,46057,6,0,P|47:149|55:135,2,32.4999985122681
47,320,46381,2,0,P|44:352|50:384,1,64.9999970245363
56,145,46706,2,0,P|48:159|43:175,2,32.4999985122681
207,32,47030,5,0,0:0:0:0:
297,188,47355,5,0,0:0:0:0:
117,188,47679,6,0,P|114:163|115:153,2,29.9999990844727
262,251,48166,6,0,L|254:170,1,75.0000028610231
249,91,48490,1,0,0:0:0:0:
107,185,48652,1,0,0:0:0:0:
185,223,48814,1,0,0:0:0:0:
175,54,48976,5,0,0:0:0:0:
104,103,49138,1,0,0:0:0:0:
246,9,49301,1,0,0:0:0:0:
249,91,49463,1,0,0:0:0:0:
97,16,49625,1,0,0:0:0:0:
109,185,49787,6,0,L|109:270,2,75.0000028610231
104,110,50274,1,0,0:0:0:0:
260,177,50436,1,0,0:0:0:0:
175,54,50598,1,0,0:0:0:0:
109,185,50760,6,0,L|103:84,1,75.0000028610231
97,24,51084,1,0,0:0:0:0:
33,160,51247,1,0,0:0:0:0:
104,110,51409,1,0,0:0:0:0:
189,233,51571,5,0,0:0:0:0:
111,196,51733,1,0,0:0:0:0:
47,332,51895,1,0,0:0:0:0:
118,283,52057,1,0,0:0:0:0:
231,384,52220,5,0,0:0:0:0:
231,384,52382,2,0,L|231:309,1,75.0000028610231
129,257,52706,2,0,P|161:225|223:221,1,75.0000028610231
334,198,53030,2,0,P|302:166|240:162,1,75.0000028610231
113,108,53355,2,0,P|145:76|207:72,1,75.0000028610231
263,69,53679,1,0,0:0:0:0:
173,67,53841,6,0,P|138:80|114:108,1,75.0000028610231
274,157,54166,2,0,P|309:170|334:198,1,75.0000028610231
374,278,54490,1,0,0:0:0:0:
437,203,54652,2,0,P|452:127|395:53,1,150.000005722046
320,73,55138,6,0,P|328:21|352:-2,1,75.0000028610231
230,127,55463,2,0,P|222:75|198:52,1,75.0000028610231
129,226,55787,2,0,P|137:174|161:151,1,75.0000028610231
228,217,56111,6,0,L|228:295,1,75.0000028610231
160,331,56436,1,0,0:0:0:0:
295,257,56598,2,0,P|338:246|386:258,1,75.0000028610231
338,327,56922,1,0,0:0:0:0:
396,173,57084,2,0,L|307:173,1,75.0000028610231
161,96,57409,6,0,P|158:56|160:43,2,37.5000014305115
174,193,57733,1,0,0:0:0:0:
251,134,57895,1,0,0:0:0:0:
84,155,58057,1,0,0:0:0:0:
186,290,58220,1,0,0:0:0:0:
96,252,58382,1,0,0:0:0:0:
263,231,58544,1,0,0:0:0:0:
41,333,58706,1,0,0:0:0:0:
256,192,59841,5,0,0:0:0:0:
100,126,60166,1,0,0:0:0:0:
236,24,60490,1,0,0:0:0:0:
247,109,60652,1,0,0:0:0:0:
100,126,60976,1,0,0:0:0:0:
255,192,61301,5,0,0:0:0:0:
255,192,62436,1,0,0:0:0:0:
121,294,62760,1,0,0:0:0:0:
100,127,63084,1,0,0:0:0:0:
152,195,63247,1,0,0:0:0:0:
48,59,63571,2,0,P|93:51|120:58,1,64.9999970245363
247,122,63895,6,0,L|253:47,1,64.9999970245363
413,13,64220,2,0,L|406:87,1,64.9999970245363
355,164,64544,1,0,0:0:0:0:
307,72,64706,1,0,0:0:0:0:
253,160,64868,2,0,L|253:251,1,64.9999970245363
274,343,65193,6,0,P|225:343|191:318,1,64.9999970245363
109,222,65517,2,0,P|158:222|192:247,1,64.9999970245363
136,302,65841,1,0,0:0:0:0:
206,154,66003,1,0,0:0:0:0:
252,222,66166,1,0,0:0:0:0:
160,86,66328,2,0,P|121:88|68:164,1,129.999994049073
