osu file format v14

[General]
AudioFilename: audio.mp3
AudioLeadIn: 0
PreviewTime: 21239
Countdown: 0
SampleSet: Normal
StackLeniency: 0.7
Mode: 1
LetterboxInBreaks: 0
WidescreenStoryboard: 1

[Editor]
DistanceSpacing: 2
BeatDivisor: 2
GridSize: 32
TimelineZoom: 1.399999

[Metadata]
Title:Sorairo Days (Assertive Remix)
TitleUnicode:Sorairo Days (Assertive Remix)
Artist:Shoko Nakagawa
ArtistUnicode:Shoko Nakagawa
Creator:yea
Version:Kantan
Source:
Tags:electronic techno trance jyake_ou
BeatmapID:1523319
BeatmapSetID:714432

[Difficulty]
HPDrainRate:4
CircleSize:5
OverallDifficulty:3
ApproachRate:5
SliderMultiplier:1.4
SliderTickRate:1

[Events]
//Background and Video events
0,0,"background.png",0,0
//Break Periods
2,193229,206987
//Storyboard Layer 0 (Background)
//Storyboard Layer 1 (Fail)
//Storyboard Layer 2 (Pass)
//Storyboard Layer 3 (Foreground)
//Storyboard Sound Samples

[TimingPoints]
1029.39182515235,315.789473684211,4,1,0,85,1,0
71766,-100,4,1,0,85,0,1
91976,-100,4,1,0,85,0,0
147555,-100,4,1,0,85,0,1
167766,-100,4,1,0,85,0,0
213239,-100,4,1,0,85,0,1
233450,-100,4,1,0,85,0,0

[HitObjects]
256,192,1029,5,0,0:0:0:0:
256,192,1660,1,0,0:0:0:0:
256,192,2292,1,0,0:0:0:0:
256,192,2924,1,0,0:0:0:0:
256,192,3555,1,0,0:0:0:0:
256,192,4187,1,0,0:0:0:0:
256,192,4818,1,0,0:0:0:0:
256,192,5450,1,8,0:0:0:0:
256,192,6082,1,0,0:0:0:0:
256,192,6713,1,0,0:0:0:0:
256,192,7345,1,0,0:0:0:0:
256,192,7976,1,0,0:0:0:0:
256,192,8608,1,0,0:0:0:0:
256,192,9239,1,0,0:0:0:0:
256,192,11134,1,0,0:0:0:0:
256,192,11766,1,0,0:0:0:0:
256,192,12397,1,0,0:0:0:0:
256,192,13029,1,0,0:0:0:0:
256,192,13660,1,0,0:0:0:0:
256,192,14292,1,0,0:0:0:0:
256,192,14924,1,0,0:0:0:0:
256,192,15555,1,8,0:0:0:0:
256,192,16187,1,0,0:0:0:0:
256,192,16818,1,0,0:0:0:0:
256,192,17450,1,0,0:0:0:0:
256,192,18082,1,0,0:0:0:0:
256,192,18713,1,0,0:0:0:0:
256,192,19345,1,0,0:0:0:0:
128,256,19976,2,0,L|320:256,3,140
256,192,21239,1,0,0:0:0:0:
256,192,21871,1,0,0:0:0:0:
256,192,22503,1,8,0:0:0:0:
256,192,23766,1,8,0:0:0:0:
256,192,24397,1,8,0:0:0:0:
256,192,25029,1,8,0:0:0:0:
256,192,26292,1,0,0:0:0:0:
256,192,26924,1,0,0:0:0:0:
256,192,27556,1,8,0:0:0:0:
256,192,28819,1,8,0:0:0:0:
256,192,29450,1,8,0:0:0:0:
256,192,30082,1,8,0:0:0:0:
256,192,31345,1,0,0:0:0:0:
256,192,31977,1,0,0:0:0:0:
256,192,32609,1,8,0:0:0:0:
256,192,33872,1,8,0:0:0:0:
256,192,34503,1,8,0:0:0:0:
256,192,35135,1,8,0:0:0:0:
256,192,36397,1,0,0:0:0:0:
256,192,37029,1,0,0:0:0:0:
256,192,37661,1,8,0:0:0:0:
256,192,38924,1,8,0:0:0:0:
256,192,39555,1,8,0:0:0:0:
256,192,40187,12,0,41134,0:0:0:0:
256,192,41450,5,0,0:0:0:0:
256,192,42713,1,0,0:0:0:0:
256,192,43976,1,0,0:0:0:0:
256,192,45239,1,0,0:0:0:0:
256,192,46503,1,8,0:0:0:0:
256,192,47766,1,8,0:0:0:0:
256,192,49029,1,8,0:0:0:0:
256,192,50292,1,0,0:0:0:0:
256,192,50924,1,0,0:0:0:0:
256,192,51555,1,0,0:0:0:0:
256,192,52187,1,8,0:0:0:0:
256,192,52818,1,0,0:0:0:0:
256,192,53450,1,8,0:0:0:0:
256,192,54082,1,0,0:0:0:0:
256,192,54713,1,8,0:0:0:0:
256,192,55345,1,0,0:0:0:0:
256,192,55976,1,8,0:0:0:0:
256,192,56608,1,0,0:0:0:0:
256,192,57239,1,8,0:0:0:0:
256,192,57871,1,0,0:0:0:0:
256,192,58503,1,8,0:0:0:0:
256,192,59134,1,0,0:0:0:0:
256,192,59766,1,8,0:0:0:0:
256,192,60397,1,0,0:0:0:0:
96,288,61029,2,8,L|256:288,2,140
256,192,62292,1,8,0:0:0:0:
256,192,62924,1,0,0:0:0:0:
256,192,63555,1,8,0:0:0:0:
256,192,64187,1,0,0:0:0:0:
256,192,64818,1,0,0:0:0:0:
256,192,65450,1,8,0:0:0:0:
256,192,66713,1,0,0:0:0:0:
256,192,67345,1,8,0:0:0:0:
256,192,67977,1,0,0:0:0:0:
256,192,68608,1,8,0:0:0:0:
256,192,69240,1,0,0:0:0:0:
256,192,69871,1,0,0:0:0:0:
128,256,70503,2,0,L|288:256,2,140
256,192,71766,1,0,0:0:0:0:
256,192,72397,1,0,0:0:0:0:
256,192,73029,1,0,0:0:0:0:
256,192,73660,1,0,0:0:0:0:
256,192,74292,1,8,0:0:0:0:
256,192,74924,1,8,0:0:0:0:
256,192,75555,1,8,0:0:0:0:
256,192,76187,1,8,0:0:0:0:
256,192,76818,1,0,0:0:0:0:
256,192,77450,1,0,0:0:0:0:
256,192,78082,1,8,0:0:0:0:
256,192,78713,1,8,0:0:0:0:
256,192,79345,1,0,0:0:0:0:
256,192,79976,1,0,0:0:0:0:
256,192,81872,1,0,0:0:0:0:
256,192,82503,1,0,0:0:0:0:
256,192,83135,1,0,0:0:0:0:
256,192,83766,1,0,0:0:0:0:
256,192,84398,1,8,0:0:0:0:
256,192,85030,1,8,0:0:0:0:
256,192,85661,1,8,0:0:0:0:
256,192,86293,1,8,0:0:0:0:
256,192,86924,1,0,0:0:0:0:
256,192,87556,1,0,0:0:0:0:
256,192,88188,1,8,0:0:0:0:
256,192,88819,1,8,0:0:0:0:
256,192,89451,1,0,0:0:0:0:
256,192,90082,1,0,0:0:0:0:
256,192,90713,1,8,0:0:0:0:
256,192,91976,1,0,0:0:0:0:
96,256,94503,2,0,L|288:256,6,140
256,192,97029,1,0,0:0:0:0:
256,192,97661,1,0,0:0:0:0:
256,192,98293,1,8,0:0:0:0:
256,192,99556,1,8,0:0:0:0:
256,192,100187,1,8,0:0:0:0:
256,192,100819,1,8,0:0:0:0:
256,192,102082,1,0,0:0:0:0:
256,192,102714,1,0,0:0:0:0:
256,192,103346,1,8,0:0:0:0:
256,192,104609,1,8,0:0:0:0:
256,192,105240,1,8,0:0:0:0:
256,192,105872,1,8,0:0:0:0:
256,192,107135,1,0,0:0:0:0:
256,192,107767,1,0,0:0:0:0:
256,192,108399,1,8,0:0:0:0:
256,192,109662,1,8,0:0:0:0:
256,192,110293,1,8,0:0:0:0:
256,192,110925,1,8,0:0:0:0:
256,192,112187,1,0,0:0:0:0:
256,192,112819,1,0,0:0:0:0:
256,192,113451,1,8,0:0:0:0:
256,192,114714,1,8,0:0:0:0:
256,192,115345,1,8,0:0:0:0:
256,192,115976,1,8,0:0:0:0:
256,192,116608,1,8,0:0:0:0:
256,192,117240,5,0,0:0:0:0:
256,192,119766,1,0,0:0:0:0:
256,192,120397,1,0,0:0:0:0:
256,192,121029,1,0,0:0:0:0:
256,192,122293,1,8,0:0:0:0:
256,192,122924,1,0,0:0:0:0:
256,192,123556,1,8,0:0:0:0:
256,192,124187,1,8,0:0:0:0:
256,192,124819,1,0,0:0:0:0:
256,192,125450,1,8,0:0:0:0:
256,192,127345,1,0,0:0:0:0:
256,192,127977,1,8,0:0:0:0:
256,192,128608,1,0,0:0:0:0:
256,192,129240,1,8,0:0:0:0:
256,192,129872,1,0,0:0:0:0:
256,192,130503,1,8,0:0:0:0:
256,192,131135,1,0,0:0:0:0:
256,192,131766,1,8,0:0:0:0:
256,192,132398,1,0,0:0:0:0:
256,192,133029,1,8,0:0:0:0:
256,192,133661,1,0,0:0:0:0:
256,192,134293,1,0,0:0:0:0:
256,192,134924,1,8,0:0:0:0:
256,192,135556,1,8,0:0:0:0:
256,192,136187,1,0,0:0:0:0:
96,288,136819,2,8,L|256:288,2,140
256,192,138082,1,8,0:0:0:0:
256,192,138714,1,0,0:0:0:0:
256,192,139345,1,8,0:0:0:0:
256,192,139977,1,0,0:0:0:0:
256,192,140608,1,0,0:0:0:0:
256,192,141240,1,8,0:0:0:0:
256,192,142503,1,0,0:0:0:0:
256,192,143135,1,8,0:0:0:0:
256,192,143767,1,0,0:0:0:0:
256,192,144398,1,8,0:0:0:0:
256,192,145030,1,0,0:0:0:0:
256,192,145661,1,0,0:0:0:0:
128,256,146293,2,0,L|288:256,2,140
256,192,147555,1,0,0:0:0:0:
256,192,148186,1,0,0:0:0:0:
256,192,148818,1,8,0:0:0:0:
256,192,149449,1,8,0:0:0:0:
256,192,150081,1,8,0:0:0:0:
256,192,150713,1,8,0:0:0:0:
256,192,151344,1,0,0:0:0:0:
256,192,151976,1,0,0:0:0:0:
256,192,152607,1,0,0:0:0:0:
256,192,153239,1,0,0:0:0:0:
256,192,153871,1,8,0:0:0:0:
256,192,154502,1,8,0:0:0:0:
256,192,155134,1,0,0:0:0:0:
256,192,155765,1,0,0:0:0:0:
256,192,157661,1,0,0:0:0:0:
256,192,158292,1,0,0:0:0:0:
256,192,158924,1,8,0:0:0:0:
256,192,159555,1,8,0:0:0:0:
256,192,160187,1,0,0:0:0:0:
256,192,160819,1,0,0:0:0:0:
256,192,161450,1,8,0:0:0:0:
256,192,162082,1,8,0:0:0:0:
256,192,162713,1,0,0:0:0:0:
256,192,163345,1,8,0:0:0:0:
256,192,163977,1,8,0:0:0:0:
256,192,164608,1,8,0:0:0:0:
256,192,165240,1,0,0:0:0:0:
256,192,165871,1,0,0:0:0:0:
256,192,166502,1,8,0:0:0:0:
256,192,167765,1,0,0:0:0:0:
96,256,170292,2,0,L|288:256,6,140
256,192,172818,1,0,0:0:0:0:
256,192,173450,1,0,0:0:0:0:
256,192,174082,1,8,0:0:0:0:
256,192,175345,1,8,0:0:0:0:
256,192,175976,1,8,0:0:0:0:
256,192,176608,1,8,0:0:0:0:
256,192,177871,1,0,0:0:0:0:
256,192,178503,1,0,0:0:0:0:
256,192,179135,1,8,0:0:0:0:
256,192,180398,1,8,0:0:0:0:
256,192,181029,1,8,0:0:0:0:
256,192,181661,1,8,0:0:0:0:
256,192,182924,1,0,0:0:0:0:
256,192,183556,1,0,0:0:0:0:
256,192,184188,1,8,0:0:0:0:
256,192,185451,1,8,0:0:0:0:
256,192,186082,1,8,0:0:0:0:
256,192,186714,1,8,0:0:0:0:
256,192,187976,1,0,0:0:0:0:
256,192,188608,1,0,0:0:0:0:
256,192,189240,1,8,0:0:0:0:
256,192,190503,1,8,0:0:0:0:
256,192,191134,1,8,0:0:0:0:
256,192,191765,1,8,0:0:0:0:
256,192,192397,1,8,0:0:0:0:
256,192,193029,5,0,0:0:0:0:
256,192,208187,12,0,212608,0:0:0:0:
256,192,213239,5,0,0:0:0:0:
256,192,213870,1,0,0:0:0:0:
256,192,214503,1,8,0:0:0:0:
256,192,215133,1,0,0:0:0:0:
256,192,215765,1,8,0:0:0:0:
256,192,216397,1,8,0:0:0:0:
256,192,217028,1,0,0:0:0:0:
256,192,217660,1,8,0:0:0:0:
256,192,218291,1,0,0:0:0:0:
256,192,218923,1,0,0:0:0:0:
256,192,219555,1,8,0:0:0:0:
256,192,220186,1,8,0:0:0:0:
256,192,220818,1,0,0:0:0:0:
256,192,221449,1,0,0:0:0:0:
256,192,222082,1,0,0:0:0:0:
256,192,222713,1,0,0:0:0:0:
256,192,223345,1,0,0:0:0:0:
256,192,223976,1,8,0:0:0:0:
256,192,224608,1,0,0:0:0:0:
256,192,225239,1,8,0:0:0:0:
256,192,225871,1,0,0:0:0:0:
256,192,226503,1,8,0:0:0:0:
256,192,227134,1,8,0:0:0:0:
256,192,227766,1,0,0:0:0:0:
256,192,228397,1,8,0:0:0:0:
256,192,229029,1,8,0:0:0:0:
256,192,229661,1,0,0:0:0:0:
256,192,230292,1,0,0:0:0:0:
256,192,230924,1,8,0:0:0:0:
256,192,231555,1,8,0:0:0:0:
256,192,232186,1,0,0:0:0:0:
256,192,233449,1,0,0:0:0:0:
96,256,235976,2,0,L|288:256,6,140
256,192,238503,1,0,0:0:0:0:
256,192,239135,1,0,0:0:0:0:
256,192,239767,1,8,0:0:0:0:
256,192,241030,1,8,0:0:0:0:
256,192,241661,1,8,0:0:0:0:
256,192,242293,1,8,0:0:0:0:
256,192,243556,1,0,0:0:0:0:
256,192,244188,1,0,0:0:0:0:
256,192,244820,1,8,0:0:0:0:
256,192,246083,1,8,0:0:0:0:
256,192,246714,1,8,0:0:0:0:
256,192,247346,1,8,0:0:0:0:
256,192,248609,1,0,0:0:0:0:
256,192,249241,1,0,0:0:0:0:
256,192,249873,1,8,0:0:0:0:
256,192,251136,1,8,0:0:0:0:
256,192,251767,1,8,0:0:0:0:
256,192,252399,1,8,0:0:0:0:
256,192,253661,1,0,0:0:0:0:
256,192,254293,1,0,0:0:0:0:
256,192,254925,1,8,0:0:0:0:
256,192,256188,1,8,0:0:0:0:
256,192,256819,1,8,0:0:0:0:
256,192,257450,1,8,0:0:0:0:
256,192,258082,1,8,0:0:0:0:
256,192,258713,5,0,0:0:0:0:
256,192,259344,1,0,0:0:0:0:
256,192,259976,1,0,0:0:0:0:
256,192,260608,1,0,0:0:0:0:
256,192,261239,1,0,0:0:0:0:
256,192,261871,1,0,0:0:0:0:
256,192,262502,1,0,0:0:0:0:
256,192,263134,1,8,0:0:0:0:
256,192,263766,1,0,0:0:0:0:
256,192,264397,1,0,0:0:0:0:
256,192,265029,1,0,0:0:0:0:
256,192,265660,1,0,0:0:0:0:
256,192,266292,1,0,0:0:0:0:
256,192,266923,1,0,0:0:0:0:
256,192,268818,1,0,0:0:0:0:
256,192,269450,1,0,0:0:0:0:
256,192,270081,1,0,0:0:0:0:
256,192,270713,1,0,0:0:0:0:
256,192,271344,1,0,0:0:0:0:
256,192,271976,1,0,0:0:0:0:
256,192,272608,1,0,0:0:0:0:
256,192,273239,1,8,0:0:0:0:
256,192,273871,1,0,0:0:0:0:
256,192,274502,1,0,0:0:0:0:
256,192,275134,1,0,0:0:0:0:
256,192,275766,1,0,0:0:0:0:
256,192,276397,1,0,0:0:0:0:
256,192,277029,1,0,0:0:0:0:
128,256,277660,2,0,L|320:256,3,140
256,128,278924,1,4,0:0:0:0:
