osu file format v14

[General]
AudioFilename: audio.mp3
AudioLeadIn: 0
PreviewTime: 21243
Countdown: 1
SampleSet: Soft
StackLeniency: 0.3
Mode: 0
LetterboxInBreaks: 1
WidescreenStoryboard: 1

[Editor]
Bookmarks: 21243,41454,51559,71769,91980,97033,117243,122296,147559,167769,172822,193033,213243,233454,238506,258717,278927
DistanceSpacing: 1.3
BeatDivisor: 4
GridSize: 4
TimelineZoom: 2.6

[Metadata]
Title:Sorairo Days (Assertive Remix)
TitleUnicode:Sorairo Days (Assertive Remix)
Artist:Shoko Nakagawa
ArtistUnicode:Shoko Nakagawa
Creator:KoTo
Version:EXTRAKOTO
Source:Tengen Toppa Gurren Lagann
Tags:TTGL Yoko Littner Gainax opening
BeatmapID:952383
BeatmapSetID:439285

[Difficulty]
HPDrainRate:5
CircleSize:4
OverallDifficulty:9
ApproachRate:10
SliderMultiplier:1.8
SliderTickRate:1

[Events]
//Background and Video events
0,0,"sorairo.png",0,0
//Break Periods
//Storyboard Layer 0 (Background)
//Storyboard Layer 1 (Fail)
//Storyboard Layer 2 (Pass)
//Storyboard Layer 3 (Foreground)
//Storyboard Sound Samples

[TimingPoints]
1033,315.789473684211,4,2,2,50,1,0
19980,-66.6666666666667,4,2,2,40,0,0
20611,-80,4,2,2,40,0,0
20927,-50,4,2,2,40,0,0
21243,-66.6666666666667,4,2,2,80,0,1
40822,-57.1428571428571,4,2,2,80,0,1
41454,-80,4,2,2,70,0,0
71138,-57.1428571428571,4,2,2,40,0,0
71375,-80,4,2,2,30,0,0
71769,-80,4,2,2,70,0,0
91980,-100,4,2,2,50,0,0
97033,-64.5161290322581,4,2,2,80,0,1
117243,-80,4,2,2,50,0,0
121664,-80,4,2,2,70,0,0
146927,-57.1428571428571,4,2,2,70,0,0
147164,-80,4,2,2,30,0,0
147559,-80,4,2,2,70,0,0
167769,-100,4,2,2,50,0,0
170296,-100,4,2,2,60,0,0
171085,-86.9565217391304,4,2,2,70,0,0
171243,-100,4,2,2,70,0,0
171401,-76.9230769230769,4,2,2,70,0,0
171559,-100,4,2,2,70,0,0
172822,-62.5,4,2,2,80,0,1
193033,-90.9090909090909,4,2,2,50,0,0
212611,-66.6666666666667,4,2,2,40,0,0
212848,-90.9090909090909,4,2,2,30,0,0
213243,-80,4,2,2,70,0,0
233454,-100,4,2,2,50,0,0
235980,-100,4,2,2,65,0,0
238506,-60.6060606060606,4,2,2,80,0,1
258717,-80,4,2,2,70,0,0
267559,-80,4,2,2,50,0,0
268822,-80,4,2,2,70,0,0
277664,-57.1428571428571,4,2,2,70,0,0
277980,-80,4,2,2,70,0,0

[HitObjects]
248,128,1033,6,0,P|240:184|252:224,1,90,0|2,1:2|0:2,0:2:0:0:
328,324,1348,1,8,1:2:0:0:
428,236,1506,1,2,0:2:0:0:
447,200,1585,1,8,0:2:0:0:
457,160,1664,1,0,1:2:0:0:
459,119,1743,1,8,0:2:0:0:
447,80,1822,1,10,0:2:0:0:
316,40,1980,2,0,L|204:40,1,90,8|2,1:2|0:2,0:2:0:0:
336,176,2296,5,0,1:2:0:0:
208,304,2454,1,2,0:2:0:0:
248,128,2611,1,8,1:2:0:0:
328,324,2769,1,2,0:2:0:0:
112,340,2927,2,0,P|112:292|128:248,1,90,0|2,1:2|0:2,0:2:0:0:
248,128,3243,2,0,P|200:128|156:112,1,90,8|2,1:2|0:2,0:2:0:0:
216,36,3559,5,0,1:2:0:0:
220,244,3717,1,2,0:2:0:0:
40,140,3875,1,8,1:2:0:0:
216,36,4032,1,2,0:2:0:0:
252,32,4111,1,8,0:2:0:0:
288,32,4190,1,0,1:2:0:0:
324,36,4269,1,8,0:2:0:0:
360,48,4348,1,10,0:2:0:0:
452,147,4506,6,0,P|476:110|487:67,1,90,8|2,1:2|0:2,0:2:0:0:
320,176,4822,2,0,P|296:212|284:268,1,90,0|2,1:2|0:2,0:2:0:0:
380,336,5138,1,8,1:2:0:0:
168,260,5296,1,2,0:2:0:0:
392,240,5454,1,0,1:2:0:0:
212,372,5611,2,0,P|164:384|116:372,1,90,2|8,0:2|1:2,0:2:0:0:
32,292,5927,5,2,0:2:0:0:
32,292,6006,1,0,0:2:0:0:
32,292,6085,2,0,B|12:340|12:340|8:396,1,90,0|2,1:2|0:2,0:2:0:0:
168,260,6401,2,0,B|188:212|188:212|192:156,1,90,8|2,1:2|0:2,0:2:0:0:
188,144,6638,1,8,0:2:0:0:
180,112,6717,1,0,1:2:0:0:
164,84,6796,1,8,0:2:0:0:
144,60,6875,1,10,0:2:0:0:
7,183,7033,2,0,L|99:193,1,90,8|2,1:2|0:2,0:2:0:0:
332,280,7348,2,0,L|220:268,1,90,0|2,1:2|0:2,0:2:0:0:
92,304,7664,5,8,1:2:0:0:
228,152,7822,1,2,0:2:0:0:
232,356,7980,1,0,1:2:0:0:
97,193,8138,1,2,0:2:0:0:
304,256,8296,1,8,1:2:0:0:
108,348,8454,1,2,0:2:0:0:
48,128,8611,2,0,P|92:120|148:128,1,90,0|2,1:2|0:2,0:2:0:0:
304,256,8927,2,0,P|323:215|329:159,1,90,8|2,1:2|0:2,0:2:0:0:
346,26,9243,5,8,1:2:0:0:
390,34,9322,1,0,0:2:0:0:
434,26,9401,1,2,0:2:0:0:
478,42,9480,1,0,0:2:0:0:
494,82,9559,1,8,1:2:0:0:
486,126,9638,1,0,0:2:0:0:
474,170,9717,1,2,0:2:0:0:
474,214,9796,1,0,0:2:0:0:
470,258,9875,6,0,B|458:330|458:330|478:306,1,90,12|8,1:2|0:2,0:2:0:0:
408,168,10190,2,0,B|420:96|420:96|400:120,1,90,0|8,0:2|0:2,0:2:0:0:
276,292,10506,2,0,B|204:304|204:304|228:284,1,90,0|8,0:2|0:2,0:2:0:0:
248,40,10822,2,0,B|320:28|320:28|296:48,1,90,0|8,1:2|0:2,0:2:0:0:
148,172,11138,5,4,1:2:0:0:
20,36,11296,1,2,0:2:0:0:
40,240,11454,5,8,1:2:0:0:
176,84,11611,1,2,0:2:0:0:
213,108,11689,1,8,0:2:0:0:
235,147,11768,1,0,1:2:0:0:
238,191,11847,1,8,0:2:0:0:
221,232,11926,1,10,0:2:0:0:
152,376,12085,2,0,L|252:348,1,90,8|2,1:2|0:2,0:2:0:0:
436,284,12401,5,0,1:2:0:0:
320,148,12559,1,2,0:2:0:0:
348,352,12717,1,8,1:2:0:0:
444,168,12875,1,2,0:2:0:0:
244,116,13033,2,0,P|244:160|264:204,1,90,0|2,0:2|0:2,0:2:0:0:
348,352,13348,2,0,L|252:336,1,90,8|2,1:2|0:2,0:2:0:0:
100,208,13664,5,0,1:2:0:0:
140,384,13822,1,2,0:2:0:0:
196,184,13980,1,8,1:2:0:0:
24,300,14138,1,2,0:2:0:0:
68,308,14217,1,8,0:2:0:0:
112,304,14296,1,0,1:2:0:0:
156,292,14375,1,8,0:2:0:0:
192,264,14454,1,10,0:2:0:0:
263,99,14611,6,0,P|222:82|178:83,1,90,8|2,1:2|0:2,0:2:0:0:
372,244,14927,2,0,P|408:260|460:260,1,90,0|2,1:2|0:2,0:2:0:0:
420,140,15243,1,8,1:2:0:0:
220,220,15401,1,2,0:2:0:0:
392,352,15559,1,0,1:2:0:0:
420,140,15717,6,0,P|420:92|400:48,1,90,2|8,0:2|1:2,0:2:0:0:
220,220,16033,1,2,1:2:0:0:
220,220,16111,1,0,1:2:0:0:
220,220,16190,2,0,P|220:268|240:312,1,90,0|2,1:2|0:2,0:2:0:0:
360,328,16506,5,8,1:2:0:0:
140,384,16664,1,2,0:2:0:0:
328,244,16821,5,0,1:2:0:0:
104,256,16979,1,2,0:2:0:0:
336,160,17137,5,8,1:2:0:0:
116,120,17295,1,2,0:2:0:0:
364,76,17454,5,0,1:2:0:0:
152,4,17612,1,2,0:2:0:0:
356,224,17769,5,8,1:2:0:0:
257,24,17927,1,2,0:2:0:0:
293,288,18085,5,0,1:2:0:0:
364,76,18243,1,2,0:2:0:0:
208,264,18401,5,8,1:2:0:0:
408,164,18559,1,2,0:2:0:0:
152,192,18717,5,0,1:2:0:0:
140,160,18796,1,0,0:2:0:0:
140,124,18875,1,2,0:2:0:0:
152,88,18954,1,0,0:2:0:0:
172,60,19033,1,8,1:2:0:0:
204,44,19111,1,0,0:2:0:0:
240,44,19190,1,2,0:2:0:0:
272,60,19269,1,8,0:2:0:0:
292,88,19348,5,0,1:2:0:0:
268,128,19427,1,8,0:2:0:0:
228,148,19506,1,2,0:2:0:0:
184,156,19585,1,0,0:2:0:0:
140,152,19664,1,8,1:2:0:0:
100,136,19743,1,0,0:2:0:0:
68,104,19822,1,2,0:2:0:0:
44,64,19901,1,8,0:2:0:0:
36,20,19980,6,0,B|144:32|144:32|120:64,1,135.000005149842,4|8,1:2|0:2,0:2:0:0:
96,232,20296,2,0,B|-12:220|-12:220|12:188,1,135.000005149842,0|8,0:2|0:2,0:2:0:0:
324,52,20611,2,0,P|336:108|320:164,1,112.5,0|10,0:2|0:2,0:2:0:0:
232,292,20927,2,0,P|212:204|236:116,1,180,0|8,0:2|0:2,0:2:0:0:
408,40,21243,6,0,B|480:24|480:24|452:80|452:152,1,202.500007724762,4|0,1:2|0:2,0:2:0:0:
452,180,21559,2,0,B|459:283|459:283|479:243,1,135.000005149842,8|2,1:2|0:2,0:2:0:0:
308,368,21875,1,0,1:2:0:0:
380,108,22033,1,2,0:2:0:0:
472,360,22190,1,8,1:2:0:0:
224,252,22348,2,0,P|167:240|96:271,1,135.000005149842,2|0,0:2|1:2,0:2:0:0:
308,368,22664,2,0,P|356:336|384:264,1,135.000005149842,2|8,0:2|1:2,0:2:0:0:
264,128,22980,5,2,0:2:0:0:
472,360,23138,1,0,1:2:0:0:
380,108,23296,1,2,0:2:0:0:
240,348,23454,1,8,1:2:0:0:
508,192,23611,1,2,0:2:0:0:
244,28,23769,6,0,B|194:41|148:106|148:106|92:68|92:68|108:52,1,202.500007724762,0|0,1:2|0:2,0:2:0:0:
132,60,24085,2,0,P|148:124|132:204,1,135.000005149842,8|2,1:2|0:2,0:2:0:0:
32,312,24401,1,0,1:2:0:0:
324,208,24559,1,2,0:2:0:0:
64,132,24717,1,8,1:2:0:0:
256,376,24875,6,0,P|320:376|380:324,1,135.000005149842,2|0,0:2|1:2,0:2:0:0:
460,232,25190,2,0,B|493:293|493:293|509:356,1,135.000005149842,2|8,0:2|1:2,0:2:0:0:
324,208,25506,2,0,B|290:146|290:146|274:83,1,135.000005149842,2|8,0:2|0:2,0:2:0:0:
260,40,25743,5,8,0:2:0:0:
236,80,25822,1,10,0:2:0:0:
204,112,25901,1,0,0:2:0:0:
160,128,25980,1,8,1:2:0:0:
112,132,26059,1,0,0:2:0:0:
68,112,26138,1,10,0:2:0:0:
36,76,26217,1,0,0:2:0:0:
8,36,26296,6,0,B|0:180|0:180|48:136,1,202.500007724762,8|0,1:2|0:2,0:2:0:0:
68,112,26611,2,0,B|60:272,1,135.000005149842,8|2,1:2|0:2,0:2:0:0:
120,352,26927,1,0,1:2:0:0:
132,40,27085,1,2,0:2:0:0:
32,336,27243,1,8,1:2:0:0:
340,360,27401,2,0,P|356:300|348:224,1,135.000005149842,2|0,0:2|1:2,0:2:0:0:
304,24,27717,2,0,P|364:40|440:32,1,135.000005149842,2|8,0:2|1:2,0:2:0:0:
496,196,28033,5,2,0:2:0:0:
200,112,28190,1,0,1:2:0:0:
512,100,28348,1,2,0:2:0:0:
340,360,28506,1,8,1:2:0:0:
348,48,28664,1,2,0:2:0:0:
508,316,28822,6,0,B|520:372|520:372|456:340|368:356,1,202.500007724762,0|0,1:2|0:2,0:2:0:0:
340,360,29138,2,0,B|308:356|308:356|368:272,1,135.000005149842,8|2,1:2|0:2,0:2:0:0:
512,100,29454,1,0,1:2:0:0:
252,268,29611,1,2,0:2:0:0:
356,20,29769,1,8,1:2:0:0:
440,276,29927,1,2,0:2:0:0:
228,172,30085,6,0,B|164:196|164:196|112:248,1,135.000005149842,12|2,1:2|0:2,0:2:0:0:
76,280,30322,1,0,0:2:0:0:
68,228,30401,1,8,0:2:0:0:
76,176,30480,1,8,0:2:0:0:
96,124,30559,1,0,0:2:0:0:
132,84,30638,1,8,0:2:0:0:
184,68,30717,6,0,B|280:68|276:24|276:24|228:56,1,135.000005149842,12|8,1:2|0:2,0:2:0:0:
276,88,30954,1,0,0:2:0:0:
320,116,31033,1,8,0:2:0:0:
372,124,31111,1,0,0:2:0:0:
424,108,31190,1,8,0:2:0:0:
460,68,31269,1,0,0:2:0:0:
484,20,31348,6,0,B|500:72|500:72|492:112|492:112|500:160,1,135.000005149842,12|2,1:2|0:2,0:2:0:0:
408,336,31664,2,0,B|392:284|392:284|400:244|400:244|392:196,1,135.000005149842,8|2,1:2|0:2,0:2:0:0:
368,40,31980,1,0,1:2:0:0:
268,248,32138,1,2,0:2:0:0:
496,288,32296,1,8,1:2:0:0:
340,116,32454,2,0,P|272:96|212:116,1,135.000005149842,2|0,0:2|1:2,0:2:0:0:
40,296,32769,2,0,P|108:316|168:296,1,135.000005149842,2|8,0:2|1:2,0:2:0:0:
404,152,33085,5,2,0:2:0:0:
280,364,33243,1,0,1:2:0:0:
308,28,33401,1,2,0:2:0:0:
110,228,33559,1,8,1:2:0:0:
440,296,33717,1,2,0:2:0:0:
108,360,33875,6,0,P|96:296|112:224,1,135.000005149842,0|2,1:2|0:2,0:2:0:0:
215,32,34190,2,0,B|151:59|81:12,1,135.000005149842,8|2,1:2|0:2,0:2:0:0:
372,60,34506,1,0,1:2:0:0:
370,278,34664,1,2,0:2:0:0:
208,124,34822,1,8,1:2:0:0:
452,8,34980,2,0,P|460:76|436:144,1,135.000005149842,2|0,0:2|1:2,0:2:0:0:
288,328,35296,2,0,B|264:356|264:356|391:352,1,135.000005149842,2|8,0:2|1:2,0:2:0:0:
508,212,35612,1,2,0:2:0:0:
372,60,35769,5,8,1:2:0:0:
324,36,35848,1,8,0:2:0:0:
272,28,35927,1,10,0:2:0:0:
220,40,36006,1,0,0:2:0:0:
176,72,36085,1,8,1:2:0:0:
128,92,36164,1,0,0:2:0:0:
76,96,36243,1,10,0:2:0:0:
28,72,36322,1,0,0:2:0:0:
4,24,36401,5,12,1:2:0:0:
160,292,36559,1,2,0:2:0:0:
100,28,36717,5,8,1:2:0:0:
16,328,36875,1,2,0:2:0:0:
308,216,37033,1,0,1:2:0:0:
20,108,37190,1,2,0:2:0:0:
172,380,37348,1,8,1:2:0:0:
300,96,37506,1,2,0:2:0:0:
452,364,37663,5,0,1:2:0:0:
160,256,37821,1,2,0:2:0:0:
428,204,37980,5,8,1:2:0:0:
172,380,38138,1,2,0:2:0:0:
180,68,38296,1,0,1:2:0:0:
348,328,38454,1,2,0:2:0:0:
60,220,38611,1,8,1:2:0:0:
336,76,38769,1,2,0:2:0:0:
452,364,38927,5,0,1:2:0:0:
404,368,39006,1,0,0:2:0:0:
360,352,39085,1,2,0:2:0:0:
324,320,39164,1,0,0:2:0:0:
308,276,39243,1,8,0:2:0:0:
312,228,39322,1,0,0:2:0:0:
332,184,39401,1,2,0:2:0:0:
376,172,39480,1,0,0:2:0:0:
420,196,39559,5,0,1:2:0:0:
404,248,39638,1,0,0:2:0:0:
360,280,39717,1,2,0:2:0:0:
308,276,39796,1,0,0:2:0:0:
260,252,39875,1,8,0:2:0:0:
236,204,39954,1,0,0:2:0:0:
244,152,40033,1,2,0:2:0:0:
276,112,40111,1,0,0:2:0:0:
324,88,40190,6,2,P|404:112|292:168,1,270.000010299683,2|2,1:1|0:3,0:3:0:0:
244,152,40585,1,2,0:3:0:0:
176,124,40664,1,2,0:3:0:0:
100,120,40743,1,2,0:3:0:0:
36,156,40822,6,0,B|28:216|28:216|32:260|32:260|24:308|24:308|28:376|28:376|80:376|120:344,1,315.000003004074,0|8,0:2|0:1,0:2:0:0:
180,288,41217,1,8,0:1:0:0:
204,204,41296,1,8,0:1:0:0:
188,120,41375,1,8,0:1:0:0:
144,44,41454,2,0,P|88:36|32:52,1,112.5,4|2,1:2|0:2,0:2:0:0:
116,212,41769,5,8,0:2:0:0:
296,240,41927,1,2,0:2:0:0:
468,192,42085,1,0,0:2:0:0:
480,148,42164,1,0,0:2:0:0:
484,104,42243,1,2,0:2:0:0:
476,60,42322,1,0,0:2:0:0:
460,16,42401,1,8,0:2:0:0:
280,56,42559,6,0,P|272:112|284:168,1,112.5,2|0,0:2|0:2,0:2:0:0:
344,360,42875,2,0,P|287:353|236:327,1,112.5,2|8,0:2|0:2,0:2:0:0:
156,176,43190,1,2,0:2:0:0:
336,256,43348,1,0,0:2:0:0:
112,328,43506,1,2,0:2:0:0:
283,166,43664,1,8,0:2:0:0:
56,96,43822,1,2,0:2:0:0:
112,328,43980,6,0,P|160:320|216:280,1,112.5,0|2,0:2|0:2,0:2:0:0:
356,112,44296,1,8,0:2:0:0:
496,288,44454,1,2,0:2:0:0:
452,300,44533,1,0,0:2:0:0:
408,304,44612,1,0,0:2:0:0:
364,300,44691,1,0,0:2:0:0:
320,288,44770,1,2,0:2:0:0:
96,224,44927,5,8,0:2:0:0:
256,384,45085,1,2,0:2:0:0:
416,224,45243,2,0,P|428:172|416:112,1,112.5,0|2,0:2|0:2,0:2:0:0:
98,114,45559,2,0,P|77:168|94:223,1,112.5,8|2,0:2|0:2,0:2:0:0:
352,324,45875,1,0,0:2:0:0:
160,172,46033,1,2,0:2:0:0:
264,384,46190,1,8,0:2:0:0:
240,80,46348,1,2,0:2:0:0:
64,328,46506,6,0,B|120:328|120:328|176:304,1,112.5,0|2,0:2|0:2,0:2:0:0:
364,236,46822,1,8,0:2:0:0:
240,80,46980,1,2,0:2:0:0:
224,124,47059,1,0,0:2:0:0:
216,168,47138,1,0,0:2:0:0:
224,212,47217,1,0,0:2:0:0:
240,252,47296,1,2,0:2:0:0:
416,372,47454,5,8,0:2:0:0:
428,160,47611,2,0,L|308:160,1,112.5,2|0,0:2|0:2,0:2:0:0:
40,236,47927,2,0,L|160:236,1,112.5,2|8,0:2|0:2,0:2:0:0:
364,236,48243,1,2,0:2:0:0:
236,48,48401,1,0,0:2:0:0:
260,304,48559,1,2,0:2:0:0:
388,80,48717,1,8,0:2:0:0:
132,52,48875,5,2,0:2:0:0:
56,300,49033,2,0,B|28:384|28:384|60:368,1,112.5,0|2,0:2|0:2,0:2:0:0:
344,208,49348,5,8,0:2:0:0:
96,140,49506,2,0,B|12:112|12:112|28:144,1,112.5,2|0,0:2|0:2,0:2:0:0:
268,368,49822,5,2,0:2:0:0:
336,120,49980,2,0,B|372:8|372:8|320:36,1,168.75,8|0,0:2|0:2,0:2:0:0:
312,56,50296,2,0,L|424:56,1,112.5,0|2,1:2|0:2,0:2:0:0:
132,132,50611,5,8,0:2:0:0:
428,200,50769,1,2,0:2:0:0:
132,132,50927,2,0,L|20:132,1,112.5,0|2,1:2|0:2,0:2:0:0:
292,272,51243,5,8,0:2:0:0:
4,364,51401,1,10,0:2:0:0:
292,272,51559,2,0,L|408:272,1,112.5,4|2,1:2|0:2,0:2:0:0:
180,64,51875,5,8,1:2:0:0:
32,248,52033,1,2,0:2:0:0:
28,276,52112,1,0,0:2:0:0:
24,304,52191,1,0,1:2:0:0:
20,332,52270,1,0,0:2:0:0:
16,360,52349,1,2,0:2:0:0:
212,320,52506,5,8,1:2:0:0:
264,124,52664,2,0,P|276:72|264:4,1,112.5,2|0,0:2|1:2,0:2:0:0:
44,144,52980,2,0,L|156:176,1,112.5,2|8,0:2|1:2,0:2:0:0:
352,244,53296,1,2,0:2:0:0:
180,64,53454,1,0,1:2:0:0:
252,336,53611,1,2,0:2:0:0:
340,68,53769,1,8,1:2:0:0:
124,248,53927,1,2,0:2:0:0:
396,320,54085,6,0,P|432:272|432:212,1,112.5,0|2,1:2|0:2,0:2:0:0:
284,52,54401,1,8,1:2:0:0:
176,244,54559,1,2,0:2:0:0:
220,252,54638,1,0,0:2:0:0:
264,256,54717,1,0,1:2:0:0:
308,252,54796,1,0,0:2:0:0:
352,244,54875,1,2,0:2:0:0:
284,52,55033,5,8,1:2:0:0:
104,184,55190,2,0,P|92:240|104:304,1,112.5,2|0,0:2|1:2,0:2:0:0:
292,360,55506,1,2,0:2:0:0:
434,221,55664,2,0,P|446:165|434:101,1,112.5,8|2,1:2|0:2,0:2:0:0:
212,44,55980,5,0,1:2:0:0:
280,304,56138,1,2,0:2:0:0:
324,72,56296,1,8,1:2:0:0:
104,248,56454,1,2,0:2:0:0:
360,364,56611,6,0,P|376:308|364:252,1,112.5,0|2,1:2|0:2,0:2:0:0:
248,48,56927,1,8,1:2:0:0:
476,116,57085,1,2,0:2:0:0:
476,116,57164,1,0,0:2:0:0:
476,116,57243,1,0,1:2:0:0:
476,116,57322,1,0,0:2:0:0:
476,116,57401,1,2,0:2:0:0:
504,352,57559,5,8,1:2:0:0:
272,304,57717,2,0,L|152:304,1,112.5,2|0,0:2|1:2,0:2:0:0:
32,96,58033,2,0,L|152:96,1,112.5,2|8,0:2|1:2,0:2:0:0:
380,252,58348,1,2,0:2:0:0:
104,192,58506,1,0,1:2:0:0:
396,104,58664,1,2,0:2:0:0:
232,360,58822,1,8,1:2:0:0:
48,120,58980,1,2,0:2:0:0:
336,28,59138,5,0,1:2:0:0:
372,16,59217,1,0,0:2:0:0:
412,20,59296,1,2,0:2:0:0:
448,40,59375,1,0,0:2:0:0:
472,72,59454,1,8,1:2:0:0:
476,112,59533,1,0,0:2:0:0:
460,148,59611,1,2,0:2:0:0:
428,172,59690,1,0,0:2:0:0:
380,178,59769,5,0,1:2:0:0:
342,213,59848,1,0,0:2:0:0:
345,263,59927,1,2,0:2:0:0:
383,298,60006,1,0,0:2:0:0:
433,294,60085,1,8,1:2:0:0:
468,258,60164,1,0,0:2:0:0:
464,208,60243,1,2,0:2:0:0:
428,172,60322,1,0,0:2:0:0:
372,144,60401,5,0,1:2:0:0:
312,132,60480,1,0,0:2:0:0:
252,140,60559,1,2,0:2:0:0:
196,164,60638,1,0,0:2:0:0:
144,200,60717,1,8,1:2:0:0:
84,200,60796,1,0,0:2:0:0:
28,168,60875,1,2,0:2:0:0:
4,112,60954,1,0,0:2:0:0:
12,52,61033,6,0,L|22:25,15,28.125,0|0|0|0|2|0|0|0|0|0|0|0|2|0|0|0,3:0|3:0|3:0|3:0|3:2|3:0|3:0|3:0|1:0|3:0|3:0|3:0|3:2|3:0|3:0|3:0,3:0:0:0:
80,48,61664,6,0,L|192:48,1,112.5,4|2,1:2|0:2,0:2:0:0:
332,224,61980,1,8,1:2:0:0:
120,296,62138,1,2,0:2:0:0:
111,249,62217,1,0,0:2:0:0:
107,204,62296,1,0,1:2:0:0:
99,158,62375,1,0,0:2:0:0:
95,112,62454,1,2,0:2:0:0:
260,364,62611,5,8,1:2:0:0:
320,68,62769,1,2,0:2:0:0:
164,304,62927,1,0,1:2:0:0:
468,280,63085,1,2,0:2:0:0:
188,108,63243,1,8,1:2:0:0:
344,360,63401,1,2,0:2:0:0:
500,72,63559,2,0,P|452:44|392:32,1,112.5,0|2,1:2|0:2,0:2:0:0:
116,52,63875,2,0,P|108:108|120:168,1,112.5,8|2,1:2|0:2,0:2:0:0:
224,308,64190,5,0,1:2:0:0:
4,132,64348,1,2,0:2:0:0:
128,384,64506,1,8,1:2:0:0:
188,108,64664,1,2,0:2:0:0:
24,352,64822,1,0,1:2:0:0:
304,204,64980,1,2,0:2:0:0:
24,352,65138,1,8,1:2:0:0:
361,352,65296,2,0,L|481:352,2,112.5,2|0|2,0:2|1:2|0:2,0:2:0:0:
104,304,65769,5,8,1:2:0:0:
92,256,65848,1,0,0:2:0:0:
100,204,65927,1,2,0:2:0:0:
124,160,66006,1,0,0:2:0:0:
160,124,66085,1,0,1:2:0:0:
188,84,66164,1,0,0:2:0:0:
176,36,66243,1,2,0:2:0:0:
128,24,66322,1,0,0:2:0:0:
92,56,66401,1,8,1:2:0:0:
100,108,66480,1,0,0:2:0:0:
144,132,66559,1,2,0:2:0:0:
196,136,66638,1,0,0:2:0:0:
244,120,66717,5,0,1:2:0:0:
28,308,66875,1,2,0:2:0:0:
320,228,67033,5,8,1:2:0:0:
52,88,67190,1,2,0:2:0:0:
176,364,67348,5,0,1:2:0:0:
292,60,67506,1,2,0:2:0:0:
16,236,67664,5,8,1:2:0:0:
340,364,67822,1,2,0:2:0:0:
236,32,67980,5,0,1:2:0:0:
256,380,68138,1,2,0:2:0:0:
60,120,68296,5,8,1:2:0:0:
372,216,68454,1,2,0:2:0:0:
104,356,68611,5,0,1:2:0:0:
216,72,68769,1,2,0:2:0:0:
4,288,68927,5,8,1:2:0:0:
284,248,69085,1,2,0:2:0:0:
112,28,69243,5,0,1:2:0:0:
88,72,69322,1,0,0:2:0:0:
84,124,69401,1,2,0:2:0:0:
104,172,69480,1,0,0:2:0:0:
128,216,69559,1,8,0:2:0:0:
140,264,69638,1,0,0:2:0:0:
136,316,69717,1,2,0:2:0:0:
104,356,69796,1,0,0:2:0:0:
52,352,69875,5,8,0:2:0:0:
28,300,69954,1,0,0:2:0:0:
60,252,70033,1,2,0:2:0:0:
116,244,70112,1,0,0:2:0:0:
168,264,70191,1,8,0:2:0:0:
224,276,70270,1,0,0:2:0:0:
280,272,70349,1,2,0:2:0:0:
332,252,70428,1,0,0:2:0:0:
380,224,70507,5,8,0:2:0:0:
388,236,70586,1,0,0:2:0:0:
400,248,70665,1,2,0:2:0:0:
412,260,70744,1,0,0:2:0:0:
424,272,70822,1,8,0:2:0:0:
436,284,70901,1,0,0:2:0:0:
448,296,70980,1,2,0:2:0:0:
460,308,71059,1,0,0:2:0:0:
472,320,71138,2,0,B|484:268|484:268|472:216|472:216|484:160|484:160|464:84,1,236.250002253056,8|0,0:2|0:2,0:2:0:0:
436,64,71454,2,0,P|448:20|480:56,1,112.5,0|0,0:2|0:2,0:2:0:0:
392,176,71769,5,4,1:2:0:0:
132,64,71927,1,2,0:2:0:0:
240,256,72085,1,8,1:2:0:0:
368,4,72243,1,2,0:2:0:0:
356,284,72401,1,0,1:2:0:0:
152,172,72559,1,2,0:2:0:0:
456,196,72717,1,8,1:2:0:0:
200,356,72875,1,2,0:2:0:0:
120,64,73033,6,0,P|152:104|212:128,1,112.5,0|2,1:2|0:2,0:2:0:0:
252,140,73269,1,0,0:2:0:0:
296,148,73348,1,8,1:2:0:0:
340,152,73427,1,0,0:2:0:0:
384,148,73506,1,2,0:2:0:0:
428,136,73585,1,0,0:2:0:0:
464,108,73664,2,0,P|480:56|468:-4,1,112.5,0|2,1:2|0:2,0:2:0:0:
344,244,73980,2,0,P|328:296|340:356,1,112.5,8|2,1:2|0:2,0:2:0:0:
456,196,74296,5,0,1:2:0:0:
192,96,74454,1,2,0:2:0:0:
432,304,74611,1,8,1:2:0:0:
320,32,74770,1,2,0:2:0:0:
338,352,74927,1,0,1:2:0:0:
468,80,75085,1,2,0:2:0:0:
240,316,75243,1,8,1:2:0:0:
512,204,75401,1,2,0:2:0:0:
268,44,75559,5,0,1:2:0:0:
220,60,75638,1,0,0:2:0:0:
172,68,75717,1,2,0:2:0:0:
120,60,75796,1,0,0:2:0:0:
76,32,75875,1,8,1:2:0:0:
64,80,75954,1,0,0:2:0:0:
64,132,76033,1,2,0:2:0:0:
76,180,76111,1,0,0:2:0:0:
96,228,76190,2,0,P|100:284|80:344,1,112.5,0|2,1:2|0:2,0:2:0:0:
280,224,76506,2,0,P|276:168|296:108,1,112.5,8|2,1:2|0:2,0:2:0:0:
432,292,76822,5,0,1:2:0:0:
180,168,76980,1,2,0:2:0:0:
296,360,77138,1,8,1:2:0:0:
404,100,77296,1,2,0:2:0:0:
184,272,77454,1,0,1:2:0:0:
424,112,77611,1,2,0:2:0:0:
172,260,77769,1,8,1:2:0:0:
440,120,77927,1,2,0:2:0:0:
160,248,78085,6,0,B|112:204|112:204|76:156,1,112.5,0|2,1:2|0:2,0:2:0:0:
448,128,78401,2,0,B|482:182|482:182|505:238,1,112.5,8|2,1:2|0:2,0:2:0:0:
176,120,78717,6,0,B|173:54|173:54|181:-4,1,112.5,0|2,1:2|0:2,0:2:0:0:
416,252,79033,2,0,B|401:315|401:315|378:370,1,112.5,8|2,1:2|0:2,0:2:0:0:
108,304,79348,5,0,1:2:0:0:
268,44,79506,1,2,0:2:0:0:
228,344,79664,1,8,1:2:0:0:
92,48,79822,1,2,0:2:0:0:
152,368,79980,1,0,1:2:0:0:
360,160,80138,1,2,0:2:0:0:
48,252,80296,1,8,1:2:0:0:
368,308,80454,1,2,0:2:0:0:
216,20,80611,5,0,1:2:0:0:
176,16,80690,1,0,0:2:0:0:
136,24,80769,1,2,0:2:0:0:
108,52,80848,1,0,0:2:0:0:
92,88,80927,1,8,0:2:0:0:
100,128,81006,1,0,0:2:0:0:
120,160,81085,1,2,0:2:0:0:
152,180,81164,1,0,0:2:0:0:
200,200,81243,5,2,1:2:0:0:
248,208,81322,1,2,0:2:0:0:
300,204,81401,1,2,0:2:0:0:
348,188,81480,1,2,0:2:0:0:
400,184,81559,1,10,0:2:0:0:
440,216,81638,1,2,0:2:0:0:
444,268,81717,1,2,0:2:0:0:
416,312,81796,1,2,0:2:0:0:
368,324,81875,6,0,L|244:312,1,112.5,4|2,1:2|0:2,0:2:0:0:
192,104,82190,2,0,L|316:116,1,112.5,8|2,1:2|0:2,0:2:0:0:
104,312,82506,1,0,1:2:0:0:
76,32,82664,1,2,0:2:0:0:
284,220,82822,1,8,1:2:0:0:
0,160,82980,1,2,0:2:0:0:
284,220,83138,2,0,P|344:224|392:184,1,112.5,0|2,1:2|0:2,0:2:0:0:
512,12,83454,2,0,L|508:132,1,112.5,8|2,1:2|0:2,0:2:0:0:
436,340,83769,5,0,1:2:0:0:
196,240,83927,1,2,0:2:0:0:
476,236,84085,1,8,1:2:0:0:
200,364,84243,1,2,0:2:0:0:
181,63,84401,2,0,P|237:55|293:67,1,112.5,0|2,1:2|0:2,0:2:0:0:
436,340,84717,2,0,P|380:348|324:336,1,112.5,8|2,1:2|0:2,0:2:0:0:
94,121,85033,2,0,P|82:69|82:1,1,112.5,0|2,1:2|0:2,0:2:0:0:
203,251,85348,2,0,P|215:303|215:371,1,112.5,8|2,1:2|0:2,0:2:0:0:
48,224,85664,5,0,1:2:0:0:
252,32,85822,1,2,0:2:0:0:
308,308,85980,1,8,1:2:0:0:
94,121,86138,1,2,0:2:0:0:
372,68,86296,2,0,L|488:60,1,112.5,0|2,1:2|0:2,0:2:0:0:
140,316,86611,2,0,L|24:324,1,112.5,8|2,1:2|0:2,0:2:0:0:
333,231,86927,5,0,1:2:0:0:
94,121,87085,1,2,0:2:0:0:
372,68,87243,1,8,1:2:0:0:
279,326,87401,1,2,0:2:0:0:
257,60,87559,1,0,1:2:0:0:
414,252,87717,1,2,0:2:0:0:
164,181,87875,1,8,1:2:0:0:
471,138,88033,1,2,0:2:0:0:
257,60,88190,5,0,1:2:0:0:
360,312,88348,1,2,0:2:0:0:
402,31,88506,5,8,1:2:0:0:
258,346,88664,1,2,0:2:0:0:
110,31,88822,5,0,1:2:0:0:
360,312,88980,1,2,0:2:0:0:
257,60,89138,5,8,1:2:0:0:
152,312,89296,1,2,0:2:0:0:
16,16,89454,5,0,1:2:0:0:
20,56,89533,1,0,0:2:0:0:
40,88,89611,1,2,0:2:0:0:
76,104,89690,1,0,0:2:0:0:
116,108,89769,1,8,1:2:0:0:
156,100,89848,1,0,0:2:0:0:
184,72,89927,1,2,0:2:0:0:
200,36,90006,1,0,0:2:0:0:
196,0,90085,5,0,1:2:0:0:
148,12,90164,1,0,0:2:0:0:
108,40,90243,1,2,0:2:0:0:
92,88,90322,1,0,0:2:0:0:
104,136,90401,1,8,1:2:0:0:
148,164,90480,1,0,0:2:0:0:
200,164,90559,1,2,0:2:0:0:
244,140,90638,1,0,0:2:0:0:
284,174,90717,5,0,1:2:0:0:
328,199,90796,1,0,0:2:0:0:
382,199,90875,1,2,0:2:0:0:
429,173,90954,1,0,0:2:0:0:
455,126,91032,1,0,1:2:0:0:
454,73,91111,1,0,0:2:0:0:
429,27,91190,1,2,0:2:0:0:
382,1,91269,1,0,0:2:0:0:
329,1,91348,2,2,L|291:25,14,28.125,2|2|2|2|2|2|2|2|2|2|2|2|2|2|2,1:2|0:2|0:2|0:2|0:2|0:2|0:2|0:2|1:2|0:2|0:2|0:2|0:2|0:2|0:2,0:2:0:0:
260,88,91980,6,0,P|252:136|260:196,1,90,4|0,1:3|0:2,0:2:0:0:
308,352,92296,1,8,0:2:0:0:
156,300,92454,1,0,0:2:0:0:
120,292,92533,1,8,0:2:0:0:
84,292,92611,1,0,0:2:0:0:
48,296,92690,1,8,0:2:0:0:
12,308,92769,1,8,0:2:0:0:
28,136,92927,2,0,L|28:32,1,90,8|0,0:2|0:2,0:2:0:0:
208,20,93243,5,0,1:2:0:0:
300,176,93401,1,0,0:2:0:0:
108,124,93559,1,8,0:2:0:0:
320,44,93717,1,0,0:2:0:0:
356,44,93796,1,0,0:2:0:0:
392,44,93875,1,0,1:2:0:0:
428,44,93954,1,0,0:2:0:0:
464,44,94033,1,0,1:2:0:0:
512,224,94190,2,0,L|412:224,1,90,8|0,0:2|0:2,0:2:0:0:
256,224,94506,2,0,L|256:284,5,45,4|0|0|0|8|0,1:3|0:2|0:2|0:2|0:2|0:2,0:2:0:0:
176,248,94980,6,0,P|176:200|152:160,1,90,4|8,1:3|0:2,0:2:0:0:
212,12,95296,2,0,P|256:20|300:12,1,90,4|8,1:3|0:2,0:2:0:0:
355,164,95611,2,0,P|335:203|336:248,1,90,4|8,1:3|0:2,0:2:0:0:
168,360,95927,5,0,0:2:0:0:
344,360,96085,1,0,0:2:0:0:
88,300,96243,1,8,0:2:0:0:
424,300,96401,1,8,3:2:0:0:
448,268,96480,1,0,3:2:0:0:
464,232,96559,1,0,3:2:0:0:
472,192,96638,1,0,3:2:0:0:
468,152,96717,1,0,3:2:0:0:
456,112,96796,1,0,3:2:0:0:
436,76,96875,1,0,3:2:0:0:
408,48,96954,1,0,3:2:0:0:
372,32,97033,6,0,B|304:32|304:32|232:52,1,139.500001064301,4|2,1:2|0:2,0:2:0:0:
40,168,97348,2,0,L|24:24,1,139.500001064301,8|2,1:2|0:2,0:2:0:0:
172,360,97664,1,0,1:2:0:0:
128,40,97822,1,2,0:2:0:0:
4,368,97980,1,8,1:2:0:0:
292,168,98138,2,0,P|300:104|288:28,1,139.500001064301,2|0,0:2|1:2,0:2:0:0:
476,232,98454,2,0,P|468:296|480:372,1,139.500001064301,2|8,0:2|1:2,0:2:0:0:
188,336,98769,5,2,0:2:0:0:
420,112,98927,1,0,1:2:0:0:
100,136,99085,1,2,0:2:0:0:
388,280,99243,1,8,1:2:0:0:
76,352,99401,1,2,0:2:0:0:
48,32,99559,2,0,P|100:52|184:52,1,139.500001064301,0|2,1:2|0:2,0:2:0:0:
472,108,99875,2,0,P|420:128|336:128,1,139.500001064301,8|2,1:2|0:2,0:2:0:0:
128,224,100190,5,0,1:2:0:0:
424,352,100348,1,2,0:2:0:0:
388,32,100506,1,8,1:2:0:0:
128,224,100664,6,0,P|97:286|81:354,1,139.500001064301,2|0,0:2|1:2,0:2:0:0:
303,106,100980,2,0,P|263:48|213:0,1,139.500001064301,2|8,0:2|1:2,0:2:0:0:
314,319,101296,2,0,P|383:313|450:293,1,139.500001064301,2|0,0:2|1:2,0:2:0:0:
480,276,101533,1,0,0:2:0:0:
496,248,101611,1,2,0:2:0:0:
504,212,101690,1,0,0:2:0:0:
500,176,101769,1,8,1:2:0:0:
492,144,101848,1,0,0:2:0:0:
476,112,101927,1,2,0:2:0:0:
456,84,102006,1,0,0:2:0:0:
432,60,102085,6,0,B|344:24|272:48|272:48|328:80,1,209.250001596451,4|0,1:2|0:2,0:2:0:0:
348,88,102401,2,0,L|208:104,1,139.500001064301,8|2,1:2|0:2,0:2:0:0:
52,220,102717,1,0,1:2:0:0:
412,184,102875,1,2,0:2:0:0:
168,24,103033,1,8,1:2:0:0:
252,376,103190,2,0,P|320:368|380:328,1,139.500001064301,2|0,0:2|1:2,0:2:0:0:
80,83,103506,2,0,L|48:235,1,139.500001064301,2|8,0:2|1:2,0:2:0:0:
152,372,103822,5,2,0:2:0:0:
316,48,103980,1,0,1:2:0:0:
404,356,104138,1,2,0:2:0:0:
232,36,104296,1,8,1:2:0:0:
496,284,104454,1,2,0:2:0:0:
148,372,104611,2,0,B|8:380|8:380|56:328,1,209.250001596451,0|0,1:2|0:2,0:2:0:0:
88,304,104927,2,0,P|100:228|88:168,1,139.500001064301,8|2,1:2|0:2,0:2:0:0:
276,4,105243,5,0,1:2:0:0:
232,360,105401,1,2,0:2:0:0:
12,248,105559,1,8,1:2:0:0:
336,136,105717,1,2,0:2:0:0:
448,352,105875,6,0,P|384:368|312:344,1,139.500001064301,0|2,1:2|0:2,0:2:0:0:
276,308,106111,1,0,0:2:0:0:
244,260,106190,1,8,0:2:0:0:
236,204,106269,1,8,0:2:0:0:
244,148,106348,1,10,0:2:0:0:
268,96,106427,1,8,0:2:0:0:
312,60,106506,6,0,B|416:68|416:68|392:108,1,139.500001064301,8|2,1:2|0:2,0:2:0:0:
352,152,106743,1,0,0:2:0:0:
288,184,106822,1,8,0:2:0:0:
220,192,106901,1,0,0:2:0:0:
152,172,106980,1,10,0:2:0:0:
100,124,107059,1,0,0:2:0:0:
56,72,107138,6,0,L|36:224,1,139.500001064301,12|2,1:2|0:2,0:2:0:0:
368,368,107454,2,0,L|388:216,1,139.500001064301,8|2,1:2|0:2,0:2:0:0:
280,56,107769,5,0,1:2:0:0:
152,364,107927,1,2,0:2:0:0:
464,244,108085,1,8,1:2:0:0:
152,364,108243,2,0,P|80:368|8:352,1,139.500001064301,2|0,0:2|1:2,0:2:0:0:
280,56,108559,2,0,P|352:52|424:68,1,139.500001064301,2|8,0:2|1:2,0:2:0:0:
448,348,108875,5,2,0:2:0:0:
176,136,109033,1,0,1:2:0:0:
488,168,109190,1,2,0:2:0:0:
208,352,109348,1,8,1:2:0:0:
180,4,109506,1,2,0:2:0:0:
488,168,109664,6,0,B|508:256|496:360|496:360|464:352,1,209.250001596451,0|0,1:2|0:2,0:2:0:0:
448,348,109980,2,0,P|372:332|292:348,1,139.500001064301,8|2,1:2|0:2,0:2:0:0:
100,180,110296,5,0,1:2:0:0:
408,256,110454,1,2,0:2:0:0:
64,372,110611,1,8,1:2:0:0:
336,56,110769,2,0,P|400:56|480:36,1,139.500001064301,2|0,0:2|1:2,0:2:0:0:
176,56,111085,2,0,P|112:56|32:76,1,139.500001064301,2|8,0:2|0:2,0:2:0:0:
20,324,111401,1,2,0:2:0:0:
264,380,111559,5,8,1:2:0:0:
288,336,111638,1,8,0:2:0:0:
300,288,111717,1,10,0:2:0:0:
300,240,111796,1,0,0:2:0:0:
292,192,111875,1,8,1:2:0:0:
272,148,111954,1,0,0:2:0:0:
256,100,112033,1,10,0:2:0:0:
256,52,112111,1,0,0:2:0:0:
268,4,112190,5,12,1:2:0:0:
216,280,112348,1,2,0:2:0:0:
172,4,112506,5,8,1:2:0:0:
304,328,112664,1,2,0:2:0:0:
424,44,112822,5,0,1:2:0:0:
28,176,112980,1,2,0:2:0:0:
224,376,113138,5,8,1:2:0:0:
312,8,113296,1,2,0:2:0:0:
92,316,113454,5,0,1:2:0:0:
444,192,113611,1,2,0:2:0:0:
84,312,113769,1,8,1:2:0:0:
452,196,113927,1,2,0:2:0:0:
208,24,114085,1,0,1:2:0:0:
332,380,114243,1,2,0:2:0:0:
204,16,114401,1,8,1:2:0:0:
336,384,114559,1,2,0:2:0:0:
44,236,114717,5,0,1:2:0:0:
84,212,114796,1,0,0:2:0:0:
132,200,114875,1,2,0:2:0:0:
180,200,114954,1,0,0:2:0:0:
228,204,115033,1,8,1:2:0:0:
276,216,115111,1,0,0:2:0:0:
324,220,115190,1,2,0:2:0:0:
372,208,115269,1,0,0:2:0:0:
408,172,115348,5,0,1:2:0:0:
416,124,115427,1,0,0:2:0:0:
396,80,115506,1,2,0:2:0:0:
352,60,115585,1,0,0:2:0:0:
304,72,115664,1,8,1:2:0:0:
276,112,115743,1,0,0:2:0:0:
272,160,115822,1,2,0:2:0:0:
292,204,115901,1,0,0:2:0:0:
316,248,115980,5,0,1:2:0:0:
316,296,116059,1,0,0:2:0:0:
296,340,116138,1,2,0:2:0:0:
256,364,116217,1,0,0:2:0:0:
208,364,116296,1,8,1:2:0:0:
160,348,116375,1,0,0:2:0:0:
112,332,116454,1,2,0:2:0:0:
64,332,116533,1,0,0:2:0:0:
20,352,116611,6,0,L|8:384,14,34.8750002660751,0|0|0|0|2|0|0|0|0|0|0|0|2|0|0,3:2|3:2|3:2|3:2|3:2|3:2|3:2|3:2|1:2|3:2|3:2|3:2|3:2|3:2|3:2,3:2:0:0:
64,332,117243,2,0,P|76:280|72:212,1,112.5,4|0,1:3|0:2,0:2:0:0:
36,56,117559,1,8,0:2:0:0:
196,104,117717,1,0,0:2:0:0:
240,116,117796,1,0,0:2:0:0:
284,120,117875,1,0,0:2:0:0:
328,116,117954,1,0,0:2:0:0:
372,104,118033,1,0,0:2:0:0:
504,16,118190,5,8,0:2:0:0:
496,172,118348,2,0,P|480:228|480:292,1,112.5,0|0,0:2|1:2,0:2:0:0:
336,352,118664,2,0,P|284:352|224:320,1,112.5,0|8,0:2|0:2,0:2:0:0:
108,200,118980,1,0,0:2:0:0:
304,252,119138,1,0,1:2:0:0:
100,344,119296,1,0,1:2:0:0:
40,128,119454,1,8,0:2:0:0:
100,356,119611,1,0,0:2:0:0:
216,164,119769,6,0,L|272:164,1,56.25,4|0,1:3|0:2,0:2:0:0:
300,164,119927,1,0,0:2:0:0:
328,164,120006,1,0,0:2:0:0:
356,164,120085,1,8,0:2:0:0:
384,164,120164,1,0,0:2:0:0:
412,164,120243,1,0,0:2:0:0:
440,164,120322,1,0,0:2:0:0:
468,164,120401,2,0,L|492:228,1,56.25,4|0,1:3|0:2,0:2:0:0:
424,260,120559,5,0,0:2:0:0:
388,276,120638,1,0,0:2:0:0:
348,284,120717,1,8,0:2:0:0:
308,288,120796,1,0,0:2:0:0:
268,288,120875,1,0,0:2:0:0:
228,280,120954,1,0,0:2:0:0:
192,268,121033,2,0,L|160:220,1,56.25,4|0,1:3|0:2,0:2:0:0:
216,164,121190,5,0,0:2:0:0:
232,128,121269,1,0,0:2:0:0:
248,92,121348,2,0,P|252:60|248:36,1,56.25,4|0,1:3|0:2,0:2:0:0:
152,40,121506,1,0,0:2:0:0:
144,40,121585,1,0,0:2:0:0:
136,40,121664,5,4,0:3:0:0:
84,72,121743,1,4,0:3:0:0:
60,128,121822,1,4,0:3:0:0:
60,188,121901,1,4,0:3:0:0:
76,248,121980,1,4,0:3:0:0:
100,304,122059,1,4,0:3:0:0:
152,336,122138,1,4,0:3:0:0:
212,356,122217,1,4,0:3:0:0:
272,368,122296,6,0,B|312:368|344:388|344:388|368:356,1,112.5,4|2,1:3|0:2,0:2:0:0:
472,228,122611,2,0,P|460:276|480:348,1,112.5,8|2,1:2|0:2,0:2:0:0:
328,108,122927,1,0,1:2:0:0:
368,100,123006,1,0,0:2:0:0:
408,92,123085,1,2,0:2:0:0:
448,84,123164,1,0,0:2:0:0:
488,76,123243,1,8,1:2:0:0:
188,143,123401,6,0,P|200:89|186:35,1,112.5,2|0,0:2|1:2,0:2:0:0:
152,308,123717,2,0,L|40:308,1,112.5,2|8,0:2|1:2,0:2:0:0:
316,256,124033,1,2,0:2:0:0:
116,92,124190,1,0,1:2:0:0:
372,120,124348,1,2,0:2:0:0:
160,232,124506,1,8,1:2:0:0:
388,352,124664,5,2,0:2:0:0:
500,116,124822,2,0,B|444:40|444:40|432:80,1,112.5,0|2,1:2|0:2,0:2:0:0:
388,352,125138,5,8,1:2:0:0:
368,36,125296,2,0,B|274:21|274:21|294:58,1,112.5,2|0,0:2|1:2,0:2:0:0:
388,352,125611,5,2,0:2:0:0:
212,64,125769,2,0,B|116:140|116:140|168:140,1,168.75,8|0,1:2|0:2,0:2:0:0:
188,140,126085,6,0,P|204:196|188:248,1,112.5,0|2,1:2|0:2,0:2:0:0:
172,276,126322,1,0,0:2:0:0:
148,300,126401,1,8,0:2:0:0:
120,320,126480,1,8,0:2:0:0:
88,336,126559,1,10,0:2:0:0:
56,344,126638,1,0,0:2:0:0:
24,352,126717,6,0,L|148:352,1,112.5,0|2,1:2|0:2,0:2:0:0:
184,352,126954,1,0,0:2:0:0:
228,352,127033,1,8,0:2:0:0:
272,352,127111,1,8,0:2:0:0:
316,352,127190,1,10,0:2:0:0:
360,352,127269,1,0,0:2:0:0:
404,352,127348,6,0,B|484:352|484:352|464:312,1,112.5,4|2,1:2|0:2,0:2:0:0:
380,140,127664,1,8,1:2:0:0:
200,52,127822,1,2,0:2:0:0:
188,88,127901,1,0,0:2:0:0:
176,124,127980,1,0,1:2:0:0:
160,160,128059,1,0,0:2:0:0:
148,196,128138,1,2,0:2:0:0:
228,384,128296,1,8,1:2:0:0:
379,246,128454,6,0,P|395:190|379:138,1,112.5,2|0,0:2|1:2,0:2:0:0:
144,292,128769,2,0,L|256:292,1,112.5,2|8,0:2|1:2,0:2:0:0:
36,84,129085,1,2,0:2:0:0:
56,308,129243,1,0,1:2:0:0:
192,88,129401,1,2,0:2:0:0:
52,316,129559,1,8,1:2:0:0:
304,192,129717,1,2,0:2:0:0:
128,32,129875,6,2,P|112:88|128:140,1,112.5,0|2,1:2|0:2,0:2:0:0:
284,268,130190,1,8,1:2:0:0:
440,136,130348,1,2,0:2:0:0:
452,112,130427,1,0,0:2:0:0:
464,88,130506,1,0,1:2:0:0:
476,64,130585,1,0,0:2:0:0:
488,40,130664,1,2,0:2:0:0:
280,128,130822,5,8,1:2:0:0:
376,332,130980,2,0,L|492:332,1,112.5,2|0,0:2|1:2,0:2:0:0:
452,112,131296,5,2,0:2:0:0:
248,208,131454,2,2,L|248:324,1,112.5,8|2,1:2|0:2,0:2:0:0:
120,348,131769,5,0,1:2:0:0:
384,252,131927,1,2,0:2:0:0:
116,164,132085,1,8,1:2:0:0:
388,92,132243,1,2,0:2:0:0:
116,16,132401,6,0,P|56:16|8:44,1,112.5,4|2,1:2|0:2,0:2:0:0:
8,308,132717,1,8,1:2:0:0:
232,92,132875,1,2,0:2:0:0:
160,364,133033,1,0,1:2:0:0:
80,88,133190,1,2,0:2:0:0:
68,376,133348,1,8,1:2:0:0:
152,32,133506,1,2,0:2:0:0:
428,264,133664,6,0,L|312:264,1,112.5,0|2,1:2|0:2,0:2:0:0:
108,196,133980,1,8,1:2:0:0:
380,132,134138,1,2,0:2:0:0:
36,216,134296,1,0,1:2:0:0:
364,380,134453,1,2,0:2:0:0:
400,12,134611,1,8,1:2:0:0:
132,268,134769,1,2,0:2:0:0:
496,352,134927,5,0,1:2:0:0:
500,312,135006,1,0,0:2:0:0:
496,272,135085,1,2,0:2:0:0:
488,232,135164,1,0,0:2:0:0:
484,192,135243,1,8,1:2:0:0:
484,152,135322,1,0,0:2:0:0:
492,112,135401,1,2,0:2:0:0:
496,72,135480,1,0,0:2:0:0:
500,32,135559,5,0,1:2:0:0:
460,64,135638,1,0,0:2:0:0:
412,84,135717,1,2,0:2:0:0:
364,96,135796,1,0,0:2:0:0:
312,96,135875,1,8,1:2:0:0:
260,88,135954,1,0,0:2:0:0:
212,68,136033,1,2,0:2:0:0:
180,28,136111,1,0,0:2:0:0:
228,16,136190,5,0,1:2:0:0:
273,58,136269,1,0,0:2:0:0:
288,118,136348,1,2,0:2:0:0:
280,179,136427,1,0,0:2:0:0:
250,233,136506,1,8,1:2:0:0:
194,261,136585,1,0,0:2:0:0:
132,270,136664,1,2,0:2:0:0:
73,249,136743,1,0,0:2:0:0:
32,204,136822,2,0,L|32:175,14,28.125,0|0|0|0|2|0|0|0|0|0|0|0|2|0|0,3:2|3:2|3:2|3:2|3:2|3:2|3:2|3:2|1:2|3:2|3:2|3:2|3:2|3:2|3:2,3:2:0:0:
76,192,137454,6,0,P|88:248|76:304,1,112.5,4|2,1:3|0:2,0:2:0:0:
260,212,137769,1,8,1:2:0:0:
160,36,137927,1,2,0:2:0:0:
120,32,138006,1,0,0:2:0:0:
80,28,138085,1,0,1:2:0:0:
40,32,138164,1,0,0:2:0:0:
0,36,138243,1,2,0:2:0:0:
16,248,138401,5,8,1:2:0:0:
215,314,138559,2,0,B|239:278|239:278|263:202,1,112.5,2|0,0:2|1:2,0:2:0:0:
312,16,138875,1,2,0:2:0:0:
156,128,139033,1,8,1:2:0:0:
404,88,139190,1,2,0:2:0:0:
452,324,139348,2,0,L|328:308,1,112.5,0|2,1:2|0:2,0:2:0:0:
52,220,139664,2,0,L|176:236,1,112.5,8|2,1:2|0:2,0:2:0:0:
392,224,139980,5,0,1:2:0:0:
116,352,140138,1,2,0:2:0:0:
244,100,140296,1,8,1:2:0:0:
268,380,140454,1,2,0:2:0:0:
104,156,140611,1,0,1:2:0:0:
332,36,140769,1,2,0:2:0:0:
216,292,140927,1,8,1:2:0:0:
108,32,141085,2,0,L|228:32,2,112.5,2|0|2,0:2|1:2|0:2,0:2:0:0:
8,224,141559,5,8,1:2:0:0:
56,240,141638,1,0,0:2:0:0:
108,244,141717,1,2,0:2:0:0:
156,236,141796,1,0,0:2:0:0:
204,216,141875,1,0,1:2:0:0:
252,196,141954,1,0,0:2:0:0:
304,192,142033,1,2,0:2:0:0:
356,200,142112,1,0,0:2:0:0:
404,212,142190,1,8,1:2:0:0:
452,196,142270,1,0,0:2:0:0:
476,152,142349,1,2,0:2:0:0:
472,100,142428,1,0,0:2:0:0:
448,56,142507,5,0,1:2:0:0:
444,360,142664,1,2,0:2:0:0:
167,301,142822,1,8,1:2:0:0:
472,280,142980,1,2,0:2:0:0:
203,21,143138,1,0,1:2:0:0:
250,323,143296,1,2,0:2:0:0:
485,32,143454,1,8,1:2:0:0:
188,105,143612,1,2,0:2:0:0:
316,324,143769,5,0,1:2:0:0:
376,97,143927,1,2,0:2:0:0:
150,37,144085,1,8,1:2:0:0:
93,263,144243,1,2,0:2:0:0:
252,364,144401,5,0,1:2:0:0:
417,165,144559,1,2,0:2:0:0:
219,0,144717,1,8,1:2:0:0:
57,198,144875,1,2,0:2:0:0:
252,364,145033,5,0,1:2:0:0:
284,372,145111,1,0,0:2:0:0:
316,372,145190,1,2,0:2:0:0:
348,364,145269,1,0,0:2:0:0:
380,352,145348,1,8,0:2:0:0:
412,344,145427,1,0,0:2:0:0:
444,340,145506,1,2,0:2:0:0:
476,352,145585,1,0,0:2:0:0:
500,360,145664,5,0,0:2:0:0:
492,316,145743,1,0,0:2:0:0:
480,272,145822,1,2,0:2:0:0:
468,228,145901,1,0,0:2:0:0:
452,184,145980,1,8,0:2:0:0:
436,144,146059,1,0,0:2:0:0:
420,100,146138,1,2,0:2:0:0:
404,56,146217,1,0,0:2:0:0:
432,16,146296,5,8,0:2:0:0:
484,32,146375,1,0,0:2:0:0:
496,88,146454,1,2,0:2:0:0:
460,132,146533,1,0,0:2:0:0:
404,132,146611,1,8,0:2:0:0:
352,108,146690,1,0,0:2:0:0:
296,100,146769,1,0,0:2:0:0:
240,112,146848,1,0,0:2:0:0:
188,128,146927,2,0,B|84:148|0:116|0:116|40:152,1,236.250002253056,8|0,0:2|0:2,0:2:0:0:
72,180,147243,2,0,L|92:60,1,112.5,0|0,0:2|0:2,0:2:0:0:
80,304,147559,5,4,1:2:0:0:
320,164,147717,1,2,0:2:0:0:
8,32,147875,1,8,1:2:0:0:
32,368,148033,5,2,0:2:0:0:
232,204,148191,1,0,1:2:0:0:
80,296,148349,5,2,0:2:0:0:
356,356,148507,1,8,1:2:0:0:
148,244,148665,5,2,0:2:0:0:
440,156,148823,2,0,P|436:100|396:48,1,112.5,0|2,1:2|0:2,0:2:0:0:
356,44,149059,1,0,0:2:0:0:
308,64,149138,1,8,1:2:0:0:
280,108,149217,1,0,0:2:0:0:
276,160,149296,1,2,0:2:0:0:
300,204,149375,1,0,0:2:0:0:
340,236,149454,6,0,L|452:236,1,112.5,0|2,1:2|0:2,0:2:0:0:
196,328,149769,2,0,L|84:328,1,112.5,8|2,1:2|0:2,0:2:0:0:
356,136,150086,5,0,1:2:0:0:
132,228,150244,1,2,0:2:0:0:
324,340,150402,1,8,1:2:0:0:
204,60,150560,1,2,0:2:0:0:
224,288,150717,1,0,1:2:0:0:
356,12,150875,1,2,0:2:0:0:
120,176,151033,1,8,1:2:0:0:
408,248,151191,1,2,0:2:0:0:
200,28,151349,5,0,1:2:0:0:
168,60,151428,1,0,0:2:0:0:
156,104,151507,1,2,0:2:0:0:
164,148,151586,1,0,0:2:0:0:
188,188,151665,1,8,1:2:0:0:
200,232,151744,1,0,0:2:0:0:
200,276,151823,1,2,0:2:0:0:
184,320,151901,1,0,0:2:0:0:
148,348,151980,6,0,P|96:352|28:336,1,112.5,0|2,1:2|0:2,0:2:0:0:
40,48,152296,2,0,P|36:100|52:168,1,112.5,8|2,1:2|0:2,0:2:0:0:
288,348,152612,5,4,1:2:0:0:
108,260,152770,1,2,0:2:0:0:
276,144,152928,1,8,1:2:0:0:
296,356,153085,5,2,0:2:0:0:
98,259,153243,1,0,1:2:0:0:
283,132,153401,1,2,0:2:0:0:
304,368,153559,5,8,1:2:0:0:
88,262,153717,1,2,0:2:0:0:
289,123,153875,2,0,B|376:124|376:124|340:100,1,112.5,0|2,1:2|0:2,0:2:0:0:
88,16,154190,2,0,B|1:15|1:15|37:39,1,112.5,8|2,1:2|0:2,0:2:0:0:
456,176,154506,6,0,P|471:122|455:69,1,112.5,0|2,1:2|0:2,0:2:0:0:
56,208,154822,2,0,P|40:261|56:314,1,112.5,8|2,1:2|0:2,0:2:0:0:
304,332,155138,5,0,1:2:0:0:
336,28,155296,1,2,0:2:0:0:
136,256,155454,1,8,1:2:0:0:
432,192,155612,1,2,0:2:0:0:
156,64,155770,5,0,1:2:0:0:
348,300,155928,1,2,0:2:0:0:
236,16,156085,1,8,1:2:0:0:
116,296,156244,1,2,0:2:0:0:
416,320,156401,5,0,1:2:0:0:
420,304,156480,1,0,0:2:0:0:
424,288,156559,1,2,0:2:0:0:
428,272,156638,1,0,0:2:0:0:
432,256,156717,1,8,0:2:0:0:
436,240,156796,1,0,0:2:0:0:
440,224,156875,1,2,0:2:0:0:
444,208,156954,1,0,0:2:0:0:
448,192,157033,5,2,1:2:0:0:
472,232,157112,1,2,0:2:0:0:
476,276,157191,1,2,0:2:0:0:
464,320,157270,1,2,0:2:0:0:
424,344,157349,1,10,0:2:0:0:
380,340,157428,1,2,0:2:0:0:
340,316,157507,1,0,0:2:0:0:
332,272,157586,1,2,0:2:0:0:
340,228,157664,6,0,P|364:184|364:120,1,112.5,4|2,1:2|0:2,0:2:0:0:
108,232,157980,2,0,P|84:276|84:340,1,112.5,8|2,1:2|0:2,0:2:0:0:
268,356,158296,1,0,1:2:0:0:
476,136,158454,1,2,0:2:0:0:
172,108,158612,1,8,1:2:0:0:
400,272,158770,1,2,0:2:0:0:
280,20,158927,6,0,L|168:20,1,112.5,0|2,1:2|0:2,0:2:0:0:
28,248,159243,2,0,P|20:192|32:135,1,112.5,8|2,1:2|0:2,0:2:0:0:
252,104,159559,5,0,1:2:0:0:
344,368,159717,1,0,0:1:0:0:
124,192,159875,1,8,1:2:0:0:
376,64,160033,1,0,0:1:0:0:
444,336,160190,6,0,P|400:368|344:368,1,112.5,0|2,1:2|0:2,0:2:0:0:
152,116,160506,2,0,B|124:164|124:164|112:228,1,112.5,8|2,1:2|0:2,0:2:0:0:
360,268,160822,2,0,B|388:220|388:220|400:156,1,112.5,0|2,1:2|0:2,0:2:0:0:
168,16,161138,2,0,P|112:15|67:48,1,112.5,8|2,1:2|0:2,0:2:0:0:
64,312,161454,5,0,1:2:0:0:
316,188,161612,1,2,0:2:0:0:
24,104,161770,1,8,1:2:0:0:
220,336,161928,1,2,0:2:0:0:
440,132,162085,2,0,P|456:84|456:20,1,112.5,0|2,1:2|0:2,0:2:0:0:
236,228,162401,2,0,P|220:276|220:340,1,112.5,8|2,1:2|0:2,0:2:0:0:
436,364,162717,5,0,1:2:0:0:
388,60,162875,1,2,0:2:0:0:
356,364,163033,5,8,1:2:0:0:
308,60,163191,1,2,0:2:0:0:
276,364,163348,5,0,1:2:0:0:
228,60,163506,1,2,0:2:0:0:
196,364,163664,5,8,1:2:0:0:
148,60,163822,1,2,0:2:0:0:
116,364,163980,5,0,1:2:0:0:
444,288,164138,1,2,0:2:0:0:
124,288,164296,5,8,1:2:0:0:
452,212,164454,1,2,0:2:0:0:
132,212,164611,5,0,1:2:0:0:
460,136,164770,1,2,0:2:0:0:
140,136,164927,5,8,1:2:0:0:
468,60,165086,1,2,0:2:0:0:
268,328,165243,5,0,1:2:0:0:
240,355,165322,1,0,0:2:0:0:
202,366,165401,1,2,0:2:0:0:
164,355,165480,1,0,0:2:0:0:
136,328,165559,1,8,1:2:0:0:
126,289,165638,1,0,0:2:0:0:
136,251,165717,1,2,0:2:0:0:
164,224,165795,1,0,0:2:0:0:
204,208,165875,5,0,1:2:0:0:
217,159,165954,1,0,0:2:0:0:
204,110,166033,1,2,0:2:0:0:
168,74,166112,1,0,0:2:0:0:
119,61,166190,1,8,1:2:0:0:
70,74,166270,1,0,0:2:0:0:
34,110,166349,1,2,0:2:0:0:
21,159,166428,1,0,0:2:0:0:
34,208,166507,5,8,1:2:0:0:
92,228,166585,1,0,0:2:0:0:
152,220,166664,1,2,0:2:0:0:
212,200,166743,1,0,0:2:0:0:
272,196,166822,1,8,1:2:0:0:
332,208,166901,1,0,0:2:0:0:
392,216,166980,1,2,0:2:0:0:
452,204,167059,1,0,0:2:0:0:
512,184,167138,6,2,L|512:216,14,28.125,10|2|2|2|0|2|2|2|2|2|2|2|2|2|2,3:2|3:2|3:2|3:2|3:2|3:2|3:2|3:2|1:2|3:2|3:2|3:2|3:2|3:2|3:2,3:2:0:0:
512,152,167769,6,0,P|470:144|422:152,1,90,4|0,1:3|0:2,0:2:0:0:
296,260,168085,1,8,0:2:0:0:
160,172,168243,1,0,0:2:0:0:
152,140,168322,1,8,0:2:0:0:
152,108,168400,1,0,0:2:0:0:
156,76,168479,1,8,0:2:0:0:
168,48,168558,1,8,0:2:0:0:
296,260,168717,6,0,P|300:312|288:368,1,90,8|0,0:2|0:2,0:2:0:0:
92,264,169032,5,0,1:2:0:0:
233,111,169190,1,0,0:2:0:0:
28,68,169348,1,8,0:2:0:0:
92,264,169506,1,0,0:2:0:0:
122,272,169585,1,8,0:2:0:0:
153,280,169664,1,0,0:2:0:0:
184,288,169743,1,8,0:2:0:0:
215,297,169822,1,8,0:2:0:0:
320,136,169980,6,0,L|234:112,1,90,8|0,0:2|0:2,0:2:0:0:
28,68,170295,2,0,L|28:124,5,45,4|0|0|0|8|0,1:3|0:2|0:2|0:2|0:2|0:2,0:2:0:0:
28,144,170769,6,0,L|120:144,1,90,0|8,1:2|0:2,0:2:0:0:
384,244,171085,2,0,L|272:244,1,103.500001974106,0|8,1:2|0:2,0:2:0:0:
40,344,171401,2,0,L|160:344,1,116.999994644165,0|8,1:2|0:2,0:2:0:0:
332,344,171717,5,0,0:2:0:0:
96,240,171875,1,0,0:2:0:0:
336,144,172033,1,8,0:2:0:0:
100,88,172190,5,8,0:1:0:0:
97,109,172269,1,8,0:1:0:0:
94,130,172348,1,8,0:1:0:0:
96,168,172427,5,8,0:1:0:0:
93,189,172506,1,8,0:1:0:0:
90,210,172585,1,8,0:1:0:0:
96,244,172664,5,8,0:1:0:0:
93,265,172743,1,8,0:1:0:0:
90,286,172822,6,0,B|80:340|80:340|128:324|176:324,1,144,4|2,1:3|0:2,0:2:0:0:
471,333,173138,2,0,P|399:353|332:344,1,144,8|2,1:2|0:2,0:2:0:0:
20,208,173454,1,0,1:2:0:0:
388,260,173611,1,2,0:2:0:0:
80,336,173769,1,8,1:2:0:0:
328,36,173927,2,0,B|392:12|412:56|480:20,1,144,2|0,0:2|1:2,0:2:0:0:
161,197,174243,2,0,B|97:221|77:177|9:213,1,144,2|8,0:2|1:2,0:2:0:0:
248,380,174559,5,2,0:2:0:0:
368,104,174717,1,0,1:2:0:0:
64,284,174875,1,2,0:2:0:0:
432,244,175033,1,8,1:2:0:0:
84,72,175190,1,2,0:2:0:0:
432,244,175348,2,0,P|488:277|417:258,1,216,0|0,1:2|0:2,0:2:0:0:
452,276,175664,2,0,L|296:276,1,144,8|2,1:2|0:2,0:2:0:0:
80,240,175980,5,0,1:2:0:0:
392,132,176138,1,2,0:2:0:0:
188,356,176296,1,8,1:2:0:0:
44,80,176454,6,0,B|4:0|4:0|60:0,1,144,2|0,0:2|1:2,0:2:0:0:
453,0,176769,2,0,B|508:0|508:0|468:80,1,144,2|8,0:2|1:2,0:2:0:0:
300,332,177086,6,0,P|256:380|216:328,1,144,2|8,0:2|1:2,0:2:0:0:
220,296,177323,1,8,0:2:0:0:
228,260,177401,1,10,0:2:0:0:
236,224,177480,1,0,0:2:0:0:
248,188,177559,1,8,1:2:0:0:
260,152,177638,1,0,0:2:0:0:
272,120,177717,1,10,0:2:0:0:
288,88,177796,1,0,0:2:0:0:
300,52,177875,6,0,P|256:4|216:56,1,144,12|2,1:2|0:2,0:2:0:0:
300,332,178190,2,0,P|372:348|440:336,1,144,8|2,1:2|0:2,0:2:0:0:
108,88,178506,1,0,1:2:0:0:
240,376,178664,1,2,0:2:0:0:
412,112,178822,1,8,1:2:0:0:
112,8,178980,2,0,B|40:8|8:56|8:56|32:80,1,144,2|0,0:2|1:2,0:2:0:0:
220,356,179296,2,0,B|220:276|220:276|196:216,1,144,2|8,0:2|1:2,0:2:0:0:
108,88,179611,5,2,0:2:0:0:
368,272,179769,1,0,1:2:0:0:
32,212,179927,1,2,0:2:0:0:
348,40,180085,1,8,1:2:0:0:
104,344,180243,1,2,0:2:0:0:
492,364,180401,6,0,B|504:296|504:296|492:224|492:224|504:152,1,216,0|0,1:2|0:2,0:2:0:0:
512,116,180717,2,0,P|444:144|368:144,1,144,8|2,1:2|0:2,0:2:0:0:
120,88,181033,5,0,1:2:0:0:
420,56,181190,1,2,0:2:0:0:
312,368,181348,5,8,1:2:0:0:
244,16,181506,1,2,0:2:0:0:
4,284,181664,6,0,P|72:312|148:312,1,144,0|2,1:2|0:2,0:2:0:0:
200,300,181901,1,0,0:2:0:0:
240,260,181980,1,8,0:2:0:0:
268,208,182059,1,8,0:2:0:0:
268,152,182138,1,0,0:2:0:0:
244,100,182217,1,8,0:2:0:0:
196,64,182296,6,0,B|136:52|72:88|72:88|96:112,1,144,8|8,1:2|0:2,0:2:0:0:
128,156,182533,1,8,0:2:0:0:
196,172,182611,1,8,0:2:0:0:
268,152,182690,1,0,0:2:0:0:
336,136,182769,1,8,0:2:0:0:
408,140,182848,1,0,0:2:0:0:
476,168,182927,2,0,P|488:232|468:328,1,144,12|2,1:2|0:2,0:2:0:0:
128,288,183243,2,0,B|92:276|92:276|196:256,1,144,8|2,1:2|0:2,0:2:0:0:
404,236,183559,5,0,1:2:0:0:
48,188,183717,1,2,0:2:0:0:
292,32,183875,1,8,1:2:0:0:
240,340,184033,2,0,B|180:340|180:340|156:364|100:364,1,144,2|0,0:2|1:2,0:2:0:0:
404,236,184348,2,0,L|431:378,1,144,2|8,0:2|1:2,0:2:0:0:
412,32,184664,5,2,0:2:0:0:
320,364,184822,1,0,1:2:0:0:
188,112,184980,1,2,0:2:0:0:
512,228,185138,1,8,1:2:0:0:
240,340,185296,1,2,0:2:0:0:
116,48,185454,6,0,P|184:32|280:52,1,144,0|2,1:2|0:2,0:2:0:0:
512,228,185769,2,0,B|360:228,1,144,8|2,1:2|0:2,0:2:0:0:
92,216,186085,1,0,1:2:0:0:
380,336,186243,1,2,0:2:0:0:
20,192,186401,1,8,1:2:0:0:
408,148,186559,2,0,P|420:72|396:12,1,144,2|0,0:2|1:2,0:2:0:0:
243,348,186875,2,0,P|319:360|379:336,1,144,2|8,0:2|1:2,0:2:0:0:
176,32,187191,1,2,0:2:0:0:
36,244,187348,5,8,1:2:0:0:
88,268,187427,1,8,0:2:0:0:
144,276,187506,1,10,0:2:0:0:
200,268,187585,1,0,0:2:0:0:
252,244,187664,1,8,1:2:0:0:
308,232,187743,1,0,0:2:0:0:
364,236,187822,1,10,0:2:0:0:
420,244,187901,1,0,0:2:0:0:
472,268,187980,5,12,1:2:0:0:
136,184,188138,1,2,0:2:0:0:
512,192,188296,5,8,1:2:0:0:
88,356,188454,1,2,0:2:0:0:
192,32,188611,5,0,1:2:0:0:
320,32,188769,1,2,0:2:0:0:
320,160,188927,1,8,1:2:0:0:
192,160,189085,1,2,0:2:0:0:
192,32,189243,5,0,1:2:0:0:
304,376,189401,1,2,0:2:0:0:
344,8,189559,5,8,1:2:0:0:
128,384,189717,1,2,0:2:0:0:
40,32,189875,5,0,1:2:0:0:
388,196,190033,1,2,0:2:0:0:
16,328,190190,1,8,1:2:0:0:
476,196,190348,1,2,0:2:0:0:
100,48,190506,5,0,1:2:0:0:
68,96,190585,1,0,0:2:0:0:
68,152,190664,1,2,0:2:0:0:
96,204,190743,1,0,0:2:0:0:
152,220,190822,1,8,1:2:0:0:
208,200,190901,1,0,0:2:0:0:
264,200,190980,1,2,0:2:0:0:
320,216,191059,1,0,0:2:0:0:
356,260,191138,2,0,B|368:296|368:296|352:336,7,72,0|0|2|0|8|0|2|0,1:2|0:2|0:2|0:2|1:2|0:2|0:2|0:2,0:2:0:0:
284,296,191769,5,0,1:2:0:0:
220,332,191848,1,0,0:2:0:0:
148,320,191927,1,2,0:2:0:0:
104,260,192006,1,0,0:2:0:0:
108,188,192085,1,8,1:2:0:0:
148,128,192164,1,0,0:2:0:0:
220,116,192242,1,2,0:2:0:0:
288,144,192321,1,0,0:2:0:0:
348,184,192401,6,0,L|384:184,14,36,0|0|0|0|2|0|0|0|0|0|0|0|2|0|0,3:2|3:2|3:2|3:2|3:2|3:2|3:2|3:2|1:2|3:2|3:2|3:2|3:2|3:2|3:2,3:2:0:0:
428,184,193033,5,4,1:3:0:0:
208,224,193190,1,0,0:2:0:0:
388,88,193348,1,8,0:2:0:0:
476,296,193506,1,0,0:2:0:0:
444,300,193585,1,8,0:2:0:0:
412,304,193664,1,0,0:2:0:0:
380,308,193743,1,8,0:2:0:0:
348,312,193822,1,8,0:2:0:0:
192,321,193980,2,0,L|212:208,1,99.0000030212403,8|0,0:2|0:2,0:2:0:0:
272,76,194296,5,0,1:2:0:0:
76,184,194454,1,0,0:2:0:0:
292,248,194611,1,8,0:2:0:0:
160,36,194769,1,0,1:2:0:0:
160,36,194848,1,0,1:2:0:0:
160,36,194927,1,0,1:2:0:0:
348,140,195085,5,0,1:2:0:0:
112,256,195243,1,8,0:2:0:0:
256,36,195401,1,0,0:2:0:0:
404,232,195559,2,0,P|352:244|304:236,1,99.0000030212403,0|0,1:2|0:2,0:2:0:0:
60,128,195875,2,0,P|112:116|160:124,1,99.0000030212403,8|0,0:2|0:2,0:2:0:0:
348,140,196190,5,0,0:2:0:0:
300,364,196348,1,0,1:2:0:0:
464,112,196506,1,8,0:2:0:0:
256,280,196664,1,0,0:2:0:0:
384,24,196822,6,0,P|336:16|280:24,1,99.0000030212403,0|0,1:2|0:2,0:2:0:0:
40,136,197138,2,0,P|31:87|38:38,1,99.0000030212403,8|0,0:2|0:2,0:2:0:0:
185,358,197454,2,0,P|136:366|88:360,1,99.0000030212403,0|0,1:2|1:2,0:2:0:0:
453,234,197769,2,0,P|460:283|452:332,1,99.0000030212403,8|0,0:2|0:2,0:2:0:0:
286,22,198085,5,0,1:2:0:0:
228,288,198243,1,0,0:2:0:0:
116,44,198401,1,8,0:2:0:0:
377,90,198559,1,0,0:2:0:0:
397,126,198638,1,8,0:2:0:0:
413,162,198717,1,0,0:2:0:0:
433,198,198796,1,8,0:2:0:0:
453,234,198875,1,8,0:2:0:0:
228,288,199033,2,0,B|224:248|224:248|244:184,1,99.0000030212403,8|0,0:2|0:2,0:2:0:0:
132,96,199348,5,0,1:2:0:0:
324,252,199506,1,0,0:2:0:0:
288,28,199664,1,8,0:2:0:0:
140,224,199822,1,0,1:2:0:0:
140,224,199901,1,0,1:2:0:0:
140,224,199980,1,0,1:2:0:0:
36,20,200138,5,0,1:2:0:0:
12,268,200296,1,8,0:2:0:0:
168,76,200454,1,0,0:2:0:0:
164,324,200611,2,0,L|60:324,1,99.0000030212403,0|0,1:2|0:2,0:2:0:0:
168,76,200927,2,0,L|280:76,1,99.0000030212403,8|0,0:2|0:2,0:2:0:0:
132,356,201243,2,0,L|28:356,1,99.0000030212403,0|0,0:2|1:2,0:2:0:0:
196,48,201559,2,0,L|308:48,1,99.0000030212403,8|0,0:2|0:2,0:2:0:0:
444,248,201875,5,8,0:2:0:0:
156,168,202033,1,0,1:2:0:0:
156,168,202111,1,0,1:2:0:0:
156,168,202190,1,0,1:2:0:0:
320,136,202348,5,8,0:2:0:0:
60,68,202506,1,0,1:2:0:0:
40,100,202585,1,0,1:2:0:0:
32,140,202664,1,0,1:2:0:0:
28,180,202743,1,0,0:2:0:0:
36,220,202822,2,0,P|48:272|84:320,1,99.0000030212403,8|8,0:2|1:2,0:2:0:0:
288,340,203138,5,0,1:2:0:0:
192,132,203296,1,0,0:2:0:0:
168,380,203454,1,8,0:2:0:0:
372,168,203611,1,0,0:2:0:0:
140,20,203769,1,0,0:2:0:0:
20,152,203927,1,0,1:2:0:0:
192,192,204085,2,0,B|268:192|268:192|344:176,1,148.50000453186,8|0,0:2|0:2,0:2:0:0:
372,168,204401,6,0,L|356:280,1,99.0000030212403,0|0,1:2|0:2,0:2:0:0:
252,100,204717,2,0,L|268:-12,1,99.0000030212403,8|0,0:2|0:2,0:2:0:0:
476,124,205033,1,0,1:2:0:0:
280,272,205190,1,0,1:2:0:0:
356,56,205348,1,8,0:2:0:0:
456,300,205505,1,0,0:2:0:0:
188,320,205664,6,0,P|180:272|188:212,1,99.0000030212403,0|0,1:2|0:2,0:2:0:0:
284,40,205980,1,8,0:2:0:0:
364,272,206138,2,0,L|265:272,1,99.0000030212403,0|0,0:2|0:2,0:2:0:0:
72,156,206454,1,0,1:2:0:0:
284,40,206611,2,0,L|400:40,1,99.0000030212403,8|0,0:2|0:2,0:2:0:0:
496,204,206927,6,0,P|456:248|456:344,1,148.50000453186,0|0,1:2|0:2,0:2:0:0:
432,356,207243,2,0,P|388:316|292:316,1,148.50000453186,8|0,0:2|0:2,0:2:0:0:
280,292,207559,2,0,P|308:244|308:148,1,148.50000453186,0|0,1:2|0:2,0:2:0:0:
340,144,207875,2,0,P|384:184|480:184,1,148.50000453186,8|0,0:2|0:2,0:2:0:0:
496,204,208190,5,0,1:2:0:0:
302,311,208348,1,0,0:2:0:0:
124,184,208506,1,8,0:2:0:0:
268,24,208664,1,0,0:2:0:0:
284,60,208743,1,8,0:2:0:0:
284,100,208822,1,0,0:2:0:0:
280,140,208901,1,8,0:2:0:0:
268,176,208980,1,8,0:2:0:0:
144,352,209138,2,0,P|128:300|132:244,1,99.0000030212403,8|0,0:2|0:2,0:2:0:0:
204,92,209454,5,0,1:2:0:0:
428,124,209611,1,0,1:2:0:0:
428,124,209690,1,0,1:2:0:0:
428,124,209769,1,8,0:2:0:0:
236,4,209927,1,0,0:2:0:0:
28,136,210085,2,0,P|20:192|28:236,1,99.0000030212403,0|0,1:2|1:2,0:2:0:0:
204,296,210401,2,0,L|92:296,1,99.0000030212403,8|0,0:2|0:2,0:2:0:0:
316,160,210717,5,4,1:3:0:0:
336,152,210796,1,0,3:2:0:0:
356,144,210875,1,0,3:2:0:0:
372,136,210954,1,0,3:2:0:0:
392,128,211033,1,8,3:2:0:0:
408,120,211111,1,0,3:2:0:0:
424,112,211190,1,0,3:2:0:0:
440,104,211269,1,0,3:2:0:0:
456,96,211348,5,0,1:2:0:0:
432,60,211427,1,0,3:2:0:0:
392,44,211506,1,0,1:2:0:0:
348,48,211585,1,0,3:2:0:0:
308,72,211664,1,8,3:2:0:0:
288,112,211743,1,0,3:2:0:0:
292,156,211822,1,0,3:2:0:0:
312,196,211901,1,0,3:2:0:0:
336,232,211980,5,8,3:2:0:0:
340,276,212059,1,0,3:2:0:0:
320,316,212138,1,0,3:2:0:0:
288,344,212217,1,0,3:2:0:0:
244,348,212296,2,0,L|188:324,1,49.5000015106202,2|0,0:2|0:2,0:2:0:0:
152,324,212454,2,0,L|96:348,1,49.5000015106202,2|0,0:2|0:2,0:2:0:0:
60,352,212611,2,0,B|80:248|80:248|48:144,1,202.500007724762,2|0,0:2|0:2,0:2:0:0:
16,128,212927,2,0,B|56:112|56:112|116:112,1,99.0000030212403,0|0,0:2|0:2,0:2:0:0:
368,124,213243,5,4,1:2:0:0:
100,36,213401,1,2,0:2:0:0:
440,96,213559,1,8,1:2:0:0:
140,184,213717,1,2,0:2:0:0:
296,24,213875,1,0,1:2:0:0:
392,288,214033,1,2,0:2:0:0:
160,92,214190,1,8,1:2:0:0:
400,8,214348,1,2,0:2:0:0:
488,276,214506,6,0,B|472:332|472:332|428:368,1,112.5,0|2,1:2|0:2,0:2:0:0:
384,376,214743,1,0,0:2:0:0:
344,360,214822,1,8,1:2:0:0:
316,324,214901,1,0,0:2:0:0:
312,280,214980,1,2,0:2:0:0:
324,236,215059,1,0,0:2:0:0:
352,200,215138,2,0,L|228:164,1,112.5,0|2,1:2|0:2,0:2:0:0:
20,332,215454,2,0,L|144:368,1,112.5,8|2,1:2|0:2,0:2:0:0:
392,288,215769,5,0,1:2:0:0:
108,224,215927,1,2,0:2:0:0:
280,368,216085,1,8,1:2:0:0:
380,80,216243,1,2,0:2:0:0:
108,224,216401,5,0,1:2:0:0:
440,168,216559,1,2,0:2:0:0:
200,20,216717,1,8,1:2:0:0:
192,300,216875,1,2,0:2:0:0:
440,168,217033,5,0,1:2:0:0:
400,144,217111,1,0,0:2:0:0:
356,136,217190,1,2,0:2:0:0:
312,140,217269,1,0,0:2:0:0:
272,156,217348,1,8,1:2:0:0:
232,176,217427,1,0,0:2:0:0:
188,184,217506,1,2,0:2:0:0:
144,176,217585,1,0,0:2:0:0:
108,148,217664,2,0,P|100:88|116:28,1,112.5,0|2,1:2|0:2,0:2:0:0:
352,228,217980,2,0,P|360:288|344:348,1,112.5,8|2,1:2|0:2,0:2:0:0:
124,376,218296,5,0,1:2:0:0:
188,100,218454,1,2,0:2:0:0:
272,288,218611,1,8,1:2:0:0:
8,192,218769,1,2,0:2:0:0:
272,288,218927,1,0,1:2:0:0:
56,72,219085,1,2,0:2:0:0:
124,376,219243,1,8,1:2:0:0:
376,252,219401,1,2,0:2:0:0:
192,32,219559,6,0,P|140:32|84:60,1,112.5,0|2,1:2|0:2,0:2:0:0:
456,124,219875,2,0,L|488:244,1,112.5,8|2,1:2|0:2,0:2:0:0:
56,260,220190,6,0,L|27:151,1,112.5,0|2,1:2|0:2,0:2:0:0:
320,352,220506,2,0,P|372:352|428:324,1,112.5,8|2,1:2|0:2,0:2:0:0:
376,48,220822,5,0,1:2:0:0:
136,336,220980,1,2,0:2:0:0:
456,124,221138,1,8,1:2:0:0:
56,260,221296,1,2,0:2:0:0:
484,232,221454,1,0,1:2:0:0:
28,152,221611,1,2,0:2:0:0:
425,325,221770,1,8,1:2:0:0:
87,59,221927,1,2,0:2:0:0:
320,352,222085,5,0,1:2:0:0:
288,352,222164,1,0,0:2:0:0:
256,352,222243,1,2,0:2:0:0:
224,352,222322,1,0,0:2:0:0:
192,352,222401,1,8,0:2:0:0:
160,352,222480,1,0,0:2:0:0:
128,352,222559,1,2,0:2:0:0:
96,352,222638,1,0,0:2:0:0:
64,352,222717,5,2,1:2:0:0:
104,312,222796,1,2,0:2:0:0:
136,264,222875,1,2,0:2:0:0:
152,212,222954,1,2,0:2:0:0:
156,156,223033,1,10,0:2:0:0:
144,100,223111,1,2,0:2:0:0:
116,52,223190,1,2,0:2:0:0:
72,16,223269,1,2,0:2:0:0:
16,12,223348,6,0,B|12:72|12:72|24:144,1,112.5,4|2,1:2|0:2,0:2:0:0:
175,347,223664,2,0,B|120:364|64:352,1,112.5,8|2,1:2|0:2,0:2:0:0:
396,240,223980,1,0,1:2:0:0:
116,268,224138,1,2,0:2:0:0:
264,28,224296,1,8,1:2:0:0:
252,356,224454,1,2,0:2:0:0:
484,132,224611,6,0,B|492:80|492:80|488:20,1,112.5,0|2,1:2|0:2,0:2:0:0:
337,347,224927,2,0,B|392:364|448:352,1,112.5,8|2,1:2|0:2,0:2:0:0:
396,72,225243,1,0,1:2:0:0:
116,268,225401,1,2,0:2:0:0:
396,268,225559,1,8,1:2:0:0:
188,48,225717,1,2,0:2:0:0:
164,352,225875,6,0,L|32:352,1,112.5,0|2,1:2|0:2,0:2:0:0:
448,351,226190,2,0,L|480:224,1,112.5,8|2,1:2|0:2,0:2:0:0:
128,168,226506,6,0,L|-4:168,1,112.5,0|2,1:2|0:2,0:2:0:0:
480,128,226822,2,0,L|512:1,1,112.5,8|2,1:2|0:2,0:2:0:0:
104,16,227138,5,0,1:2:0:0:
272,268,227296,1,2,0:2:0:0:
15,168,227454,5,8,1:2:0:0:
304,96,227611,1,2,0:2:0:0:
476,352,227769,6,0,P|428:376|368:368,1,112.5,0|2,1:2|0:2,0:2:0:0:
36,352,228085,2,0,P|84:376|144:368,1,112.5,8|2,1:2|0:2,0:2:0:0:
408,276,228401,5,0,1:2:0:0:
380,20,228558,1,2,0:2:0:0:
124,44,228717,1,8,1:2:0:0:
148,300,228874,1,2,0:2:0:0:
420,368,229033,5,0,1:2:0:0:
464,75,229190,1,2,0:2:0:0:
172,24,229349,1,8,1:2:0:0:
123,315,229507,1,2,0:2:0:0:
336,380,229664,5,0,1:2:0:0:
308,56,229822,1,2,0:2:0:0:
184,360,229980,1,8,1:2:0:0:
460,188,230138,1,2,0:2:0:0:
136,156,230296,5,0,1:2:0:0:
420,320,230454,1,2,0:2:0:0:
256,40,230611,1,8,1:2:0:0:
256,368,230769,1,2,0:2:0:0:
488,140,230927,5,0,1:2:0:0:
488,128,231006,1,0,0:2:0:0:
488,116,231085,1,2,0:2:0:0:
488,104,231164,1,0,0:2:0:0:
488,92,231243,1,8,1:2:0:0:
488,80,231322,1,0,0:2:0:0:
488,68,231401,1,2,0:2:0:0:
488,56,231480,1,0,0:2:0:0:
488,44,231559,5,0,1:2:0:0:
444,72,231638,1,0,0:2:0:0:
396,92,231717,1,2,0:2:0:0:
348,104,231796,1,0,0:2:0:0:
296,104,231875,1,8,1:2:0:0:
248,92,231954,1,0,0:2:0:0:
200,76,232033,1,2,0:2:0:0:
156,56,232111,1,0,0:2:0:0:
116,24,232190,5,0,1:2:0:0:
176,28,232269,1,0,0:2:0:0:
236,44,232348,1,2,0:2:0:0:
288,76,232427,1,0,0:2:0:0:
324,124,232506,1,8,1:2:0:0:
344,184,232585,1,0,0:2:0:0:
352,244,232664,1,2,0:2:0:0:
340,304,232743,1,0,0:2:0:0:
308,356,232822,2,2,L|276:356,14,28.125,2|2|2|2|0|2|2|2|2|2|2|2|0|2|2,3:2|3:2|3:2|3:2|3:2|3:2|3:2|3:2|1:2|3:2|3:2|3:2|3:2|3:2|3:2,3:2:0:0:
248,356,233454,6,0,P|235:310|248:260,1,90,4|0,1:3|0:2,0:2:0:0:
392,164,233770,1,8,0:2:0:0:
460,332,233928,1,0,0:2:0:0:
432,328,234007,1,8,0:2:0:0:
404,324,234085,1,0,0:2:0:0:
376,320,234164,1,8,0:2:0:0:
348,316,234243,1,8,0:2:0:0:
152,292,234401,6,0,L|80:372,1,90,8|0,0:2|0:2,0:2:0:0:
252,156,234717,5,0,1:2:0:0:
100,28,234875,1,0,0:2:0:0:
60,220,235033,1,8,0:2:0:0:
252,156,235191,1,0,0:2:0:0:
268,156,235270,1,0,0:2:0:0:
284,156,235349,1,0,1:2:0:0:
300,156,235428,1,0,0:2:0:0:
316,156,235507,1,0,1:2:0:0:
100,28,235664,6,0,L|-4:28,1,90,8|0,0:2|0:2,0:2:0:0:
388,28,235980,2,0,L|412:68,5,45,4|0|0|0|8|0,1:3|0:2|0:2|0:2|0:2|0:2,0:2:0:0:
440,104,236454,6,0,L|496:24,1,90,4|8,1:3|0:2,0:2:0:0:
464,220,236769,2,0,L|408:140,1,90,4|8,1:3|0:2,0:2:0:0:
444,332,237085,2,0,L|500:252,1,90,4|8,1:3|0:2,0:2:0:0:
296,228,237401,5,0,0:2:0:0:
120,296,237559,1,0,0:2:0:0:
372,288,237717,1,8,0:2:0:0:
152,184,237875,1,8,0:1:0:0:
148,172,237954,1,8,0:1:0:0:
148,160,238033,1,8,0:1:0:0:
152,148,238112,1,8,0:1:0:0:
156,136,238191,1,8,0:1:0:0:
156,124,238270,1,8,0:1:0:0:
152,112,238349,1,8,0:1:0:0:
144,100,238428,1,8,0:1:0:0:
136,88,238506,6,0,B|36:232|36:232|92:224,1,222.75000212431,4|0,1:2|0:2,0:2:0:0:
156,224,238822,2,0,P|144:296|76:328,1,148.500001416206,8|2,1:2|0:2,0:2:0:0:
48,52,239138,1,0,1:2:0:0:
320,204,239296,1,2,0:2:0:0:
44,48,239454,1,8,1:2:0:0:
352,28,239611,2,0,B|416:28|484:8|484:8|480:32,1,148.500001416206,2|0,0:2|1:2,0:2:0:0:
320,204,239927,2,0,B|256:204|188:224|188:224|192:200,1,148.500001416206,2|8,0:2|1:2,0:2:0:0:
164,32,240243,5,2,0:2:0:0:
288,384,240401,1,0,1:2:0:0:
396,28,240559,1,2,0:2:0:0:
112,268,240717,1,8,1:2:0:0:
480,220,240875,1,2,0:2:0:0:
164,32,241033,6,0,B|81:25|0:104|0:104|64:88,1,222.75000212431,0|0,1:2|0:2,0:2:0:0:
108,112,241348,2,0,B|144:104|144:104|56:172,1,148.500001416206,8|2,1:2|0:2,0:2:0:0:
20,360,241664,1,0,1:2:0:0:
316,136,241822,1,2,0:2:0:0:
32,272,241980,1,8,1:2:0:0:
396,352,242138,6,0,B|504:368|504:368|488:324,1,148.500001416206,2|0,0:2|1:2,0:2:0:0:
408,92,242454,2,0,B|367:-9|367:-9|337:26,1,148.500001416206,2|8,0:2|1:2,0:2:0:0:
176,208,242769,2,0,B|108:293|108:293|154:301,1,148.500001416206,2|8,0:2|1:2,0:2:0:0:
208,308,243006,1,8,0:2:0:0:
260,276,243085,1,10,0:2:0:0:
284,220,243164,1,0,0:2:0:0:
284,160,243243,1,8,1:2:0:0:
252,112,243322,1,0,0:2:0:0:
200,84,243401,1,10,0:2:0:0:
140,88,243480,1,0,0:2:0:0:
92,124,243559,6,0,B|28:204|28:204|16:256,1,148.500001416206,12|2,1:2|0:2,0:2:0:0:
420,216,243875,2,0,B|484:136|484:136|496:84,1,148.500001416206,8|2,1:2|0:2,0:2:0:0:
200,32,244190,1,0,1:2:0:0:
428,364,244348,1,2,0:2:0:0:
392,24,244506,1,8,1:2:0:0:
60,108,244664,2,0,P|60:188|88:256,1,148.500001416206,2|0,0:2|1:2,0:2:0:0:
428,364,244980,2,0,P|360:324|292:324,1,148.500001416206,2|8,0:2|1:2,0:2:0:0:
32,360,245296,5,2,0:2:0:0:
232,48,245454,1,0,1:2:0:0:
480,280,245611,1,2,0:2:0:0:
62,168,245769,1,8,1:2:0:0:
468,24,245927,1,2,0:2:0:0:
288,368,246085,2,0,P|268:320|300:224,1,148.500001416206,0|2,1:2|0:2,0:2:0:0:
468,24,246401,2,0,L|312:28,1,148.500001416206,8|2,1:2|0:2,0:2:0:0:
62,168,246717,5,0,1:2:0:0:
460,108,246875,1,2,0:2:0:0:
104,0,247033,1,8,1:2:0:0:
12,356,247190,1,2,0:2:0:0:
372,260,247348,6,0,P|422:220|371:181,1,148.500001416206,0|2,1:2|0:2,0:2:0:0:
312,188,247585,1,0,0:2:0:0:
272,232,247664,1,8,0:2:0:0:
284,292,247743,1,8,0:2:0:0:
328,332,247822,1,10,0:2:0:0:
388,340,247901,1,0,0:2:0:0:
444,320,247980,6,0,P|496:248|492:184,1,148.500001416206,8|10,1:2|0:2,0:2:0:0:
456,124,248217,1,8,0:2:0:0:
388,96,248296,1,8,0:2:0:0:
312,92,248375,1,0,0:2:0:0:
248,128,248454,1,10,0:2:0:0:
208,192,248533,1,0,0:2:0:0:
208,264,248611,6,0,B|208:328|240:352|240:352|112:312,1,222.75000212431,12|0,1:2|0:2,0:2:0:0:
62,283,248927,2,0,P|137:284|209:263,1,148.500001416206,8|2,1:2|0:2,0:2:0:0:
456,124,249243,1,0,1:2:0:0:
120,204,249401,1,2,0:2:0:0:
488,364,249559,1,8,1:2:0:0:
292,12,249717,2,0,P|292:96|320:156,1,148.500001416206,2|0,0:2|1:2,0:2:0:0:
488,364,250033,2,0,L|340:348,1,148.500001416206,2|8,0:2|1:2,0:2:0:0:
80,280,250348,5,2,0:2:0:0:
412,56,250506,1,0,1:2:0:0:
212,384,250664,1,2,0:2:0:0:
68,8,250822,1,8,1:2:0:0:
476,224,250980,1,2,0:2:0:0:
32,348,251138,6,0,P|8:284|32:204,1,148.500001416206,0|2,1:2|0:2,0:2:0:0:
480,36,251454,2,0,P|504:100|480:180,1,148.500001416206,8|2,1:2|0:2,0:2:0:0:
268,360,251769,1,0,1:2:0:0:
28,80,251927,1,2,0:2:0:0:
392,8,252085,1,8,1:2:0:0:
268,360,252243,2,0,L|124:300,1,148.500001416206,2|0,0:2|1:2,0:2:0:0:
244,24,252559,2,0,L|388:84,1,148.500001416206,2|8,0:2|1:2,0:2:0:0:
384,356,252875,1,2,0:2:0:0:
44,292,253032,5,8,1:2:0:0:
92,260,253111,1,8,0:2:0:0:
152,256,253190,1,10,0:2:0:0:
212,264,253269,1,0,0:2:0:0:
268,280,253348,1,8,1:2:0:0:
328,288,253427,1,0,0:2:0:0:
388,276,253506,1,10,0:2:0:0:
424,228,253585,1,0,0:2:0:0:
428,168,253664,5,12,1:2:0:0:
92,124,253822,1,2,0:2:0:0:
452,188,253980,1,8,1:2:0:0:
64,240,254138,1,2,0:2:0:0:
480,212,254296,1,0,1:2:0:0:
44,24,254454,1,2,0:2:0:0:
504,228,254611,1,8,1:2:0:0:
32,372,254769,1,2,0:2:0:0:
224,20,254927,5,0,1:2:0:0:
380,384,255085,1,2,0:2:0:0:
12,220,255243,5,8,1:2:0:0:
396,34,255401,1,2,0:2:0:0:
236,380,255559,5,0,1:2:0:0:
16,8,255717,1,2,0:2:0:0:
415,164,255875,5,8,1:2:0:0:
28,300,256033,1,2,0:2:0:0:
396,34,256190,5,0,1:2:0:0:
426,61,256269,1,0,0:2:0:0:
456,88,256348,1,2,0:2:0:0:
484,117,256427,1,0,0:2:0:0:
512,137,256506,1,8,1:2:0:0:
487,182,256585,1,0,0:2:0:0:
476,232,256664,1,2,0:2:0:0:
484,283,256743,1,0,0:2:0:0:
512,326,256822,5,0,1:2:0:0:
472,272,256901,1,0,0:2:0:0:
413,239,256980,1,2,0:2:0:0:
348,222,257059,1,0,0:2:0:0:
281,217,257138,1,8,1:2:0:0:
214,220,257217,1,0,0:2:0:0:
150,239,257296,1,2,0:2:0:0:
96,279,257375,1,0,0:2:0:0:
64,340,257454,5,0,1:2:0:0:
137,353,257533,1,0,0:2:0:0:
210,341,257611,1,2,0:2:0:0:
263,289,257690,1,0,0:2:0:0:
281,217,257769,1,8,1:2:0:0:
260,145,257848,1,0,0:2:0:0:
203,96,257927,1,2,0:2:0:0:
130,79,258006,1,0,0:2:0:0:
59,101,258085,2,0,L|59:145,14,37.1250003540516,0|0|0|0|2|0|0|0|0|0|0|0|2|0|0,3:2|3:2|3:2|3:2|3:2|3:2|3:2|3:2|1:2|3:2|3:2|3:2|3:2|3:2|3:2,3:2:0:0:
16,118,258717,6,0,P|12:62|46:16,1,112.5,4|2,1:3|0:2,0:2:0:0:
277,21,259033,1,8,1:2:0:0:
448,196,259190,1,2,0:2:0:0:
456,236,259269,1,8,0:2:0:0:
460,276,259348,1,0,1:2:0:0:
468,316,259427,1,8,0:2:0:0:
476,356,259506,1,10,0:2:0:0:
268,160,259664,6,0,L|288:40,1,112.5,8|2,1:2|0:2,0:2:0:0:
384,112,259980,5,0,1:2:0:0:
152,272,260138,1,2,0:2:0:0:
188,48,260295,1,8,1:2:0:0:
356,304,260453,1,2,0:2:0:0:
52,308,260611,6,0,B|52:252|52:252|72:200,1,112.5,0|2,1:2|0:2,0:2:0:0:
384,112,260927,2,0,B|384:168|384:168|364:220,1,112.5,8|2,1:2|0:2,0:2:0:0:
208,352,261243,5,0,1:2:0:0:
268,160,261401,1,2,0:2:0:0:
72,199,261559,1,8,1:2:0:0:
208,352,261716,1,2,0:2:0:0:
248,360,261795,1,8,0:2:0:0:
288,364,261874,1,0,1:2:0:0:
328,360,261953,1,8,0:2:0:0:
364,348,262032,1,10,0:2:0:0:
473,205,262190,6,0,P|417:205|353:225,1,112.5,8|2,1:2|0:2,0:2:0:0:
204,280,262506,1,0,1:2:0:0:
420,288,262664,1,2,0:2:0:0:
224,176,262822,1,8,1:2:0:0:
420,288,262980,1,2,0:2:0:0:
280,88,263138,1,0,1:2:0:0:
420,288,263296,6,0,P|400:340|344:360,1,112.5,2|8,0:2|1:2,0:2:0:0:
208,196,263611,5,2,1:2:0:0:
208,196,263690,1,0,1:2:0:0:
208,196,263769,2,0,L|316:260,1,112.5,0|2,1:2|0:2,0:2:0:0:
144,360,264085,2,0,L|36:296,1,112.5,8|2,1:2|0:2,0:2:0:0:
24,272,264322,1,8,0:2:0:0:
16,232,264401,1,0,1:2:0:0:
16,192,264480,1,8,0:2:0:0:
28,156,264559,1,10,0:2:0:0:
212,0,264717,6,0,P|212:56|176:120,1,112.5,8|2,1:2|0:2,0:2:0:0:
100,232,265033,2,0,L|208:296,1,112.5,0|2,1:2|0:2,0:2:0:0:
356,352,265348,5,8,1:2:0:0:
484,100,265506,1,2,0:2:0:0:
216,192,265664,1,0,1:2:0:0:
492,252,265822,1,2,0:2:0:0:
328,24,265980,1,8,1:2:0:0:
416,292,266138,1,2,0:2:0:0:
140,340,266296,6,0,B|128:288|128:288|148:224,1,112.5,0|2,1:2|0:2,0:2:0:0:
328,24,266611,2,0,B|340:76|340:76|320:140,1,112.5,8|2,1:2|0:2,0:2:0:0:
36,332,266927,5,0,1:2:0:0:
28,292,267006,1,8,0:2:0:0:
20,252,267085,1,10,0:2:0:0:
12,212,267164,5,0,0:2:0:0:
24,176,267243,1,8,1:2:0:0:
40,140,267322,1,0,0:2:0:0:
60,104,267401,5,2,0:2:0:0:
76,140,267480,1,8,0:2:0:0:
92,176,267559,6,0,P|148:188|204:176,1,112.5,0|8,1:2|0:2,0:2:0:0:
448,108,267875,2,0,P|392:96|336:108,1,112.5,0|8,1:2|0:2,0:2:0:0:
93,255,268190,6,0,B|77:267|77:267|93:167,1,112.5,0|8,0:2|0:2,0:2:0:0:
446,28,268506,2,0,B|462:16|462:16|446:116,1,112.5,0|8,0:2|0:2,0:2:0:0:
248,292,268822,5,0,1:2:0:0:
164,36,268980,1,2,0:2:0:0:
392,176,269138,5,8,1:2:0:0:
196,352,269296,1,2,0:2:0:0:
156,352,269374,1,8,0:2:0:0:
116,352,269453,1,0,1:2:0:0:
76,352,269532,1,8,0:2:0:0:
36,352,269611,1,10,0:2:0:0:
332,328,269769,2,0,L|464:328,1,112.5,8|2,1:2|0:2,0:2:0:0:
360,80,270085,5,0,1:2:0:0:
144,176,270243,1,2,0:2:0:0:
412,192,270401,1,8,1:2:0:0:
180,56,270559,1,2,0:2:0:0:
24,272,270717,2,0,P|12:328|20:384,1,112.5,0|2,1:2|0:2,0:2:0:0:
256,112,271033,2,0,P|268:56|260:0,1,112.5,8|2,1:2|0:2,0:2:0:0:
40,68,271348,5,0,1:2:0:0:
164,256,271506,1,2,0:2:0:0:
364,152,271664,1,8,1:2:0:0:
180,56,271822,1,2,0:2:0:0:
168,104,271901,1,8,0:2:0:0:
160,152,271980,1,0,1:2:0:0:
160,204,272059,1,8,0:2:0:0:
164,256,272138,1,10,0:2:0:0:
456,200,272296,6,0,P|460:148|448:88,1,112.5,8|2,1:2|0:2,0:2:0:0:
180,56,272611,2,0,L|292:56,1,112.5,0|2,1:2|0:2,0:2:0:0:
396,284,272927,5,8,1:2:0:0:
104,204,273085,1,2,0:2:0:0:
364,152,273243,1,0,1:2:0:0:
100,300,273401,2,0,B|56:276|56:276|20:224,1,112.5,2|8,0:2|1:2,0:2:0:0:
284,76,273717,1,2,1:2:0:0:
284,76,273795,1,0,1:2:0:0:
284,76,273875,2,0,B|328:100|328:100|364:152,1,112.5,0|2,1:2|0:2,0:2:0:0:
436,344,274190,5,8,1:2:0:0:
264,172,274348,1,2,0:2:0:0:
280,336,274506,5,0,1:2:0:0:
412,60,274664,1,2,0:2:0:0:
156,224,274822,5,8,1:2:0:0:
484,228,274980,1,2,0:2:0:0:
268,20,275137,5,0,0:2:0:0:
160,352,275295,1,2,0:2:0:0:
396,156,275454,5,8,1:2:0:0:
100,92,275612,1,2,0:2:0:0:
272,340,275769,5,0,1:2:0:0:
176,4,275927,1,2,0:2:0:0:
52,280,276085,5,8,1:2:0:0:
436,192,276243,1,2,0:2:0:0:
84,8,276401,5,0,1:2:0:0:
47,35,276480,1,0,0:2:0:0:
24,74,276559,1,2,0:2:0:0:
24,120,276638,1,0,0:2:0:0:
52,156,276717,1,8,1:2:0:0:
92,176,276796,1,0,0:2:0:0:
135,170,276875,1,2,0:2:0:0:
168,142,276954,1,8,0:2:0:0:
208,124,277033,5,0,1:2:0:0:
264,112,277112,1,8,0:2:0:0:
320,120,277191,1,2,0:2:0:0:
372,144,277270,1,0,0:2:0:0:
404,188,277349,1,8,1:2:0:0:
408,244,277428,1,0,0:2:0:0:
388,296,277507,1,2,0:2:0:0:
340,320,277585,1,8,0:2:0:0:
284,324,277664,6,0,B|224:208|320:120|320:120|304:72|252:52,1,315.000003004074,0|0,1:2|0:2,0:2:0:0:
192,36,278059,1,2,0:3:0:0:
120,40,278138,1,2,0:3:0:0:
56,76,278217,1,2,0:3:0:0:
16,140,278296,6,0,B|0:312|0:312|56:284,1,225,0|8,0:2|0:1,0:2:0:0:
124,252,278691,1,8,0:1:0:0:
208,232,278770,1,8,0:1:0:0:
292,232,278849,1,8,0:1:0:0:
372,252,278927,2,0,P|424:276|468:312,1,112.5,4|2,1:1|0:2,0:2:0:0:
