osu file format v14

[General]
AudioFilename: audio_0.95.mp3
AudioLeadIn: 0
PreviewTime: 74307
Countdown: 0
SampleSet: None
StackLeniency: 0.7
Mode: 3
LetterboxInBreaks: 0
SpecialStyle: 0
WidescreenStoryboard: 0

[Editor]
Bookmarks: 5497,53365,64002,74638,122506,154417,175691,292700
DistanceSpacing: 0.8
BeatDivisor: 8
GridSize: 8
TimelineZoom: 1.5

[Metadata]
Title:Sorairo Days (Assertive Remix)
TitleUnicode:Sorairo Days (Assertive Remix)
Artist:Shoko Nakagawa
ArtistUnicode:Shoko Nakagawa
Creator:Kawawa
Version:x0.95(180)
Source:
Tags:
BeatmapID:1871464
BeatmapSetID:895661

[Difficulty]
HPDrainRate:8
CircleSize:7
OverallDifficulty:8
ApproachRate:5
SliderMultiplier:1.4
SliderTickRate:1

[Events]
//Background and Video events
0,0,"NqVm8yS.jpg",0,0
//Break Periods
//Storyboard Layer 0 (Background)
//Storyboard Layer 1 (Fail)
//Storyboard Layer 2 (Pass)
//Storyboard Layer 3 (Foreground)
//Storyboard Sound Samples

[TimingPoints]
168,332.409972299169,4,1,0,0,1,0

[HitObjects]
64,192,168,5,0,0:0:0:0:
448,192,168,1,0,0:0:0:0:
182,192,168,1,0,0:0:0:0:
109,192,168,1,0,0:0:0:0:
402,192,168,1,0,0:0:0:0:
329,192,168,1,0,0:0:0:0:
256,192,251,1,0,0:0:0:0:
109,192,334,1,0,0:0:0:0:
402,192,334,1,0,0:0:0:0:
329,192,417,1,0,0:0:0:0:
36,192,500,1,0,0:0:0:0:
475,192,500,1,0,0:0:0:0:
402,192,583,1,0,0:0:0:0:
256,192,666,1,0,0:0:0:0:
109,192,666,1,0,0:0:0:0:
182,192,749,1,0,0:0:0:0:
475,192,832,1,0,0:0:0:0:
36,192,832,1,0,0:0:0:0:
329,192,832,1,0,0:0:0:0:
256,192,915,1,0,0:0:0:0:
402,192,999,1,0,0:0:0:0:
109,192,999,1,0,0:0:0:0:
329,192,1082,1,0,0:0:0:0:
182,192,1165,1,0,0:0:0:0:
475,192,1165,1,0,0:0:0:0:
36,192,1165,1,0,0:0:0:0:
329,192,1248,1,0,0:0:0:0:
402,192,1331,1,0,0:0:0:0:
109,192,1331,1,0,0:0:0:0:
256,192,1414,1,0,0:0:0:0:
36,192,1497,1,0,0:0:0:0:
475,192,1497,1,0,0:0:0:0:
329,192,1497,1,0,0:0:0:0:
182,192,1580,1,0,0:0:0:0:
109,192,1663,1,0,0:0:0:0:
329,192,1663,1,0,0:0:0:0:
402,192,1746,1,0,0:0:0:0:
475,192,1830,1,0,0:0:0:0:
109,192,1830,1,0,0:0:0:0:
256,192,1830,1,0,0:0:0:0:
182,192,1913,1,0,0:0:0:0:
329,192,1996,1,0,0:0:0:0:
36,192,1996,1,0,0:0:0:0:
475,192,2079,1,0,0:0:0:0:
402,192,2162,1,0,0:0:0:0:
256,192,2162,1,0,0:0:0:0:
36,192,2162,1,0,0:0:0:0:
109,192,2245,1,0,0:0:0:0:
329,192,2328,1,0,0:0:0:0:
475,192,2328,1,0,0:0:0:0:
182,192,2411,1,0,0:0:0:0:
36,192,2494,1,0,0:0:0:0:
256,192,2494,1,0,0:0:0:0:
402,192,2494,1,0,0:0:0:0:
475,192,2577,1,0,0:0:0:0:
329,192,2661,1,0,0:0:0:0:
109,192,2661,1,0,0:0:0:0:
182,192,2744,1,0,0:0:0:0:
36,192,2827,1,0,0:0:0:0:
256,192,2827,1,0,0:0:0:0:
475,192,2827,1,0,0:0:0:0:
402,192,2910,1,0,0:0:0:0:
256,192,2993,1,0,0:0:0:0:
109,192,2993,1,0,0:0:0:0:
182,192,3076,1,0,0:0:0:0:
64,192,3159,1,0,0:0:0:0:
448,192,3159,1,0,0:0:0:0:
329,192,3159,1,0,0:0:0:0:
256,192,3242,1,0,0:0:0:0:
402,192,3325,1,0,0:0:0:0:
109,192,3325,1,0,0:0:0:0:
329,192,3408,1,0,0:0:0:0:
475,192,3492,1,0,0:0:0:0:
36,192,3492,1,0,0:0:0:0:
256,192,3492,1,0,0:0:0:0:
109,192,3575,1,0,0:0:0:0:
256,192,3658,1,0,0:0:0:0:
402,192,3658,1,0,0:0:0:0:
329,192,3741,1,0,0:0:0:0:
64,192,3824,1,0,0:0:0:0:
182,192,3824,1,0,0:0:0:0:
475,192,3824,1,0,0:0:0:0:
329,192,3907,1,0,0:0:0:0:
402,192,3990,1,0,0:0:0:0:
109,192,3990,1,0,0:0:0:0:
256,192,4073,1,0,0:0:0:0:
64,192,4156,1,0,0:0:0:0:
448,192,4156,1,0,0:0:0:0:
182,192,4156,1,0,0:0:0:0:
329,192,4240,1,0,0:0:0:0:
109,192,4323,1,0,0:0:0:0:
402,192,4323,1,0,0:0:0:0:
256,192,4406,1,0,0:0:0:0:
182,192,4489,1,0,0:0:0:0:
329,192,4489,1,0,0:0:0:0:
475,192,4489,1,0,0:0:0:0:
36,192,4572,1,0,0:0:0:0:
109,192,4655,1,0,0:0:0:0:
402,192,4655,1,0,0:0:0:0:
256,192,4738,1,0,0:0:0:0:
329,192,4821,1,0,0:0:0:0:
475,192,4821,1,0,0:0:0:0:
36,192,4821,1,0,0:0:0:0:
182,192,4904,1,0,0:0:0:0:
109,192,4987,1,0,0:0:0:0:
256,192,4987,1,0,0:0:0:0:
402,192,4987,1,0,0:0:0:0:
329,0,5071,1,0,1:0:0:0:
36,192,5154,1,0,0:0:0:0:
182,192,5154,1,0,0:0:0:0:
475,192,5154,1,0,0:0:0:0:
329,192,5237,1,0,0:0:0:0:
475,192,5320,1,0,0:0:0:0:
256,192,5320,1,0,0:0:0:0:
109,192,5320,1,0,0:0:0:0:
402,192,5403,1,0,0:0:0:0:
182,192,5403,1,0,0:0:0:0:
329,192,5486,1,0,0:0:0:0:
109,192,5486,1,0,0:0:0:0:
36,192,5486,1,0,0:0:0:0:
256,192,5569,1,0,0:0:0:0:
109,192,5652,1,0,0:0:0:0:
475,192,5652,1,0,0:0:0:0:
329,192,5735,1,0,0:0:0:0:
182,192,5818,1,0,0:0:0:0:
64,192,5818,1,0,0:0:0:0:
402,192,5818,1,0,0:0:0:0:
109,192,5902,1,0,0:0:0:0:
329,192,5985,1,0,0:0:0:0:
475,192,5985,1,0,0:0:0:0:
182,192,6068,1,0,0:0:0:0:
64,192,6151,1,0,0:0:0:0:
402,192,6151,1,0,0:0:0:0:
256,192,6151,1,0,0:0:0:0:
329,192,6234,1,0,0:0:0:0:
475,192,6317,1,0,0:0:0:0:
182,192,6317,1,0,0:0:0:0:
109,192,6400,1,0,0:0:0:0:
36,192,6483,1,0,0:0:0:0:
256,192,6483,1,0,0:0:0:0:
402,192,6483,1,0,0:0:0:0:
329,192,6566,1,0,0:0:0:0:
475,192,6649,1,0,0:0:0:0:
182,192,6649,1,0,0:0:0:0:
256,192,6733,1,0,0:0:0:0:
402,192,6816,1,0,0:0:0:0:
182,192,6816,1,0,0:0:0:0:
36,192,6816,1,0,0:0:0:0:
329,192,6899,1,0,0:0:0:0:
109,192,6982,1,0,0:0:0:0:
256,192,6982,1,0,0:0:0:0:
402,192,7065,1,0,0:0:0:0:
182,192,7148,1,0,0:0:0:0:
329,192,7148,1,0,0:0:0:0:
475,192,7148,1,0,0:0:0:0:
36,192,7231,1,0,0:0:0:0:
109,192,7314,1,0,0:0:0:0:
329,192,7314,1,0,0:0:0:0:
256,192,7397,1,0,0:0:0:0:
475,192,7481,1,0,0:0:0:0:
36,192,7481,1,0,0:0:0:0:
182,192,7481,1,0,0:0:0:0:
402,192,7564,1,0,0:0:0:0:
329,192,7647,1,0,0:0:0:0:
109,192,7647,1,0,0:0:0:0:
36,192,7730,1,0,0:0:0:0:
402,192,7813,1,0,0:0:0:0:
475,192,7813,1,0,0:0:0:0:
182,192,7813,1,0,0:0:0:0:
256,192,7896,1,0,0:0:0:0:
402,192,7979,1,0,0:0:0:0:
109,192,7979,1,0,0:0:0:0:
182,192,8062,1,0,0:0:0:0:
36,192,8145,1,0,0:0:0:0:
475,192,8145,1,0,0:0:0:0:
256,192,8145,1,0,0:0:0:0:
402,192,8228,1,0,0:0:0:0:
329,192,8312,1,0,0:0:0:0:
182,192,8312,1,0,0:0:0:0:
36,192,8395,1,0,0:0:0:0:
109,192,8478,1,0,0:0:0:0:
256,192,8478,1,0,0:0:0:0:
402,192,8478,1,0,0:0:0:0:
329,192,8561,1,0,0:0:0:0:
182,192,8644,1,0,0:0:0:0:
475,192,8644,1,0,0:0:0:0:
402,192,8727,1,0,0:0:0:0:
475,192,8810,1,0,0:0:0:0:
109,192,8810,1,0,0:0:0:0:
256,192,8810,1,0,0:0:0:0:
182,192,8893,1,0,0:0:0:0:
329,192,8976,1,0,0:0:0:0:
36,192,8976,1,0,0:0:0:0:
256,192,9059,1,0,0:0:0:0:
36,192,9143,1,0,0:0:0:0:
475,192,9143,1,0,0:0:0:0:
182,192,9143,1,0,0:0:0:0:
329,192,9226,1,0,0:0:0:0:
109,192,9309,1,0,0:0:0:0:
402,192,9309,1,0,0:0:0:0:
256,192,9392,1,0,0:0:0:0:
64,192,9475,1,0,0:0:0:0:
182,192,9475,1,0,0:0:0:0:
475,192,9475,1,0,0:0:0:0:
109,192,9475,1,0,0:0:0:0:
402,192,9475,1,0,0:0:0:0:
329,192,9475,1,0,0:0:0:0:
182,192,9641,1,0,0:0:0:0:
329,192,9724,1,0,0:0:0:0:
109,192,9807,1,0,0:0:0:0:
256,192,9807,1,0,0:0:0:0:
402,192,9890,1,0,0:0:0:0:
329,192,9974,1,0,0:0:0:0:
109,192,10057,1,0,0:0:0:0:
182,192,10140,1,0,0:0:0:0:
402,192,10140,1,0,0:0:0:0:
329,192,10223,1,0,0:0:0:0:
256,192,10306,1,0,0:0:0:0:
109,192,10389,1,0,0:0:0:0:
329,192,10472,1,0,0:0:0:0:
182,192,10472,1,0,0:0:0:0:
109,192,10555,1,0,0:0:0:0:
402,192,10638,1,0,0:0:0:0:
256,192,10722,1,0,0:0:0:0:
329,192,10805,1,0,0:0:0:0:
109,192,10805,1,0,0:0:0:0:
36,192,10805,1,0,0:0:0:0:
182,192,10805,1,0,0:0:0:0:
475,192,10805,1,0,0:0:0:0:
402,192,10888,1,0,0:0:0:0:
109,192,10971,1,0,0:0:0:0:
256,192,10971,1,0,0:0:0:0:
182,192,11054,1,0,0:0:0:0:
64,192,11137,1,0,0:0:0:0:
329,192,11137,1,0,0:0:0:0:
475,192,11137,1,0,0:0:0:0:
402,192,11137,1,0,0:0:0:0:
256,192,11220,1,0,0:0:0:0:
109,192,11303,1,0,0:0:0:0:
402,192,11303,1,0,0:0:0:0:
182,192,11386,1,0,0:0:0:0:
64,192,11469,1,0,0:0:0:0:
256,192,11469,1,0,0:0:0:0:
475,192,11469,1,0,0:0:0:0:
402,192,11553,1,0,0:0:0:0:
109,192,11636,1,0,0:0:0:0:
329,192,11636,1,0,0:0:0:0:
182,192,11719,1,0,0:0:0:0:
36,192,11802,1,0,0:0:0:0:
402,192,11802,1,0,0:0:0:0:
256,192,11802,1,0,0:0:0:0:
109,192,11802,1,0,0:0:0:0:
448,192,11885,1,0,0:0:0:0:
320,192,11968,1,0,0:0:0:0:
182,192,11968,1,0,0:0:0:0:
256,192,12051,1,0,0:0:0:0:
475,192,12134,1,0,0:0:0:0:
182,192,12134,1,0,0:0:0:0:
36,192,12134,1,0,0:0:0:0:
329,192,12217,1,0,0:0:0:0:
402,192,12300,1,0,0:0:0:0:
109,192,12300,1,0,0:0:0:0:
256,192,12384,1,0,0:0:0:0:
182,192,12467,1,0,0:0:0:0:
329,192,12467,1,0,0:0:0:0:
36,192,12467,1,0,0:0:0:0:
402,192,12467,1,0,0:0:0:0:
448,192,12550,1,0,0:0:0:0:
109,192,12633,1,0,0:0:0:0:
256,192,12633,1,0,0:0:0:0:
329,192,12716,1,0,0:0:0:0:
64,192,12799,1,0,0:0:0:0:
182,192,12799,1,0,0:0:0:0:
402,192,12799,1,0,0:0:0:0:
109,192,12882,1,0,0:0:0:0:
256,192,12965,1,0,0:0:0:0:
475,192,12965,1,0,0:0:0:0:
182,192,13048,1,0,0:0:0:0:
329,192,13131,1,0,0:0:0:0:
109,192,13131,1,0,0:0:0:0:
475,192,13131,1,0,0:0:0:0:
36,192,13131,1,0,0:0:0:0:
402,192,13215,1,0,0:0:0:0:
256,192,13298,1,0,0:0:0:0:
109,192,13298,1,0,0:0:0:0:
182,192,13381,1,0,0:0:0:0:
256,192,13464,1,0,0:0:0:0:
448,192,13464,1,0,0:0:0:0:
36,192,13464,1,0,0:0:0:0:
402,192,13547,1,0,0:0:0:0:
329,192,13630,1,0,0:0:0:0:
182,192,13630,1,0,0:0:0:0:
109,192,13713,1,0,0:0:0:0:
64,192,13796,1,0,0:0:0:0:
475,192,13796,1,0,0:0:0:0:
256,192,13796,1,0,0:0:0:0:
402,192,13796,1,0,0:0:0:0:
329,192,13879,1,0,0:0:0:0:
475,192,13963,1,0,0:0:0:0:
109,192,13963,1,0,0:0:0:0:
256,192,14046,1,0,0:0:0:0:
64,192,14129,1,0,0:0:0:0:
182,192,14129,1,0,0:0:0:0:
402,192,14129,1,0,0:0:0:0:
329,192,14212,1,0,0:0:0:0:
475,192,14295,1,0,0:0:0:0:
109,192,14295,1,0,0:0:0:0:
256,192,14378,1,0,0:0:0:0:
64,192,14461,1,0,0:0:0:0:
182,192,14461,1,0,0:0:0:0:
475,192,14461,1,0,0:0:0:0:
329,192,14461,1,0,0:0:0:0:
109,192,14544,1,0,0:0:0:0:
256,192,14627,1,0,0:0:0:0:
402,192,14627,1,0,0:0:0:0:
36,192,14710,1,0,0:0:0:0:
182,192,14794,1,0,0:0:0:0:
329,192,14794,1,0,0:0:0:0:
475,192,14794,1,0,0:0:0:0:
256,192,14877,1,0,0:0:0:0:
402,192,14960,1,0,0:0:0:0:
109,192,14960,1,0,0:0:0:0:
182,192,15043,1,0,0:0:0:0:
475,192,15126,1,0,0:0:0:0:
36,192,15126,1,0,0:0:0:0:
402,192,15126,1,0,0:0:0:0:
256,192,15126,1,0,0:0:0:0:
329,192,15209,1,0,0:0:0:0:
475,192,15292,1,0,0:0:0:0:
182,192,15292,1,0,0:0:0:0:
402,192,15375,1,0,0:0:0:0:
256,192,15458,1,0,0:0:0:0:
64,192,15458,1,0,0:0:0:0:
109,192,15458,1,0,0:0:0:0:
475,192,15541,1,0,0:0:0:0:
182,192,15625,1,0,0:0:0:0:
329,192,15625,1,0,0:0:0:0:
109,192,15625,1,0,0:0:0:0:
402,192,15708,1,0,0:0:0:0:
36,192,15791,1,0,0:0:0:0:
448,192,15791,1,0,0:0:0:0:
256,192,15791,1,0,0:0:0:0:
109,192,15791,1,0,0:0:0:0:
182,192,15874,1,0,0:0:0:0:
36,192,15957,1,0,0:0:0:0:
329,192,15957,1,0,0:0:0:0:
402,192,15957,1,0,0:0:0:0:
256,192,16040,1,0,0:0:0:0:
109,192,16040,1,0,0:0:0:0:
448,192,16123,1,0,0:0:0:0:
329,192,16123,1,0,0:0:0:0:
36,192,16123,1,0,0:0:0:0:
182,192,16206,1,0,0:0:0:0:
256,192,16289,1,0,0:0:0:0:
402,192,16289,1,0,0:0:0:0:
109,192,16289,1,0,0:0:0:0:
329,192,16372,1,0,0:0:0:0:
256,192,16456,1,0,0:0:0:0:
448,192,16456,1,0,0:0:0:0:
109,192,16456,1,0,0:0:0:0:
36,192,16456,1,0,0:0:0:0:
402,192,16539,1,0,0:0:0:0:
329,192,16622,1,0,0:0:0:0:
182,192,16622,1,0,0:0:0:0:
109,192,16622,1,0,0:0:0:0:
256,192,16705,1,0,0:0:0:0:
36,192,16788,1,0,0:0:0:0:
402,192,16788,1,0,0:0:0:0:
475,192,16788,1,0,0:0:0:0:
182,192,16871,1,0,0:0:0:0:
329,192,16954,1,0,0:0:0:0:
402,192,16954,1,0,0:0:0:0:
109,192,16954,1,0,0:0:0:0:
256,192,17037,1,0,0:0:0:0:
475,192,17120,1,0,0:0:0:0:
36,192,17120,1,0,0:0:0:0:
402,192,17120,1,0,0:0:0:0:
182,192,17120,1,0,0:0:0:0:
256,192,17204,1,0,0:0:0:0:
109,192,17287,1,0,0:0:0:0:
329,192,17287,1,0,0:0:0:0:
475,192,17287,1,0,0:0:0:0:
402,192,17370,1,0,0:0:0:0:
448,192,17453,1,0,0:0:0:0:
36,192,17453,1,0,0:0:0:0:
182,192,17453,1,0,0:0:0:0:
329,192,17536,1,0,0:0:0:0:
256,192,17619,1,0,0:0:0:0:
402,192,17619,1,0,0:0:0:0:
109,192,17619,1,0,0:0:0:0:
182,192,17702,1,0,0:0:0:0:
256,192,17785,1,0,0:0:0:0:
36,192,17785,1,0,0:0:0:0:
402,192,17785,1,0,0:0:0:0:
475,192,17785,1,0,0:0:0:0:
329,192,17868,1,0,0:0:0:0:
182,192,17951,1,0,0:0:0:0:
475,192,17951,1,0,0:0:0:0:
109,192,17951,1,0,0:0:0:0:
256,192,18035,1,0,0:0:0:0:
64,192,18118,1,0,0:0:0:0:
475,192,18118,1,0,0:0:0:0:
329,192,18118,1,0,0:0:0:0:
109,192,18201,1,0,0:0:0:0:
256,192,18284,1,0,0:0:0:0:
182,192,18284,1,0,0:0:0:0:
402,192,18284,1,0,0:0:0:0:
329,192,18367,1,0,0:0:0:0:
36,192,18450,1,0,0:0:0:0:
475,192,18450,1,0,0:0:0:0:
182,192,18450,1,0,0:0:0:0:
109,192,18450,1,0,0:0:0:0:
402,192,18533,1,0,0:0:0:0:
36,192,18616,1,0,0:0:0:0:
256,192,18616,1,0,0:0:0:0:
109,192,18616,1,0,0:0:0:0:
329,192,18699,1,0,0:0:0:0:
402,192,18782,1,0,0:0:0:0:
448,192,18782,1,0,0:0:0:0:
182,192,18782,1,0,0:0:0:0:
36,192,18782,1,0,0:0:0:0:
256,192,18866,1,0,0:0:0:0:
329,192,18866,1,0,0:0:0:0:
475,192,18949,1,0,0:0:0:0:
109,192,18949,1,0,0:0:0:0:
36,192,18949,1,0,0:0:0:0:
182,192,19032,1,0,0:0:0:0:
256,192,19032,1,0,0:0:0:0:
448,192,19115,1,0,0:0:0:0:
402,192,19115,1,0,0:0:0:0:
36,192,19115,1,0,0:0:0:0:
109,192,19115,1,0,0:0:0:0:
329,192,19198,1,0,0:0:0:0:
256,192,19198,1,0,0:0:0:0:
448,192,19281,1,0,0:0:0:0:
182,192,19281,1,0,0:0:0:0:
36,192,19281,1,0,0:0:0:0:
329,192,19364,1,0,0:0:0:0:
402,192,19364,1,0,0:0:0:0:
109,192,19447,1,0,0:0:0:0:
256,192,19447,1,0,0:0:0:0:
36,192,19447,1,0,0:0:0:0:
475,192,19530,1,0,0:0:0:0:
402,192,19530,1,0,0:0:0:0:
329,192,19613,1,0,0:0:0:0:
64,192,19613,1,0,0:0:0:0:
182,192,19613,1,0,0:0:0:0:
256,192,19697,1,0,0:0:0:0:
109,192,19697,1,0,0:0:0:0:
402,192,19780,1,0,0:0:0:0:
182,192,19780,1,0,0:0:0:0:
475,192,19780,1,0,0:0:0:0:
36,192,19780,1,0,0:0:0:0:
256,192,19863,1,0,0:0:0:0:
329,192,19863,1,0,0:0:0:0:
402,192,19946,1,0,0:0:0:0:
475,192,19946,1,0,0:0:0:0:
109,192,19946,1,0,0:0:0:0:
256,192,20029,1,0,0:0:0:0:
182,192,20029,1,0,0:0:0:0:
448,192,20112,1,0,0:0:0:0:
109,192,20112,1,0,0:0:0:0:
36,192,20112,1,0,0:0:0:0:
329,192,20112,1,0,0:0:0:0:
402,192,20278,128,0,20445:0:0:0:0:
36,192,20445,1,0,0:0:0:0:
109,192,20445,1,0,0:0:0:0:
402,192,20611,128,0,20777:0:0:0:0:
36,192,20777,1,0,0:0:0:0:
109,192,20777,1,0,0:0:0:0:
402,192,20943,128,0,21109:0:0:0:0:
36,192,21109,1,0,0:0:0:0:
109,192,21109,1,0,0:0:0:0:
475,192,21276,128,0,21442:0:0:0:0:
329,192,21276,128,0,21442:0:0:0:0:
64,192,21442,1,0,0:0:0:0:
256,192,21442,1,0,0:0:0:0:
402,192,21442,1,0,0:0:0:0:
109,192,21442,1,0,0:0:0:0:
192,192,21525,1,0,0:0:0:0:
320,192,21608,1,0,0:0:0:0:
475,192,21608,1,0,0:0:0:0:
256,192,21691,1,0,0:0:0:0:
402,192,21774,1,0,0:0:0:0:
64,192,21774,1,0,0:0:0:0:
109,192,21774,1,0,0:0:0:0:
475,192,21774,1,0,0:0:0:0:
182,192,21857,1,0,0:0:0:0:
109,192,21940,1,0,0:0:0:0:
329,192,21940,1,0,0:0:0:0:
256,192,22023,1,0,0:0:0:0:
36,192,22107,1,0,0:0:0:0:
182,192,22107,1,0,0:0:0:0:
475,192,22107,1,0,0:0:0:0:
402,192,22107,1,0,0:0:0:0:
329,192,22190,1,0,0:0:0:0:
402,192,22273,1,0,0:0:0:0:
256,192,22273,1,0,0:0:0:0:
109,192,22273,1,0,0:0:0:0:
36,192,22273,1,0,0:0:0:0:
475,192,22356,1,0,0:0:0:0:
329,192,22439,1,0,0:0:0:0:
256,192,22439,1,0,0:0:0:0:
109,192,22439,1,0,0:0:0:0:
36,192,22439,1,0,0:0:0:0:
182,192,22522,1,0,0:0:0:0:
109,192,22605,1,0,0:0:0:0:
402,192,22605,1,0,0:0:0:0:
475,192,22605,1,0,0:0:0:0:
329,192,22605,1,0,0:0:0:0:
256,192,22688,1,0,0:0:0:0:
36,192,22771,1,0,0:0:0:0:
182,192,22771,1,0,0:0:0:0:
329,192,22854,1,0,0:0:0:0:
256,192,22938,1,0,0:0:0:0:
36,192,22938,1,0,0:0:0:0:
402,192,22938,1,0,0:0:0:0:
475,192,22938,1,0,0:0:0:0:
109,192,23021,1,0,0:0:0:0:
329,192,23104,1,0,0:0:0:0:
182,192,23104,1,0,0:0:0:0:
402,192,23187,1,0,0:0:0:0:
64,192,23270,1,0,0:0:0:0:
448,192,23270,1,0,0:0:0:0:
256,192,23270,1,0,0:0:0:0:
109,192,23270,1,0,0:0:0:0:
320,192,23353,1,0,0:0:0:0:
192,192,23436,1,0,0:0:0:0:
448,192,23436,1,0,0:0:0:0:
109,192,23436,1,0,0:0:0:0:
402,192,23436,1,0,0:0:0:0:
64,192,23519,1,0,0:0:0:0:
448,192,23602,1,0,0:0:0:0:
256,192,23602,1,0,0:0:0:0:
402,192,23602,1,0,0:0:0:0:
109,192,23602,1,0,0:0:0:0:
192,192,23686,1,0,0:0:0:0:
320,192,23769,1,0,0:0:0:0:
64,192,23769,1,0,0:0:0:0:
109,192,23769,1,0,0:0:0:0:
402,192,23769,1,0,0:0:0:0:
256,192,23852,1,0,0:0:0:0:
329,192,23935,1,0,0:0:0:0:
448,192,23935,1,0,0:0:0:0:
64,192,23935,1,0,0:0:0:0:
182,192,23935,1,0,0:0:0:0:
402,192,24018,1,0,0:0:0:0:
36,192,24101,1,0,0:0:0:0:
448,192,24101,1,0,0:0:0:0:
109,192,24101,1,0,0:0:0:0:
256,192,24101,1,0,0:0:0:0:
182,192,24184,1,0,0:0:0:0:
109,192,24267,1,0,0:0:0:0:
402,192,24267,1,0,0:0:0:0:
329,192,24350,1,0,0:0:0:0:
256,192,24433,1,0,0:0:0:0:
182,192,24433,1,0,0:0:0:0:
36,192,24433,1,0,0:0:0:0:
475,192,24433,1,0,0:0:0:0:
329,192,24517,1,0,0:0:0:0:
402,192,24600,1,0,0:0:0:0:
109,192,24600,1,0,0:0:0:0:
256,192,24683,1,0,0:0:0:0:
182,192,24766,1,0,0:0:0:0:
109,192,24766,1,0,0:0:0:0:
329,192,24766,1,0,0:0:0:0:
475,192,24766,1,0,0:0:0:0:
402,192,24849,1,0,0:0:0:0:
182,192,24932,1,0,0:0:0:0:
36,192,24932,1,0,0:0:0:0:
256,192,24932,1,0,0:0:0:0:
475,192,24932,1,0,0:0:0:0:
109,192,25015,1,0,0:0:0:0:
36,192,25098,1,0,0:0:0:0:
256,192,25098,1,0,0:0:0:0:
402,192,25098,1,0,0:0:0:0:
329,192,25098,1,0,0:0:0:0:
475,192,25181,1,0,0:0:0:0:
329,192,25264,1,0,0:0:0:0:
182,192,25264,1,0,0:0:0:0:
36,192,25264,1,0,0:0:0:0:
109,192,25264,1,0,0:0:0:0:
256,192,25348,1,0,0:0:0:0:
109,192,25431,1,0,0:0:0:0:
402,192,25431,1,0,0:0:0:0:
329,192,25514,1,0,0:0:0:0:
182,192,25597,1,0,0:0:0:0:
256,192,25597,1,0,0:0:0:0:
36,192,25597,1,0,0:0:0:0:
475,192,25597,1,0,0:0:0:0:
109,192,25680,1,0,0:0:0:0:
182,192,25763,1,0,0:0:0:0:
329,192,25763,1,0,0:0:0:0:
402,192,25846,1,0,0:0:0:0:
475,192,25929,1,0,0:0:0:0:
256,192,25929,1,0,0:0:0:0:
109,192,25929,1,0,0:0:0:0:
36,192,25929,1,0,0:0:0:0:
329,192,26012,1,0,0:0:0:0:
182,192,26095,1,0,0:0:0:0:
109,192,26095,1,0,0:0:0:0:
402,192,26095,1,0,0:0:0:0:
475,192,26095,1,0,0:0:0:0:
256,192,26179,1,0,0:0:0:0:
109,192,26262,1,0,0:0:0:0:
36,192,26262,1,0,0:0:0:0:
329,192,26262,1,0,0:0:0:0:
475,192,26262,1,0,0:0:0:0:
402,192,26345,1,0,0:0:0:0:
256,192,26428,1,0,0:0:0:0:
182,192,26428,1,0,0:0:0:0:
109,192,26428,1,0,0:0:0:0:
475,192,26428,1,0,0:0:0:0:
36,192,26511,1,0,0:0:0:0:
182,192,26594,1,0,0:0:0:0:
256,192,26594,1,0,0:0:0:0:
329,192,26594,1,0,0:0:0:0:
402,192,26594,1,0,0:0:0:0:
475,192,26677,1,0,0:0:0:0:
402,192,26760,1,0,0:0:0:0:
256,192,26760,1,0,0:0:0:0:
109,192,26760,1,0,0:0:0:0:
36,192,26760,1,0,0:0:0:0:
182,192,26843,1,0,0:0:0:0:
329,192,26927,1,0,0:0:0:0:
36,192,26927,1,0,0:0:0:0:
256,192,27010,1,0,0:0:0:0:
182,192,27093,1,0,0:0:0:0:
109,192,27093,1,0,0:0:0:0:
402,192,27093,1,0,0:0:0:0:
475,192,27093,1,0,0:0:0:0:
329,192,27176,1,0,0:0:0:0:
402,192,27259,1,0,0:0:0:0:
36,192,27259,1,0,0:0:0:0:
182,192,27342,1,0,0:0:0:0:
109,192,27425,1,0,0:0:0:0:
256,192,27425,1,0,0:0:0:0:
329,192,27425,1,0,0:0:0:0:
475,192,27425,1,0,0:0:0:0:
402,192,27508,1,0,0:0:0:0:
182,192,27591,1,0,0:0:0:0:
36,192,27591,1,0,0:0:0:0:
109,192,27591,1,0,0:0:0:0:
475,192,27591,1,0,0:0:0:0:
329,192,27674,1,0,0:0:0:0:
256,192,27758,1,0,0:0:0:0:
402,192,27758,1,0,0:0:0:0:
109,192,27758,1,0,0:0:0:0:
36,192,27758,1,0,0:0:0:0:
182,192,27841,1,0,0:0:0:0:
329,192,27924,1,0,0:0:0:0:
402,192,27924,1,0,0:0:0:0:
475,192,27924,1,0,0:0:0:0:
36,192,27924,1,0,0:0:0:0:
109,192,28007,1,0,0:0:0:0:
182,192,28090,1,0,0:0:0:0:
329,192,28090,1,0,0:0:0:0:
402,192,28173,1,0,0:0:0:0:
256,192,28256,1,0,0:0:0:0:
475,192,28256,1,0,0:0:0:0:
109,192,28256,1,0,0:0:0:0:
36,192,28256,1,0,0:0:0:0:
182,192,28339,1,0,0:0:0:0:
402,192,28422,1,0,0:0:0:0:
109,192,28422,1,0,0:0:0:0:
256,192,28505,1,0,0:0:0:0:
182,192,28589,1,0,0:0:0:0:
36,192,28589,1,0,0:0:0:0:
329,192,28589,1,0,0:0:0:0:
475,192,28589,1,0,0:0:0:0:
402,192,28672,1,0,0:0:0:0:
109,192,28755,1,0,0:0:0:0:
256,192,28755,1,0,0:0:0:0:
475,192,28755,1,0,0:0:0:0:
36,192,28755,1,0,0:0:0:0:
182,192,28838,1,0,0:0:0:0:
109,192,28921,1,0,0:0:0:0:
329,192,28921,1,0,0:0:0:0:
402,192,28921,1,0,0:0:0:0:
475,192,28921,1,0,0:0:0:0:
256,192,29004,1,0,0:0:0:0:
182,192,29087,1,0,0:0:0:0:
36,192,29087,1,0,0:0:0:0:
402,192,29087,1,0,0:0:0:0:
475,192,29087,1,0,0:0:0:0:
329,192,29170,1,0,0:0:0:0:
475,192,29253,1,0,0:0:0:0:
402,192,29253,1,0,0:0:0:0:
256,192,29253,1,0,0:0:0:0:
109,192,29253,1,0,0:0:0:0:
36,192,29336,1,0,0:0:0:0:
109,192,29420,1,0,0:0:0:0:
182,192,29420,1,0,0:0:0:0:
329,192,29420,1,0,0:0:0:0:
402,192,29420,1,0,0:0:0:0:
256,192,29503,1,0,0:0:0:0:
329,192,29586,1,0,0:0:0:0:
109,192,29586,1,0,0:0:0:0:
182,192,29669,1,0,0:0:0:0:
256,192,29752,1,0,0:0:0:0:
402,192,29752,1,0,0:0:0:0:
475,192,29752,1,0,0:0:0:0:
36,192,29752,1,0,0:0:0:0:
182,192,29835,1,0,0:0:0:0:
109,192,29918,1,0,0:0:0:0:
329,192,29918,1,0,0:0:0:0:
402,192,30001,1,0,0:0:0:0:
256,192,30084,1,0,0:0:0:0:
36,192,30084,1,0,0:0:0:0:
182,192,30084,1,0,0:0:0:0:
475,192,30084,1,0,0:0:0:0:
329,192,30168,1,0,0:0:0:0:
182,192,30251,1,0,0:0:0:0:
109,192,30251,1,0,0:0:0:0:
402,192,30251,1,0,0:0:0:0:
475,192,30251,1,0,0:0:0:0:
36,192,30334,1,0,0:0:0:0:
182,192,30417,1,0,0:0:0:0:
256,192,30417,1,0,0:0:0:0:
329,192,30417,1,0,0:0:0:0:
402,192,30417,1,0,0:0:0:0:
109,192,30500,1,0,0:0:0:0:
36,192,30583,1,0,0:0:0:0:
256,192,30583,1,0,0:0:0:0:
475,192,30583,1,0,0:0:0:0:
402,192,30583,1,0,0:0:0:0:
182,192,30666,1,0,0:0:0:0:
329,192,30749,1,0,0:0:0:0:
402,192,30749,1,0,0:0:0:0:
109,192,30749,1,0,0:0:0:0:
36,192,30749,1,0,0:0:0:0:
475,192,30749,1,0,0:0:0:0:
109,192,30915,128,0,31082:0:0:0:0:
256,192,30915,1,0,0:0:0:0:
402,192,30999,1,0,0:0:0:0:
256,192,31082,1,0,0:0:0:0:
475,192,31165,1,0,0:0:0:0:
182,192,31248,128,0,31414:0:0:0:0:
329,192,31248,1,0,0:0:0:0:
402,192,31331,1,0,0:0:0:0:
475,192,31414,128,0,31580:0:0:0:0:
109,192,31414,1,0,0:0:0:0:
256,192,31497,1,0,0:0:0:0:
329,192,31580,128,0,31746:0:0:0:0:
36,192,31580,1,0,0:0:0:0:
182,192,31663,1,0,0:0:0:0:
109,192,31746,128,0,31913:0:0:0:0:
475,192,31746,1,0,0:0:0:0:
402,192,31830,1,0,0:0:0:0:
182,192,31913,128,0,32079:0:0:0:0:
256,192,31913,1,0,0:0:0:0:
329,192,31996,1,0,0:0:0:0:
402,192,32079,1,0,0:0:0:0:
475,192,32079,1,0,0:0:0:0:
109,192,32079,1,0,0:0:0:0:
36,192,32079,1,0,0:0:0:0:
256,192,32162,1,0,0:0:0:0:
182,192,32245,1,0,0:0:0:0:
402,192,32245,1,0,0:0:0:0:
329,192,32328,1,0,0:0:0:0:
256,192,32411,1,0,0:0:0:0:
109,192,32411,1,0,0:0:0:0:
36,192,32411,1,0,0:0:0:0:
475,192,32411,1,0,0:0:0:0:
182,192,32494,1,0,0:0:0:0:
329,192,32577,1,0,0:0:0:0:
109,192,32577,1,0,0:0:0:0:
402,192,32661,1,0,0:0:0:0:
182,192,32744,1,0,0:0:0:0:
256,192,32744,1,0,0:0:0:0:
475,192,32744,1,0,0:0:0:0:
36,192,32744,1,0,0:0:0:0:
329,192,32827,1,0,0:0:0:0:
402,192,32910,1,0,0:0:0:0:
256,192,32910,1,0,0:0:0:0:
109,192,32910,1,0,0:0:0:0:
36,192,32910,1,0,0:0:0:0:
182,192,32993,1,0,0:0:0:0:
329,192,33076,1,0,0:0:0:0:
475,192,33076,1,0,0:0:0:0:
36,192,33076,1,0,0:0:0:0:
109,192,33076,1,0,0:0:0:0:
402,192,33159,1,0,0:0:0:0:
475,192,33242,1,0,0:0:0:0:
256,192,33242,1,0,0:0:0:0:
36,192,33242,1,0,0:0:0:0:
182,192,33242,1,0,0:0:0:0:
329,192,33325,1,0,0:0:0:0:
402,192,33408,1,0,0:0:0:0:
109,192,33408,1,0,0:0:0:0:
256,192,33492,1,0,0:0:0:0:
182,192,33575,1,0,0:0:0:0:
329,192,33575,1,0,0:0:0:0:
475,192,33575,1,0,0:0:0:0:
36,192,33575,1,0,0:0:0:0:
109,192,33575,1,0,0:0:0:0:
402,192,33658,1,0,0:0:0:0:
36,192,33741,1,0,0:0:0:0:
329,192,33741,1,0,0:0:0:0:
182,192,33824,1,0,0:0:0:0:
109,192,33907,1,0,0:0:0:0:
256,192,33907,1,0,0:0:0:0:
402,192,33907,1,0,0:0:0:0:
475,192,33907,1,0,0:0:0:0:
36,192,33907,1,0,0:0:0:0:
329,192,33990,1,0,0:0:0:0:
182,192,34073,1,0,0:0:0:0:
109,192,34073,1,0,0:0:0:0:
475,192,34073,1,0,0:0:0:0:
402,192,34073,1,0,0:0:0:0:
256,192,34156,1,0,0:0:0:0:
329,192,34240,1,0,0:0:0:0:
109,192,34240,1,0,0:0:0:0:
36,192,34240,1,0,0:0:0:0:
475,192,34240,1,0,0:0:0:0:
182,192,34323,1,0,0:0:0:0:
109,192,34406,1,0,0:0:0:0:
256,192,34406,1,0,0:0:0:0:
402,192,34406,1,0,0:0:0:0:
36,192,34406,1,0,0:0:0:0:
475,192,34489,1,0,0:0:0:0:
329,192,34572,1,0,0:0:0:0:
402,192,34572,1,0,0:0:0:0:
182,192,34572,1,0,0:0:0:0:
109,192,34572,1,0,0:0:0:0:
256,192,34655,1,0,0:0:0:0:
329,192,34738,1,0,0:0:0:0:
475,192,34738,1,0,0:0:0:0:
402,192,34738,1,0,0:0:0:0:
109,192,34738,1,0,0:0:0:0:
36,192,34738,1,0,0:0:0:0:
182,192,34821,1,0,0:0:0:0:
256,192,34904,1,0,0:0:0:0:
475,192,34904,1,0,0:0:0:0:
402,192,34987,1,0,0:0:0:0:
329,192,35071,1,0,0:0:0:0:
182,192,35071,1,0,0:0:0:0:
109,192,35071,1,0,0:0:0:0:
36,192,35071,1,0,0:0:0:0:
256,192,35154,1,0,0:0:0:0:
402,192,35237,1,0,0:0:0:0:
109,192,35237,1,0,0:0:0:0:
182,192,35320,1,0,0:0:0:0:
36,192,35403,1,0,0:0:0:0:
256,192,35403,1,0,0:0:0:0:
329,192,35403,1,0,0:0:0:0:
475,192,35403,1,0,0:0:0:0:
109,192,35486,1,0,0:0:0:0:
182,192,35569,1,0,0:0:0:0:
36,192,35569,1,0,0:0:0:0:
329,192,35569,1,0,0:0:0:0:
475,192,35569,1,0,0:0:0:0:
402,192,35652,1,0,0:0:0:0:
475,192,35735,1,0,0:0:0:0:
256,192,35735,1,0,0:0:0:0:
109,192,35735,1,0,0:0:0:0:
36,192,35735,1,0,0:0:0:0:
182,192,35818,1,0,0:0:0:0:
109,192,35902,1,0,0:0:0:0:
329,192,35902,1,0,0:0:0:0:
402,192,35902,1,0,0:0:0:0:
475,192,35902,1,0,0:0:0:0:
256,192,35985,1,0,0:0:0:0:
182,192,36068,1,0,0:0:0:0:
36,192,36068,1,0,0:0:0:0:
329,192,36151,1,0,0:0:0:0:
402,192,36234,1,0,0:0:0:0:
475,192,36234,1,0,0:0:0:0:
256,192,36234,1,0,0:0:0:0:
109,192,36234,1,0,0:0:0:0:
36,192,36234,1,0,0:0:0:0:
182,192,36317,1,0,0:0:0:0:
329,192,36400,1,0,0:0:0:0:
109,192,36400,1,0,0:0:0:0:
402,192,36483,1,0,0:0:0:0:
36,192,36566,1,0,0:0:0:0:
109,192,36566,1,0,0:0:0:0:
256,192,36566,1,0,0:0:0:0:
475,192,36566,1,0,0:0:0:0:
329,192,36566,1,0,0:0:0:0:
182,192,36649,1,0,0:0:0:0:
402,192,36733,1,0,0:0:0:0:
475,192,36733,1,0,0:0:0:0:
36,192,36733,1,0,0:0:0:0:
256,192,36733,1,0,0:0:0:0:
329,192,36816,1,0,0:0:0:0:
109,192,36899,1,0,0:0:0:0:
182,192,36899,1,0,0:0:0:0:
36,192,36899,1,0,0:0:0:0:
402,192,36899,1,0,0:0:0:0:
256,192,36982,1,0,0:0:0:0:
329,192,37065,1,0,0:0:0:0:
475,192,37065,1,0,0:0:0:0:
109,192,37065,1,0,0:0:0:0:
36,192,37065,1,0,0:0:0:0:
256,192,37148,1,0,0:0:0:0:
182,192,37231,1,0,0:0:0:0:
109,192,37231,1,0,0:0:0:0:
402,192,37231,1,0,0:0:0:0:
475,192,37231,1,0,0:0:0:0:
329,192,37314,1,0,0:0:0:0:
256,192,37397,1,0,0:0:0:0:
109,192,37397,1,0,0:0:0:0:
36,192,37397,1,0,0:0:0:0:
402,192,37397,1,0,0:0:0:0:
475,192,37397,1,0,0:0:0:0:
182,192,37481,1,0,0:0:0:0:
109,192,37564,1,0,0:0:0:0:
329,192,37564,1,0,0:0:0:0:
36,192,37564,1,0,0:0:0:0:
402,192,37647,1,0,0:0:0:0:
475,192,37730,1,0,0:0:0:0:
256,192,37730,1,0,0:0:0:0:
182,192,37730,1,0,0:0:0:0:
36,192,37730,1,0,0:0:0:0:
109,192,37813,1,0,0:0:0:0:
256,192,37896,1,0,0:0:0:0:
402,192,37896,1,0,0:0:0:0:
475,192,37896,1,0,0:0:0:0:
329,192,37979,1,0,0:0:0:0:
182,192,38062,1,0,0:0:0:0:
109,192,38062,1,0,0:0:0:0:
36,192,38062,1,0,0:0:0:0:
402,192,38062,1,0,0:0:0:0:
475,192,38062,1,0,0:0:0:0:
256,192,38145,1,0,0:0:0:0:
329,192,38228,1,0,0:0:0:0:
475,192,38228,1,0,0:0:0:0:
36,192,38228,1,0,0:0:0:0:
109,192,38228,1,0,0:0:0:0:
182,192,38312,1,0,0:0:0:0:
256,192,38395,1,0,0:0:0:0:
402,192,38395,1,0,0:0:0:0:
475,192,38395,1,0,0:0:0:0:
36,192,38395,1,0,0:0:0:0:
182,192,38478,1,0,0:0:0:0:
329,192,38561,1,0,0:0:0:0:
109,192,38561,1,0,0:0:0:0:
402,192,38561,1,0,0:0:0:0:
475,192,38561,1,0,0:0:0:0:
36,192,38561,1,0,0:0:0:0:
256,192,38644,1,0,0:0:0:0:
109,192,38727,1,0,0:0:0:0:
402,192,38727,1,0,0:0:0:0:
182,192,38727,1,0,0:0:0:0:
329,192,38810,1,0,0:0:0:0:
182,192,38893,1,0,0:0:0:0:
256,192,38893,1,0,0:0:0:0:
36,192,38893,1,0,0:0:0:0:
475,192,38893,1,0,0:0:0:0:
402,192,38893,1,0,0:0:0:0:
109,192,38976,1,0,0:0:0:0:
256,192,39059,1,0,0:0:0:0:
36,192,39059,1,0,0:0:0:0:
402,192,39059,1,0,0:0:0:0:
329,192,39143,1,0,0:0:0:0:
182,192,39226,1,0,0:0:0:0:
109,192,39226,1,0,0:0:0:0:
402,192,39226,1,0,0:0:0:0:
475,192,39226,1,0,0:0:0:0:
256,192,39226,1,0,0:0:0:0:
36,192,39309,1,0,0:0:0:0:
182,192,39392,1,0,0:0:0:0:
329,192,39392,1,0,0:0:0:0:
402,192,39392,1,0,0:0:0:0:
475,192,39392,1,0,0:0:0:0:
256,192,39392,1,0,0:0:0:0:
109,192,39475,1,0,0:0:0:0:
36,192,39558,1,0,0:0:0:0:
329,192,39558,1,0,0:0:0:0:
475,192,39558,1,0,0:0:0:0:
402,192,39558,1,0,0:0:0:0:
182,192,39641,1,0,0:0:0:0:
256,192,39724,1,0,0:0:0:0:
109,192,39724,1,0,0:0:0:0:
36,192,39724,1,0,0:0:0:0:
402,192,39724,1,0,0:0:0:0:
475,192,39724,1,0,0:0:0:0:
329,192,39807,1,0,0:0:0:0:
182,192,39890,1,0,0:0:0:0:
109,192,39890,1,0,0:0:0:0:
402,192,39890,1,0,0:0:0:0:
475,192,39890,1,0,0:0:0:0:
256,192,39974,1,0,0:0:0:0:
329,192,40057,1,0,0:0:0:0:
182,192,40057,1,0,0:0:0:0:
109,192,40057,1,0,0:0:0:0:
475,192,40057,1,0,0:0:0:0:
36,192,40057,1,0,0:0:0:0:
402,192,40140,1,0,0:0:0:0:
256,192,40140,1,0,0:0:0:0:
109,192,40223,1,0,0:0:0:0:
36,192,40223,1,0,0:0:0:0:
475,192,40223,1,0,0:0:0:0:
182,192,40306,1,0,0:0:0:0:
329,192,40306,1,0,0:0:0:0:
256,192,40389,1,0,0:0:0:0:
402,192,40389,1,0,0:0:0:0:
475,192,40389,1,0,0:0:0:0:
36,192,40389,1,0,0:0:0:0:
109,192,40472,1,0,0:0:0:0:
182,192,40472,1,0,0:0:0:0:
329,192,40555,1,0,0:0:0:0:
402,192,40555,1,0,0:0:0:0:
475,192,40555,1,0,0:0:0:0:
256,192,40638,1,0,0:0:0:0:
182,192,40638,1,0,0:0:0:0:
109,192,40722,1,0,0:0:0:0:
36,192,40722,1,0,0:0:0:0:
402,192,40722,1,0,0:0:0:0:
475,192,40722,1,0,0:0:0:0:
256,192,40805,1,0,0:0:0:0:
329,192,40805,1,0,0:0:0:0:
182,192,40888,1,0,0:0:0:0:
109,192,40888,1,0,0:0:0:0:
36,192,40888,1,0,0:0:0:0:
475,192,40888,1,0,0:0:0:0:
329,192,40971,1,0,0:0:0:0:
402,192,40971,1,0,0:0:0:0:
256,192,41054,1,0,0:0:0:0:
36,192,41054,1,0,0:0:0:0:
109,192,41054,1,0,0:0:0:0:
475,192,41054,1,0,0:0:0:0:
182,192,41137,1,0,0:0:0:0:
329,192,41137,1,0,0:0:0:0:
256,192,41220,1,0,0:0:0:0:
402,192,41220,1,0,0:0:0:0:
475,192,41220,1,0,0:0:0:0:
36,192,41220,1,0,0:0:0:0:
109,192,41303,1,0,0:0:0:0:
182,192,41303,1,0,0:0:0:0:
36,192,41386,1,0,0:0:0:0:
329,192,41386,128,0,41553:0:0:0:0:
402,192,41386,128,0,41553:0:0:0:0:
475,192,41386,128,0,41553:0:0:0:0:
256,192,41386,1,0,0:0:0:0:
109,0,41553,128,0,41968:1:0:0:0:
329,192,41719,1,0,0:0:0:0:
475,192,41719,1,0,0:0:0:0:
182,192,41719,128,0,41968:0:0:0:0:
402,192,41802,1,0,0:0:0:0:
475,192,41885,1,0,0:0:0:0:
329,192,41885,1,0,0:0:0:0:
402,192,41968,1,0,0:0:0:0:
36,192,42051,1,0,0:0:0:0:
329,192,42051,1,0,0:0:0:0:
109,192,42051,1,0,0:0:0:0:
182,192,42051,1,0,0:0:0:0:
475,192,42051,1,0,0:0:0:0:
109,192,42384,1,0,0:0:0:0:
475,192,42425,1,0,0:0:0:0:
182,192,42425,1,0,0:0:0:0:
402,192,42467,1,0,0:0:0:0:
329,192,42508,1,0,0:0:0:0:
109,192,42508,1,0,0:0:0:0:
182,192,42550,1,0,0:0:0:0:
475,192,42550,1,0,0:0:0:0:
402,192,42591,1,0,0:0:0:0:
329,192,42633,1,0,0:0:0:0:
109,192,42633,1,0,0:0:0:0:
182,192,42674,1,0,0:0:0:0:
402,192,42716,1,0,0:0:0:0:
256,192,42716,1,0,0:0:0:0:
475,192,42716,1,0,0:0:0:0:
36,192,42716,128,0,43215:0:0:0:0:
329,192,42882,1,0,0:0:0:0:
256,192,43048,1,0,0:0:0:0:
109,192,43048,1,0,0:0:0:0:
402,192,43048,1,0,0:0:0:0:
329,192,43215,128,0,43381:0:0:0:0:
182,192,43215,1,0,0:0:0:0:
109,192,43298,1,0,0:0:0:0:
402,0,43381,128,0,43713:1:0:0:0:
182,192,43381,1,0,0:0:0:0:
36,192,43464,1,0,0:0:0:0:
109,192,43547,1,0,0:0:0:0:
182,192,43630,1,0,0:0:0:0:
448,192,43713,1,0,0:0:0:0:
256,192,43713,1,0,0:0:0:0:
36,192,43713,1,0,0:0:0:0:
109,0,43879,128,0,44046:1:0:0:0:
402,192,43879,1,0,0:0:0:0:
320,192,43963,1,0,0:0:0:0:
64,192,44046,1,0,0:0:0:0:
256,192,44046,1,0,0:0:0:0:
402,0,44212,128,0,44378:1:0:0:0:
182,192,44212,1,0,0:0:0:0:
329,192,44295,1,0,0:0:0:0:
109,192,44378,1,0,0:0:0:0:
256,192,44378,1,0,0:0:0:0:
475,192,44378,1,0,0:0:0:0:
36,0,44544,128,0,44710:1:0:0:0:
329,192,44544,1,0,0:0:0:0:
402,192,44627,1,0,0:0:0:0:
256,0,44710,128,0,45209:1:0:0:0:
475,192,44710,1,0,0:0:0:0:
109,192,44710,1,0,0:0:0:0:
109,192,44877,1,0,0:0:0:0:
402,192,44877,1,0,0:0:0:0:
192,192,45043,1,0,0:0:0:0:
329,192,45043,1,0,0:0:0:0:
36,192,45043,1,0,0:0:0:0:
448,192,45209,1,0,0:0:0:0:
329,192,45292,1,0,0:0:0:0:
109,0,45375,128,0,45708:1:0:0:0:
475,192,45375,1,0,0:0:0:0:
256,192,45541,1,0,0:0:0:0:
402,192,45625,1,0,0:0:0:0:
320,192,45708,1,0,0:0:0:0:
182,192,45708,1,0,0:0:0:0:
36,192,45708,1,0,0:0:0:0:
402,0,45874,128,0,46040:1:0:0:0:
182,192,45874,1,0,0:0:0:0:
256,192,45957,1,0,0:0:0:0:
36,0,46040,128,0,46206:1:0:0:0:
329,192,46040,1,0,0:0:0:0:
182,192,46123,1,0,0:0:0:0:
329,192,46206,1,0,0:0:0:0:
475,192,46289,1,0,0:0:0:0:
256,0,46372,128,0,46539:1:0:0:0:
402,192,46372,1,0,0:0:0:0:
182,192,46372,1,0,0:0:0:0:
36,192,46372,1,0,0:0:0:0:
475,0,46539,128,0,46705:1:0:0:0:
109,192,46539,1,0,0:0:0:0:
329,192,46622,1,0,0:0:0:0:
182,192,46705,1,0,0:0:0:0:
256,0,46871,128,0,47037:1:0:0:0:
475,192,46871,1,0,0:0:0:0:
329,192,46954,1,0,0:0:0:0:
109,0,47037,128,0,47204:1:0:0:0:
475,192,47037,1,0,0:0:0:0:
256,192,47204,1,0,0:0:0:0:
402,192,47287,1,0,0:0:0:0:
192,0,47370,128,0,47868:1:0:0:0:
320,192,47370,1,0,0:0:0:0:
36,192,47370,1,0,0:0:0:0:
64,192,47536,1,0,0:0:0:0:
329,192,47536,1,0,0:0:0:0:
448,192,47702,1,0,0:0:0:0:
256,192,47702,1,0,0:0:0:0:
109,192,47702,1,0,0:0:0:0:
402,192,47702,1,0,0:0:0:0:
320,192,47868,1,0,0:0:0:0:
36,192,47951,1,0,0:0:0:0:
402,0,48035,128,0,48367:1:0:0:0:
182,192,48035,1,0,0:0:0:0:
320,192,48201,1,0,0:0:0:0:
192,192,48284,1,0,0:0:0:0:
64,192,48367,1,0,0:0:0:0:
256,192,48367,1,0,0:0:0:0:
475,192,48367,1,0,0:0:0:0:
320,0,48533,128,0,48699:1:0:0:0:
109,192,48533,1,0,0:0:0:0:
256,192,48616,1,0,0:0:0:0:
36,0,48699,128,0,49032:1:0:0:0:
475,192,48699,1,0,0:0:0:0:
192,192,48782,1,0,0:0:0:0:
402,192,48866,1,0,0:0:0:0:
329,192,48949,1,0,0:0:0:0:
448,192,49032,1,0,0:0:0:0:
256,192,49032,1,0,0:0:0:0:
109,192,49032,1,0,0:0:0:0:
182,0,49198,128,0,49364:1:0:0:0:
320,192,49198,1,0,0:0:0:0:
475,192,49281,1,0,0:0:0:0:
329,192,49364,1,0,0:0:0:0:
36,192,49530,1,0,0:0:0:0:
402,0,49530,128,0,49697:1:0:0:0:
256,192,49613,1,0,0:0:0:0:
109,192,49697,1,0,0:0:0:0:
36,0,49863,128,0,50029:1:0:0:0:
329,192,49863,1,0,0:0:0:0:
256,192,49946,1,0,0:0:0:0:
475,0,50029,128,0,50361:1:0:0:0:
182,192,50029,1,0,0:0:0:0:
402,192,50029,1,0,0:0:0:0:
182,192,50195,1,0,0:0:0:0:
329,192,50195,1,0,0:0:0:0:
36,192,50361,1,0,0:0:0:0:
256,192,50361,1,0,0:0:0:0:
109,192,50361,1,0,0:0:0:0:
192,0,50528,128,0,50694:1:0:0:0:
402,192,50528,1,0,0:0:0:0:
320,192,50611,1,0,0:0:0:0:
475,0,50694,128,0,50860:1:0:0:0:
256,192,50694,1,0,0:0:0:0:
64,192,50860,1,0,0:0:0:0:
192,192,50943,1,0,0:0:0:0:
329,0,51026,128,0,51192:1:0:0:0:
109,192,51026,1,0,0:0:0:0:
475,192,51109,1,0,0:0:0:0:
64,0,51192,128,0,51359:1:0:0:0:
256,192,51192,1,0,0:0:0:0:
402,192,51276,1,0,0:0:0:0:
192,192,51359,1,0,0:0:0:0:
320,192,51442,1,0,0:0:0:0:
448,192,51525,1,0,0:0:0:0:
109,0,51525,128,0,51691:1:0:0:0:
256,192,51525,1,0,0:0:0:0:
448,0,51691,128,0,53021:1:0:0:0:
329,192,51691,1,0,0:0:0:0:
182,192,51691,1,0,0:0:0:0:
36,192,51691,1,0,0:0:0:0:
109,192,51857,1,0,0:0:0:0:
256,192,51940,1,0,0:0:0:0:
64,192,52023,1,0,0:0:0:0:
192,192,52023,1,0,0:0:0:0:
329,192,52023,1,0,0:0:0:0:
402,192,52023,1,0,0:0:0:0:
109,192,52190,1,0,0:0:0:0:
256,192,52273,1,0,0:0:0:0:
36,192,52356,1,0,0:0:0:0:
192,192,52439,1,0,0:0:0:0:
329,192,52522,1,0,0:0:0:0:
64,192,52688,1,0,0:0:0:0:
192,192,52688,1,0,0:0:0:0:
329,192,52688,1,0,0:0:0:0:
402,192,52688,1,0,0:0:0:0:
256,192,52854,1,0,0:0:0:0:
109,192,52938,1,0,0:0:0:0:
329,192,53021,1,0,0:0:0:0:
182,192,53104,1,0,0:0:0:0:
402,192,53187,1,0,0:0:0:0:
256,192,53270,1,0,0:0:0:0:
109,192,53353,1,0,0:0:0:0:
64,192,53353,1,0,0:0:0:0:
402,192,53353,1,0,0:0:0:0:
448,192,53353,1,0,0:0:0:0:
182,192,53353,1,0,0:0:0:0:
329,192,53436,1,0,0:0:0:0:
256,192,53519,1,0,0:0:0:0:
109,192,53519,1,0,0:0:0:0:
182,192,53602,1,0,0:0:0:0:
320,192,53686,1,0,0:0:0:0:
475,192,53686,1,0,0:0:0:0:
402,192,53686,1,0,0:0:0:0:
36,192,53686,1,0,0:0:0:0:
256,192,53769,1,0,0:0:0:0:
109,192,53852,1,0,0:0:0:0:
402,192,53852,1,0,0:0:0:0:
182,192,53935,1,0,0:0:0:0:
64,192,54018,1,0,0:0:0:0:
329,192,54018,1,0,0:0:0:0:
256,192,54018,1,0,0:0:0:0:
475,192,54018,1,0,0:0:0:0:
109,192,54101,1,0,0:0:0:0:
402,192,54184,1,0,0:0:0:0:
182,192,54184,1,0,0:0:0:0:
329,192,54267,1,0,0:0:0:0:
36,192,54350,1,0,0:0:0:0:
256,192,54350,1,0,0:0:0:0:
475,192,54350,1,0,0:0:0:0:
109,192,54350,1,0,0:0:0:0:
402,192,54433,1,0,0:0:0:0:
329,192,54517,1,0,0:0:0:0:
36,192,54517,1,0,0:0:0:0:
182,192,54600,1,0,0:0:0:0:
475,192,54683,1,0,0:0:0:0:
109,192,54683,1,0,0:0:0:0:
256,192,54683,1,0,0:0:0:0:
402,192,54683,1,0,0:0:0:0:
329,192,54766,1,0,0:0:0:0:
192,192,54849,1,0,0:0:0:0:
402,192,54849,1,0,0:0:0:0:
109,192,54932,1,0,0:0:0:0:
448,192,55015,1,0,0:0:0:0:
36,192,55015,1,0,0:0:0:0:
256,192,55015,1,0,0:0:0:0:
329,192,55015,1,0,0:0:0:0:
402,192,55098,1,0,0:0:0:0:
109,192,55181,1,0,0:0:0:0:
320,192,55181,1,0,0:0:0:0:
182,192,55264,1,0,0:0:0:0:
64,192,55348,1,0,0:0:0:0:
320,192,55348,1,0,0:0:0:0:
109,192,55348,1,0,0:0:0:0:
475,192,55348,1,0,0:0:0:0:
402,192,55431,1,0,0:0:0:0:
109,192,55514,1,0,0:0:0:0:
256,192,55514,1,0,0:0:0:0:
329,192,55597,1,0,0:0:0:0:
448,192,55680,1,0,0:0:0:0:
182,192,55680,1,0,0:0:0:0:
36,192,55680,1,0,0:0:0:0:
402,192,55680,1,0,0:0:0:0:
256,192,55763,1,0,0:0:0:0:
402,192,55846,1,0,0:0:0:0:
109,192,55846,1,0,0:0:0:0:
320,192,55929,1,0,0:0:0:0:
192,192,56012,1,0,0:0:0:0:
36,192,56012,1,0,0:0:0:0:
256,192,56012,1,0,0:0:0:0:
475,192,56012,1,0,0:0:0:0:
329,192,56095,1,0,0:0:0:0:
64,192,56179,1,0,0:0:0:0:
402,192,56179,1,0,0:0:0:0:
182,192,56262,1,0,0:0:0:0:
448,192,56345,1,0,0:0:0:0:
109,192,56345,1,0,0:0:0:0:
256,192,56345,1,0,0:0:0:0:
402,192,56345,1,0,0:0:0:0:
329,192,56428,1,0,0:0:0:0:
109,192,56511,1,0,0:0:0:0:
475,192,56511,1,0,0:0:0:0:
256,192,56594,1,0,0:0:0:0:
64,192,56677,1,0,0:0:0:0:
448,192,56677,1,0,0:0:0:0:
182,192,56677,1,0,0:0:0:0:
402,192,56677,1,0,0:0:0:0:
109,192,56760,1,0,0:0:0:0:
320,192,56843,1,0,0:0:0:0:
256,192,56843,1,0,0:0:0:0:
402,192,56927,1,0,0:0:0:0:
64,192,57010,1,0,0:0:0:0:
192,192,57010,1,0,0:0:0:0:
475,192,57010,1,0,0:0:0:0:
256,192,57010,1,0,0:0:0:0:
109,192,57093,1,0,0:0:0:0:
320,192,57176,1,0,0:0:0:0:
448,192,57176,1,0,0:0:0:0:
182,192,57259,1,0,0:0:0:0:
64,192,57342,1,0,0:0:0:0:
256,192,57342,1,0,0:0:0:0:
402,192,57342,1,0,0:0:0:0:
475,192,57342,1,0,0:0:0:0:
109,192,57425,1,0,0:0:0:0:
192,192,57508,1,0,0:0:0:0:
320,192,57508,1,0,0:0:0:0:
402,192,57591,1,0,0:0:0:0:
64,192,57674,1,0,0:0:0:0:
448,192,57674,1,0,0:0:0:0:
256,192,57674,1,0,0:0:0:0:
109,192,57674,1,0,0:0:0:0:
182,192,57758,1,0,0:0:0:0:
320,192,57841,1,0,0:0:0:0:
109,192,57841,1,0,0:0:0:0:
402,192,57841,1,0,0:0:0:0:
256,192,57924,1,0,0:0:0:0:
64,192,58007,1,0,0:0:0:0:
192,192,58007,1,0,0:0:0:0:
402,192,58007,1,0,0:0:0:0:
475,192,58007,1,0,0:0:0:0:
329,192,58090,1,0,0:0:0:0:
448,192,58173,1,0,0:0:0:0:
109,192,58173,1,0,0:0:0:0:
256,192,58256,1,0,0:0:0:0:
192,192,58339,1,0,0:0:0:0:
329,192,58339,1,0,0:0:0:0:
402,192,58339,1,0,0:0:0:0:
36,192,58339,1,0,0:0:0:0:
109,192,58422,1,0,0:0:0:0:
256,192,58505,1,0,0:0:0:0:
475,192,58505,1,0,0:0:0:0:
329,192,58589,1,0,0:0:0:0:
64,192,58672,1,0,0:0:0:0:
448,192,58672,1,0,0:0:0:0:
182,192,58672,1,0,0:0:0:0:
256,192,58672,1,0,0:0:0:0:
402,192,58755,1,0,0:0:0:0:
192,192,58838,1,0,0:0:0:0:
329,192,58838,1,0,0:0:0:0:
109,192,58838,1,0,0:0:0:0:
475,192,58921,1,0,0:0:0:0:
320,192,59004,1,0,0:0:0:0:
256,192,59004,1,0,0:0:0:0:
402,192,59004,1,0,0:0:0:0:
109,192,59004,1,0,0:0:0:0:
36,192,59087,1,0,0:0:0:0:
192,192,59170,1,0,0:0:0:0:
448,192,59170,1,0,0:0:0:0:
256,192,59170,1,0,0:0:0:0:
402,192,59253,1,0,0:0:0:0:
64,192,59336,1,0,0:0:0:0:
320,192,59336,1,0,0:0:0:0:
109,192,59336,1,0,0:0:0:0:
182,192,59336,1,0,0:0:0:0:
256,192,59420,1,0,0:0:0:0:
192,192,59503,1,0,0:0:0:0:
329,192,59503,1,0,0:0:0:0:
475,192,59503,1,0,0:0:0:0:
36,192,59586,1,0,0:0:0:0:
448,192,59669,1,0,0:0:0:0:
109,192,59669,1,0,0:0:0:0:
256,192,59669,1,0,0:0:0:0:
402,192,59669,1,0,0:0:0:0:
320,192,59752,1,0,0:0:0:0:
192,192,59835,1,0,0:0:0:0:
402,192,59835,1,0,0:0:0:0:
36,192,59835,1,0,0:0:0:0:
256,192,59918,1,0,0:0:0:0:
64,192,60001,1,0,0:0:0:0:
329,192,60001,1,0,0:0:0:0:
475,192,60001,1,0,0:0:0:0:
109,192,60001,1,0,0:0:0:0:
256,192,60084,1,0,0:0:0:0:
192,192,60168,1,0,0:0:0:0:
448,192,60168,1,0,0:0:0:0:
329,192,60168,1,0,0:0:0:0:
109,192,60251,1,0,0:0:0:0:
475,192,60334,1,0,0:0:0:0:
36,192,60334,1,0,0:0:0:0:
256,192,60334,1,0,0:0:0:0:
402,192,60334,1,0,0:0:0:0:
329,192,60417,1,0,0:0:0:0:
192,192,60500,1,0,0:0:0:0:
448,192,60500,1,0,0:0:0:0:
109,192,60500,1,0,0:0:0:0:
256,192,60583,1,0,0:0:0:0:
64,192,60666,1,0,0:0:0:0:
320,192,60666,1,0,0:0:0:0:
402,192,60666,1,0,0:0:0:0:
109,192,60666,1,0,0:0:0:0:
475,192,60749,1,0,0:0:0:0:
192,192,60832,1,0,0:0:0:0:
329,192,60832,1,0,0:0:0:0:
36,192,60832,1,0,0:0:0:0:
109,192,60915,1,0,0:0:0:0:
320,192,60999,1,0,0:0:0:0:
36,192,60999,1,0,0:0:0:0:
256,192,60999,1,0,0:0:0:0:
402,192,60999,1,0,0:0:0:0:
475,192,61082,1,0,0:0:0:0:
64,192,61165,1,0,0:0:0:0:
402,192,61165,1,0,0:0:0:0:
182,192,61165,1,0,0:0:0:0:
256,192,61248,1,0,0:0:0:0:
320,192,61331,1,0,0:0:0:0:
448,192,61331,1,0,0:0:0:0:
109,192,61331,1,0,0:0:0:0:
36,192,61331,1,0,0:0:0:0:
192,192,61414,1,0,0:0:0:0:
256,192,61414,1,0,0:0:0:0:
402,192,61497,1,0,0:0:0:0:
475,192,61497,1,0,0:0:0:0:
109,192,61580,1,0,0:0:0:0:
192,192,61580,1,0,0:0:0:0:
329,192,61663,1,0,0:0:0:0:
402,192,61663,1,0,0:0:0:0:
36,192,61663,1,0,0:0:0:0:
475,192,61663,1,0,0:0:0:0:
182,192,61746,1,0,0:0:0:0:
256,192,61746,1,0,0:0:0:0:
109,192,61830,1,0,0:0:0:0:
36,192,61830,1,0,0:0:0:0:
320,192,61913,1,0,0:0:0:0:
402,192,61913,1,0,0:0:0:0:
256,192,61996,1,0,0:0:0:0:
109,192,61996,1,0,0:0:0:0:
182,192,61996,1,0,0:0:0:0:
36,192,61996,1,0,0:0:0:0:
402,192,62079,1,0,0:0:0:0:
475,192,62079,1,0,0:0:0:0:
109,192,62162,1,0,0:0:0:0:
182,192,62162,1,0,0:0:0:0:
329,192,62245,1,0,0:0:0:0:
402,192,62245,1,0,0:0:0:0:
256,192,62328,1,0,0:0:0:0:
475,192,62328,1,0,0:0:0:0:
109,192,62328,1,0,0:0:0:0:
36,192,62328,1,0,0:0:0:0:
402,192,62411,1,0,0:0:0:0:
329,192,62411,1,0,0:0:0:0:
36,192,62494,1,0,0:0:0:0:
182,192,62494,1,0,0:0:0:0:
256,192,62577,1,0,0:0:0:0:
329,192,62577,1,0,0:0:0:0:
402,192,62661,1,0,0:0:0:0:
475,192,62661,1,0,0:0:0:0:
109,192,62661,1,0,0:0:0:0:
36,192,62661,1,0,0:0:0:0:
182,192,62744,1,0,0:0:0:0:
256,192,62744,1,0,0:0:0:0:
402,192,62827,1,0,0:0:0:0:
475,192,62827,1,0,0:0:0:0:
256,192,62910,1,0,0:0:0:0:
329,192,62910,1,0,0:0:0:0:
182,192,62993,1,0,0:0:0:0:
109,192,62993,1,0,0:0:0:0:
36,192,62993,1,0,0:0:0:0:
475,192,62993,1,0,0:0:0:0:
329,192,63076,1,0,0:0:0:0:
402,192,63076,1,0,0:0:0:0:
109,192,63159,1,0,0:0:0:0:
256,192,63159,1,0,0:0:0:0:
402,192,63242,1,0,0:0:0:0:
475,192,63242,1,0,0:0:0:0:
256,192,63325,1,0,0:0:0:0:
36,192,63325,1,0,0:0:0:0:
109,192,63325,1,0,0:0:0:0:
182,192,63325,1,0,0:0:0:0:
475,192,63367,1,0,0:0:0:0:
402,192,63408,1,0,0:0:0:0:
329,192,63450,1,0,0:0:0:0:
36,192,63450,1,0,0:0:0:0:
109,192,63492,1,0,0:0:0:0:
182,192,63533,1,0,0:0:0:0:
256,192,63575,1,0,0:0:0:0:
329,192,63616,1,0,0:0:0:0:
36,192,63658,1,0,0:0:0:0:
109,192,63699,1,0,0:0:0:0:
182,192,63741,1,0,0:0:0:0:
475,192,63741,1,0,0:0:0:0:
402,192,63782,1,0,0:0:0:0:
329,192,63824,1,0,0:0:0:0:
256,192,63866,1,0,0:0:0:0:
182,192,63907,1,0,0:0:0:0:
109,192,63949,1,0,0:0:0:0:
36,192,63990,1,0,0:0:0:0:
475,192,63990,1,0,0:0:0:0:
329,192,63990,1,0,0:0:0:0:
402,192,63990,1,0,0:0:0:0:
182,192,64073,1,0,0:0:0:0:
329,192,64156,1,0,0:0:0:0:
109,192,64156,1,0,0:0:0:0:
256,192,64240,1,0,0:0:0:0:
448,192,64323,1,0,0:0:0:0:
182,192,64323,1,0,0:0:0:0:
402,192,64323,1,0,0:0:0:0:
36,192,64323,1,0,0:0:0:0:
329,192,64406,1,0,0:0:0:0:
256,192,64489,1,0,0:0:0:0:
402,192,64489,1,0,0:0:0:0:
109,192,64489,1,0,0:0:0:0:
182,192,64572,1,0,0:0:0:0:
402,192,64655,1,0,0:0:0:0:
256,192,64655,1,0,0:0:0:0:
36,192,64655,1,0,0:0:0:0:
475,192,64655,1,0,0:0:0:0:
329,192,64738,1,0,0:0:0:0:
109,192,64821,1,0,0:0:0:0:
182,192,64821,1,0,0:0:0:0:
256,192,64904,1,0,0:0:0:0:
448,192,64987,1,0,0:0:0:0:
329,192,64987,1,0,0:0:0:0:
402,192,64987,1,0,0:0:0:0:
109,192,64987,1,0,0:0:0:0:
182,192,65071,1,0,0:0:0:0:
64,192,65154,1,0,0:0:0:0:
256,192,65154,1,0,0:0:0:0:
402,192,65154,1,0,0:0:0:0:
329,192,65237,1,0,0:0:0:0:
448,192,65320,1,0,0:0:0:0:
182,192,65320,1,0,0:0:0:0:
109,192,65320,1,0,0:0:0:0:
36,192,65320,1,0,0:0:0:0:
256,192,65403,1,0,0:0:0:0:
192,192,65486,1,0,0:0:0:0:
402,192,65486,1,0,0:0:0:0:
109,192,65569,1,0,0:0:0:0:
36,192,65652,1,0,0:0:0:0:
320,192,65652,1,0,0:0:0:0:
256,192,65652,1,0,0:0:0:0:
475,192,65652,1,0,0:0:0:0:
182,192,65735,1,0,0:0:0:0:
320,192,65818,1,0,0:0:0:0:
448,192,65818,1,0,0:0:0:0:
109,192,65818,1,0,0:0:0:0:
402,192,65902,1,0,0:0:0:0:
64,192,65985,1,0,0:0:0:0:
192,192,65985,1,0,0:0:0:0:
256,192,65985,1,0,0:0:0:0:
475,192,65985,1,0,0:0:0:0:
329,192,66068,1,0,0:0:0:0:
402,192,66151,1,0,0:0:0:0:
109,192,66151,1,0,0:0:0:0:
256,192,66234,1,0,0:0:0:0:
192,192,66317,1,0,0:0:0:0:
36,192,66317,1,0,0:0:0:0:
329,192,66317,1,0,0:0:0:0:
475,192,66317,1,0,0:0:0:0:
402,192,66400,1,0,0:0:0:0:
64,192,66483,1,0,0:0:0:0:
448,192,66483,1,0,0:0:0:0:
256,192,66483,1,0,0:0:0:0:
109,192,66566,1,0,0:0:0:0:
192,192,66649,1,0,0:0:0:0:
320,192,66649,1,0,0:0:0:0:
36,192,66649,1,0,0:0:0:0:
402,192,66649,1,0,0:0:0:0:
475,192,66649,1,0,0:0:0:0:
256,192,66733,1,0,0:0:0:0:
192,192,66816,1,0,0:0:0:0:
402,192,66816,1,0,0:0:0:0:
329,192,66899,1,0,0:0:0:0:
64,192,66982,1,0,0:0:0:0:
448,192,66982,1,0,0:0:0:0:
256,192,66982,1,0,0:0:0:0:
109,192,66982,1,0,0:0:0:0:
402,192,67065,1,0,0:0:0:0:
64,192,67148,1,0,0:0:0:0:
320,192,67148,1,0,0:0:0:0:
182,192,67148,1,0,0:0:0:0:
109,192,67231,1,0,0:0:0:0:
448,192,67314,1,0,0:0:0:0:
36,192,67314,1,0,0:0:0:0:
256,192,67314,1,0,0:0:0:0:
402,192,67314,1,0,0:0:0:0:
329,192,67397,1,0,0:0:0:0:
192,192,67481,1,0,0:0:0:0:
402,192,67481,1,0,0:0:0:0:
256,192,67564,1,0,0:0:0:0:
64,192,67647,1,0,0:0:0:0:
329,192,67647,1,0,0:0:0:0:
109,192,67647,1,0,0:0:0:0:
475,192,67647,1,0,0:0:0:0:
256,192,67730,1,0,0:0:0:0:
192,192,67813,1,0,0:0:0:0:
448,192,67813,1,0,0:0:0:0:
402,192,67813,1,0,0:0:0:0:
109,192,67896,1,0,0:0:0:0:
192,192,67979,1,0,0:0:0:0:
36,192,67979,1,0,0:0:0:0:
329,192,67979,1,0,0:0:0:0:
475,192,67979,1,0,0:0:0:0:
256,192,68062,1,0,0:0:0:0:
109,192,68145,1,0,0:0:0:0:
402,192,68145,1,0,0:0:0:0:
182,192,68228,1,0,0:0:0:0:
320,192,68312,1,0,0:0:0:0:
256,192,68312,1,0,0:0:0:0:
36,192,68312,1,0,0:0:0:0:
475,192,68312,1,0,0:0:0:0:
402,192,68395,1,0,0:0:0:0:
192,192,68478,1,0,0:0:0:0:
109,192,68478,1,0,0:0:0:0:
475,192,68478,1,0,0:0:0:0:
329,192,68561,1,0,0:0:0:0:
402,192,68644,1,0,0:0:0:0:
256,192,68644,1,0,0:0:0:0:
109,192,68644,1,0,0:0:0:0:
36,192,68644,1,0,0:0:0:0:
475,192,68727,1,0,0:0:0:0:
192,192,68810,1,0,0:0:0:0:
329,192,68810,1,0,0:0:0:0:
109,192,68893,1,0,0:0:0:0:
448,192,68976,1,0,0:0:0:0:
256,192,68976,1,0,0:0:0:0:
36,192,68976,1,0,0:0:0:0:
402,192,68976,1,0,0:0:0:0:
109,192,69059,1,0,0:0:0:0:
402,192,69143,1,0,0:0:0:0:
320,192,69143,1,0,0:0:0:0:
182,192,69143,1,0,0:0:0:0:
256,192,69226,1,0,0:0:0:0:
192,192,69309,1,0,0:0:0:0:
448,192,69309,1,0,0:0:0:0:
402,192,69309,1,0,0:0:0:0:
36,192,69309,1,0,0:0:0:0:
109,192,69392,1,0,0:0:0:0:
64,192,69475,1,0,0:0:0:0:
256,192,69475,1,0,0:0:0:0:
402,192,69475,1,0,0:0:0:0:
182,192,69558,1,0,0:0:0:0:
320,192,69641,1,0,0:0:0:0:
448,192,69641,1,0,0:0:0:0:
109,192,69641,1,0,0:0:0:0:
256,192,69641,1,0,0:0:0:0:
402,192,69724,1,0,0:0:0:0:
64,192,69807,1,0,0:0:0:0:
192,192,69807,1,0,0:0:0:0:
329,192,69807,1,0,0:0:0:0:
475,192,69890,1,0,0:0:0:0:
192,192,69974,1,0,0:0:0:0:
402,192,69974,1,0,0:0:0:0:
256,192,69974,1,0,0:0:0:0:
109,192,69974,1,0,0:0:0:0:
36,192,70057,1,0,0:0:0:0:
320,192,70140,1,0,0:0:0:0:
182,192,70140,1,0,0:0:0:0:
475,192,70140,1,0,0:0:0:0:
402,192,70223,1,0,0:0:0:0:
64,192,70306,1,0,0:0:0:0:
320,192,70306,1,0,0:0:0:0:
109,192,70306,1,0,0:0:0:0:
256,192,70306,1,0,0:0:0:0:
402,192,70389,1,0,0:0:0:0:
192,192,70472,1,0,0:0:0:0:
448,192,70472,1,0,0:0:0:0:
109,192,70472,1,0,0:0:0:0:
256,192,70555,1,0,0:0:0:0:
64,192,70638,1,0,0:0:0:0:
329,192,70638,1,0,0:0:0:0:
402,192,70638,1,0,0:0:0:0:
475,192,70638,1,0,0:0:0:0:
182,192,70722,1,0,0:0:0:0:
109,192,70805,1,0,0:0:0:0:
448,192,70805,1,0,0:0:0:0:
256,192,70805,1,0,0:0:0:0:
36,192,70888,1,0,0:0:0:0:
192,192,70971,1,0,0:0:0:0:
320,192,70971,1,0,0:0:0:0:
402,192,70971,1,0,0:0:0:0:
475,192,70971,1,0,0:0:0:0:
256,192,71054,1,0,0:0:0:0:
64,192,71137,1,0,0:0:0:0:
320,192,71137,1,0,0:0:0:0:
109,192,71137,1,0,0:0:0:0:
402,192,71220,1,0,0:0:0:0:
64,192,71303,1,0,0:0:0:0:
192,192,71303,1,0,0:0:0:0:
475,192,71303,1,0,0:0:0:0:
256,192,71303,1,0,0:0:0:0:
329,192,71386,1,0,0:0:0:0:
448,192,71469,1,0,0:0:0:0:
109,192,71469,1,0,0:0:0:0:
256,192,71469,1,0,0:0:0:0:
402,192,71553,1,0,0:0:0:0:
64,192,71636,1,0,0:0:0:0:
192,192,71636,1,0,0:0:0:0:
329,192,71636,1,0,0:0:0:0:
475,192,71636,1,0,0:0:0:0:
256,192,71719,1,0,0:0:0:0:
109,192,71802,1,0,0:0:0:0:
182,192,71802,1,0,0:0:0:0:
402,192,71802,1,0,0:0:0:0:
329,192,71885,1,0,0:0:0:0:
402,192,71968,1,0,0:0:0:0:
448,192,71968,1,0,0:0:0:0:
256,192,71968,1,0,0:0:0:0:
109,192,71968,1,0,0:0:0:0:
64,192,71968,1,0,0:0:0:0:
182,192,72051,1,0,0:0:0:0:
329,192,72051,1,0,0:0:0:0:
109,192,72134,1,0,0:0:0:0:
36,192,72134,1,0,0:0:0:0:
475,192,72134,1,0,0:0:0:0:
256,192,72217,1,0,0:0:0:0:
402,192,72217,1,0,0:0:0:0:
448,192,72300,1,0,0:0:0:0:
109,192,72300,1,0,0:0:0:0:
182,192,72300,1,0,0:0:0:0:
329,192,72300,1,0,0:0:0:0:
36,192,72384,1,0,0:0:0:0:
256,192,72384,1,0,0:0:0:0:
402,192,72467,1,0,0:0:0:0:
475,192,72467,1,0,0:0:0:0:
109,192,72467,1,0,0:0:0:0:
329,192,72550,1,0,0:0:0:0:
182,192,72550,1,0,0:0:0:0:
448,192,72633,1,0,0:0:0:0:
256,192,72633,1,0,0:0:0:0:
109,192,72633,1,0,0:0:0:0:
36,192,72633,1,0,0:0:0:0:
329,192,72716,1,0,0:0:0:0:
402,192,72716,1,0,0:0:0:0:
182,192,72799,1,0,0:0:0:0:
109,192,72799,1,0,0:0:0:0:
475,192,72799,1,0,0:0:0:0:
256,192,72882,1,0,0:0:0:0:
329,192,72882,1,0,0:0:0:0:
402,192,72965,1,0,0:0:0:0:
475,192,72965,1,0,0:0:0:0:
109,192,72965,1,0,0:0:0:0:
36,192,72965,1,0,0:0:0:0:
182,192,73048,1,0,0:0:0:0:
320,192,73048,1,0,0:0:0:0:
256,192,73131,1,0,0:0:0:0:
64,192,73131,1,0,0:0:0:0:
475,192,73131,1,0,0:0:0:0:
402,192,73215,1,0,0:0:0:0:
109,192,73215,1,0,0:0:0:0:
329,192,73298,1,0,0:0:0:0:
182,192,73298,1,0,0:0:0:0:
36,192,73298,1,0,0:0:0:0:
475,192,73298,1,0,0:0:0:0:
256,192,73381,1,0,0:0:0:0:
402,192,73381,1,0,0:0:0:0:
109,192,73464,1,0,0:0:0:0:
36,192,73464,1,0,0:0:0:0:
329,192,73464,1,0,0:0:0:0:
182,192,73547,1,0,0:0:0:0:
402,192,73547,1,0,0:0:0:0:
256,192,73630,1,0,0:0:0:0:
475,192,73630,1,0,0:0:0:0:
36,192,73630,1,0,0:0:0:0:
402,192,73713,1,0,0:0:0:0:
329,192,73713,1,0,0:0:0:0:
182,192,73713,1,0,0:0:0:0:
109,192,73713,1,0,0:0:0:0:
36,192,73796,1,0,0:0:0:0:
475,192,73796,1,0,0:0:0:0:
256,192,73796,1,0,0:0:0:0:
182,192,73879,1,0,0:0:0:0:
329,192,73879,1,0,0:0:0:0:
109,192,73879,1,0,0:0:0:0:
402,192,73879,1,0,0:0:0:0:
36,192,73963,1,0,0:0:0:0:
475,192,73963,1,0,0:0:0:0:
256,192,73963,1,0,0:0:0:0:
182,0,74295,128,0,74627:1:0:0:0:
64,192,74627,1,0,0:0:0:0:
448,192,74627,1,0,0:0:0:0:
256,192,74627,1,0,0:0:0:0:
402,192,74627,1,0,0:0:0:0:
109,192,74710,1,0,0:0:0:0:
329,192,74710,1,0,0:0:0:0:
182,192,74794,1,0,0:0:0:0:
475,192,74794,1,0,0:0:0:0:
256,192,74877,1,0,0:0:0:0:
402,192,74877,1,0,0:0:0:0:
329,192,74960,1,0,0:0:0:0:
182,192,74960,1,0,0:0:0:0:
36,192,74960,1,0,0:0:0:0:
475,192,74960,1,0,0:0:0:0:
109,192,75043,1,0,0:0:0:0:
402,192,75043,1,0,0:0:0:0:
256,192,75126,1,0,0:0:0:0:
475,192,75126,1,0,0:0:0:0:
182,192,75209,1,0,0:0:0:0:
329,192,75209,1,0,0:0:0:0:
402,192,75292,1,0,0:0:0:0:
109,192,75292,1,0,0:0:0:0:
256,192,75292,1,0,0:0:0:0:
36,192,75292,1,0,0:0:0:0:
448,192,75375,1,0,0:0:0:0:
182,192,75375,1,0,0:0:0:0:
109,192,75458,1,0,0:0:0:0:
329,192,75458,1,0,0:0:0:0:
256,192,75541,1,0,0:0:0:0:
64,192,75541,1,0,0:0:0:0:
192,192,75625,1,0,0:0:0:0:
402,192,75625,1,0,0:0:0:0:
329,192,75625,1,0,0:0:0:0:
475,192,75625,1,0,0:0:0:0:
256,192,75708,1,0,0:0:0:0:
36,192,75708,1,0,0:0:0:0:
329,192,75791,1,0,0:0:0:0:
109,192,75791,1,0,0:0:0:0:
402,192,75874,1,0,0:0:0:0:
182,192,75874,1,0,0:0:0:0:
475,192,75957,1,0,0:0:0:0:
256,192,75957,1,0,0:0:0:0:
36,192,75957,1,0,0:0:0:0:
109,192,75957,1,0,0:0:0:0:
182,192,76040,1,0,0:0:0:0:
402,192,76040,1,0,0:0:0:0:
109,192,76123,1,0,0:0:0:0:
329,192,76123,1,0,0:0:0:0:
36,192,76206,1,0,0:0:0:0:
256,192,76206,1,0,0:0:0:0:
109,192,76289,1,0,0:0:0:0:
329,192,76289,1,0,0:0:0:0:
475,192,76289,1,0,0:0:0:0:
182,192,76289,1,0,0:0:0:0:
402,192,76372,1,0,0:0:0:0:
36,192,76372,1,0,0:0:0:0:
329,192,76456,1,0,0:0:0:0:
182,192,76456,1,0,0:0:0:0:
402,192,76539,1,0,0:0:0:0:
109,192,76539,1,0,0:0:0:0:
475,192,76622,1,0,0:0:0:0:
256,192,76622,1,0,0:0:0:0:
182,192,76622,1,0,0:0:0:0:
36,192,76622,1,0,0:0:0:0:
329,192,76705,1,0,0:0:0:0:
109,192,76705,1,0,0:0:0:0:
402,192,76788,1,0,0:0:0:0:
256,192,76788,1,0,0:0:0:0:
182,192,76871,1,0,0:0:0:0:
329,192,76871,1,0,0:0:0:0:
109,192,76954,1,0,0:0:0:0:
256,192,76954,1,0,0:0:0:0:
475,192,76954,1,0,0:0:0:0:
36,192,76954,1,0,0:0:0:0:
402,192,77037,1,0,0:0:0:0:
182,192,77037,1,0,0:0:0:0:
329,192,77120,1,0,0:0:0:0:
36,192,77120,1,0,0:0:0:0:
402,192,77204,1,0,0:0:0:0:
182,192,77204,1,0,0:0:0:0:
475,192,77287,1,0,0:0:0:0:
109,192,77287,1,0,0:0:0:0:
256,192,77287,1,0,0:0:0:0:
36,192,77287,1,0,0:0:0:0:
182,192,77370,1,0,0:0:0:0:
329,192,77370,1,0,0:0:0:0:
256,192,77453,1,0,0:0:0:0:
402,192,77453,1,0,0:0:0:0:
475,192,77536,1,0,0:0:0:0:
109,192,77536,1,0,0:0:0:0:
402,192,77619,1,0,0:0:0:0:
182,192,77619,1,0,0:0:0:0:
36,192,77619,1,0,0:0:0:0:
329,192,77619,1,0,0:0:0:0:
256,192,77702,1,0,0:0:0:0:
109,192,77702,1,0,0:0:0:0:
36,192,77785,1,0,0:0:0:0:
475,192,77785,1,0,0:0:0:0:
182,192,77868,1,0,0:0:0:0:
329,192,77868,1,0,0:0:0:0:
256,192,77951,1,0,0:0:0:0:
402,192,77951,1,0,0:0:0:0:
475,192,77951,1,0,0:0:0:0:
36,192,77951,1,0,0:0:0:0:
109,192,78035,1,0,0:0:0:0:
329,192,78035,1,0,0:0:0:0:
182,192,78118,1,0,0:0:0:0:
402,192,78118,1,0,0:0:0:0:
256,192,78201,1,0,0:0:0:0:
475,192,78201,1,0,0:0:0:0:
182,192,78284,1,0,0:0:0:0:
402,192,78284,1,0,0:0:0:0:
329,192,78284,1,0,0:0:0:0:
36,192,78284,1,0,0:0:0:0:
109,192,78367,1,0,0:0:0:0:
256,192,78367,1,0,0:0:0:0:
36,192,78450,1,0,0:0:0:0:
329,192,78450,1,0,0:0:0:0:
182,192,78533,1,0,0:0:0:0:
402,192,78533,1,0,0:0:0:0:
109,192,78616,1,0,0:0:0:0:
475,192,78616,1,0,0:0:0:0:
256,192,78616,1,0,0:0:0:0:
36,192,78616,1,0,0:0:0:0:
402,192,78699,1,0,0:0:0:0:
182,192,78699,1,0,0:0:0:0:
475,192,78782,1,0,0:0:0:0:
256,192,78782,1,0,0:0:0:0:
329,192,78866,1,0,0:0:0:0:
109,192,78866,1,0,0:0:0:0:
402,192,78949,1,0,0:0:0:0:
182,192,78949,1,0,0:0:0:0:
475,192,78949,1,0,0:0:0:0:
36,192,78949,1,0,0:0:0:0:
256,192,79032,1,0,0:0:0:0:
109,192,79032,1,0,0:0:0:0:
329,192,79115,1,0,0:0:0:0:
182,192,79115,1,0,0:0:0:0:
109,192,79198,1,0,0:0:0:0:
402,192,79198,1,0,0:0:0:0:
36,192,79281,1,0,0:0:0:0:
329,192,79281,1,0,0:0:0:0:
256,192,79281,1,0,0:0:0:0:
475,192,79281,1,0,0:0:0:0:
402,192,79364,1,0,0:0:0:0:
182,192,79364,1,0,0:0:0:0:
329,192,79447,1,0,0:0:0:0:
36,192,79447,1,0,0:0:0:0:
256,192,79530,1,0,0:0:0:0:
109,192,79530,1,0,0:0:0:0:
182,192,79613,1,0,0:0:0:0:
36,192,79613,1,0,0:0:0:0:
402,192,79613,1,0,0:0:0:0:
475,192,79613,1,0,0:0:0:0:
329,192,79697,1,0,0:0:0:0:
109,192,79697,1,0,0:0:0:0:
402,192,79780,1,0,0:0:0:0:
182,192,79780,1,0,0:0:0:0:
475,192,79863,1,0,0:0:0:0:
256,192,79863,1,0,0:0:0:0:
36,192,79946,1,0,0:0:0:0:
329,192,79946,1,0,0:0:0:0:
402,192,79946,1,0,0:0:0:0:
109,192,79946,1,0,0:0:0:0:
182,192,80029,1,0,0:0:0:0:
475,192,80029,1,0,0:0:0:0:
256,192,80112,1,0,0:0:0:0:
402,192,80112,1,0,0:0:0:0:
182,192,80195,1,0,0:0:0:0:
329,192,80195,1,0,0:0:0:0:
109,192,80278,1,0,0:0:0:0:
256,192,80278,1,0,0:0:0:0:
402,192,80278,1,0,0:0:0:0:
475,192,80278,1,0,0:0:0:0:
36,192,80361,1,0,0:0:0:0:
182,192,80361,1,0,0:0:0:0:
329,192,80445,1,0,0:0:0:0:
475,192,80445,1,0,0:0:0:0:
109,192,80528,1,0,0:0:0:0:
256,192,80528,1,0,0:0:0:0:
402,192,80611,1,0,0:0:0:0:
182,192,80611,1,0,0:0:0:0:
36,192,80611,1,0,0:0:0:0:
329,192,80611,1,0,0:0:0:0:
256,192,80694,1,0,0:0:0:0:
475,192,80694,1,0,0:0:0:0:
182,192,80777,1,0,0:0:0:0:
402,192,80777,1,0,0:0:0:0:
109,192,80860,1,0,0:0:0:0:
329,192,80860,1,0,0:0:0:0:
256,192,80943,1,0,0:0:0:0:
36,192,80943,1,0,0:0:0:0:
182,192,80943,1,0,0:0:0:0:
402,192,80943,1,0,0:0:0:0:
475,192,81026,1,0,0:0:0:0:
109,192,81026,1,0,0:0:0:0:
182,192,81109,1,0,0:0:0:0:
329,192,81109,1,0,0:0:0:0:
256,192,81192,1,0,0:0:0:0:
402,192,81192,1,0,0:0:0:0:
475,192,81276,1,0,0:0:0:0:
329,192,81276,1,0,0:0:0:0:
109,192,81276,1,0,0:0:0:0:
36,192,81276,1,0,0:0:0:0:
182,192,81359,1,0,0:0:0:0:
402,192,81359,1,0,0:0:0:0:
109,192,81442,1,0,0:0:0:0:
329,192,81442,1,0,0:0:0:0:
36,192,81525,1,0,0:0:0:0:
256,192,81525,1,0,0:0:0:0:
182,192,81608,1,0,0:0:0:0:
109,192,81608,1,0,0:0:0:0:
402,192,81608,1,0,0:0:0:0:
475,192,81608,1,0,0:0:0:0:
329,192,81691,1,0,0:0:0:0:
36,192,81691,1,0,0:0:0:0:
256,192,81774,1,0,0:0:0:0:
109,192,81774,1,0,0:0:0:0:
329,192,81857,1,0,0:0:0:0:
182,192,81857,1,0,0:0:0:0:
402,192,81940,1,0,0:0:0:0:
256,192,81940,1,0,0:0:0:0:
475,192,81940,1,0,0:0:0:0:
36,192,81940,1,0,0:0:0:0:
109,192,82023,1,0,0:0:0:0:
329,192,82023,1,0,0:0:0:0:
182,192,82107,1,0,0:0:0:0:
402,192,82107,1,0,0:0:0:0:
109,192,82190,1,0,0:0:0:0:
329,192,82190,1,0,0:0:0:0:
36,192,82273,1,0,0:0:0:0:
256,192,82273,1,0,0:0:0:0:
475,192,82273,1,0,0:0:0:0:
182,192,82273,1,0,0:0:0:0:
109,192,82356,1,0,0:0:0:0:
402,192,82356,1,0,0:0:0:0:
182,192,82439,1,0,0:0:0:0:
329,192,82439,1,0,0:0:0:0:
256,192,82522,1,0,0:0:0:0:
402,192,82522,1,0,0:0:0:0:
475,192,82605,1,0,0:0:0:0:
329,192,82605,1,0,0:0:0:0:
182,192,82605,1,0,0:0:0:0:
36,192,82605,1,0,0:0:0:0:
109,192,82688,1,0,0:0:0:0:
402,192,82688,1,0,0:0:0:0:
256,192,82771,1,0,0:0:0:0:
475,192,82771,1,0,0:0:0:0:
182,192,82854,1,0,0:0:0:0:
329,192,82854,1,0,0:0:0:0:
109,192,82938,1,0,0:0:0:0:
402,192,82938,1,0,0:0:0:0:
475,192,82938,1,0,0:0:0:0:
36,192,82938,1,0,0:0:0:0:
182,192,83021,5,0,0:0:0:0:
329,192,83021,1,0,0:0:0:0:
256,192,83104,1,0,0:0:0:0:
402,192,83104,1,0,0:0:0:0:
109,192,83187,1,0,0:0:0:0:
329,192,83187,1,0,0:0:0:0:
182,192,83270,1,0,0:0:0:0:
402,192,83270,1,0,0:0:0:0:
36,192,83270,1,0,0:0:0:0:
475,192,83270,1,0,0:0:0:0:
256,192,83353,1,0,0:0:0:0:
109,192,83353,1,0,0:0:0:0:
402,192,83436,1,0,0:0:0:0:
182,192,83436,1,0,0:0:0:0:
109,192,83519,1,0,0:0:0:0:
329,192,83519,1,0,0:0:0:0:
256,192,83602,1,0,0:0:0:0:
36,192,83602,1,0,0:0:0:0:
475,192,83602,1,0,0:0:0:0:
402,192,83602,1,0,0:0:0:0:
182,192,83686,1,0,0:0:0:0:
329,192,83686,1,0,0:0:0:0:
256,192,83769,1,0,0:0:0:0:
109,192,83769,1,0,0:0:0:0:
182,192,83852,1,0,0:0:0:0:
329,192,83852,1,0,0:0:0:0:
475,192,83935,1,0,0:0:0:0:
256,192,83935,1,0,0:0:0:0:
109,192,83935,1,0,0:0:0:0:
36,192,83935,1,0,0:0:0:0:
402,192,83935,1,0,0:0:0:0:
182,192,84101,1,0,0:0:0:0:
329,192,84101,1,0,0:0:0:0:
402,192,84184,1,0,0:0:0:0:
109,192,84267,1,0,0:0:0:0:
329,192,84267,1,0,0:0:0:0:
256,192,84350,1,0,0:0:0:0:
182,192,84433,1,0,0:0:0:0:
329,192,84517,1,0,0:0:0:0:
402,192,84600,1,0,0:0:0:0:
109,192,84600,1,0,0:0:0:0:
182,192,84600,1,0,0:0:0:0:
256,192,84683,1,0,0:0:0:0:
329,192,84766,1,0,0:0:0:0:
109,192,84849,1,0,0:0:0:0:
256,192,84932,1,0,0:0:0:0:
402,192,84932,1,0,0:0:0:0:
109,192,85015,1,0,0:0:0:0:
329,192,85098,1,0,0:0:0:0:
256,192,85181,1,0,0:0:0:0:
182,192,85264,1,0,0:0:0:0:
36,192,85264,1,0,0:0:0:0:
402,192,85264,1,0,0:0:0:0:
475,192,85264,1,0,0:0:0:0:
329,192,85348,1,0,0:0:0:0:
109,192,85348,1,0,0:0:0:0:
182,192,85431,1,0,0:0:0:0:
402,192,85431,1,0,0:0:0:0:
256,192,85514,1,0,0:0:0:0:
475,192,85514,1,0,0:0:0:0:
329,192,85597,1,0,0:0:0:0:
109,192,85597,1,0,0:0:0:0:
36,192,85597,1,0,0:0:0:0:
402,192,85597,1,0,0:0:0:0:
182,192,85680,1,0,0:0:0:0:
475,192,85680,1,0,0:0:0:0:
256,192,85763,1,0,0:0:0:0:
402,192,85763,1,0,0:0:0:0:
182,192,85846,1,0,0:0:0:0:
329,192,85846,1,0,0:0:0:0:
109,192,85929,1,0,0:0:0:0:
256,192,85929,1,0,0:0:0:0:
36,192,85929,1,0,0:0:0:0:
475,192,85929,1,0,0:0:0:0:
402,192,86012,1,0,0:0:0:0:
182,192,86012,1,0,0:0:0:0:
329,192,86095,1,0,0:0:0:0:
109,192,86095,1,0,0:0:0:0:
402,192,86179,1,0,0:0:0:0:
36,192,86179,1,0,0:0:0:0:
475,192,86262,1,0,0:0:0:0:
182,192,86262,1,0,0:0:0:0:
256,192,86262,1,0,0:0:0:0:
109,192,86262,1,0,0:0:0:0:
329,192,86345,1,0,0:0:0:0:
36,192,86345,1,0,0:0:0:0:
182,192,86428,1,0,0:0:0:0:
475,192,86428,1,0,0:0:0:0:
256,192,86511,1,0,0:0:0:0:
402,192,86511,1,0,0:0:0:0:
329,192,86594,1,0,0:0:0:0:
475,192,86594,1,0,0:0:0:0:
109,192,86594,1,0,0:0:0:0:
36,192,86594,1,0,0:0:0:0:
182,192,86677,1,0,0:0:0:0:
402,192,86677,1,0,0:0:0:0:
109,192,86760,1,0,0:0:0:0:
329,192,86760,1,0,0:0:0:0:
36,192,86843,1,0,0:0:0:0:
256,192,86843,1,0,0:0:0:0:
109,192,86927,1,0,0:0:0:0:
182,192,86927,1,0,0:0:0:0:
402,192,86927,1,0,0:0:0:0:
475,192,86927,1,0,0:0:0:0:
329,192,87010,1,0,0:0:0:0:
36,192,87010,1,0,0:0:0:0:
256,192,87093,1,0,0:0:0:0:
109,192,87093,1,0,0:0:0:0:
182,192,87176,1,0,0:0:0:0:
329,192,87176,1,0,0:0:0:0:
256,192,87259,1,0,0:0:0:0:
402,192,87259,1,0,0:0:0:0:
475,192,87259,1,0,0:0:0:0:
36,192,87259,1,0,0:0:0:0:
109,192,87342,1,0,0:0:0:0:
329,192,87342,1,0,0:0:0:0:
182,192,87425,1,0,0:0:0:0:
402,192,87425,1,0,0:0:0:0:
109,192,87508,1,0,0:0:0:0:
475,192,87508,1,0,0:0:0:0:
36,192,87591,1,0,0:0:0:0:
402,192,87591,1,0,0:0:0:0:
329,192,87591,1,0,0:0:0:0:
182,192,87591,1,0,0:0:0:0:
256,192,87674,1,0,0:0:0:0:
475,192,87674,1,0,0:0:0:0:
402,192,87758,1,0,0:0:0:0:
182,192,87758,1,0,0:0:0:0:
329,192,87841,1,0,0:0:0:0:
109,192,87841,1,0,0:0:0:0:
256,192,87924,1,0,0:0:0:0:
36,192,87924,1,0,0:0:0:0:
402,192,87924,1,0,0:0:0:0:
475,192,87924,1,0,0:0:0:0:
109,192,88007,1,0,0:0:0:0:
329,192,88007,1,0,0:0:0:0:
182,192,88090,1,0,0:0:0:0:
402,192,88090,1,0,0:0:0:0:
475,192,88173,1,0,0:0:0:0:
256,192,88173,1,0,0:0:0:0:
182,192,88256,1,0,0:0:0:0:
36,192,88256,1,0,0:0:0:0:
402,192,88256,1,0,0:0:0:0:
329,192,88256,1,0,0:0:0:0:
109,192,88339,1,0,0:0:0:0:
256,192,88339,1,0,0:0:0:0:
402,192,88422,1,0,0:0:0:0:
475,192,88422,1,0,0:0:0:0:
182,192,88505,1,0,0:0:0:0:
329,192,88505,1,0,0:0:0:0:
256,192,88589,1,0,0:0:0:0:
109,192,88589,1,0,0:0:0:0:
36,192,88589,1,0,0:0:0:0:
475,192,88589,1,0,0:0:0:0:
402,192,88672,1,0,0:0:0:0:
182,192,88672,1,0,0:0:0:0:
329,192,88755,1,0,0:0:0:0:
109,192,88755,1,0,0:0:0:0:
36,192,88838,1,0,0:0:0:0:
256,192,88838,1,0,0:0:0:0:
182,192,88921,1,0,0:0:0:0:
402,192,88921,1,0,0:0:0:0:
329,192,88921,1,0,0:0:0:0:
475,192,88921,1,0,0:0:0:0:
256,192,89004,1,0,0:0:0:0:
109,192,89004,1,0,0:0:0:0:
329,192,89087,1,0,0:0:0:0:
182,192,89087,1,0,0:0:0:0:
402,192,89170,1,0,0:0:0:0:
256,192,89170,1,0,0:0:0:0:
475,192,89253,1,0,0:0:0:0:
329,192,89253,1,0,0:0:0:0:
182,192,89253,1,0,0:0:0:0:
36,192,89253,1,0,0:0:0:0:
109,192,89336,1,0,0:0:0:0:
402,192,89336,1,0,0:0:0:0:
256,192,89420,1,0,0:0:0:0:
475,192,89420,1,0,0:0:0:0:
182,192,89503,1,0,0:0:0:0:
329,192,89503,1,0,0:0:0:0:
109,192,89586,1,0,0:0:0:0:
402,192,89586,1,0,0:0:0:0:
475,192,89586,1,0,0:0:0:0:
36,192,89586,1,0,0:0:0:0:
329,192,89669,1,0,0:0:0:0:
182,192,89669,1,0,0:0:0:0:
256,192,89752,1,0,0:0:0:0:
475,192,89752,1,0,0:0:0:0:
402,192,89835,1,0,0:0:0:0:
182,192,89835,1,0,0:0:0:0:
329,192,89918,1,0,0:0:0:0:
109,192,89918,1,0,0:0:0:0:
36,192,89918,1,0,0:0:0:0:
475,192,89918,1,0,0:0:0:0:
256,192,90001,1,0,0:0:0:0:
402,192,90001,1,0,0:0:0:0:
182,192,90084,1,0,0:0:0:0:
329,192,90084,1,0,0:0:0:0:
256,192,90168,1,0,0:0:0:0:
109,192,90168,1,0,0:0:0:0:
182,192,90251,1,0,0:0:0:0:
36,192,90251,1,0,0:0:0:0:
402,192,90251,1,0,0:0:0:0:
475,192,90251,1,0,0:0:0:0:
329,192,90334,1,0,0:0:0:0:
109,192,90334,1,0,0:0:0:0:
402,192,90417,1,0,0:0:0:0:
182,192,90417,1,0,0:0:0:0:
475,192,90500,1,0,0:0:0:0:
256,192,90500,1,0,0:0:0:0:
329,192,90583,1,0,0:0:0:0:
402,192,90583,1,0,0:0:0:0:
182,192,90583,1,0,0:0:0:0:
36,192,90583,1,0,0:0:0:0:
109,192,90666,1,0,0:0:0:0:
256,192,90666,1,0,0:0:0:0:
36,192,90749,1,0,0:0:0:0:
402,192,90749,1,0,0:0:0:0:
475,192,90749,1,0,0:0:0:0:
329,192,90832,1,0,0:0:0:0:
256,192,90832,1,0,0:0:0:0:
182,192,90915,1,0,0:0:0:0:
36,192,90915,1,0,0:0:0:0:
475,192,90915,1,0,0:0:0:0:
109,192,90915,1,0,0:0:0:0:
402,192,90999,1,0,0:0:0:0:
329,192,90999,1,0,0:0:0:0:
256,192,91082,1,0,0:0:0:0:
109,192,91082,1,0,0:0:0:0:
475,192,91082,1,0,0:0:0:0:
182,192,91165,1,0,0:0:0:0:
329,192,91165,1,0,0:0:0:0:
256,192,91248,1,0,0:0:0:0:
402,192,91248,1,0,0:0:0:0:
475,192,91248,1,0,0:0:0:0:
36,192,91248,1,0,0:0:0:0:
109,192,91331,1,0,0:0:0:0:
182,192,91331,1,0,0:0:0:0:
329,192,91414,1,0,0:0:0:0:
402,192,91414,1,0,0:0:0:0:
36,192,91414,1,0,0:0:0:0:
182,192,91497,1,0,0:0:0:0:
256,192,91497,1,0,0:0:0:0:
109,192,91580,1,0,0:0:0:0:
36,192,91580,1,0,0:0:0:0:
475,192,91580,1,0,0:0:0:0:
402,192,91580,1,0,0:0:0:0:
182,192,91663,1,0,0:0:0:0:
329,192,91663,1,0,0:0:0:0:
256,192,91746,1,0,0:0:0:0:
109,192,91746,1,0,0:0:0:0:
475,192,91746,1,0,0:0:0:0:
182,192,91830,1,0,0:0:0:0:
402,192,91830,1,0,0:0:0:0:
329,192,91913,1,0,0:0:0:0:
109,192,91913,1,0,0:0:0:0:
36,192,91913,1,0,0:0:0:0:
475,192,91913,1,0,0:0:0:0:
256,192,91996,1,0,0:0:0:0:
402,192,91996,1,0,0:0:0:0:
329,192,92079,1,0,0:0:0:0:
182,192,92079,1,0,0:0:0:0:
36,192,92079,1,0,0:0:0:0:
109,192,92162,1,0,0:0:0:0:
256,192,92162,1,0,0:0:0:0:
402,192,92245,1,0,0:0:0:0:
475,192,92245,1,0,0:0:0:0:
36,192,92245,1,0,0:0:0:0:
329,192,92245,1,0,0:0:0:0:
109,192,92328,1,0,0:0:0:0:
182,192,92328,1,0,0:0:0:0:
402,192,92411,1,0,0:0:0:0:
475,192,92411,1,0,0:0:0:0:
256,192,92411,1,0,0:0:0:0:
329,192,92494,1,0,0:0:0:0:
182,192,92494,1,0,0:0:0:0:
256,192,92577,1,0,0:0:0:0:
109,192,92577,1,0,0:0:0:0:
36,192,92577,1,0,0:0:0:0:
475,192,92577,1,0,0:0:0:0:
329,192,92661,1,0,0:0:0:0:
402,192,92661,1,0,0:0:0:0:
109,192,92744,1,0,0:0:0:0:
475,192,92744,1,0,0:0:0:0:
182,192,92827,1,0,0:0:0:0:
329,192,92827,1,0,0:0:0:0:
256,192,92910,1,0,0:0:0:0:
36,192,92910,1,0,0:0:0:0:
402,192,92910,1,0,0:0:0:0:
475,192,92910,1,0,0:0:0:0:
182,192,92993,1,0,0:0:0:0:
109,192,92993,1,0,0:0:0:0:
329,192,93076,1,0,0:0:0:0:
36,192,93076,1,0,0:0:0:0:
475,192,93076,1,0,0:0:0:0:
256,192,93159,1,0,0:0:0:0:
182,192,93159,1,0,0:0:0:0:
109,192,93242,1,0,0:0:0:0:
402,192,93242,1,0,0:0:0:0:
475,192,93242,1,0,0:0:0:0:
36,192,93242,1,0,0:0:0:0:
256,192,93325,1,0,0:0:0:0:
329,192,93325,1,0,0:0:0:0:
182,192,93325,1,0,0:0:0:0:
36,192,93408,1,0,0:0:0:0:
475,192,93408,1,0,0:0:0:0:
402,192,93408,1,0,0:0:0:0:
109,192,93492,1,0,0:0:0:0:
256,192,93492,1,0,0:0:0:0:
329,192,93492,1,0,0:0:0:0:
182,192,93575,1,0,0:0:0:0:
36,192,93575,1,0,0:0:0:0:
475,192,93575,1,0,0:0:0:0:
329,192,93658,1,0,0:0:0:0:
402,192,93658,1,0,0:0:0:0:
256,192,93658,1,0,0:0:0:0:
109,192,93741,1,0,0:0:0:0:
36,192,93741,1,0,0:0:0:0:
475,192,93741,1,0,0:0:0:0:
182,192,93824,1,0,0:0:0:0:
329,192,93824,1,0,0:0:0:0:
402,192,93824,1,0,0:0:0:0:
256,192,93907,1,0,0:0:0:0:
36,192,93907,1,0,0:0:0:0:
475,192,93907,1,0,0:0:0:0:
109,192,93990,1,0,0:0:0:0:
182,192,93990,1,0,0:0:0:0:
402,192,93990,1,0,0:0:0:0:
329,192,94073,1,0,0:0:0:0:
36,192,94073,1,0,0:0:0:0:
475,192,94073,1,0,0:0:0:0:
256,192,94156,1,0,0:0:0:0:
402,192,94156,1,0,0:0:0:0:
109,192,94156,1,0,0:0:0:0:
182,192,94240,1,0,0:0:0:0:
36,192,94240,1,0,0:0:0:0:
329,192,94240,1,0,0:0:0:0:
256,192,94323,1,0,0:0:0:0:
402,192,94323,1,0,0:0:0:0:
475,192,94323,1,0,0:0:0:0:
182,192,94406,1,0,0:0:0:0:
109,192,94406,1,0,0:0:0:0:
36,192,94406,1,0,0:0:0:0:
329,192,94489,1,0,0:0:0:0:
402,192,94489,1,0,0:0:0:0:
475,192,94489,1,0,0:0:0:0:
256,192,94572,1,0,0:0:0:0:
36,192,94572,1,0,0:0:0:0:
109,192,94572,1,0,0:0:0:0:
182,192,94655,1,0,0:0:0:0:
402,192,94655,1,0,0:0:0:0:
475,192,94655,1,0,0:0:0:0:
329,192,94738,1,0,0:0:0:0:
109,192,94738,1,0,0:0:0:0:
36,192,94738,1,0,0:0:0:0:
256,192,94821,1,0,0:0:0:0:
402,192,94821,1,0,0:0:0:0:
475,192,94821,1,0,0:0:0:0:
329,192,94904,1,0,0:0:0:0:
36,192,94904,1,0,0:0:0:0:
182,192,94904,1,0,0:0:0:0:
109,192,94987,1,0,0:0:0:0:
402,192,94987,1,0,0:0:0:0:
256,192,94987,1,0,0:0:0:0:
475,192,95071,1,0,0:0:0:0:
182,192,95071,1,0,0:0:0:0:
329,192,95071,1,0,0:0:0:0:
109,192,95154,1,0,0:0:0:0:
256,192,95154,1,0,0:0:0:0:
36,192,95154,1,0,0:0:0:0:
402,192,95237,1,0,0:0:0:0:
475,192,95237,1,0,0:0:0:0:
329,192,95237,1,0,0:0:0:0:
36,192,95278,1,0,0:0:0:0:
109,192,95320,1,0,0:0:0:0:
182,192,95361,1,0,0:0:0:0:
256,192,95403,1,0,0:0:0:0:
329,192,95445,1,0,0:0:0:0:
402,192,95486,1,0,0:0:0:0:
36,192,95486,1,0,0:0:0:0:
475,192,95528,1,0,0:0:0:0:
109,192,95528,1,0,0:0:0:0:
182,192,95569,1,0,0:0:0:0:
256,192,95611,1,0,0:0:0:0:
329,192,95652,1,0,0:0:0:0:
402,192,95694,1,0,0:0:0:0:
36,192,95694,1,0,0:0:0:0:
475,192,95735,1,0,0:0:0:0:
109,192,95735,1,0,0:0:0:0:
182,192,95777,1,0,0:0:0:0:
256,192,95818,1,0,0:0:0:0:
329,192,95860,1,0,0:0:0:0:
36,192,95902,1,0,0:0:0:0:
402,192,95902,1,0,0:0:0:0:
475,192,95902,1,0,0:0:0:0:
109,192,95902,128,0,96234:0:0:0:0:
329,192,96234,128,0,96400:0:0:0:0:
475,192,96234,1,0,0:0:0:0:
256,192,96234,1,0,0:0:0:0:
182,192,96400,128,0,96566:0:0:0:0:
402,192,96400,1,0,0:0:0:0:
36,192,96400,1,0,0:0:0:0:
329,192,96566,1,0,0:0:0:0:
109,192,96649,1,0,0:0:0:0:
402,192,96733,128,0,97065:0:0:0:0:
256,192,96733,1,0,0:0:0:0:
36,192,96816,1,0,0:0:0:0:
329,192,96899,1,0,0:0:0:0:
475,192,96899,1,0,0:0:0:0:
182,192,96899,1,0,0:0:0:0:
36,192,97065,128,0,97896:0:0:0:0:
109,192,97065,1,0,0:0:0:0:
256,192,97148,1,0,0:0:0:0:
182,192,97231,1,0,0:0:0:0:
402,192,97231,1,0,0:0:0:0:
402,192,97397,1,0,0:0:0:0:
182,192,97397,1,0,0:0:0:0:
256,192,97564,1,0,0:0:0:0:
329,192,97564,1,0,0:0:0:0:
109,192,97564,1,0,0:0:0:0:
475,192,97730,1,0,0:0:0:0:
329,192,97813,1,0,0:0:0:0:
402,192,97896,1,0,0:0:0:0:
182,192,97896,1,0,0:0:0:0:
256,192,97979,1,0,0:0:0:0:
109,192,98062,1,0,0:0:0:0:
36,192,98145,1,0,0:0:0:0:
256,192,98228,128,0,98561:0:0:0:0:
182,192,98228,1,0,0:0:0:0:
402,192,98228,1,0,0:0:0:0:
329,192,98395,1,0,0:0:0:0:
109,192,98561,1,0,0:0:0:0:
36,192,98561,1,0,0:0:0:0:
402,192,98561,1,0,0:0:0:0:
475,192,98561,1,0,0:0:0:0:
182,192,98561,1,0,0:0:0:0:
329,192,98644,1,0,0:0:0:0:
182,192,98727,1,0,0:0:0:0:
402,192,98727,1,0,0:0:0:0:
256,192,98810,1,0,0:0:0:0:
329,192,98893,1,0,0:0:0:0:
475,192,98893,1,0,0:0:0:0:
109,192,98893,1,0,0:0:0:0:
36,192,98893,1,0,0:0:0:0:
182,192,98976,1,0,0:0:0:0:
256,192,99059,1,0,0:0:0:0:
109,192,99059,1,0,0:0:0:0:
402,192,99059,1,0,0:0:0:0:
475,192,99059,1,0,0:0:0:0:
36,192,99059,1,0,0:0:0:0:
329,192,99143,1,0,0:0:0:0:
182,192,99226,1,0,0:0:0:0:
109,192,99226,1,0,0:0:0:0:
329,192,99309,1,0,0:0:0:0:
256,192,99392,1,0,0:0:0:0:
109,192,99392,1,0,0:0:0:0:
36,192,99392,1,0,0:0:0:0:
402,192,99392,1,0,0:0:0:0:
475,192,99392,1,0,0:0:0:0:
182,192,99475,1,0,0:0:0:0:
329,192,99558,1,0,0:0:0:0:
402,192,99558,1,0,0:0:0:0:
182,192,99641,1,0,0:0:0:0:
109,192,99724,1,0,0:0:0:0:
36,192,99724,1,0,0:0:0:0:
256,192,99724,1,0,0:0:0:0:
475,192,99724,1,0,0:0:0:0:
402,192,99724,1,0,0:0:0:0:
329,192,99807,1,0,0:0:0:0:
182,192,99890,1,0,0:0:0:0:
109,192,99890,1,0,0:0:0:0:
402,192,99890,1,0,0:0:0:0:
256,192,99974,1,0,0:0:0:0:
329,192,99974,1,0,0:0:0:0:
109,192,100057,1,0,0:0:0:0:
36,192,100057,1,0,0:0:0:0:
475,192,100057,1,0,0:0:0:0:
329,192,100140,1,0,0:0:0:0:
402,192,100140,1,0,0:0:0:0:
256,192,100223,1,0,0:0:0:0:
182,192,100223,1,0,0:0:0:0:
109,192,100223,1,0,0:0:0:0:
402,192,100306,1,0,0:0:0:0:
475,192,100306,1,0,0:0:0:0:
109,192,100389,1,0,0:0:0:0:
329,192,100389,1,0,0:0:0:0:
36,192,100389,1,0,0:0:0:0:
256,192,100472,1,0,0:0:0:0:
182,192,100472,1,0,0:0:0:0:
402,192,100555,1,0,0:0:0:0:
329,192,100555,1,0,0:0:0:0:
36,192,100555,1,0,0:0:0:0:
109,192,100597,1,0,0:0:0:0:
182,192,100638,1,0,0:0:0:0:
475,192,100638,1,0,0:0:0:0:
402,192,100680,1,0,0:0:0:0:
36,192,100722,1,0,0:0:0:0:
329,192,100722,1,0,0:0:0:0:
109,192,100763,1,0,0:0:0:0:
182,192,100805,1,0,0:0:0:0:
475,192,100805,1,0,0:0:0:0:
402,192,100846,1,0,0:0:0:0:
36,192,100888,1,0,0:0:0:0:
109,192,100888,1,0,0:0:0:0:
329,192,100888,1,0,0:0:0:0:
256,192,100971,1,0,0:0:0:0:
475,192,100971,1,0,0:0:0:0:
182,192,100971,1,0,0:0:0:0:
402,192,101012,1,0,0:0:0:0:
36,192,101054,1,0,0:0:0:0:
329,192,101054,1,0,0:0:0:0:
109,192,101054,1,0,0:0:0:0:
475,192,101137,1,0,0:0:0:0:
402,192,101137,1,0,0:0:0:0:
256,192,101137,1,0,0:0:0:0:
182,192,101220,1,0,0:0:0:0:
329,192,101220,1,0,0:0:0:0:
36,192,101220,1,0,0:0:0:0:
109,192,101220,1,0,0:0:0:0:
182,192,101386,1,0,0:0:0:0:
329,192,101386,1,0,0:0:0:0:
256,192,101553,1,0,0:0:0:0:
402,192,101553,1,0,0:0:0:0:
475,192,101553,1,0,0:0:0:0:
109,192,101553,1,0,0:0:0:0:
36,192,101553,1,0,0:0:0:0:
329,192,101719,1,0,0:0:0:0:
109,192,101719,1,0,0:0:0:0:
182,192,101885,1,0,0:0:0:0:
256,192,101885,1,0,0:0:0:0:
36,192,101885,1,0,0:0:0:0:
402,192,101885,1,0,0:0:0:0:
475,192,101885,1,0,0:0:0:0:
182,192,102051,1,0,0:0:0:0:
329,192,102051,1,0,0:0:0:0:
402,192,102051,1,0,0:0:0:0:
109,192,102051,1,0,0:0:0:0:
182,192,102217,1,0,0:0:0:0:
256,192,102217,1,0,0:0:0:0:
36,192,102217,1,0,0:0:0:0:
402,192,102217,1,0,0:0:0:0:
475,192,102217,1,0,0:0:0:0:
329,192,102384,1,0,0:0:0:0:
475,192,102384,1,0,0:0:0:0:
36,192,102384,1,0,0:0:0:0:
109,192,102384,1,0,0:0:0:0:
109,192,102550,1,0,0:0:0:0:
256,192,102550,1,0,0:0:0:0:
329,192,102716,1,0,0:0:0:0:
182,192,102716,1,0,0:0:0:0:
402,192,102716,1,0,0:0:0:0:
475,192,102716,1,0,0:0:0:0:
109,192,102882,1,0,0:0:0:0:
402,192,102882,1,0,0:0:0:0:
329,192,103048,1,0,0:0:0:0:
256,192,103048,1,0,0:0:0:0:
182,192,103048,1,0,0:0:0:0:
36,192,103048,1,0,0:0:0:0:
256,192,103215,1,0,0:0:0:0:
402,192,103215,1,0,0:0:0:0:
475,192,103215,1,0,0:0:0:0:
109,192,103215,1,0,0:0:0:0:
36,192,103215,1,0,0:0:0:0:
109,192,103381,1,0,0:0:0:0:
182,192,103381,1,0,0:0:0:0:
329,192,103381,1,0,0:0:0:0:
475,192,103381,1,0,0:0:0:0:
402,192,103547,1,0,0:0:0:0:
256,192,103547,1,0,0:0:0:0:
182,192,103547,1,0,0:0:0:0:
36,192,103547,1,0,0:0:0:0:
109,192,103713,1,0,0:0:0:0:
329,192,103713,1,0,0:0:0:0:
402,192,103713,1,0,0:0:0:0:
475,192,103713,1,0,0:0:0:0:
329,192,103879,1,0,0:0:0:0:
256,192,103879,1,0,0:0:0:0:
182,192,103879,1,0,0:0:0:0:
36,192,103879,1,0,0:0:0:0:
109,192,103879,1,0,0:0:0:0:
256,192,104046,1,0,0:0:0:0:
475,192,104046,1,0,0:0:0:0:
475,192,104212,1,0,0:0:0:0:
402,192,104212,1,0,0:0:0:0:
329,192,104212,1,0,0:0:0:0:
182,192,104212,1,0,0:0:0:0:
36,192,104212,1,0,0:0:0:0:
109,192,104378,1,0,0:0:0:0:
329,192,104378,1,0,0:0:0:0:
182,192,104544,1,0,0:0:0:0:
256,192,104544,1,0,0:0:0:0:
402,192,104544,1,0,0:0:0:0:
475,192,104544,1,0,0:0:0:0:
109,192,104544,1,0,0:0:0:0:
182,192,104710,1,0,0:0:0:0:
402,192,104710,1,0,0:0:0:0:
329,192,104710,1,0,0:0:0:0:
36,192,104710,1,0,0:0:0:0:
329,192,104877,1,0,0:0:0:0:
109,192,104877,1,0,0:0:0:0:
182,192,104877,1,0,0:0:0:0:
256,192,104877,1,0,0:0:0:0:
475,192,104877,1,0,0:0:0:0:
256,192,105043,1,0,0:0:0:0:
402,192,105043,1,0,0:0:0:0:
475,192,105043,1,0,0:0:0:0:
36,192,105043,1,0,0:0:0:0:
109,192,105209,1,0,0:0:0:0:
329,192,105209,1,0,0:0:0:0:
475,192,105375,1,0,0:0:0:0:
402,192,105375,1,0,0:0:0:0:
109,192,105375,1,0,0:0:0:0:
256,192,105375,1,0,0:0:0:0:
256,192,105541,1,0,0:0:0:0:
36,192,105541,1,0,0:0:0:0:
182,192,105708,1,0,0:0:0:0:
329,192,105708,1,0,0:0:0:0:
402,192,105708,1,0,0:0:0:0:
475,192,105708,1,0,0:0:0:0:
329,192,105874,1,0,0:0:0:0:
182,192,105874,1,0,0:0:0:0:
36,192,105874,1,0,0:0:0:0:
109,192,105874,1,0,0:0:0:0:
475,192,105874,1,0,0:0:0:0:
256,192,106040,1,0,0:0:0:0:
402,192,106040,1,0,0:0:0:0:
109,192,106040,1,0,0:0:0:0:
36,192,106040,1,0,0:0:0:0:
109,192,106206,1,0,0:0:0:0:
182,192,106206,1,0,0:0:0:0:
256,192,106206,1,0,0:0:0:0:
402,192,106206,1,0,0:0:0:0:
475,192,106206,1,0,0:0:0:0:
182,192,106372,1,0,0:0:0:0:
329,192,106372,1,0,0:0:0:0:
402,192,106372,1,0,0:0:0:0:
36,192,106372,1,0,0:0:0:0:
109,192,106539,1,0,0:0:0:0:
256,192,106539,1,0,0:0:0:0:
329,192,106539,1,0,0:0:0:0:
402,192,106539,1,0,0:0:0:0:
475,192,106539,1,0,0:0:0:0:
109,192,106705,1,0,0:0:0:0:
475,192,106705,1,0,0:0:0:0:
329,192,106871,1,0,0:0:0:0:
475,192,106871,1,0,0:0:0:0:
182,192,106871,1,0,0:0:0:0:
256,192,106871,1,0,0:0:0:0:
36,192,106871,1,0,0:0:0:0:
109,192,107037,1,0,0:0:0:0:
329,192,107037,1,0,0:0:0:0:
182,192,107204,1,0,0:0:0:0:
256,192,107204,1,0,0:0:0:0:
402,192,107204,1,0,0:0:0:0:
475,192,107204,1,0,0:0:0:0:
36,192,107204,1,0,0:0:0:0:
109,192,107370,1,0,0:0:0:0:
182,192,107370,1,0,0:0:0:0:
402,192,107370,1,0,0:0:0:0:
329,192,107370,1,0,0:0:0:0:
256,192,107536,1,0,0:0:0:0:
109,192,107536,1,0,0:0:0:0:
182,192,107536,1,0,0:0:0:0:
329,192,107536,1,0,0:0:0:0:
475,192,107536,1,0,0:0:0:0:
256,192,107702,1,0,0:0:0:0:
402,192,107702,1,0,0:0:0:0:
36,192,107702,1,0,0:0:0:0:
182,192,107702,1,0,0:0:0:0:
109,192,107868,1,0,0:0:0:0:
329,192,107868,1,0,0:0:0:0:
329,192,108035,1,0,0:0:0:0:
182,192,108035,1,0,0:0:0:0:
402,192,108035,1,0,0:0:0:0:
475,192,108035,1,0,0:0:0:0:
256,192,108201,1,0,0:0:0:0:
36,192,108201,1,0,0:0:0:0:
36,192,108367,1,0,0:0:0:0:
109,192,108367,1,0,0:0:0:0:
182,192,108367,1,0,0:0:0:0:
402,192,108367,1,0,0:0:0:0:
329,192,108533,1,0,0:0:0:0:
182,192,108533,1,0,0:0:0:0:
256,192,108533,1,0,0:0:0:0:
402,192,108533,1,0,0:0:0:0:
475,192,108533,1,0,0:0:0:0:
329,192,108699,1,0,0:0:0:0:
109,192,108699,1,0,0:0:0:0:
182,192,108699,1,0,0:0:0:0:
256,192,108699,1,0,0:0:0:0:
256,192,108866,1,0,0:0:0:0:
402,192,108866,1,0,0:0:0:0:
475,192,108866,1,0,0:0:0:0:
36,192,108866,1,0,0:0:0:0:
109,192,108866,1,0,0:0:0:0:
109,192,109032,1,0,0:0:0:0:
182,192,109032,1,0,0:0:0:0:
329,192,109032,1,0,0:0:0:0:
402,192,109032,1,0,0:0:0:0:
256,192,109198,1,0,0:0:0:0:
36,192,109198,1,0,0:0:0:0:
109,192,109198,1,0,0:0:0:0:
329,192,109198,1,0,0:0:0:0:
475,192,109198,1,0,0:0:0:0:
182,192,109364,1,0,0:0:0:0:
402,192,109364,1,0,0:0:0:0:
402,192,109530,1,0,0:0:0:0:
475,192,109530,1,0,0:0:0:0:
256,192,109530,1,0,0:0:0:0:
109,192,109530,1,0,0:0:0:0:
36,192,109530,1,0,0:0:0:0:
109,192,109697,1,0,0:0:0:0:
329,192,109697,1,0,0:0:0:0:
182,192,109863,1,0,0:0:0:0:
256,192,109863,1,0,0:0:0:0:
329,192,109863,1,0,0:0:0:0:
36,192,109863,1,0,0:0:0:0:
475,192,109863,1,0,0:0:0:0:
329,192,110029,1,0,0:0:0:0:
402,192,110029,1,0,0:0:0:0:
182,192,110029,1,0,0:0:0:0:
109,192,110029,1,0,0:0:0:0:
256,192,110195,1,0,0:0:0:0:
402,192,110195,1,0,0:0:0:0:
475,192,110195,1,0,0:0:0:0:
36,192,110195,1,0,0:0:0:0:
109,192,110195,1,0,0:0:0:0:
109,192,110361,1,0,0:0:0:0:
256,192,110361,1,0,0:0:0:0:
329,192,110361,1,0,0:0:0:0:
475,192,110361,1,0,0:0:0:0:
182,192,110528,1,0,0:0:0:0:
402,192,110528,1,0,0:0:0:0:
475,192,110528,1,0,0:0:0:0:
36,192,110528,1,0,0:0:0:0:
329,192,110694,128,0,111026:0:0:0:0:
109,192,110694,128,0,111026:0:0:0:0:
256,192,111026,128,0,111192:0:0:0:0:
402,192,111026,128,0,111192:0:0:0:0:
475,192,111192,128,0,111359:0:0:0:0:
36,192,111192,128,0,111359:0:0:0:0:
109,192,111192,1,0,0:0:0:0:
182,192,111192,1,0,0:0:0:0:
182,192,111359,128,0,111525:0:0:0:0:
329,192,111359,128,0,111525:0:0:0:0:
402,192,111525,128,0,111691:0:0:0:0:
256,192,111525,128,0,111691:0:0:0:0:
36,192,111691,128,0,111857:0:0:0:0:
182,192,111691,128,0,111857:0:0:0:0:
109,192,111857,1,0,0:0:0:0:
256,192,111857,1,0,0:0:0:0:
329,192,111857,1,0,0:0:0:0:
402,192,111857,1,0,0:0:0:0:
475,192,111857,1,0,0:0:0:0:
182,192,112023,1,0,0:0:0:0:
402,192,112023,1,0,0:0:0:0:
329,192,112190,1,0,0:0:0:0:
256,192,112190,1,0,0:0:0:0:
109,192,112190,1,0,0:0:0:0:
36,192,112190,1,0,0:0:0:0:
475,192,112190,1,0,0:0:0:0:
109,192,112356,1,0,0:0:0:0:
329,192,112356,1,0,0:0:0:0:
182,192,112522,1,0,0:0:0:0:
256,192,112522,1,0,0:0:0:0:
36,192,112522,1,0,0:0:0:0:
402,192,112522,1,0,0:0:0:0:
475,192,112522,1,0,0:0:0:0:
109,192,112688,1,0,0:0:0:0:
182,192,112688,1,0,0:0:0:0:
256,192,112688,1,0,0:0:0:0:
329,192,112688,1,0,0:0:0:0:
182,192,112854,1,0,0:0:0:0:
36,192,112854,1,0,0:0:0:0:
109,192,112854,1,0,0:0:0:0:
329,192,112854,1,0,0:0:0:0:
475,192,112854,1,0,0:0:0:0:
256,192,113021,1,0,0:0:0:0:
402,192,113021,1,0,0:0:0:0:
475,192,113021,1,0,0:0:0:0:
109,192,113021,1,0,0:0:0:0:
109,192,113187,1,0,0:0:0:0:
329,192,113187,1,0,0:0:0:0:
182,192,113353,1,0,0:0:0:0:
402,192,113353,1,0,0:0:0:0:
256,192,113353,1,0,0:0:0:0:
36,192,113353,1,0,0:0:0:0:
182,192,113519,1,0,0:0:0:0:
329,192,113519,1,0,0:0:0:0:
256,192,113686,1,0,0:0:0:0:
109,192,113686,1,0,0:0:0:0:
36,192,113686,1,0,0:0:0:0:
402,192,113686,1,0,0:0:0:0:
109,192,113852,1,0,0:0:0:0:
182,192,113852,1,0,0:0:0:0:
329,192,113852,1,0,0:0:0:0:
402,192,113852,1,0,0:0:0:0:
475,192,113852,1,0,0:0:0:0:
109,192,114018,1,0,0:0:0:0:
36,192,114018,1,0,0:0:0:0:
256,192,114018,1,0,0:0:0:0:
402,192,114018,1,0,0:0:0:0:
182,192,114184,1,0,0:0:0:0:
256,192,114184,1,0,0:0:0:0:
329,192,114184,1,0,0:0:0:0:
475,192,114184,1,0,0:0:0:0:
36,192,114184,1,0,0:0:0:0:
182,192,114350,1,0,0:0:0:0:
402,192,114350,1,0,0:0:0:0:
329,192,114350,1,0,0:0:0:0:
36,192,114350,1,0,0:0:0:0:
109,192,114517,1,0,0:0:0:0:
256,192,114517,1,0,0:0:0:0:
182,192,114517,1,0,0:0:0:0:
475,192,114517,1,0,0:0:0:0:
402,192,114517,1,0,0:0:0:0:
402,192,114683,1,0,0:0:0:0:
182,192,114683,1,0,0:0:0:0:
256,192,114849,1,0,0:0:0:0:
109,192,114849,1,0,0:0:0:0:
36,192,114849,1,0,0:0:0:0:
329,192,114849,1,0,0:0:0:0:
475,192,114849,1,0,0:0:0:0:
256,192,115015,1,0,0:0:0:0:
402,192,115015,1,0,0:0:0:0:
329,192,115181,1,0,0:0:0:0:
475,192,115181,1,0,0:0:0:0:
182,192,115181,1,0,0:0:0:0:
109,192,115181,1,0,0:0:0:0:
36,192,115181,1,0,0:0:0:0:
109,192,115348,1,0,0:0:0:0:
182,192,115348,1,0,0:0:0:0:
256,192,115348,1,0,0:0:0:0:
402,192,115348,1,0,0:0:0:0:
402,192,115514,1,0,0:0:0:0:
475,192,115514,1,0,0:0:0:0:
256,192,115514,1,0,0:0:0:0:
109,192,115514,1,0,0:0:0:0:
36,192,115514,1,0,0:0:0:0:
182,192,115680,1,0,0:0:0:0:
109,192,115680,1,0,0:0:0:0:
329,192,115680,1,0,0:0:0:0:
475,192,115680,1,0,0:0:0:0:
329,192,115846,1,0,0:0:0:0:
182,192,115846,1,0,0:0:0:0:
256,192,116012,1,0,0:0:0:0:
109,192,116012,1,0,0:0:0:0:
402,192,116012,1,0,0:0:0:0:
475,192,116012,1,0,0:0:0:0:
36,192,116179,1,0,0:0:0:0:
402,192,116179,1,0,0:0:0:0:
109,192,116345,1,0,0:0:0:0:
256,192,116345,1,0,0:0:0:0:
329,192,116345,1,0,0:0:0:0:
475,192,116345,1,0,0:0:0:0:
182,192,116511,1,0,0:0:0:0:
475,192,116511,1,0,0:0:0:0:
329,192,116511,1,0,0:0:0:0:
402,192,116511,1,0,0:0:0:0:
36,192,116511,1,0,0:0:0:0:
402,192,116677,1,0,0:0:0:0:
109,192,116677,1,0,0:0:0:0:
256,192,116677,1,0,0:0:0:0:
475,192,116677,1,0,0:0:0:0:
329,192,116843,1,0,0:0:0:0:
182,192,116843,1,0,0:0:0:0:
109,192,116843,1,0,0:0:0:0:
36,192,116843,1,0,0:0:0:0:
402,192,116843,1,0,0:0:0:0:
182,192,117010,1,0,0:0:0:0:
329,192,117010,1,0,0:0:0:0:
402,192,117010,1,0,0:0:0:0:
475,192,117010,1,0,0:0:0:0:
402,192,117176,1,0,0:0:0:0:
256,192,117176,1,0,0:0:0:0:
109,192,117176,1,0,0:0:0:0:
36,192,117176,1,0,0:0:0:0:
475,192,117176,1,0,0:0:0:0:
109,192,117342,1,0,0:0:0:0:
182,192,117342,1,0,0:0:0:0:
329,192,117342,1,0,0:0:0:0:
256,192,117508,1,0,0:0:0:0:
109,192,117508,1,0,0:0:0:0:
36,192,117508,1,0,0:0:0:0:
402,192,117508,1,0,0:0:0:0:
475,192,117508,1,0,0:0:0:0:
182,192,117674,1,0,0:0:0:0:
329,192,117674,1,0,0:0:0:0:
402,192,117674,1,0,0:0:0:0:
256,192,117841,1,0,0:0:0:0:
109,192,117841,1,0,0:0:0:0:
36,192,117841,1,0,0:0:0:0:
329,192,117841,1,0,0:0:0:0:
475,192,117841,1,0,0:0:0:0:
109,192,118007,1,0,0:0:0:0:
182,192,118007,1,0,0:0:0:0:
329,192,118007,1,0,0:0:0:0:
402,192,118007,1,0,0:0:0:0:
475,192,118007,1,0,0:0:0:0:
256,192,118173,1,0,0:0:0:0:
109,192,118173,1,0,0:0:0:0:
182,192,118173,1,0,0:0:0:0:
402,192,118173,1,0,0:0:0:0:
475,192,118173,1,0,0:0:0:0:
329,192,118339,1,0,0:0:0:0:
182,192,118339,1,0,0:0:0:0:
109,192,118339,1,0,0:0:0:0:
36,192,118339,1,0,0:0:0:0:
402,192,118339,1,0,0:0:0:0:
256,192,118505,1,0,0:0:0:0:
402,192,118505,1,0,0:0:0:0:
475,192,118505,1,0,0:0:0:0:
36,192,118672,1,0,0:0:0:0:
256,192,118672,1,0,0:0:0:0:
402,192,118672,1,0,0:0:0:0:
329,192,118672,1,0,0:0:0:0:
109,192,118672,1,0,0:0:0:0:
109,192,118838,1,0,0:0:0:0:
182,192,118838,1,0,0:0:0:0:
329,192,118838,1,0,0:0:0:0:
256,192,119004,1,0,0:0:0:0:
109,192,119004,1,0,0:0:0:0:
402,192,119004,1,0,0:0:0:0:
475,192,119004,1,0,0:0:0:0:
36,192,119004,1,0,0:0:0:0:
182,192,119170,1,0,0:0:0:0:
329,192,119170,1,0,0:0:0:0:
402,192,119170,1,0,0:0:0:0:
475,192,119170,1,0,0:0:0:0:
36,192,119170,1,0,0:0:0:0:
329,192,119336,1,0,0:0:0:0:
109,192,119336,1,0,0:0:0:0:
256,192,119336,1,0,0:0:0:0:
402,192,119336,1,0,0:0:0:0:
36,192,119336,1,0,0:0:0:0:
109,192,119503,1,0,0:0:0:0:
256,192,119503,1,0,0:0:0:0:
182,192,119503,1,0,0:0:0:0:
329,192,119503,1,0,0:0:0:0:
475,192,119503,1,0,0:0:0:0:
402,192,119669,1,0,0:0:0:0:
475,192,119669,1,0,0:0:0:0:
182,192,119669,1,0,0:0:0:0:
109,192,119669,1,0,0:0:0:0:
36,192,119669,1,0,0:0:0:0:
109,192,119835,1,0,0:0:0:0:
256,192,119835,1,0,0:0:0:0:
329,192,119835,1,0,0:0:0:0:
402,192,119835,1,0,0:0:0:0:
475,192,119835,1,0,0:0:0:0:
182,192,119918,1,0,0:0:0:0:
36,192,119918,1,0,0:0:0:0:
329,192,120001,1,0,0:0:0:0:
402,192,120001,1,0,0:0:0:0:
182,192,120084,1,0,0:0:0:0:
256,192,120084,1,0,0:0:0:0:
109,192,120168,1,0,0:0:0:0:
36,192,120168,1,0,0:0:0:0:
402,192,120168,1,0,0:0:0:0:
475,192,120168,1,0,0:0:0:0:
329,192,120251,1,0,0:0:0:0:
256,192,120251,1,0,0:0:0:0:
182,192,120334,1,0,0:0:0:0:
109,192,120334,1,0,0:0:0:0:
402,192,120417,1,0,0:0:0:0:
329,192,120417,1,0,0:0:0:0:
256,192,120500,1,0,0:0:0:0:
475,192,120500,1,0,0:0:0:0:
109,192,120500,1,0,0:0:0:0:
36,192,120500,1,0,0:0:0:0:
182,192,120583,1,0,0:0:0:0:
329,192,120583,1,0,0:0:0:0:
475,192,120666,1,0,0:0:0:0:
256,192,120666,1,0,0:0:0:0:
402,192,120666,1,0,0:0:0:0:
36,192,120666,1,0,0:0:0:0:
109,192,120749,1,0,0:0:0:0:
182,192,120749,1,0,0:0:0:0:
475,192,120832,1,0,0:0:0:0:
36,192,120832,1,0,0:0:0:0:
329,192,120832,1,0,0:0:0:0:
402,192,120832,1,0,0:0:0:0:
256,192,120915,1,0,0:0:0:0:
182,192,120915,1,0,0:0:0:0:
402,192,120999,1,0,0:0:0:0:
475,192,120999,1,0,0:0:0:0:
36,192,120999,1,0,0:0:0:0:
109,192,120999,1,0,0:0:0:0:
256,192,121082,1,0,0:0:0:0:
329,192,121082,1,0,0:0:0:0:
182,192,121165,1,0,0:0:0:0:
109,192,121165,1,0,0:0:0:0:
475,192,121248,1,0,0:0:0:0:
329,192,121248,1,0,0:0:0:0:
256,192,121331,1,0,0:0:0:0:
109,192,121331,1,0,0:0:0:0:
36,192,121331,1,0,0:0:0:0:
475,192,121414,1,0,0:0:0:0:
402,192,121414,1,0,0:0:0:0:
329,192,121497,1,0,0:0:0:0:
182,192,121497,1,0,0:0:0:0:
36,192,121497,1,0,0:0:0:0:
109,192,121497,1,0,0:0:0:0:
256,192,121580,1,0,0:0:0:0:
402,192,121580,1,0,0:0:0:0:
475,192,121663,1,0,0:0:0:0:
109,192,121663,1,0,0:0:0:0:
36,192,121663,1,0,0:0:0:0:
329,192,121663,1,0,0:0:0:0:
182,192,121746,1,0,0:0:0:0:
256,192,121746,1,0,0:0:0:0:
402,192,121830,1,0,0:0:0:0:
475,192,121830,1,0,0:0:0:0:
36,192,121830,1,0,0:0:0:0:
109,192,121830,1,0,0:0:0:0:
329,192,121871,1,0,0:0:0:0:
256,192,121913,1,0,0:0:0:0:
182,192,121954,1,0,0:0:0:0:
475,192,121996,1,0,0:0:0:0:
402,192,122037,1,0,0:0:0:0:
329,192,122079,1,0,0:0:0:0:
36,192,122079,1,0,0:0:0:0:
109,192,122120,1,0,0:0:0:0:
182,192,122162,1,0,0:0:0:0:
256,192,122204,1,0,0:0:0:0:
475,192,122204,1,0,0:0:0:0:
402,192,122245,1,0,0:0:0:0:
329,192,122287,1,0,0:0:0:0:
36,192,122287,1,0,0:0:0:0:
109,192,122328,1,0,0:0:0:0:
182,192,122370,1,0,0:0:0:0:
256,192,122411,1,0,0:0:0:0:
329,192,122453,1,0,0:0:0:0:
109,192,122494,128,0,122577:0:0:0:0:
402,192,122494,128,0,122577:0:0:0:0:
475,192,122494,128,0,122577:0:0:0:0:
36,192,122494,128,0,122577:0:0:0:0:
256,192,122577,128,0,122661:0:0:0:0:
182,192,122661,128,0,122744:0:0:0:0:
329,192,122744,128,0,122827:0:0:0:0:
475,192,122827,128,0,122910:0:0:0:0:
256,192,122827,128,0,122910:0:0:0:0:
109,192,122827,128,0,122910:0:0:0:0:
402,192,122910,128,0,122993:0:0:0:0:
36,192,122993,128,0,123076:0:0:0:0:
329,192,123076,128,0,123159:0:0:0:0:
402,192,123159,128,0,123242:0:0:0:0:
109,192,123159,128,0,123242:0:0:0:0:
256,192,123242,128,0,123325:0:0:0:0:
182,192,123325,128,0,123408:0:0:0:0:
109,192,123408,128,0,123492:0:0:0:0:
36,192,123492,128,0,123575:0:0:0:0:
329,192,123492,128,0,123575:0:0:0:0:
475,192,123492,128,0,123575:0:0:0:0:
182,192,123575,128,0,123658:0:0:0:0:
402,192,123658,128,0,123741:0:0:0:0:
329,192,123741,128,0,123824:0:0:0:0:
256,192,123824,128,0,123907:0:0:0:0:
109,192,123824,128,0,123907:0:0:0:0:
475,192,123907,128,0,123990:0:0:0:0:
329,192,123990,128,0,124073:0:0:0:0:
182,192,124073,128,0,124156:0:0:0:0:
36,192,124156,128,0,124240:0:0:0:0:
256,192,124156,128,0,124240:0:0:0:0:
402,192,124156,128,0,124240:0:0:0:0:
109,192,124240,128,0,124323:0:0:0:0:
329,192,124323,128,0,124406:0:0:0:0:
475,192,124406,128,0,124489:0:0:0:0:
402,192,124489,128,0,124572:0:0:0:0:
109,192,124489,128,0,124572:0:0:0:0:
256,192,124572,128,0,124655:0:0:0:0:
182,192,124655,128,0,124738:0:0:0:0:
475,192,124655,128,0,124738:0:0:0:0:
329,192,124738,128,0,124821:0:0:0:0:
256,192,124821,128,0,124904:0:0:0:0:
402,192,124821,128,0,124904:0:0:0:0:
36,192,124821,128,0,124904:0:0:0:0:
182,192,124904,128,0,124987:0:0:0:0:
329,192,124987,128,0,125071:0:0:0:0:
475,192,125071,128,0,125154:0:0:0:0:
256,192,125154,1,0,0:0:0:0:
109,192,125154,1,0,0:0:0:0:
36,192,125154,1,0,0:0:0:0:
329,192,125154,1,0,0:0:0:0:
182,192,125154,1,0,0:0:0:0:
475,192,125237,1,0,0:0:0:0:
402,192,125237,1,0,0:0:0:0:
109,192,125320,1,0,0:0:0:0:
36,192,125320,1,0,0:0:0:0:
402,192,125403,1,0,0:0:0:0:
475,192,125403,1,0,0:0:0:0:
36,192,125486,1,0,0:0:0:0:
109,192,125486,1,0,0:0:0:0:
475,192,125569,1,0,0:0:0:0:
402,192,125569,1,0,0:0:0:0:
36,192,125652,1,0,0:0:0:0:
109,192,125652,1,0,0:0:0:0:
402,192,125735,1,0,0:0:0:0:
475,192,125735,1,0,0:0:0:0:
36,192,125818,1,0,0:0:0:0:
329,192,125818,1,0,0:0:0:0:
256,192,125818,1,0,0:0:0:0:
182,192,125818,1,0,0:0:0:0:
109,192,125818,1,0,0:0:0:0:
475,192,125902,1,0,0:0:0:0:
402,192,125902,1,0,0:0:0:0:
109,192,125985,1,0,0:0:0:0:
182,192,125985,1,0,0:0:0:0:
329,192,126068,1,0,0:0:0:0:
402,192,126068,1,0,0:0:0:0:
182,192,126151,1,0,0:0:0:0:
109,192,126151,1,0,0:0:0:0:
329,192,126234,1,0,0:0:0:0:
402,192,126234,1,0,0:0:0:0:
182,192,126317,1,0,0:0:0:0:
109,192,126317,1,0,0:0:0:0:
329,192,126400,1,0,0:0:0:0:
402,192,126400,1,0,0:0:0:0:
256,192,126483,1,0,0:0:0:0:
475,192,126483,1,0,0:0:0:0:
182,192,126483,1,0,0:0:0:0:
109,192,126483,1,0,0:0:0:0:
36,192,126483,1,0,0:0:0:0:
329,192,126566,1,0,0:0:0:0:
402,192,126566,1,0,0:0:0:0:
182,192,126649,1,0,0:0:0:0:
36,192,126649,1,0,0:0:0:0:
329,192,126733,1,0,0:0:0:0:
402,192,126733,1,0,0:0:0:0:
109,192,126816,1,0,0:0:0:0:
36,192,126816,1,0,0:0:0:0:
182,192,126816,1,0,0:0:0:0:
256,192,126816,1,0,0:0:0:0:
475,192,126816,1,0,0:0:0:0:
402,192,126899,1,0,0:0:0:0:
329,192,126899,1,0,0:0:0:0:
36,192,126982,1,0,0:0:0:0:
182,192,126982,1,0,0:0:0:0:
329,192,127065,1,0,0:0:0:0:
402,192,127065,1,0,0:0:0:0:
256,192,127148,1,0,0:0:0:0:
475,192,127148,1,0,0:0:0:0:
109,192,127148,1,0,0:0:0:0:
36,192,127148,1,0,0:0:0:0:
329,192,127231,1,0,0:0:0:0:
182,192,127231,1,0,0:0:0:0:
402,192,127231,1,0,0:0:0:0:
256,192,127314,1,0,0:0:0:0:
475,192,127314,1,0,0:0:0:0:
36,192,127314,1,0,0:0:0:0:
109,192,127397,1,0,0:0:0:0:
182,192,127397,1,0,0:0:0:0:
402,192,127397,1,0,0:0:0:0:
36,192,127481,1,0,0:0:0:0:
329,192,127481,1,0,0:0:0:0:
475,192,127481,1,0,0:0:0:0:
256,192,127564,1,0,0:0:0:0:
182,192,127564,1,0,0:0:0:0:
109,192,127564,1,0,0:0:0:0:
36,192,127647,1,0,0:0:0:0:
402,192,127647,1,0,0:0:0:0:
475,192,127647,1,0,0:0:0:0:
329,192,127730,1,0,0:0:0:0:
182,192,127730,1,0,0:0:0:0:
256,192,127730,1,0,0:0:0:0:
109,192,127813,1,0,0:0:0:0:
36,192,127813,1,0,0:0:0:0:
402,192,127813,1,0,0:0:0:0:
475,192,127813,1,0,0:0:0:0:
329,192,127896,1,0,0:0:0:0:
256,192,127979,1,0,0:0:0:0:
109,192,127979,1,0,0:0:0:0:
182,192,128062,1,0,0:0:0:0:
256,192,128145,1,0,0:0:0:0:
402,192,128145,1,0,0:0:0:0:
475,192,128145,1,0,0:0:0:0:
36,192,128145,1,0,0:0:0:0:
109,192,128228,1,0,0:0:0:0:
329,192,128312,1,0,0:0:0:0:
182,192,128312,1,0,0:0:0:0:
402,192,128395,1,0,0:0:0:0:
256,192,128478,1,0,0:0:0:0:
109,192,128478,1,0,0:0:0:0:
475,192,128478,1,0,0:0:0:0:
36,192,128478,1,0,0:0:0:0:
402,192,128561,1,0,0:0:0:0:
182,192,128644,1,0,0:0:0:0:
329,192,128644,1,0,0:0:0:0:
256,192,128727,1,0,0:0:0:0:
329,192,128810,1,0,0:0:0:0:
36,192,128810,1,0,0:0:0:0:
109,192,128810,1,0,0:0:0:0:
475,192,128810,1,0,0:0:0:0:
182,192,128893,1,0,0:0:0:0:
256,192,128976,1,0,0:0:0:0:
402,192,128976,1,0,0:0:0:0:
329,192,129059,1,0,0:0:0:0:
182,192,129143,1,0,0:0:0:0:
36,192,129143,1,0,0:0:0:0:
475,192,129143,1,0,0:0:0:0:
402,192,129143,1,0,0:0:0:0:
256,192,129226,1,0,0:0:0:0:
329,192,129309,1,0,0:0:0:0:
109,192,129309,1,0,0:0:0:0:
256,192,129392,1,0,0:0:0:0:
475,192,129475,1,0,0:0:0:0:
402,192,129475,1,0,0:0:0:0:
182,192,129475,1,0,0:0:0:0:
36,192,129475,1,0,0:0:0:0:
329,192,129558,1,0,0:0:0:0:
109,192,129641,1,0,0:0:0:0:
402,192,129641,1,0,0:0:0:0:
256,192,129724,1,0,0:0:0:0:
182,192,129807,1,0,0:0:0:0:
36,192,129807,1,0,0:0:0:0:
329,192,129807,1,0,0:0:0:0:
475,192,129807,1,0,0:0:0:0:
402,192,129890,1,0,0:0:0:0:
475,192,129974,1,0,0:0:0:0:
256,192,129974,1,0,0:0:0:0:
182,192,130057,1,0,0:0:0:0:
109,192,130140,1,0,0:0:0:0:
256,192,130140,1,0,0:0:0:0:
402,192,130140,1,0,0:0:0:0:
36,192,130140,1,0,0:0:0:0:
329,192,130223,1,0,0:0:0:0:
182,192,130306,1,0,0:0:0:0:
475,192,130306,1,0,0:0:0:0:
402,192,130389,1,0,0:0:0:0:
329,192,130472,1,0,0:0:0:0:
256,192,130472,1,0,0:0:0:0:
109,192,130472,1,0,0:0:0:0:
36,192,130555,1,0,0:0:0:0:
182,192,130638,1,0,0:0:0:0:
402,192,130638,1,0,0:0:0:0:
329,192,130722,1,0,0:0:0:0:
256,192,130805,1,0,0:0:0:0:
109,192,130805,1,0,0:0:0:0:
36,192,130805,1,0,0:0:0:0:
475,192,130805,1,0,0:0:0:0:
182,192,130888,1,0,0:0:0:0:
36,192,130971,1,0,0:0:0:0:
329,192,130971,1,0,0:0:0:0:
109,192,131054,1,0,0:0:0:0:
182,192,131137,1,0,0:0:0:0:
256,192,131137,1,0,0:0:0:0:
402,192,131137,1,0,0:0:0:0:
475,192,131137,1,0,0:0:0:0:
329,192,131220,1,0,0:0:0:0:
402,192,131303,1,0,0:0:0:0:
109,192,131303,1,0,0:0:0:0:
256,192,131386,1,0,0:0:0:0:
182,192,131469,1,0,0:0:0:0:
475,192,131469,1,0,0:0:0:0:
329,192,131469,1,0,0:0:0:0:
36,192,131469,1,0,0:0:0:0:
402,192,131553,1,0,0:0:0:0:
109,192,131636,1,0,0:0:0:0:
256,192,131636,1,0,0:0:0:0:
182,192,131719,1,0,0:0:0:0:
256,192,131802,128,0,131885:0:0:0:0:
402,192,131802,128,0,131885:0:0:0:0:
475,192,131802,128,0,131885:0:0:0:0:
109,192,131802,128,0,131885:0:0:0:0:
36,192,131802,128,0,131885:0:0:0:0:
182,192,131968,128,0,132051:0:0:0:0:
329,192,131968,128,0,132051:0:0:0:0:
402,192,132051,128,0,132134:0:0:0:0:
36,192,132051,128,0,132134:0:0:0:0:
475,192,132134,128,0,132259:0:0:0:0:
109,192,132134,128,0,132217:0:0:0:0:
329,192,132217,128,0,132300:0:0:0:0:
182,192,132217,128,0,132300:0:0:0:0:
36,192,132300,128,0,132384:0:0:0:0:
402,192,132300,128,0,132384:0:0:0:0:
182,192,132384,128,0,132467:0:0:0:0:
329,192,132384,128,0,132467:0:0:0:0:
109,192,132467,128,0,132550:0:0:0:0:
36,192,132467,128,0,132550:0:0:0:0:
256,192,132467,128,0,132550:0:0:0:0:
402,192,132467,128,0,132550:0:0:0:0:
475,192,132467,128,0,132550:0:0:0:0:
182,192,132550,128,0,132633:0:0:0:0:
329,192,132550,128,0,132633:0:0:0:0:
475,192,132633,128,0,132716:0:0:0:0:
36,192,132633,128,0,132716:0:0:0:0:
402,192,132716,128,0,132799:0:0:0:0:
109,192,132716,128,0,132799:0:0:0:0:
475,192,132799,128,0,132882:0:0:0:0:
256,192,132799,128,0,132882:0:0:0:0:
402,192,132882,128,0,132965:0:0:0:0:
182,192,132882,128,0,132965:0:0:0:0:
109,192,132965,128,0,133048:0:0:0:0:
329,192,132965,128,0,133048:0:0:0:0:
36,192,133048,128,0,133131:0:0:0:0:
256,192,133048,128,0,133131:0:0:0:0:
182,192,133131,1,0,0:0:0:0:
329,192,133131,1,0,0:0:0:0:
402,192,133131,1,0,0:0:0:0:
475,192,133131,1,0,0:0:0:0:
109,192,133215,1,0,0:0:0:0:
182,192,133298,1,0,0:0:0:0:
402,192,133298,1,0,0:0:0:0:
256,192,133381,1,0,0:0:0:0:
329,192,133464,1,0,0:0:0:0:
475,192,133464,1,0,0:0:0:0:
182,192,133464,1,0,0:0:0:0:
36,192,133464,1,0,0:0:0:0:
109,192,133547,1,0,0:0:0:0:
256,192,133630,1,0,0:0:0:0:
402,192,133630,1,0,0:0:0:0:
182,192,133713,1,0,0:0:0:0:
109,192,133796,1,0,0:0:0:0:
36,192,133796,1,0,0:0:0:0:
329,192,133796,1,0,0:0:0:0:
475,192,133796,1,0,0:0:0:0:
402,192,133879,1,0,0:0:0:0:
256,192,133963,1,0,0:0:0:0:
36,192,133963,1,0,0:0:0:0:
109,192,134046,1,0,0:0:0:0:
182,192,134129,1,0,0:0:0:0:
329,192,134129,1,0,0:0:0:0:
402,192,134129,1,0,0:0:0:0:
475,192,134129,1,0,0:0:0:0:
256,192,134212,1,0,0:0:0:0:
109,192,134295,1,0,0:0:0:0:
402,192,134295,1,0,0:0:0:0:
329,192,134378,1,0,0:0:0:0:
109,192,134461,1,0,0:0:0:0:
256,192,134461,1,0,0:0:0:0:
475,192,134461,1,0,0:0:0:0:
36,192,134461,1,0,0:0:0:0:
182,192,134544,1,0,0:0:0:0:
329,192,134627,1,0,0:0:0:0:
36,192,134627,1,0,0:0:0:0:
256,192,134710,1,0,0:0:0:0:
182,192,134794,1,0,0:0:0:0:
109,192,134794,1,0,0:0:0:0:
402,192,134794,1,0,0:0:0:0:
475,192,134794,1,0,0:0:0:0:
329,192,134877,1,0,0:0:0:0:
402,192,134960,1,0,0:0:0:0:
109,192,134960,1,0,0:0:0:0:
256,192,135043,1,0,0:0:0:0:
182,192,135126,1,0,0:0:0:0:
36,192,135126,1,0,0:0:0:0:
329,192,135126,1,0,0:0:0:0:
475,192,135126,1,0,0:0:0:0:
109,192,135209,1,0,0:0:0:0:
256,192,135292,1,0,0:0:0:0:
402,192,135292,1,0,0:0:0:0:
329,192,135375,1,0,0:0:0:0:
402,192,135458,1,0,0:0:0:0:
475,192,135458,1,0,0:0:0:0:
182,192,135458,1,0,0:0:0:0:
36,192,135458,1,0,0:0:0:0:
256,192,135541,1,0,0:0:0:0:
109,192,135625,1,0,0:0:0:0:
329,192,135625,1,0,0:0:0:0:
256,192,135708,1,0,0:0:0:0:
475,192,135791,1,0,0:0:0:0:
182,192,135791,1,0,0:0:0:0:
36,192,135791,1,0,0:0:0:0:
402,192,135791,1,0,0:0:0:0:
256,192,135874,1,0,0:0:0:0:
329,192,135957,1,0,0:0:0:0:
109,192,135957,1,0,0:0:0:0:
402,192,136040,1,0,0:0:0:0:
182,192,136123,1,0,0:0:0:0:
36,192,136123,1,0,0:0:0:0:
329,192,136123,1,0,0:0:0:0:
475,192,136123,1,0,0:0:0:0:
109,192,136206,1,0,0:0:0:0:
256,192,136289,1,0,0:0:0:0:
402,192,136289,1,0,0:0:0:0:
182,192,136372,1,0,0:0:0:0:
109,192,136456,1,0,0:0:0:0:
36,192,136456,1,0,0:0:0:0:
402,192,136456,1,0,0:0:0:0:
329,192,136456,1,0,0:0:0:0:
256,192,136539,1,0,0:0:0:0:
182,192,136622,1,0,0:0:0:0:
475,192,136622,1,0,0:0:0:0:
329,192,136705,1,0,0:0:0:0:
402,192,136788,1,0,0:0:0:0:
256,192,136788,1,0,0:0:0:0:
109,192,136788,1,0,0:0:0:0:
36,192,136788,1,0,0:0:0:0:
182,192,136871,1,0,0:0:0:0:
36,192,136954,1,0,0:0:0:0:
329,192,136954,1,0,0:0:0:0:
256,192,137037,1,0,0:0:0:0:
182,192,137120,1,0,0:0:0:0:
109,192,137120,1,0,0:0:0:0:
402,192,137120,1,0,0:0:0:0:
475,192,137120,1,0,0:0:0:0:
329,192,137204,1,0,0:0:0:0:
402,192,137287,1,0,0:0:0:0:
109,192,137287,1,0,0:0:0:0:
256,192,137370,1,0,0:0:0:0:
182,192,137453,1,0,0:0:0:0:
36,192,137453,1,0,0:0:0:0:
329,192,137453,1,0,0:0:0:0:
475,192,137453,1,0,0:0:0:0:
256,192,137536,1,0,0:0:0:0:
109,192,137619,1,0,0:0:0:0:
402,192,137619,1,0,0:0:0:0:
329,192,137702,1,0,0:0:0:0:
256,192,137785,1,0,0:0:0:0:
182,192,137785,1,0,0:0:0:0:
36,192,137785,1,0,0:0:0:0:
475,192,137785,1,0,0:0:0:0:
109,192,137868,1,0,0:0:0:0:
256,192,137951,1,0,0:0:0:0:
402,192,137951,1,0,0:0:0:0:
329,192,138035,1,0,0:0:0:0:
109,192,138118,1,0,0:0:0:0:
36,192,138118,1,0,0:0:0:0:
475,192,138118,1,0,0:0:0:0:
256,192,138118,1,0,0:0:0:0:
182,192,138201,1,0,0:0:0:0:
329,192,138284,1,0,0:0:0:0:
36,192,138284,1,0,0:0:0:0:
256,192,138367,1,0,0:0:0:0:
182,192,138450,1,0,0:0:0:0:
36,192,138450,1,0,0:0:0:0:
329,192,138450,1,0,0:0:0:0:
475,192,138450,1,0,0:0:0:0:
402,192,138533,1,0,0:0:0:0:
256,192,138616,1,0,0:0:0:0:
475,192,138616,1,0,0:0:0:0:
109,192,138616,1,0,0:0:0:0:
182,192,138699,1,0,0:0:0:0:
109,192,138782,1,0,0:0:0:0:
329,192,138782,1,0,0:0:0:0:
402,192,138782,1,0,0:0:0:0:
475,192,138782,1,0,0:0:0:0:
256,192,138866,1,0,0:0:0:0:
182,192,138949,1,0,0:0:0:0:
36,192,138949,1,0,0:0:0:0:
402,192,138949,1,0,0:0:0:0:
329,192,139032,1,0,0:0:0:0:
256,192,139115,1,0,0:0:0:0:
475,192,139115,1,0,0:0:0:0:
109,192,139115,1,0,0:0:0:0:
182,192,139198,1,0,0:0:0:0:
109,192,139281,1,0,0:0:0:0:
329,192,139281,1,0,0:0:0:0:
402,192,139281,1,0,0:0:0:0:
256,192,139364,1,0,0:0:0:0:
182,192,139447,1,0,0:0:0:0:
36,192,139447,1,0,0:0:0:0:
402,192,139447,1,0,0:0:0:0:
475,192,139447,1,0,0:0:0:0:
329,192,139530,1,0,0:0:0:0:
402,192,139613,1,0,0:0:0:0:
109,192,139613,1,0,0:0:0:0:
256,192,139613,1,0,0:0:0:0:
182,192,139697,1,0,0:0:0:0:
36,192,139780,1,0,0:0:0:0:
109,192,139780,1,0,0:0:0:0:
329,192,139780,1,0,0:0:0:0:
475,192,139780,1,0,0:0:0:0:
402,192,139863,1,0,0:0:0:0:
475,192,139946,1,0,0:0:0:0:
256,192,139946,1,0,0:0:0:0:
36,192,139946,1,0,0:0:0:0:
182,192,140029,1,0,0:0:0:0:
109,192,140112,1,0,0:0:0:0:
256,192,140112,1,0,0:0:0:0:
329,192,140112,1,0,0:0:0:0:
402,192,140112,1,0,0:0:0:0:
36,192,140195,1,0,0:0:0:0:
182,192,140278,1,0,0:0:0:0:
329,192,140278,1,0,0:0:0:0:
475,192,140278,1,0,0:0:0:0:
402,192,140361,1,0,0:0:0:0:
256,192,140445,1,0,0:0:0:0:
475,192,140445,1,0,0:0:0:0:
36,192,140445,1,0,0:0:0:0:
109,192,140445,1,0,0:0:0:0:
182,192,140528,1,0,0:0:0:0:
109,192,140611,1,0,0:0:0:0:
329,192,140611,1,0,0:0:0:0:
402,192,140611,1,0,0:0:0:0:
256,192,140694,1,0,0:0:0:0:
182,192,140777,1,0,0:0:0:0:
36,192,140777,1,0,0:0:0:0:
402,192,140777,1,0,0:0:0:0:
475,192,140777,1,0,0:0:0:0:
329,192,140860,1,0,0:0:0:0:
256,192,140943,1,0,0:0:0:0:
109,192,140943,1,0,0:0:0:0:
402,192,140943,1,0,0:0:0:0:
36,192,141026,1,0,0:0:0:0:
109,192,141109,1,0,0:0:0:0:
182,192,141109,1,0,0:0:0:0:
329,192,141109,1,0,0:0:0:0:
475,192,141109,1,0,0:0:0:0:
256,192,141192,1,0,0:0:0:0:
402,192,141192,1,0,0:0:0:0:
109,192,141276,1,0,0:0:0:0:
36,192,141276,1,0,0:0:0:0:
182,192,141359,1,0,0:0:0:0:
329,192,141359,1,0,0:0:0:0:
475,192,141442,1,0,0:0:0:0:
402,192,141442,1,0,0:0:0:0:
109,192,141442,1,0,0:0:0:0:
36,192,141442,1,0,0:0:0:0:
329,192,141525,1,0,0:0:0:0:
256,192,141525,1,0,0:0:0:0:
109,192,141608,1,0,0:0:0:0:
182,192,141608,1,0,0:0:0:0:
329,192,141691,1,0,0:0:0:0:
402,192,141691,1,0,0:0:0:0:
256,192,141774,1,0,0:0:0:0:
109,192,141774,1,0,0:0:0:0:
36,192,141774,1,0,0:0:0:0:
475,192,141774,1,0,0:0:0:0:
182,192,141857,1,0,0:0:0:0:
329,192,141857,1,0,0:0:0:0:
402,192,141940,1,0,0:0:0:0:
475,192,141940,1,0,0:0:0:0:
109,192,142023,1,0,0:0:0:0:
256,192,142023,1,0,0:0:0:0:
182,192,142107,1,0,0:0:0:0:
36,192,142107,1,0,0:0:0:0:
329,192,142107,1,0,0:0:0:0:
475,192,142107,1,0,0:0:0:0:
402,192,142190,1,0,0:0:0:0:
256,192,142190,1,0,0:0:0:0:
109,192,142273,1,0,0:0:0:0:
36,192,142273,1,0,0:0:0:0:
182,192,142356,1,0,0:0:0:0:
329,192,142356,1,0,0:0:0:0:
256,192,142439,1,0,0:0:0:0:
402,192,142439,1,0,0:0:0:0:
475,192,142439,1,0,0:0:0:0:
36,192,142439,1,0,0:0:0:0:
109,192,142522,1,0,0:0:0:0:
182,192,142522,1,0,0:0:0:0:
329,192,142605,1,0,0:0:0:0:
402,192,142605,1,0,0:0:0:0:
256,192,142688,1,0,0:0:0:0:
182,192,142688,1,0,0:0:0:0:
109,192,142771,1,0,0:0:0:0:
36,192,142771,1,0,0:0:0:0:
475,192,142771,1,0,0:0:0:0:
402,192,142771,1,0,0:0:0:0:
256,192,142854,1,0,0:0:0:0:
329,192,142854,1,0,0:0:0:0:
182,192,142938,1,0,0:0:0:0:
109,192,142938,1,0,0:0:0:0:
329,192,143021,1,0,0:0:0:0:
256,192,143021,1,0,0:0:0:0:
475,192,143104,1,0,0:0:0:0:
402,192,143104,1,0,0:0:0:0:
109,192,143104,1,0,0:0:0:0:
36,192,143104,1,0,0:0:0:0:
182,192,143145,1,0,0:0:0:0:
256,192,143187,1,0,0:0:0:0:
329,192,143228,1,0,0:0:0:0:
36,192,143270,1,0,0:0:0:0:
109,192,143312,1,0,0:0:0:0:
182,192,143353,1,0,0:0:0:0:
475,192,143353,1,0,0:0:0:0:
402,192,143395,1,0,0:0:0:0:
329,192,143436,1,0,0:0:0:0:
256,192,143478,1,0,0:0:0:0:
182,192,143519,1,0,0:0:0:0:
109,192,143561,1,0,0:0:0:0:
36,192,143602,1,0,0:0:0:0:
402,192,143602,1,0,0:0:0:0:
329,192,143644,1,0,0:0:0:0:
256,192,143686,1,0,0:0:0:0:
182,192,143727,1,0,0:0:0:0:
109,192,143769,1,0,0:0:0:0:
36,192,143769,1,0,0:0:0:0:
402,192,143769,1,0,0:0:0:0:
475,192,143769,1,0,0:0:0:0:
329,192,143852,1,0,0:0:0:0:
256,192,143935,1,0,0:0:0:0:
109,192,143935,1,0,0:0:0:0:
329,192,144018,1,0,0:0:0:0:
182,192,144101,1,0,0:0:0:0:
36,192,144101,1,0,0:0:0:0:
402,192,144101,1,0,0:0:0:0:
475,192,144101,1,0,0:0:0:0:
109,192,144101,1,0,0:0:0:0:
256,192,144184,1,0,0:0:0:0:
402,192,144267,1,0,0:0:0:0:
36,192,144267,1,0,0:0:0:0:
182,192,144350,1,0,0:0:0:0:
109,192,144433,1,0,0:0:0:0:
256,192,144433,1,0,0:0:0:0:
329,192,144433,1,0,0:0:0:0:
475,192,144433,1,0,0:0:0:0:
36,192,144433,1,0,0:0:0:0:
402,192,144517,1,0,0:0:0:0:
109,192,144600,1,0,0:0:0:0:
475,192,144600,1,0,0:0:0:0:
256,192,144683,1,0,0:0:0:0:
182,192,144766,1,0,0:0:0:0:
329,192,144766,1,0,0:0:0:0:
109,192,144766,1,0,0:0:0:0:
36,192,144766,1,0,0:0:0:0:
402,192,144766,1,0,0:0:0:0:
475,192,144849,1,0,0:0:0:0:
182,192,144932,1,0,0:0:0:0:
329,192,144932,1,0,0:0:0:0:
109,192,145015,1,0,0:0:0:0:
36,192,145098,1,0,0:0:0:0:
256,192,145098,1,0,0:0:0:0:
329,192,145098,1,0,0:0:0:0:
402,192,145098,1,0,0:0:0:0:
475,192,145098,1,0,0:0:0:0:
182,192,145181,1,0,0:0:0:0:
402,192,145264,1,0,0:0:0:0:
109,192,145264,1,0,0:0:0:0:
256,192,145348,1,0,0:0:0:0:
329,192,145431,1,0,0:0:0:0:
475,192,145431,1,0,0:0:0:0:
182,192,145431,1,0,0:0:0:0:
36,192,145431,1,0,0:0:0:0:
109,192,145431,1,0,0:0:0:0:
402,192,145514,1,0,0:0:0:0:
36,192,145597,1,0,0:0:0:0:
256,192,145597,1,0,0:0:0:0:
182,192,145680,1,0,0:0:0:0:
109,192,145763,1,0,0:0:0:0:
329,192,145763,1,0,0:0:0:0:
475,192,145763,1,0,0:0:0:0:
36,192,145763,1,0,0:0:0:0:
402,192,145763,1,0,0:0:0:0:
256,192,145846,1,0,0:0:0:0:
402,192,145929,1,0,0:0:0:0:
109,192,145929,1,0,0:0:0:0:
182,192,146012,1,0,0:0:0:0:
256,192,146095,1,0,0:0:0:0:
329,192,146095,1,0,0:0:0:0:
36,192,146095,1,0,0:0:0:0:
475,192,146095,1,0,0:0:0:0:
402,192,146095,1,0,0:0:0:0:
182,192,146179,1,0,0:0:0:0:
109,192,146262,1,0,0:0:0:0:
329,192,146262,1,0,0:0:0:0:
475,192,146345,1,0,0:0:0:0:
256,192,146428,1,0,0:0:0:0:
402,192,146428,1,0,0:0:0:0:
182,192,146428,1,0,0:0:0:0:
36,192,146428,1,0,0:0:0:0:
109,192,146428,1,0,0:0:0:0:
329,192,146511,1,0,0:0:0:0:
182,192,146594,1,0,0:0:0:0:
475,192,146594,1,0,0:0:0:0:
256,192,146677,1,0,0:0:0:0:
329,192,146760,1,0,0:0:0:0:
402,192,146760,1,0,0:0:0:0:
36,192,146760,1,0,0:0:0:0:
182,192,146760,1,0,0:0:0:0:
475,192,146760,1,0,0:0:0:0:
109,192,146843,1,0,0:0:0:0:
256,192,146927,1,0,0:0:0:0:
402,192,146927,1,0,0:0:0:0:
475,192,147010,1,0,0:0:0:0:
329,192,147093,1,0,0:0:0:0:
182,192,147093,1,0,0:0:0:0:
109,192,147093,1,0,0:0:0:0:
36,192,147093,1,0,0:0:0:0:
402,192,147093,1,0,0:0:0:0:
256,192,147176,1,0,0:0:0:0:
36,192,147259,1,0,0:0:0:0:
402,192,147259,1,0,0:0:0:0:
182,192,147342,1,0,0:0:0:0:
109,192,147425,1,0,0:0:0:0:
256,192,147425,1,0,0:0:0:0:
329,192,147425,1,0,0:0:0:0:
402,192,147425,1,0,0:0:0:0:
475,192,147425,1,0,0:0:0:0:
182,192,147508,1,0,0:0:0:0:
36,192,147591,1,0,0:0:0:0:
329,192,147591,1,0,0:0:0:0:
256,192,147674,1,0,0:0:0:0:
182,192,147758,1,0,0:0:0:0:
329,192,147758,1,0,0:0:0:0:
475,192,147758,1,0,0:0:0:0:
109,192,147758,1,0,0:0:0:0:
36,192,147758,1,0,0:0:0:0:
402,192,147841,1,0,0:0:0:0:
109,192,147924,1,0,0:0:0:0:
256,192,147924,1,0,0:0:0:0:
329,192,148007,1,0,0:0:0:0:
402,192,148090,1,0,0:0:0:0:
475,192,148090,1,0,0:0:0:0:
182,192,148090,1,0,0:0:0:0:
109,192,148090,1,0,0:0:0:0:
36,192,148090,1,0,0:0:0:0:
256,192,148173,1,0,0:0:0:0:
109,192,148256,1,0,0:0:0:0:
402,192,148256,1,0,0:0:0:0:
256,192,148339,1,0,0:0:0:0:
182,192,148422,1,0,0:0:0:0:
329,192,148422,1,0,0:0:0:0:
475,192,148422,1,0,0:0:0:0:
109,192,148422,1,0,0:0:0:0:
402,192,148422,1,0,0:0:0:0:
36,192,148505,1,0,0:0:0:0:
182,192,148589,1,0,0:0:0:0:
475,192,148589,1,0,0:0:0:0:
402,192,148672,1,0,0:0:0:0:
329,192,148755,1,0,0:0:0:0:
182,192,148755,1,0,0:0:0:0:
36,192,148755,1,0,0:0:0:0:
256,192,148755,1,0,0:0:0:0:
109,192,148755,1,0,0:0:0:0:
475,192,148838,1,0,0:0:0:0:
256,192,148921,1,0,0:0:0:0:
36,192,148921,1,0,0:0:0:0:
182,192,149004,1,0,0:0:0:0:
329,192,149087,1,0,0:0:0:0:
109,192,149087,1,0,0:0:0:0:
402,192,149087,1,0,0:0:0:0:
475,192,149087,1,0,0:0:0:0:
36,192,149087,1,0,0:0:0:0:
256,192,149170,1,0,0:0:0:0:
402,192,149253,1,0,0:0:0:0:
109,192,149253,1,0,0:0:0:0:
329,192,149336,1,0,0:0:0:0:
36,192,149420,1,0,0:0:0:0:
182,192,149420,1,0,0:0:0:0:
256,192,149420,1,0,0:0:0:0:
475,192,149420,1,0,0:0:0:0:
402,192,149420,1,0,0:0:0:0:
109,192,149503,1,0,0:0:0:0:
256,192,149586,1,0,0:0:0:0:
475,192,149586,1,0,0:0:0:0:
329,192,149669,1,0,0:0:0:0:
402,192,149752,1,0,0:0:0:0:
182,192,149752,1,0,0:0:0:0:
109,192,149752,1,0,0:0:0:0:
36,192,149752,1,0,0:0:0:0:
256,192,149752,1,0,0:0:0:0:
475,192,149835,1,0,0:0:0:0:
182,192,149918,1,0,0:0:0:0:
329,192,149918,1,0,0:0:0:0:
109,192,150001,1,0,0:0:0:0:
182,192,150084,1,0,0:0:0:0:
36,192,150084,1,0,0:0:0:0:
256,192,150084,1,0,0:0:0:0:
402,192,150084,1,0,0:0:0:0:
475,192,150084,1,0,0:0:0:0:
329,192,150168,1,0,0:0:0:0:
109,192,150251,1,0,0:0:0:0:
402,192,150251,1,0,0:0:0:0:
256,192,150334,1,0,0:0:0:0:
182,192,150417,1,0,0:0:0:0:
329,192,150417,1,0,0:0:0:0:
109,192,150417,1,0,0:0:0:0:
36,192,150417,1,0,0:0:0:0:
475,192,150417,1,0,0:0:0:0:
402,192,150500,1,0,0:0:0:0:
36,192,150583,1,0,0:0:0:0:
256,192,150583,1,0,0:0:0:0:
182,192,150666,1,0,0:0:0:0:
109,192,150749,1,0,0:0:0:0:
329,192,150749,1,0,0:0:0:0:
475,192,150749,1,0,0:0:0:0:
36,192,150749,1,0,0:0:0:0:
402,192,150749,1,0,0:0:0:0:
256,192,150832,1,0,0:0:0:0:
109,192,150915,1,0,0:0:0:0:
402,192,150915,1,0,0:0:0:0:
329,192,150999,1,0,0:0:0:0:
256,192,151082,1,0,0:0:0:0:
182,192,151082,1,0,0:0:0:0:
36,192,151082,1,0,0:0:0:0:
475,192,151082,1,0,0:0:0:0:
109,192,151082,1,0,0:0:0:0:
329,192,151165,1,0,0:0:0:0:
402,192,151248,1,0,0:0:0:0:
182,192,151248,1,0,0:0:0:0:
256,192,151331,1,0,0:0:0:0:
109,192,151414,1,0,0:0:0:0:
36,192,151414,1,0,0:0:0:0:
329,192,151414,1,0,0:0:0:0:
475,192,151414,1,0,0:0:0:0:
402,192,151414,1,0,0:0:0:0:
182,192,151497,1,0,0:0:0:0:
109,192,151580,1,0,0:0:0:0:
329,192,151580,1,0,0:0:0:0:
256,192,151663,1,0,0:0:0:0:
182,192,151746,1,0,0:0:0:0:
36,192,151746,1,0,0:0:0:0:
402,192,151746,1,0,0:0:0:0:
475,192,151746,1,0,0:0:0:0:
109,192,151746,1,0,0:0:0:0:
329,192,151830,1,0,0:0:0:0:
256,192,151830,1,0,0:0:0:0:
182,192,151913,1,0,0:0:0:0:
109,192,151913,1,0,0:0:0:0:
329,192,151996,1,0,0:0:0:0:
402,192,151996,1,0,0:0:0:0:
36,192,152079,1,0,0:0:0:0:
109,192,152079,1,0,0:0:0:0:
256,192,152162,1,0,0:0:0:0:
329,192,152162,1,0,0:0:0:0:
182,192,152245,1,0,0:0:0:0:
109,192,152245,1,0,0:0:0:0:
402,192,152328,1,0,0:0:0:0:
475,192,152328,1,0,0:0:0:0:
182,192,152411,1,0,0:0:0:0:
256,192,152411,1,0,0:0:0:0:
36,192,152494,1,0,0:0:0:0:
109,192,152494,1,0,0:0:0:0:
329,192,152577,1,0,0:0:0:0:
402,192,152577,1,0,0:0:0:0:
256,192,152661,1,0,0:0:0:0:
182,192,152661,1,0,0:0:0:0:
402,192,152744,1,0,0:0:0:0:
475,192,152744,1,0,0:0:0:0:
329,192,152827,1,0,0:0:0:0:
256,192,152827,1,0,0:0:0:0:
36,192,152910,1,0,0:0:0:0:
109,192,152910,1,0,0:0:0:0:
402,192,152993,1,0,0:0:0:0:
329,192,152993,1,0,0:0:0:0:
182,192,153076,1,0,0:0:0:0:
109,192,153076,1,0,0:0:0:0:
36,192,153076,1,0,0:0:0:0:
475,192,153159,1,0,0:0:0:0:
402,192,153159,1,0,0:0:0:0:
329,192,153242,1,0,0:0:0:0:
256,192,153242,1,0,0:0:0:0:
109,192,153325,1,0,0:0:0:0:
36,192,153325,1,0,0:0:0:0:
182,192,153408,1,0,0:0:0:0:
329,192,153408,1,0,0:0:0:0:
475,192,153408,1,0,0:0:0:0:
109,192,153492,1,0,0:0:0:0:
36,192,153492,1,0,0:0:0:0:
256,192,153492,1,0,0:0:0:0:
402,192,153492,1,0,0:0:0:0:
182,192,153575,1,0,0:0:0:0:
475,192,153575,1,0,0:0:0:0:
329,192,153575,1,0,0:0:0:0:
402,192,153658,1,0,0:0:0:0:
256,192,153658,1,0,0:0:0:0:
109,192,153658,1,0,0:0:0:0:
182,192,153741,1,0,0:0:0:0:
36,192,153741,1,0,0:0:0:0:
475,192,153741,1,0,0:0:0:0:
329,192,153741,1,0,0:0:0:0:
402,0,154073,128,0,154406:1:0:0:0:
475,192,154406,1,0,0:0:0:0:
36,192,154406,1,0,0:0:0:0:
256,192,154406,1,0,0:0:0:0:
109,192,154406,1,0,0:0:0:0:
329,192,154489,1,0,0:0:0:0:
182,192,154489,1,0,0:0:0:0:
475,192,154572,1,0,0:0:0:0:
109,192,154572,1,0,0:0:0:0:
402,192,154655,1,0,0:0:0:0:
256,192,154655,1,0,0:0:0:0:
182,192,154738,1,0,0:0:0:0:
329,192,154738,1,0,0:0:0:0:
475,192,154738,1,0,0:0:0:0:
36,192,154738,1,0,0:0:0:0:
402,192,154821,1,0,0:0:0:0:
109,192,154821,1,0,0:0:0:0:
329,192,154904,1,0,0:0:0:0:
182,192,154904,1,0,0:0:0:0:
256,192,154987,1,0,0:0:0:0:
109,192,154987,1,0,0:0:0:0:
36,192,155071,1,0,0:0:0:0:
329,192,155071,1,0,0:0:0:0:
182,192,155071,1,0,0:0:0:0:
475,192,155071,1,0,0:0:0:0:
256,192,155154,1,0,0:0:0:0:
402,192,155154,1,0,0:0:0:0:
329,192,155237,1,0,0:0:0:0:
109,192,155237,1,0,0:0:0:0:
182,192,155320,1,0,0:0:0:0:
402,192,155320,1,0,0:0:0:0:
475,192,155403,1,0,0:0:0:0:
109,192,155403,1,0,0:0:0:0:
256,192,155403,1,0,0:0:0:0:
36,192,155403,1,0,0:0:0:0:
182,192,155486,1,0,0:0:0:0:
402,192,155486,1,0,0:0:0:0:
109,192,155569,1,0,0:0:0:0:
329,192,155569,1,0,0:0:0:0:
36,192,155652,1,0,0:0:0:0:
256,192,155652,1,0,0:0:0:0:
109,192,155735,1,0,0:0:0:0:
182,192,155735,1,0,0:0:0:0:
475,192,155735,1,0,0:0:0:0:
329,192,155735,1,0,0:0:0:0:
402,192,155818,1,0,0:0:0:0:
256,192,155818,1,0,0:0:0:0:
475,192,155902,1,0,0:0:0:0:
109,192,155902,1,0,0:0:0:0:
329,192,155985,1,0,0:0:0:0:
182,192,155985,1,0,0:0:0:0:
402,192,156068,1,0,0:0:0:0:
256,192,156068,1,0,0:0:0:0:
36,192,156068,1,0,0:0:0:0:
475,192,156068,1,0,0:0:0:0:
109,192,156151,1,0,0:0:0:0:
329,192,156151,1,0,0:0:0:0:
182,192,156234,1,0,0:0:0:0:
402,192,156234,1,0,0:0:0:0:
36,192,156317,1,0,0:0:0:0:
256,192,156317,1,0,0:0:0:0:
109,192,156400,1,0,0:0:0:0:
182,192,156400,1,0,0:0:0:0:
329,192,156400,1,0,0:0:0:0:
475,192,156400,1,0,0:0:0:0:
402,192,156483,1,0,0:0:0:0:
256,192,156483,1,0,0:0:0:0:
109,192,156566,1,0,0:0:0:0:
475,192,156566,1,0,0:0:0:0:
329,192,156649,1,0,0:0:0:0:
182,192,156649,1,0,0:0:0:0:
109,192,156733,1,0,0:0:0:0:
256,192,156733,1,0,0:0:0:0:
36,192,156733,1,0,0:0:0:0:
402,192,156733,1,0,0:0:0:0:
475,192,156816,1,0,0:0:0:0:
329,192,156816,1,0,0:0:0:0:
182,192,156899,1,0,0:0:0:0:
402,192,156899,1,0,0:0:0:0:
109,192,156982,1,0,0:0:0:0:
329,192,156982,1,0,0:0:0:0:
36,192,157065,1,0,0:0:0:0:
402,192,157065,1,0,0:0:0:0:
256,192,157065,1,0,0:0:0:0:
475,192,157065,1,0,0:0:0:0:
329,192,157148,1,0,0:0:0:0:
182,192,157148,1,0,0:0:0:0:
256,192,157231,1,0,0:0:0:0:
36,192,157231,1,0,0:0:0:0:
109,192,157314,1,0,0:0:0:0:
402,192,157314,1,0,0:0:0:0:
36,192,157397,1,0,0:0:0:0:
329,192,157397,1,0,0:0:0:0:
475,192,157397,1,0,0:0:0:0:
182,192,157397,1,0,0:0:0:0:
256,192,157481,1,0,0:0:0:0:
402,192,157481,1,0,0:0:0:0:
475,192,157564,1,0,0:0:0:0:
109,192,157564,1,0,0:0:0:0:
329,192,157647,1,0,0:0:0:0:
182,192,157647,1,0,0:0:0:0:
256,192,157730,1,0,0:0:0:0:
402,192,157730,1,0,0:0:0:0:
36,192,157730,1,0,0:0:0:0:
475,192,157730,1,0,0:0:0:0:
329,192,157813,1,0,0:0:0:0:
109,192,157813,1,0,0:0:0:0:
182,192,157896,1,0,0:0:0:0:
475,192,157896,1,0,0:0:0:0:
329,192,157979,1,0,0:0:0:0:
36,192,157979,1,0,0:0:0:0:
256,192,158062,1,0,0:0:0:0:
109,192,158062,1,0,0:0:0:0:
402,192,158062,1,0,0:0:0:0:
475,192,158062,1,0,0:0:0:0:
182,192,158145,1,0,0:0:0:0:
329,192,158145,1,0,0:0:0:0:
402,192,158228,1,0,0:0:0:0:
36,192,158228,1,0,0:0:0:0:
256,192,158312,1,0,0:0:0:0:
109,192,158312,1,0,0:0:0:0:
36,192,158395,1,0,0:0:0:0:
182,192,158395,1,0,0:0:0:0:
402,192,158395,1,0,0:0:0:0:
475,192,158395,1,0,0:0:0:0:
109,192,158478,1,0,0:0:0:0:
329,192,158478,1,0,0:0:0:0:
475,192,158561,1,0,0:0:0:0:
256,192,158561,1,0,0:0:0:0:
182,192,158644,1,0,0:0:0:0:
402,192,158644,1,0,0:0:0:0:
109,192,158727,1,0,0:0:0:0:
329,192,158727,1,0,0:0:0:0:
36,192,158727,1,0,0:0:0:0:
475,192,158727,1,0,0:0:0:0:
256,192,158810,1,0,0:0:0:0:
402,192,158810,1,0,0:0:0:0:
109,192,158893,1,0,0:0:0:0:
329,192,158893,1,0,0:0:0:0:
402,192,158976,1,0,0:0:0:0:
182,192,158976,1,0,0:0:0:0:
475,192,159059,1,0,0:0:0:0:
109,192,159059,1,0,0:0:0:0:
256,192,159059,1,0,0:0:0:0:
36,192,159059,1,0,0:0:0:0:
182,192,159143,1,0,0:0:0:0:
329,192,159143,1,0,0:0:0:0:
256,192,159226,1,0,0:0:0:0:
475,192,159226,1,0,0:0:0:0:
182,192,159309,1,0,0:0:0:0:
402,192,159309,1,0,0:0:0:0:
329,192,159392,1,0,0:0:0:0:
475,192,159392,1,0,0:0:0:0:
109,192,159392,1,0,0:0:0:0:
36,192,159392,1,0,0:0:0:0:
182,192,159475,1,0,0:0:0:0:
402,192,159475,1,0,0:0:0:0:
109,192,159558,1,0,0:0:0:0:
329,192,159558,1,0,0:0:0:0:
36,192,159641,1,0,0:0:0:0:
256,192,159641,1,0,0:0:0:0:
475,192,159724,1,0,0:0:0:0:
182,192,159724,1,0,0:0:0:0:
109,192,159724,1,0,0:0:0:0:
329,192,159724,1,0,0:0:0:0:
402,192,159807,1,0,0:0:0:0:
256,192,159807,1,0,0:0:0:0:
475,192,159890,1,0,0:0:0:0:
109,192,159890,1,0,0:0:0:0:
329,192,159974,1,0,0:0:0:0:
182,192,159974,1,0,0:0:0:0:
402,192,160057,1,0,0:0:0:0:
256,192,160057,1,0,0:0:0:0:
109,192,160057,1,0,0:0:0:0:
36,192,160057,1,0,0:0:0:0:
475,192,160140,1,0,0:0:0:0:
329,192,160140,1,0,0:0:0:0:
182,192,160223,1,0,0:0:0:0:
36,192,160223,1,0,0:0:0:0:
402,192,160306,1,0,0:0:0:0:
256,192,160306,1,0,0:0:0:0:
36,192,160389,1,0,0:0:0:0:
329,192,160389,1,0,0:0:0:0:
475,192,160389,1,0,0:0:0:0:
182,192,160389,1,0,0:0:0:0:
256,192,160472,1,0,0:0:0:0:
109,192,160472,1,0,0:0:0:0:
402,192,160555,1,0,0:0:0:0:
36,192,160555,1,0,0:0:0:0:
329,192,160638,1,0,0:0:0:0:
182,192,160638,1,0,0:0:0:0:
256,192,160722,1,0,0:0:0:0:
475,192,160722,1,0,0:0:0:0:
402,192,160722,1,0,0:0:0:0:
109,192,160722,1,0,0:0:0:0:
36,192,160805,1,0,0:0:0:0:
329,192,160805,1,0,0:0:0:0:
402,192,160888,1,0,0:0:0:0:
109,192,160888,1,0,0:0:0:0:
329,192,160971,1,0,0:0:0:0:
182,192,160971,1,0,0:0:0:0:
36,192,161054,1,0,0:0:0:0:
109,192,161054,1,0,0:0:0:0:
256,192,161054,1,0,0:0:0:0:
475,192,161054,1,0,0:0:0:0:
402,192,161137,1,0,0:0:0:0:
182,192,161137,1,0,0:0:0:0:
329,192,161220,1,0,0:0:0:0:
36,192,161220,1,0,0:0:0:0:
256,192,161303,1,0,0:0:0:0:
109,192,161303,1,0,0:0:0:0:
475,192,161386,1,0,0:0:0:0:
329,192,161386,1,0,0:0:0:0:
182,192,161386,1,0,0:0:0:0:
36,192,161386,1,0,0:0:0:0:
256,192,161469,1,0,0:0:0:0:
402,192,161469,1,0,0:0:0:0:
109,192,161553,1,0,0:0:0:0:
475,192,161553,1,0,0:0:0:0:
182,192,161636,1,0,0:0:0:0:
329,192,161636,1,0,0:0:0:0:
109,192,161719,1,0,0:0:0:0:
256,192,161719,1,0,0:0:0:0:
36,192,161719,1,0,0:0:0:0:
475,192,161719,1,0,0:0:0:0:
402,192,161802,1,0,0:0:0:0:
182,192,161802,1,0,0:0:0:0:
329,192,161885,1,0,0:0:0:0:
36,192,161885,1,0,0:0:0:0:
402,192,161968,1,0,0:0:0:0:
182,192,161968,1,0,0:0:0:0:
475,192,162051,1,0,0:0:0:0:
109,192,162051,1,0,0:0:0:0:
36,192,162051,1,0,0:0:0:0:
256,192,162051,1,0,0:0:0:0:
329,192,162134,1,0,0:0:0:0:
182,192,162134,1,0,0:0:0:0:
402,192,162217,1,0,0:0:0:0:
109,192,162217,1,0,0:0:0:0:
256,192,162300,1,0,0:0:0:0:
36,192,162300,1,0,0:0:0:0:
109,192,162384,1,0,0:0:0:0:
182,192,162384,1,0,0:0:0:0:
329,192,162384,1,0,0:0:0:0:
475,192,162384,1,0,0:0:0:0:
402,192,162467,1,0,0:0:0:0:
256,192,162467,1,0,0:0:0:0:
329,192,162550,1,0,0:0:0:0:
109,192,162550,1,0,0:0:0:0:
402,192,162633,1,0,0:0:0:0:
182,192,162633,1,0,0:0:0:0:
109,192,162716,1,0,0:0:0:0:
256,192,162716,1,0,0:0:0:0:
36,192,162716,1,0,0:0:0:0:
475,192,162716,1,0,0:0:0:0:
402,192,162799,5,0,0:0:0:0:
182,192,162799,1,0,0:0:0:0:
329,192,162882,1,0,0:0:0:0:
109,192,162882,1,0,0:0:0:0:
402,192,162965,1,0,0:0:0:0:
256,192,162965,1,0,0:0:0:0:
182,192,163048,1,0,0:0:0:0:
475,192,163048,1,0,0:0:0:0:
329,192,163048,1,0,0:0:0:0:
36,192,163048,1,0,0:0:0:0:
256,192,163131,1,0,0:0:0:0:
109,192,163131,1,0,0:0:0:0:
182,192,163215,1,0,0:0:0:0:
402,192,163215,1,0,0:0:0:0:
329,192,163298,1,0,0:0:0:0:
109,192,163298,1,0,0:0:0:0:
256,192,163381,1,0,0:0:0:0:
475,192,163381,1,0,0:0:0:0:
36,192,163381,1,0,0:0:0:0:
402,192,163381,1,0,0:0:0:0:
329,192,163464,1,0,0:0:0:0:
109,192,163464,1,0,0:0:0:0:
182,192,163547,1,0,0:0:0:0:
402,192,163547,1,0,0:0:0:0:
475,192,163630,1,0,0:0:0:0:
256,192,163630,1,0,0:0:0:0:
36,192,163713,1,0,0:0:0:0:
182,192,163713,1,0,0:0:0:0:
402,192,163713,1,0,0:0:0:0:
329,192,163713,1,0,0:0:0:0:
109,192,163713,1,0,0:0:0:0:
329,192,163879,1,0,0:0:0:0:
182,192,163879,1,0,0:0:0:0:
36,192,163963,1,0,0:0:0:0:
475,192,164046,1,0,0:0:0:0:
182,192,164046,1,0,0:0:0:0:
256,192,164129,1,0,0:0:0:0:
329,192,164212,1,0,0:0:0:0:
182,192,164295,1,0,0:0:0:0:
36,192,164378,1,0,0:0:0:0:
475,192,164378,1,0,0:0:0:0:
329,192,164378,1,0,0:0:0:0:
256,192,164461,1,0,0:0:0:0:
182,192,164544,1,0,0:0:0:0:
329,192,164627,1,0,0:0:0:0:
256,192,164710,1,0,0:0:0:0:
109,192,164710,1,0,0:0:0:0:
402,192,164794,1,0,0:0:0:0:
182,192,164877,1,0,0:0:0:0:
256,192,164960,1,0,0:0:0:0:
329,192,165043,1,0,0:0:0:0:
475,192,165043,1,0,0:0:0:0:
109,192,165043,1,0,0:0:0:0:
36,192,165043,1,0,0:0:0:0:
182,192,165126,1,0,0:0:0:0:
402,192,165126,1,0,0:0:0:0:
329,192,165209,1,0,0:0:0:0:
109,192,165209,1,0,0:0:0:0:
256,192,165292,1,0,0:0:0:0:
36,192,165292,1,0,0:0:0:0:
329,192,165375,1,0,0:0:0:0:
402,192,165375,1,0,0:0:0:0:
475,192,165375,1,0,0:0:0:0:
182,192,165375,1,0,0:0:0:0:
256,192,165458,1,0,0:0:0:0:
109,192,165458,1,0,0:0:0:0:
329,192,165541,1,0,0:0:0:0:
182,192,165541,1,0,0:0:0:0:
402,192,165625,1,0,0:0:0:0:
256,192,165625,1,0,0:0:0:0:
329,192,165708,1,0,0:0:0:0:
109,192,165708,1,0,0:0:0:0:
475,192,165708,1,0,0:0:0:0:
36,192,165708,1,0,0:0:0:0:
182,192,165791,1,0,0:0:0:0:
402,192,165791,1,0,0:0:0:0:
109,192,165874,1,0,0:0:0:0:
329,192,165874,1,0,0:0:0:0:
256,192,165957,1,0,0:0:0:0:
475,192,165957,1,0,0:0:0:0:
36,192,166040,1,0,0:0:0:0:
109,192,166040,1,0,0:0:0:0:
182,192,166040,1,0,0:0:0:0:
402,192,166040,1,0,0:0:0:0:
329,192,166123,1,0,0:0:0:0:
475,192,166123,1,0,0:0:0:0:
256,192,166206,1,0,0:0:0:0:
109,192,166206,1,0,0:0:0:0:
329,192,166289,1,0,0:0:0:0:
182,192,166289,1,0,0:0:0:0:
256,192,166372,1,0,0:0:0:0:
36,192,166372,1,0,0:0:0:0:
402,192,166372,1,0,0:0:0:0:
475,192,166372,1,0,0:0:0:0:
329,192,166456,1,0,0:0:0:0:
109,192,166456,1,0,0:0:0:0:
475,192,166539,1,0,0:0:0:0:
182,192,166539,1,0,0:0:0:0:
402,192,166622,1,0,0:0:0:0:
256,192,166622,1,0,0:0:0:0:
475,192,166705,1,0,0:0:0:0:
329,192,166705,1,0,0:0:0:0:
182,192,166705,1,0,0:0:0:0:
36,192,166705,1,0,0:0:0:0:
109,192,166788,1,0,0:0:0:0:
402,192,166788,1,0,0:0:0:0:
182,192,166871,1,0,0:0:0:0:
329,192,166871,1,0,0:0:0:0:
256,192,166954,1,0,0:0:0:0:
109,192,166954,1,0,0:0:0:0:
329,192,167037,1,0,0:0:0:0:
182,192,167037,1,0,0:0:0:0:
36,192,167037,1,0,0:0:0:0:
475,192,167037,1,0,0:0:0:0:
402,192,167120,1,0,0:0:0:0:
256,192,167120,1,0,0:0:0:0:
329,192,167204,1,0,0:0:0:0:
109,192,167204,1,0,0:0:0:0:
402,192,167287,1,0,0:0:0:0:
182,192,167287,1,0,0:0:0:0:
475,192,167370,1,0,0:0:0:0:
109,192,167370,1,0,0:0:0:0:
36,192,167370,1,0,0:0:0:0:
256,192,167370,1,0,0:0:0:0:
402,192,167453,1,0,0:0:0:0:
182,192,167453,1,0,0:0:0:0:
109,192,167536,1,0,0:0:0:0:
329,192,167536,1,0,0:0:0:0:
256,192,167619,1,0,0:0:0:0:
402,192,167619,1,0,0:0:0:0:
182,192,167702,1,0,0:0:0:0:
475,192,167702,1,0,0:0:0:0:
329,192,167702,1,0,0:0:0:0:
36,192,167702,1,0,0:0:0:0:
256,192,167785,1,0,0:0:0:0:
109,192,167785,1,0,0:0:0:0:
329,192,167868,1,0,0:0:0:0:
182,192,167868,1,0,0:0:0:0:
256,192,167951,1,0,0:0:0:0:
402,192,167951,1,0,0:0:0:0:
36,192,168035,1,0,0:0:0:0:
475,192,168035,1,0,0:0:0:0:
109,192,168035,1,0,0:0:0:0:
182,192,168035,1,0,0:0:0:0:
402,192,168118,1,0,0:0:0:0:
256,192,168118,1,0,0:0:0:0:
109,192,168201,1,0,0:0:0:0:
475,192,168201,1,0,0:0:0:0:
329,192,168284,1,0,0:0:0:0:
182,192,168284,1,0,0:0:0:0:
256,192,168367,1,0,0:0:0:0:
402,192,168367,1,0,0:0:0:0:
475,192,168367,1,0,0:0:0:0:
36,192,168367,1,0,0:0:0:0:
109,192,168450,1,0,0:0:0:0:
329,192,168450,1,0,0:0:0:0:
182,192,168533,1,0,0:0:0:0:
475,192,168533,1,0,0:0:0:0:
402,192,168616,1,0,0:0:0:0:
256,192,168616,1,0,0:0:0:0:
329,192,168699,1,0,0:0:0:0:
475,192,168699,1,0,0:0:0:0:
182,192,168699,1,0,0:0:0:0:
36,192,168699,1,0,0:0:0:0:
109,192,168782,1,0,0:0:0:0:
402,192,168782,1,0,0:0:0:0:
182,192,168866,1,0,0:0:0:0:
329,192,168866,1,0,0:0:0:0:
109,192,168949,1,0,0:0:0:0:
256,192,168949,1,0,0:0:0:0:
36,192,169032,1,0,0:0:0:0:
329,192,169032,1,0,0:0:0:0:
402,192,169032,1,0,0:0:0:0:
475,192,169032,1,0,0:0:0:0:
182,192,169115,1,0,0:0:0:0:
109,192,169115,1,0,0:0:0:0:
256,192,169198,1,0,0:0:0:0:
475,192,169198,1,0,0:0:0:0:
402,192,169281,1,0,0:0:0:0:
182,192,169281,1,0,0:0:0:0:
329,192,169364,1,0,0:0:0:0:
109,192,169364,1,0,0:0:0:0:
36,192,169364,1,0,0:0:0:0:
475,192,169364,1,0,0:0:0:0:
256,192,169447,1,0,0:0:0:0:
402,192,169447,1,0,0:0:0:0:
182,192,169530,1,0,0:0:0:0:
36,192,169530,1,0,0:0:0:0:
109,192,169613,1,0,0:0:0:0:
256,192,169613,1,0,0:0:0:0:
329,192,169697,1,0,0:0:0:0:
475,192,169697,1,0,0:0:0:0:
182,192,169697,1,0,0:0:0:0:
36,192,169697,1,0,0:0:0:0:
256,192,169780,1,0,0:0:0:0:
402,192,169780,1,0,0:0:0:0:
329,192,169863,1,0,0:0:0:0:
109,192,169863,1,0,0:0:0:0:
182,192,169946,1,0,0:0:0:0:
402,192,169946,1,0,0:0:0:0:
109,192,170029,1,0,0:0:0:0:
475,192,170029,1,0,0:0:0:0:
256,192,170029,1,0,0:0:0:0:
36,192,170029,1,0,0:0:0:0:
182,192,170112,1,0,0:0:0:0:
402,192,170112,1,0,0:0:0:0:
109,192,170195,1,0,0:0:0:0:
329,192,170195,1,0,0:0:0:0:
36,192,170278,1,0,0:0:0:0:
256,192,170278,1,0,0:0:0:0:
182,192,170361,1,0,0:0:0:0:
109,192,170361,1,0,0:0:0:0:
402,192,170361,1,0,0:0:0:0:
475,192,170361,1,0,0:0:0:0:
329,192,170445,1,0,0:0:0:0:
256,192,170445,1,0,0:0:0:0:
475,192,170528,1,0,0:0:0:0:
109,192,170528,1,0,0:0:0:0:
36,192,170528,1,0,0:0:0:0:
182,192,170611,1,0,0:0:0:0:
329,192,170611,1,0,0:0:0:0:
256,192,170694,1,0,0:0:0:0:
475,192,170694,1,0,0:0:0:0:
36,192,170694,1,0,0:0:0:0:
402,192,170694,1,0,0:0:0:0:
329,192,170777,1,0,0:0:0:0:
182,192,170777,1,0,0:0:0:0:
109,192,170860,1,0,0:0:0:0:
475,192,170860,1,0,0:0:0:0:
36,192,170860,1,0,0:0:0:0:
402,192,170943,1,0,0:0:0:0:
256,192,170943,1,0,0:0:0:0:
329,192,171026,1,0,0:0:0:0:
109,192,171026,1,0,0:0:0:0:
36,192,171026,1,0,0:0:0:0:
475,192,171026,1,0,0:0:0:0:
256,192,171109,1,0,0:0:0:0:
182,192,171109,1,0,0:0:0:0:
402,192,171192,1,0,0:0:0:0:
109,192,171192,1,0,0:0:0:0:
475,192,171192,1,0,0:0:0:0:
329,192,171276,1,0,0:0:0:0:
256,192,171276,1,0,0:0:0:0:
402,192,171359,1,0,0:0:0:0:
475,192,171359,1,0,0:0:0:0:
182,192,171359,1,0,0:0:0:0:
36,192,171359,1,0,0:0:0:0:
329,192,171442,1,0,0:0:0:0:
109,192,171442,1,0,0:0:0:0:
256,192,171525,1,0,0:0:0:0:
402,192,171525,1,0,0:0:0:0:
475,192,171525,1,0,0:0:0:0:
109,192,171608,1,0,0:0:0:0:
36,192,171608,1,0,0:0:0:0:
402,192,171691,1,0,0:0:0:0:
329,192,171691,1,0,0:0:0:0:
475,192,171691,1,0,0:0:0:0:
182,192,171691,1,0,0:0:0:0:
36,192,171774,1,0,0:0:0:0:
109,192,171774,1,0,0:0:0:0:
256,192,171857,1,0,0:0:0:0:
402,192,171857,1,0,0:0:0:0:
475,192,171857,1,0,0:0:0:0:
329,192,171940,1,0,0:0:0:0:
182,192,171940,1,0,0:0:0:0:
109,192,172023,1,0,0:0:0:0:
36,192,172023,1,0,0:0:0:0:
475,192,172023,1,0,0:0:0:0:
256,192,172023,1,0,0:0:0:0:
329,192,172107,1,0,0:0:0:0:
402,192,172107,1,0,0:0:0:0:
475,192,172190,1,0,0:0:0:0:
109,192,172190,1,0,0:0:0:0:
256,192,172190,1,0,0:0:0:0:
329,192,172273,1,0,0:0:0:0:
182,192,172273,1,0,0:0:0:0:
475,192,172356,1,0,0:0:0:0:
256,192,172356,1,0,0:0:0:0:
402,192,172356,1,0,0:0:0:0:
36,192,172356,1,0,0:0:0:0:
182,192,172439,1,0,0:0:0:0:
109,192,172439,1,0,0:0:0:0:
329,192,172522,1,0,0:0:0:0:
402,192,172522,1,0,0:0:0:0:
182,192,172605,1,0,0:0:0:0:
256,192,172605,1,0,0:0:0:0:
402,192,172688,1,0,0:0:0:0:
475,192,172688,1,0,0:0:0:0:
36,192,172688,1,0,0:0:0:0:
109,192,172688,1,0,0:0:0:0:
256,192,172771,1,0,0:0:0:0:
329,192,172771,1,0,0:0:0:0:
475,192,172854,1,0,0:0:0:0:
182,192,172854,1,0,0:0:0:0:
109,192,172854,1,0,0:0:0:0:
329,192,172938,1,0,0:0:0:0:
402,192,172938,1,0,0:0:0:0:
256,192,173021,1,0,0:0:0:0:
109,192,173021,1,0,0:0:0:0:
36,192,173021,1,0,0:0:0:0:
475,192,173021,1,0,0:0:0:0:
402,192,173104,1,0,0:0:0:0:
182,192,173104,1,0,0:0:0:0:
329,192,173104,1,0,0:0:0:0:
36,192,173187,1,0,0:0:0:0:
475,192,173187,1,0,0:0:0:0:
109,192,173187,1,0,0:0:0:0:
256,192,173270,1,0,0:0:0:0:
329,192,173270,1,0,0:0:0:0:
182,192,173270,1,0,0:0:0:0:
475,192,173353,1,0,0:0:0:0:
402,192,173353,1,0,0:0:0:0:
36,192,173353,1,0,0:0:0:0:
329,192,173436,1,0,0:0:0:0:
109,192,173436,1,0,0:0:0:0:
182,192,173436,1,0,0:0:0:0:
256,192,173519,1,0,0:0:0:0:
475,192,173519,1,0,0:0:0:0:
36,192,173519,1,0,0:0:0:0:
402,192,173602,1,0,0:0:0:0:
329,192,173602,1,0,0:0:0:0:
109,192,173602,1,0,0:0:0:0:
475,192,173686,1,0,0:0:0:0:
182,192,173686,1,0,0:0:0:0:
36,192,173686,1,0,0:0:0:0:
256,192,173769,1,0,0:0:0:0:
402,192,173769,1,0,0:0:0:0:
329,192,173769,1,0,0:0:0:0:
109,192,173852,1,0,0:0:0:0:
36,192,173852,1,0,0:0:0:0:
475,192,173852,1,0,0:0:0:0:
402,192,173935,1,0,0:0:0:0:
329,192,173935,1,0,0:0:0:0:
182,192,173935,1,0,0:0:0:0:
109,192,174018,1,0,0:0:0:0:
36,192,174018,1,0,0:0:0:0:
256,192,174018,1,0,0:0:0:0:
475,192,174101,1,0,0:0:0:0:
402,192,174101,1,0,0:0:0:0:
182,192,174101,1,0,0:0:0:0:
329,192,174184,1,0,0:0:0:0:
109,192,174184,1,0,0:0:0:0:
36,192,174184,1,0,0:0:0:0:
475,192,174267,1,0,0:0:0:0:
256,192,174267,1,0,0:0:0:0:
402,192,174267,1,0,0:0:0:0:
182,192,174350,1,0,0:0:0:0:
36,192,174350,1,0,0:0:0:0:
329,192,174350,1,0,0:0:0:0:
402,192,174433,1,0,0:0:0:0:
109,192,174433,1,0,0:0:0:0:
256,192,174433,1,0,0:0:0:0:
182,192,174517,1,0,0:0:0:0:
329,192,174517,1,0,0:0:0:0:
475,192,174517,1,0,0:0:0:0:
256,192,174600,1,0,0:0:0:0:
109,192,174600,1,0,0:0:0:0:
36,192,174600,1,0,0:0:0:0:
402,192,174683,1,0,0:0:0:0:
475,192,174683,1,0,0:0:0:0:
182,192,174683,1,0,0:0:0:0:
36,192,174766,1,0,0:0:0:0:
109,192,174766,1,0,0:0:0:0:
329,192,174766,1,0,0:0:0:0:
475,192,174849,1,0,0:0:0:0:
402,192,174849,1,0,0:0:0:0:
256,192,174849,1,0,0:0:0:0:
109,192,174932,1,0,0:0:0:0:
182,192,174932,1,0,0:0:0:0:
36,192,174932,1,0,0:0:0:0:
402,192,175015,1,0,0:0:0:0:
475,192,175015,1,0,0:0:0:0:
329,192,175015,1,0,0:0:0:0:
256,192,175015,1,0,0:0:0:0:
36,192,175057,1,0,0:0:0:0:
109,192,175098,1,0,0:0:0:0:
182,192,175140,1,0,0:0:0:0:
475,192,175181,1,0,0:0:0:0:
402,192,175223,1,0,0:0:0:0:
329,192,175264,1,0,0:0:0:0:
109,192,175264,1,0,0:0:0:0:
182,192,175306,1,0,0:0:0:0:
256,192,175348,1,0,0:0:0:0:
475,192,175389,1,0,0:0:0:0:
402,192,175431,1,0,0:0:0:0:
36,192,175431,1,0,0:0:0:0:
329,192,175472,1,0,0:0:0:0:
109,192,175472,1,0,0:0:0:0:
182,192,175514,1,0,0:0:0:0:
256,192,175555,1,0,0:0:0:0:
329,192,175597,1,0,0:0:0:0:
402,192,175638,1,0,0:0:0:0:
36,192,175680,1,0,0:0:0:0:
182,192,175680,1,0,0:0:0:0:
109,192,175680,1,0,0:0:0:0:
475,192,175680,128,0,176012:0:0:0:0:
256,192,176012,128,0,176179:0:0:0:0:
402,192,176012,1,0,0:0:0:0:
109,192,176012,1,0,0:0:0:0:
182,192,176179,128,0,176345:0:0:0:0:
329,192,176179,1,0,0:0:0:0:
36,192,176179,1,0,0:0:0:0:
402,192,176345,1,0,0:0:0:0:
256,192,176428,1,0,0:0:0:0:
36,192,176511,128,0,176843:0:0:0:0:
402,192,176511,1,0,0:0:0:0:
329,192,176594,1,0,0:0:0:0:
256,192,176677,1,0,0:0:0:0:
475,192,176677,1,0,0:0:0:0:
109,192,176677,1,0,0:0:0:0:
402,192,176843,128,0,177674:0:0:0:0:
182,192,176843,1,0,0:0:0:0:
329,192,176927,1,0,0:0:0:0:
36,192,177010,1,0,0:0:0:0:
182,192,177010,1,0,0:0:0:0:
36,192,177176,1,0,0:0:0:0:
182,192,177176,1,0,0:0:0:0:
256,192,177342,1,0,0:0:0:0:
475,192,177342,1,0,0:0:0:0:
109,192,177342,1,0,0:0:0:0:
329,192,177508,1,0,0:0:0:0:
109,192,177591,1,0,0:0:0:0:
475,192,177674,1,0,0:0:0:0:
329,192,177674,1,0,0:0:0:0:
109,192,177758,1,0,0:0:0:0:
256,192,177841,1,0,0:0:0:0:
36,192,177924,1,0,0:0:0:0:
182,192,178007,128,0,178339:0:0:0:0:
475,192,178007,1,0,0:0:0:0:
329,192,178007,1,0,0:0:0:0:
329,192,178173,1,0,0:0:0:0:
109,192,178339,1,0,0:0:0:0:
36,192,178339,1,0,0:0:0:0:
402,192,178339,1,0,0:0:0:0:
475,192,178339,1,0,0:0:0:0:
256,192,178339,1,0,0:0:0:0:
329,192,178422,1,0,0:0:0:0:
109,192,178505,1,0,0:0:0:0:
402,192,178505,1,0,0:0:0:0:
182,192,178589,1,0,0:0:0:0:
402,192,178672,1,0,0:0:0:0:
475,192,178672,1,0,0:0:0:0:
256,192,178672,1,0,0:0:0:0:
36,192,178672,1,0,0:0:0:0:
329,192,178755,1,0,0:0:0:0:
256,192,178838,1,0,0:0:0:0:
109,192,178838,1,0,0:0:0:0:
402,192,178838,1,0,0:0:0:0:
475,192,178838,1,0,0:0:0:0:
36,192,178838,1,0,0:0:0:0:
182,192,178921,1,0,0:0:0:0:
109,192,179004,1,0,0:0:0:0:
402,192,179004,1,0,0:0:0:0:
256,192,179087,1,0,0:0:0:0:
329,192,179170,1,0,0:0:0:0:
182,192,179170,1,0,0:0:0:0:
36,192,179170,1,0,0:0:0:0:
402,192,179170,1,0,0:0:0:0:
475,192,179170,1,0,0:0:0:0:
109,192,179253,1,0,0:0:0:0:
256,192,179336,1,0,0:0:0:0:
402,192,179336,1,0,0:0:0:0:
182,192,179420,1,0,0:0:0:0:
109,192,179503,1,0,0:0:0:0:
36,192,179503,1,0,0:0:0:0:
329,192,179503,1,0,0:0:0:0:
475,192,179503,1,0,0:0:0:0:
402,192,179503,1,0,0:0:0:0:
256,192,179586,1,0,0:0:0:0:
182,192,179669,1,0,0:0:0:0:
109,192,179669,1,0,0:0:0:0:
402,192,179669,1,0,0:0:0:0:
329,192,179752,1,0,0:0:0:0:
475,192,179752,1,0,0:0:0:0:
109,192,179835,1,0,0:0:0:0:
36,192,179835,1,0,0:0:0:0:
256,192,179835,1,0,0:0:0:0:
402,192,179918,1,0,0:0:0:0:
475,192,179918,1,0,0:0:0:0:
182,192,180001,1,0,0:0:0:0:
329,192,180001,1,0,0:0:0:0:
109,192,180001,1,0,0:0:0:0:
256,192,180084,1,0,0:0:0:0:
36,192,180084,1,0,0:0:0:0:
475,192,180168,1,0,0:0:0:0:
402,192,180168,1,0,0:0:0:0:
109,192,180168,1,0,0:0:0:0:
329,192,180251,1,0,0:0:0:0:
182,192,180251,1,0,0:0:0:0:
256,192,180334,1,0,0:0:0:0:
109,192,180334,1,0,0:0:0:0:
36,192,180334,1,0,0:0:0:0:
475,192,180334,1,0,0:0:0:0:
402,192,180375,1,0,0:0:0:0:
182,192,180417,1,0,0:0:0:0:
329,192,180417,1,0,0:0:0:0:
109,192,180458,1,0,0:0:0:0:
36,192,180500,1,0,0:0:0:0:
475,192,180500,1,0,0:0:0:0:
402,192,180541,1,0,0:0:0:0:
329,192,180583,1,0,0:0:0:0:
182,192,180583,1,0,0:0:0:0:
109,192,180625,1,0,0:0:0:0:
36,192,180666,1,0,0:0:0:0:
256,192,180666,1,0,0:0:0:0:
475,192,180666,1,0,0:0:0:0:
402,192,180749,1,0,0:0:0:0:
182,192,180749,1,0,0:0:0:0:
329,192,180749,1,0,0:0:0:0:
109,192,180791,1,0,0:0:0:0:
36,192,180832,1,0,0:0:0:0:
256,192,180832,1,0,0:0:0:0:
475,192,180832,1,0,0:0:0:0:
109,192,180915,1,0,0:0:0:0:
329,192,180915,1,0,0:0:0:0:
182,192,180915,1,0,0:0:0:0:
402,192,180999,1,0,0:0:0:0:
256,192,180999,1,0,0:0:0:0:
36,192,180999,1,0,0:0:0:0:
475,192,180999,1,0,0:0:0:0:
109,192,181165,1,0,0:0:0:0:
329,192,181165,1,0,0:0:0:0:
256,192,181331,1,0,0:0:0:0:
402,192,181331,1,0,0:0:0:0:
475,192,181331,1,0,0:0:0:0:
109,192,181331,1,0,0:0:0:0:
36,192,181331,1,0,0:0:0:0:
329,192,181497,1,0,0:0:0:0:
182,192,181497,1,0,0:0:0:0:
182,192,181663,1,0,0:0:0:0:
329,192,181663,1,0,0:0:0:0:
36,192,181663,1,0,0:0:0:0:
256,192,181663,1,0,0:0:0:0:
475,192,181663,1,0,0:0:0:0:
475,192,181830,1,0,0:0:0:0:
329,192,181830,1,0,0:0:0:0:
402,192,181830,1,0,0:0:0:0:
109,192,181830,1,0,0:0:0:0:
182,192,181996,1,0,0:0:0:0:
256,192,181996,1,0,0:0:0:0:
36,192,181996,1,0,0:0:0:0:
402,192,181996,1,0,0:0:0:0:
475,192,181996,1,0,0:0:0:0:
329,192,182162,1,0,0:0:0:0:
256,192,182162,1,0,0:0:0:0:
36,192,182162,1,0,0:0:0:0:
109,192,182162,1,0,0:0:0:0:
109,192,182328,1,0,0:0:0:0:
402,192,182328,1,0,0:0:0:0:
329,192,182494,1,0,0:0:0:0:
182,192,182494,1,0,0:0:0:0:
402,192,182494,1,0,0:0:0:0:
475,192,182494,1,0,0:0:0:0:
109,192,182661,1,0,0:0:0:0:
256,192,182661,1,0,0:0:0:0:
329,192,182827,1,0,0:0:0:0:
402,192,182827,1,0,0:0:0:0:
182,192,182827,1,0,0:0:0:0:
36,192,182827,1,0,0:0:0:0:
256,192,182993,1,0,0:0:0:0:
402,192,182993,1,0,0:0:0:0:
475,192,182993,1,0,0:0:0:0:
109,192,182993,1,0,0:0:0:0:
36,192,182993,1,0,0:0:0:0:
109,192,183159,1,0,0:0:0:0:
182,192,183159,1,0,0:0:0:0:
329,192,183159,1,0,0:0:0:0:
402,192,183159,1,0,0:0:0:0:
402,192,183325,1,0,0:0:0:0:
256,192,183325,1,0,0:0:0:0:
475,192,183325,1,0,0:0:0:0:
36,192,183325,1,0,0:0:0:0:
109,192,183492,1,0,0:0:0:0:
329,192,183492,1,0,0:0:0:0:
182,192,183492,1,0,0:0:0:0:
475,192,183492,1,0,0:0:0:0:
329,192,183658,1,0,0:0:0:0:
256,192,183658,1,0,0:0:0:0:
402,192,183658,1,0,0:0:0:0:
36,192,183658,1,0,0:0:0:0:
109,192,183658,1,0,0:0:0:0:
182,192,183824,1,0,0:0:0:0:
475,192,183824,1,0,0:0:0:0:
475,192,183990,1,0,0:0:0:0:
402,192,183990,1,0,0:0:0:0:
329,192,183990,1,0,0:0:0:0:
182,192,183990,1,0,0:0:0:0:
36,192,183990,1,0,0:0:0:0:
109,192,184156,1,0,0:0:0:0:
256,192,184156,1,0,0:0:0:0:
182,192,184323,1,0,0:0:0:0:
329,192,184323,1,0,0:0:0:0:
402,192,184323,1,0,0:0:0:0:
475,192,184323,1,0,0:0:0:0:
109,192,184323,1,0,0:0:0:0:
182,192,184489,1,0,0:0:0:0:
402,192,184489,1,0,0:0:0:0:
475,192,184489,1,0,0:0:0:0:
36,192,184489,1,0,0:0:0:0:
329,192,184655,1,0,0:0:0:0:
109,192,184655,1,0,0:0:0:0:
182,192,184655,1,0,0:0:0:0:
256,192,184655,1,0,0:0:0:0:
475,192,184655,1,0,0:0:0:0:
256,192,184821,1,0,0:0:0:0:
402,192,184821,1,0,0:0:0:0:
182,192,184821,1,0,0:0:0:0:
36,192,184821,1,0,0:0:0:0:
109,192,184987,1,0,0:0:0:0:
329,192,184987,1,0,0:0:0:0:
475,192,185154,1,0,0:0:0:0:
402,192,185154,1,0,0:0:0:0:
256,192,185154,1,0,0:0:0:0:
109,192,185154,1,0,0:0:0:0:
256,192,185320,1,0,0:0:0:0:
36,192,185320,1,0,0:0:0:0:
109,192,185486,1,0,0:0:0:0:
329,192,185486,1,0,0:0:0:0:
402,192,185486,1,0,0:0:0:0:
475,192,185486,1,0,0:0:0:0:
402,192,185652,1,0,0:0:0:0:
182,192,185652,1,0,0:0:0:0:
36,192,185652,1,0,0:0:0:0:
256,192,185652,1,0,0:0:0:0:
475,192,185652,1,0,0:0:0:0:
329,192,185818,1,0,0:0:0:0:
402,192,185818,1,0,0:0:0:0:
109,192,185818,1,0,0:0:0:0:
182,192,185818,1,0,0:0:0:0:
109,192,185985,1,0,0:0:0:0:
36,192,185985,1,0,0:0:0:0:
256,192,185985,1,0,0:0:0:0:
402,192,185985,1,0,0:0:0:0:
475,192,185985,1,0,0:0:0:0:
182,192,186151,1,0,0:0:0:0:
329,192,186151,1,0,0:0:0:0:
402,192,186151,1,0,0:0:0:0:
36,192,186151,1,0,0:0:0:0:
109,192,186317,1,0,0:0:0:0:
256,192,186317,1,0,0:0:0:0:
329,192,186317,1,0,0:0:0:0:
402,192,186317,1,0,0:0:0:0:
475,192,186317,1,0,0:0:0:0:
109,192,186483,1,0,0:0:0:0:
329,192,186483,1,0,0:0:0:0:
402,192,186649,1,0,0:0:0:0:
475,192,186649,1,0,0:0:0:0:
182,192,186649,1,0,0:0:0:0:
256,192,186649,1,0,0:0:0:0:
36,192,186649,1,0,0:0:0:0:
109,192,186816,1,0,0:0:0:0:
402,192,186816,1,0,0:0:0:0:
182,192,186982,1,0,0:0:0:0:
256,192,186982,1,0,0:0:0:0:
329,192,186982,1,0,0:0:0:0:
475,192,186982,1,0,0:0:0:0:
36,192,186982,1,0,0:0:0:0:
109,192,187148,1,0,0:0:0:0:
256,192,187148,1,0,0:0:0:0:
402,192,187148,1,0,0:0:0:0:
329,192,187148,1,0,0:0:0:0:
402,192,187314,1,0,0:0:0:0:
109,192,187314,1,0,0:0:0:0:
182,192,187314,1,0,0:0:0:0:
329,192,187314,1,0,0:0:0:0:
475,192,187314,1,0,0:0:0:0:
475,192,187481,1,0,0:0:0:0:
402,192,187481,1,0,0:0:0:0:
36,192,187481,1,0,0:0:0:0:
182,192,187481,1,0,0:0:0:0:
109,192,187647,1,0,0:0:0:0:
256,192,187647,1,0,0:0:0:0:
256,192,187813,1,0,0:0:0:0:
109,192,187813,1,0,0:0:0:0:
402,192,187813,1,0,0:0:0:0:
475,192,187813,1,0,0:0:0:0:
329,192,187979,1,0,0:0:0:0:
36,192,187979,1,0,0:0:0:0:
36,192,188145,1,0,0:0:0:0:
109,192,188145,1,0,0:0:0:0:
256,192,188145,1,0,0:0:0:0:
475,192,188145,1,0,0:0:0:0:
329,192,188312,1,0,0:0:0:0:
182,192,188312,1,0,0:0:0:0:
402,192,188312,1,0,0:0:0:0:
109,192,188312,1,0,0:0:0:0:
475,192,188312,1,0,0:0:0:0:
329,192,188478,1,0,0:0:0:0:
36,192,188478,1,0,0:0:0:0:
402,192,188478,1,0,0:0:0:0:
182,192,188478,1,0,0:0:0:0:
256,192,188644,1,0,0:0:0:0:
402,192,188644,1,0,0:0:0:0:
475,192,188644,1,0,0:0:0:0:
36,192,188644,1,0,0:0:0:0:
109,192,188644,1,0,0:0:0:0:
109,192,188810,1,0,0:0:0:0:
256,192,188810,1,0,0:0:0:0:
329,192,188810,1,0,0:0:0:0:
402,192,188810,1,0,0:0:0:0:
182,192,188976,1,0,0:0:0:0:
36,192,188976,1,0,0:0:0:0:
109,192,188976,1,0,0:0:0:0:
329,192,188976,1,0,0:0:0:0:
475,192,188976,1,0,0:0:0:0:
256,192,189143,1,0,0:0:0:0:
402,192,189143,1,0,0:0:0:0:
402,192,189309,1,0,0:0:0:0:
475,192,189309,1,0,0:0:0:0:
329,192,189309,1,0,0:0:0:0:
182,192,189309,1,0,0:0:0:0:
36,192,189309,1,0,0:0:0:0:
109,192,189475,1,0,0:0:0:0:
256,192,189475,1,0,0:0:0:0:
109,192,189641,1,0,0:0:0:0:
475,192,189641,1,0,0:0:0:0:
256,192,189641,1,0,0:0:0:0:
36,192,189641,1,0,0:0:0:0:
402,192,189641,1,0,0:0:0:0:
329,192,189807,1,0,0:0:0:0:
402,192,189807,1,0,0:0:0:0:
182,192,189807,1,0,0:0:0:0:
109,192,189807,1,0,0:0:0:0:
256,192,189974,1,0,0:0:0:0:
402,192,189974,1,0,0:0:0:0:
475,192,189974,1,0,0:0:0:0:
36,192,189974,1,0,0:0:0:0:
182,192,189974,1,0,0:0:0:0:
109,192,190140,1,0,0:0:0:0:
256,192,190140,1,0,0:0:0:0:
402,192,190140,1,0,0:0:0:0:
475,192,190140,1,0,0:0:0:0:
182,192,190306,1,0,0:0:0:0:
329,192,190306,1,0,0:0:0:0:
475,192,190306,1,0,0:0:0:0:
36,192,190306,1,0,0:0:0:0:
402,192,190472,128,0,190805:0:0:0:0:
109,192,190472,128,0,190805:0:0:0:0:
182,192,190805,128,0,190971:0:0:0:0:
329,192,190805,128,0,190971:0:0:0:0:
475,192,190971,128,0,191137:0:0:0:0:
36,192,190971,128,0,191137:0:0:0:0:
256,192,190971,1,0,0:0:0:0:
402,192,190971,1,0,0:0:0:0:
109,192,191137,128,0,191303:0:0:0:0:
329,192,191137,128,0,191303:0:0:0:0:
402,192,191303,128,0,191469:0:0:0:0:
182,192,191303,128,0,191469:0:0:0:0:
36,192,191469,128,0,191636:0:0:0:0:
256,192,191469,128,0,191636:0:0:0:0:
109,192,191636,1,0,0:0:0:0:
182,192,191636,1,0,0:0:0:0:
329,192,191636,1,0,0:0:0:0:
402,192,191636,1,0,0:0:0:0:
475,192,191636,1,0,0:0:0:0:
182,192,191802,1,0,0:0:0:0:
329,192,191802,1,0,0:0:0:0:
402,192,191968,1,0,0:0:0:0:
256,192,191968,1,0,0:0:0:0:
109,192,191968,1,0,0:0:0:0:
36,192,191968,1,0,0:0:0:0:
475,192,191968,1,0,0:0:0:0:
109,192,192134,1,0,0:0:0:0:
329,192,192134,1,0,0:0:0:0:
182,192,192300,1,0,0:0:0:0:
329,192,192300,1,0,0:0:0:0:
36,192,192300,1,0,0:0:0:0:
402,192,192300,1,0,0:0:0:0:
475,192,192300,1,0,0:0:0:0:
109,192,192467,1,0,0:0:0:0:
182,192,192467,1,0,0:0:0:0:
402,192,192467,1,0,0:0:0:0:
256,192,192467,1,0,0:0:0:0:
256,192,192633,1,0,0:0:0:0:
36,192,192633,1,0,0:0:0:0:
109,192,192633,1,0,0:0:0:0:
329,192,192633,1,0,0:0:0:0:
475,192,192633,1,0,0:0:0:0:
182,192,192799,1,0,0:0:0:0:
402,192,192799,1,0,0:0:0:0:
475,192,192799,1,0,0:0:0:0:
109,192,192799,1,0,0:0:0:0:
182,192,192965,1,0,0:0:0:0:
329,192,192965,1,0,0:0:0:0:
109,192,193131,1,0,0:0:0:0:
402,192,193131,1,0,0:0:0:0:
256,192,193131,1,0,0:0:0:0:
36,192,193131,1,0,0:0:0:0:
109,192,193298,1,0,0:0:0:0:
402,192,193298,1,0,0:0:0:0:
329,192,193464,1,0,0:0:0:0:
182,192,193464,1,0,0:0:0:0:
36,192,193464,1,0,0:0:0:0:
475,192,193464,1,0,0:0:0:0:
109,192,193630,1,0,0:0:0:0:
182,192,193630,1,0,0:0:0:0:
329,192,193630,1,0,0:0:0:0:
36,192,193630,1,0,0:0:0:0:
475,192,193630,1,0,0:0:0:0:
475,192,193796,1,0,0:0:0:0:
109,192,193796,1,0,0:0:0:0:
256,192,193796,1,0,0:0:0:0:
402,192,193796,1,0,0:0:0:0:
182,192,193963,1,0,0:0:0:0:
402,192,193963,1,0,0:0:0:0:
329,192,193963,1,0,0:0:0:0:
475,192,193963,1,0,0:0:0:0:
36,192,193963,1,0,0:0:0:0:
256,192,194129,1,0,0:0:0:0:
402,192,194129,1,0,0:0:0:0:
329,192,194129,1,0,0:0:0:0:
109,192,194129,1,0,0:0:0:0:
329,192,194295,1,0,0:0:0:0:
256,192,194295,1,0,0:0:0:0:
36,192,194295,1,0,0:0:0:0:
475,192,194295,1,0,0:0:0:0:
182,192,194295,1,0,0:0:0:0:
402,192,194461,1,0,0:0:0:0:
109,192,194461,1,0,0:0:0:0:
182,192,194627,1,0,0:0:0:0:
109,192,194627,1,0,0:0:0:0:
36,192,194627,1,0,0:0:0:0:
329,192,194627,1,0,0:0:0:0:
475,192,194627,1,0,0:0:0:0:
182,192,194794,1,0,0:0:0:0:
329,192,194794,1,0,0:0:0:0:
402,192,194960,1,0,0:0:0:0:
475,192,194960,1,0,0:0:0:0:
256,192,194960,1,0,0:0:0:0:
109,192,194960,1,0,0:0:0:0:
36,192,194960,1,0,0:0:0:0:
109,192,195126,1,0,0:0:0:0:
182,192,195126,1,0,0:0:0:0:
256,192,195126,1,0,0:0:0:0:
329,192,195126,1,0,0:0:0:0:
402,192,195292,1,0,0:0:0:0:
475,192,195292,1,0,0:0:0:0:
329,192,195292,1,0,0:0:0:0:
182,192,195292,1,0,0:0:0:0:
36,192,195292,1,0,0:0:0:0:
256,192,195458,1,0,0:0:0:0:
109,192,195458,1,0,0:0:0:0:
402,192,195458,1,0,0:0:0:0:
475,192,195458,1,0,0:0:0:0:
329,192,195625,1,0,0:0:0:0:
182,192,195625,1,0,0:0:0:0:
329,192,195791,1,0,0:0:0:0:
182,192,195791,1,0,0:0:0:0:
36,192,195791,1,0,0:0:0:0:
475,192,195791,1,0,0:0:0:0:
109,192,195957,1,0,0:0:0:0:
256,192,195957,1,0,0:0:0:0:
182,192,196123,1,0,0:0:0:0:
329,192,196123,1,0,0:0:0:0:
402,192,196123,1,0,0:0:0:0:
475,192,196123,1,0,0:0:0:0:
109,192,196289,1,0,0:0:0:0:
475,192,196289,1,0,0:0:0:0:
256,192,196289,1,0,0:0:0:0:
402,192,196289,1,0,0:0:0:0:
36,192,196289,1,0,0:0:0:0:
329,192,196456,1,0,0:0:0:0:
109,192,196456,1,0,0:0:0:0:
182,192,196456,1,0,0:0:0:0:
402,192,196456,1,0,0:0:0:0:
475,192,196622,1,0,0:0:0:0:
256,192,196622,1,0,0:0:0:0:
109,192,196622,1,0,0:0:0:0:
36,192,196622,1,0,0:0:0:0:
402,192,196622,1,0,0:0:0:0:
182,192,196788,1,0,0:0:0:0:
329,192,196788,1,0,0:0:0:0:
402,192,196788,1,0,0:0:0:0:
36,192,196788,1,0,0:0:0:0:
402,192,196954,1,0,0:0:0:0:
256,192,196954,1,0,0:0:0:0:
109,192,196954,1,0,0:0:0:0:
36,192,196954,1,0,0:0:0:0:
475,192,196954,1,0,0:0:0:0:
109,192,197120,1,0,0:0:0:0:
182,192,197120,1,0,0:0:0:0:
329,192,197120,1,0,0:0:0:0:
402,192,197287,1,0,0:0:0:0:
182,192,197287,1,0,0:0:0:0:
36,192,197287,1,0,0:0:0:0:
329,192,197287,1,0,0:0:0:0:
475,192,197287,1,0,0:0:0:0:
109,192,197453,1,0,0:0:0:0:
256,192,197453,1,0,0:0:0:0:
475,192,197453,1,0,0:0:0:0:
256,192,197619,1,0,0:0:0:0:
109,192,197619,1,0,0:0:0:0:
36,192,197619,1,0,0:0:0:0:
329,192,197619,1,0,0:0:0:0:
475,192,197619,1,0,0:0:0:0:
109,192,197785,1,0,0:0:0:0:
182,192,197785,1,0,0:0:0:0:
329,192,197785,1,0,0:0:0:0:
402,192,197785,1,0,0:0:0:0:
475,192,197785,1,0,0:0:0:0:
256,192,197951,1,0,0:0:0:0:
109,192,197951,1,0,0:0:0:0:
329,192,197951,1,0,0:0:0:0:
36,192,197951,1,0,0:0:0:0:
475,192,197951,1,0,0:0:0:0:
329,192,198118,1,0,0:0:0:0:
182,192,198118,1,0,0:0:0:0:
475,192,198118,1,0,0:0:0:0:
36,192,198118,1,0,0:0:0:0:
402,192,198118,1,0,0:0:0:0:
256,192,198284,1,0,0:0:0:0:
402,192,198284,1,0,0:0:0:0:
109,192,198284,1,0,0:0:0:0:
36,192,198450,1,0,0:0:0:0:
182,192,198450,1,0,0:0:0:0:
402,192,198450,1,0,0:0:0:0:
329,192,198450,1,0,0:0:0:0:
475,192,198450,1,0,0:0:0:0:
109,192,198616,1,0,0:0:0:0:
256,192,198616,1,0,0:0:0:0:
329,192,198616,1,0,0:0:0:0:
256,192,198782,1,0,0:0:0:0:
182,192,198782,1,0,0:0:0:0:
402,192,198782,1,0,0:0:0:0:
475,192,198782,1,0,0:0:0:0:
36,192,198782,1,0,0:0:0:0:
182,192,198949,1,0,0:0:0:0:
329,192,198949,1,0,0:0:0:0:
402,192,198949,1,0,0:0:0:0:
475,192,198949,1,0,0:0:0:0:
109,192,198949,1,0,0:0:0:0:
329,192,199115,1,0,0:0:0:0:
109,192,199115,1,0,0:0:0:0:
256,192,199115,1,0,0:0:0:0:
402,192,199115,1,0,0:0:0:0:
36,192,199115,1,0,0:0:0:0:
109,192,199281,1,0,0:0:0:0:
402,192,199281,1,0,0:0:0:0:
182,192,199281,1,0,0:0:0:0:
329,192,199281,1,0,0:0:0:0:
475,192,199281,1,0,0:0:0:0:
402,192,199447,1,0,0:0:0:0:
475,192,199447,1,0,0:0:0:0:
182,192,199447,1,0,0:0:0:0:
256,192,199447,1,0,0:0:0:0:
36,192,199447,1,0,0:0:0:0:
109,192,199613,1,0,0:0:0:0:
256,192,199613,1,0,0:0:0:0:
402,192,199613,1,0,0:0:0:0:
475,192,199613,1,0,0:0:0:0:
36,192,199613,1,0,0:0:0:0:
182,192,199697,1,0,0:0:0:0:
329,192,199697,1,0,0:0:0:0:
475,192,199780,1,0,0:0:0:0:
402,192,199780,1,0,0:0:0:0:
109,192,199863,1,0,0:0:0:0:
256,192,199863,1,0,0:0:0:0:
329,192,199946,1,0,0:0:0:0:
182,192,199946,1,0,0:0:0:0:
36,192,199946,1,0,0:0:0:0:
475,192,199946,1,0,0:0:0:0:
256,192,200029,1,0,0:0:0:0:
402,192,200029,1,0,0:0:0:0:
182,192,200112,1,0,0:0:0:0:
109,192,200112,1,0,0:0:0:0:
402,192,200195,1,0,0:0:0:0:
329,192,200195,1,0,0:0:0:0:
256,192,200278,1,0,0:0:0:0:
475,192,200278,1,0,0:0:0:0:
109,192,200278,1,0,0:0:0:0:
36,192,200278,1,0,0:0:0:0:
182,192,200361,1,0,0:0:0:0:
329,192,200361,1,0,0:0:0:0:
475,192,200445,1,0,0:0:0:0:
256,192,200445,1,0,0:0:0:0:
109,192,200445,1,0,0:0:0:0:
36,192,200445,1,0,0:0:0:0:
402,192,200528,1,0,0:0:0:0:
329,192,200528,1,0,0:0:0:0:
475,192,200611,1,0,0:0:0:0:
36,192,200611,1,0,0:0:0:0:
182,192,200611,1,0,0:0:0:0:
109,192,200611,1,0,0:0:0:0:
256,192,200694,1,0,0:0:0:0:
329,192,200694,1,0,0:0:0:0:
402,192,200777,1,0,0:0:0:0:
475,192,200777,1,0,0:0:0:0:
36,192,200777,1,0,0:0:0:0:
109,192,200777,1,0,0:0:0:0:
256,192,200860,1,0,0:0:0:0:
182,192,200860,1,0,0:0:0:0:
402,192,200943,1,0,0:0:0:0:
329,192,200943,1,0,0:0:0:0:
256,192,201026,1,0,0:0:0:0:
182,192,201026,1,0,0:0:0:0:
36,192,201109,1,0,0:0:0:0:
109,192,201109,1,0,0:0:0:0:
402,192,201109,1,0,0:0:0:0:
475,192,201109,1,0,0:0:0:0:
256,192,201192,1,0,0:0:0:0:
329,192,201192,1,0,0:0:0:0:
402,192,201276,1,0,0:0:0:0:
475,192,201276,1,0,0:0:0:0:
36,192,201276,1,0,0:0:0:0:
109,192,201276,1,0,0:0:0:0:
182,192,201359,1,0,0:0:0:0:
329,192,201359,1,0,0:0:0:0:
475,192,201442,1,0,0:0:0:0:
402,192,201442,1,0,0:0:0:0:
36,192,201442,1,0,0:0:0:0:
256,192,201442,1,0,0:0:0:0:
182,192,201525,1,0,0:0:0:0:
329,192,201525,1,0,0:0:0:0:
256,192,201608,1,0,0:0:0:0:
475,192,201608,1,0,0:0:0:0:
36,192,201608,1,0,0:0:0:0:
109,192,201608,1,0,0:0:0:0:
402,192,201649,1,0,0:0:0:0:
329,192,201691,1,0,0:0:0:0:
109,192,201733,1,0,0:0:0:0:
182,192,201774,1,0,0:0:0:0:
256,192,201816,1,0,0:0:0:0:
475,192,201816,1,0,0:0:0:0:
402,192,201857,1,0,0:0:0:0:
329,192,201899,1,0,0:0:0:0:
36,192,201899,1,0,0:0:0:0:
109,192,201940,1,0,0:0:0:0:
182,192,201982,1,0,0:0:0:0:
475,192,202023,1,0,0:0:0:0:
402,192,202065,1,0,0:0:0:0:
329,192,202107,1,0,0:0:0:0:
256,192,202148,1,0,0:0:0:0:
182,192,202190,1,0,0:0:0:0:
109,192,202231,1,0,0:0:0:0:
329,192,202273,1,0,0:0:0:0:
402,192,202273,1,0,0:0:0:0:
475,192,202273,1,0,0:0:0:0:
36,192,202273,128,0,202938:0:0:0:0:
402,192,202439,1,0,0:0:0:0:
109,192,202605,1,0,0:0:0:0:
256,192,202605,1,0,0:0:0:0:
475,192,202605,1,0,0:0:0:0:
182,192,202771,1,0,0:0:0:0:
329,192,202854,1,0,0:0:0:0:
402,192,202938,128,0,203602:0:0:0:0:
256,192,202938,1,0,0:0:0:0:
182,192,203021,1,0,0:0:0:0:
36,192,203104,1,0,0:0:0:0:
109,192,203187,1,0,0:0:0:0:
329,192,203270,1,0,0:0:0:0:
182,192,203270,1,0,0:0:0:0:
475,192,203270,1,0,0:0:0:0:
256,192,203436,1,0,0:0:0:0:
109,192,203519,1,0,0:0:0:0:
182,192,203602,128,0,204267:0:0:0:0:
329,192,203602,1,0,0:0:0:0:
329,192,203769,1,0,0:0:0:0:
256,192,203935,1,0,0:0:0:0:
402,192,203935,1,0,0:0:0:0:
36,192,203935,1,0,0:0:0:0:
109,192,204101,1,0,0:0:0:0:
329,192,204184,1,0,0:0:0:0:
475,192,204267,128,0,204932:0:0:0:0:
36,192,204267,1,0,0:0:0:0:
256,192,204350,1,0,0:0:0:0:
182,192,204433,1,0,0:0:0:0:
329,192,204517,1,0,0:0:0:0:
256,192,204600,1,0,0:0:0:0:
109,192,204600,1,0,0:0:0:0:
402,192,204600,1,0,0:0:0:0:
182,192,204766,1,0,0:0:0:0:
329,192,204849,1,0,0:0:0:0:
109,192,204932,128,0,205929:0:0:0:0:
256,192,204932,1,0,0:0:0:0:
402,192,205098,1,0,0:0:0:0:
329,192,205264,1,0,0:0:0:0:
182,192,205264,1,0,0:0:0:0:
475,192,205264,1,0,0:0:0:0:
256,192,205431,1,0,0:0:0:0:
36,192,205514,1,0,0:0:0:0:
402,192,205597,1,0,0:0:0:0:
182,192,205680,1,0,0:0:0:0:
329,192,205763,1,0,0:0:0:0:
256,192,205846,1,0,0:0:0:0:
402,192,205929,128,0,206095:0:0:0:0:
182,192,205929,1,0,0:0:0:0:
475,192,205929,1,0,0:0:0:0:
36,192,205929,1,0,0:0:0:0:
329,192,206095,128,0,206594:0:0:0:0:
109,192,206095,1,0,0:0:0:0:
256,192,206179,1,0,0:0:0:0:
182,192,206262,1,0,0:0:0:0:
182,192,206428,1,0,0:0:0:0:
256,192,206594,1,0,0:0:0:0:
109,192,206594,1,0,0:0:0:0:
475,192,206594,1,0,0:0:0:0:
329,192,206760,1,0,0:0:0:0:
475,192,206843,1,0,0:0:0:0:
182,192,206927,128,0,207259:0:0:0:0:
329,192,206927,1,0,0:0:0:0:
402,192,207010,1,0,0:0:0:0:
109,192,207093,1,0,0:0:0:0:
256,192,207176,1,0,0:0:0:0:
402,192,207259,128,0,207591:0:0:0:0:
36,192,207259,1,0,0:0:0:0:
329,192,207259,1,0,0:0:0:0:
475,192,207259,1,0,0:0:0:0:
109,192,207425,1,0,0:0:0:0:
329,192,207508,1,0,0:0:0:0:
256,192,207591,128,0,208256:0:0:0:0:
182,192,207591,1,0,0:0:0:0:
109,192,207758,1,0,0:0:0:0:
109,192,207924,1,0,0:0:0:0:
329,192,207924,1,0,0:0:0:0:
475,192,207924,1,0,0:0:0:0:
402,192,208090,1,0,0:0:0:0:
182,192,208173,1,0,0:0:0:0:
329,192,208256,1,0,0:0:0:0:
36,192,208339,1,0,0:0:0:0:
182,192,208422,1,0,0:0:0:0:
329,192,208505,1,0,0:0:0:0:
475,192,208589,128,0,208921:0:0:0:0:
256,192,208589,1,0,0:0:0:0:
109,192,208589,1,0,0:0:0:0:
402,192,208589,1,0,0:0:0:0:
182,192,208755,1,0,0:0:0:0:
329,192,208838,1,0,0:0:0:0:
109,192,208921,128,0,209586:0:0:0:0:
402,192,208921,1,0,0:0:0:0:
256,192,209087,1,0,0:0:0:0:
182,192,209253,1,0,0:0:0:0:
329,192,209253,1,0,0:0:0:0:
475,192,209253,1,0,0:0:0:0:
402,192,209420,1,0,0:0:0:0:
256,192,209503,1,0,0:0:0:0:
36,192,209586,128,0,209918:0:0:0:0:
475,192,209586,1,0,0:0:0:0:
329,192,209669,1,0,0:0:0:0:
182,192,209752,1,0,0:0:0:0:
256,192,209835,1,0,0:0:0:0:
402,192,209918,128,0,210583:0:0:0:0:
329,192,209918,1,0,0:0:0:0:
109,192,209918,1,0,0:0:0:0:
475,192,209918,1,0,0:0:0:0:
182,192,210084,1,0,0:0:0:0:
36,192,210168,1,0,0:0:0:0:
182,192,210251,1,0,0:0:0:0:
329,192,210417,1,0,0:0:0:0:
109,192,210583,128,0,210749:0:0:0:0:
256,192,210583,1,0,0:0:0:0:
36,192,210583,1,0,0:0:0:0:
475,192,210583,1,0,0:0:0:0:
329,192,210749,128,0,211165:0:0:0:0:
182,192,210749,1,0,0:0:0:0:
36,192,210832,1,0,0:0:0:0:
256,192,210915,1,0,0:0:0:0:
109,192,210999,1,0,0:0:0:0:
182,192,211082,1,0,0:0:0:0:
36,192,211165,1,0,0:0:0:0:
329,192,211248,128,0,212245:0:0:0:0:
256,192,211248,1,0,0:0:0:0:
475,192,211248,1,0,0:0:0:0:
109,192,211248,1,0,0:0:0:0:
402,192,211414,1,0,0:0:0:0:
182,192,211497,1,0,0:0:0:0:
256,192,211580,1,0,0:0:0:0:
109,192,211580,1,0,0:0:0:0:
36,192,211580,1,0,0:0:0:0:
402,192,211746,1,0,0:0:0:0:
109,192,211830,1,0,0:0:0:0:
256,192,211913,1,0,0:0:0:0:
36,192,211996,1,0,0:0:0:0:
182,192,212079,1,0,0:0:0:0:
402,192,212079,1,0,0:0:0:0:
475,192,212079,1,0,0:0:0:0:
256,192,212245,1,0,0:0:0:0:
475,192,212328,1,0,0:0:0:0:
109,192,212411,1,0,0:0:0:0:
402,192,212494,1,0,0:0:0:0:
36,192,212577,128,0,212827:0:0:0:0:
182,192,212577,1,0,0:0:0:0:
329,192,212661,1,0,0:0:0:0:
475,192,212744,1,0,0:0:0:0:
256,192,212744,1,0,0:0:0:0:
402,192,212744,1,0,0:0:0:0:
36,192,212910,128,0,213242:0:0:0:0:
182,192,212910,1,0,0:0:0:0:
329,192,213076,1,0,0:0:0:0:
475,192,213242,128,0,213408:0:0:0:0:
256,192,213242,1,0,0:0:0:0:
109,192,213242,1,0,0:0:0:0:
402,192,213242,1,0,0:0:0:0:
329,192,213408,128,0,213741:0:0:0:0:
182,192,213408,1,0,0:0:0:0:
36,192,213492,1,0,0:0:0:0:
256,192,213575,1,0,0:0:0:0:
109,192,213658,1,0,0:0:0:0:
36,192,213741,128,0,213907:0:0:0:0:
182,192,213741,1,0,0:0:0:0:
256,192,213824,1,0,0:0:0:0:
402,192,213907,128,0,214904:0:0:0:0:
329,192,213907,1,0,0:0:0:0:
475,192,213907,1,0,0:0:0:0:
109,192,213907,1,0,0:0:0:0:
182,192,214073,1,0,0:0:0:0:
329,192,214156,1,0,0:0:0:0:
182,192,214240,1,0,0:0:0:0:
256,192,214406,1,0,0:0:0:0:
256,192,214572,1,0,0:0:0:0:
109,192,214572,1,0,0:0:0:0:
36,192,214572,1,0,0:0:0:0:
329,192,214738,1,0,0:0:0:0:
182,192,214821,1,0,0:0:0:0:
256,192,214904,1,0,0:0:0:0:
475,192,214987,1,0,0:0:0:0:
182,192,215071,1,0,0:0:0:0:
402,192,215154,1,0,0:0:0:0:
109,192,215237,128,0,215403:0:0:0:0:
475,192,215237,1,0,0:0:0:0:
256,192,215237,1,0,0:0:0:0:
36,192,215237,1,0,0:0:0:0:
329,192,215403,128,0,215569:0:0:0:0:
402,192,215403,1,0,0:0:0:0:
256,192,215486,1,0,0:0:0:0:
182,192,215569,128,0,215902:0:0:0:0:
475,192,215569,1,0,0:0:0:0:
36,192,215735,1,0,0:0:0:0:
402,192,215902,128,0,216068:0:0:0:0:
109,192,215902,1,0,0:0:0:0:
256,192,215902,1,0,0:0:0:0:
475,192,215902,1,0,0:0:0:0:
329,192,216068,128,0,216400:0:0:0:0:
182,192,216068,1,0,0:0:0:0:
256,192,216151,1,0,0:0:0:0:
36,192,216234,1,0,0:0:0:0:
475,192,216317,1,0,0:0:0:0:
109,192,216400,128,0,216566:0:0:0:0:
256,192,216400,1,0,0:0:0:0:
402,192,216483,1,0,0:0:0:0:
36,192,216566,128,0,217231:0:0:0:0:
182,192,216566,1,0,0:0:0:0:
329,192,216566,1,0,0:0:0:0:
475,192,216566,1,0,0:0:0:0:
256,192,216733,1,0,0:0:0:0:
402,192,216816,1,0,0:0:0:0:
182,192,216899,1,0,0:0:0:0:
256,192,217065,1,0,0:0:0:0:
475,192,217231,128,0,217564:0:0:0:0:
329,192,217231,1,0,0:0:0:0:
109,192,217231,1,0,0:0:0:0:
182,192,217231,1,0,0:0:0:0:
256,192,217397,1,0,0:0:0:0:
402,192,217481,1,0,0:0:0:0:
109,192,217564,128,0,217896:0:0:0:0:
182,192,217564,1,0,0:0:0:0:
329,192,217647,1,0,0:0:0:0:
36,192,217730,1,0,0:0:0:0:
256,192,217813,1,0,0:0:0:0:
402,192,217896,128,0,219890:0:0:0:0:
182,192,217896,1,0,0:0:0:0:
329,192,217896,1,0,0:0:0:0:
475,192,217896,1,0,0:0:0:0:
109,192,218062,1,0,0:0:0:0:
256,192,218145,1,0,0:0:0:0:
109,192,218228,1,0,0:0:0:0:
256,192,218395,1,0,0:0:0:0:
182,192,218561,1,0,0:0:0:0:
329,192,218561,1,0,0:0:0:0:
36,192,218561,1,0,0:0:0:0:
256,192,218727,1,0,0:0:0:0:
475,192,218810,1,0,0:0:0:0:
109,192,218893,1,0,0:0:0:0:
329,192,218976,1,0,0:0:0:0:
182,192,219059,1,0,0:0:0:0:
256,192,219143,1,0,0:0:0:0:
109,192,219226,1,0,0:0:0:0:
329,192,219226,1,0,0:0:0:0:
36,192,219226,1,0,0:0:0:0:
256,192,219392,1,0,0:0:0:0:
182,192,219558,1,0,0:0:0:0:
182,192,219724,1,0,0:0:0:0:
256,192,219890,1,0,0:0:0:0:
109,192,219890,1,0,0:0:0:0:
36,192,219890,1,0,0:0:0:0:
329,192,220057,1,0,0:0:0:0:
475,192,220140,1,0,0:0:0:0:
36,192,220223,128,0,220888:0:0:0:0:
182,192,220223,1,0,0:0:0:0:
402,192,220306,1,0,0:0:0:0:
256,192,220389,1,0,0:0:0:0:
329,192,220472,1,0,0:0:0:0:
182,192,220555,1,0,0:0:0:0:
402,192,220555,1,0,0:0:0:0:
475,192,220555,1,0,0:0:0:0:
109,192,220722,1,0,0:0:0:0:
329,192,220805,1,0,0:0:0:0:
475,192,220888,1,0,0:0:0:0:
402,192,220888,1,0,0:0:0:0:
256,192,220888,1,0,0:0:0:0:
36,192,220971,1,0,0:0:0:0:
109,192,220971,1,0,0:0:0:0:
402,192,221054,1,0,0:0:0:0:
475,192,221054,1,0,0:0:0:0:
256,192,221054,1,0,0:0:0:0:
109,192,221137,1,0,0:0:0:0:
36,192,221137,1,0,0:0:0:0:
182,192,221220,1,0,0:0:0:0:
329,192,221220,1,0,0:0:0:0:
402,192,221220,1,0,0:0:0:0:
36,192,221303,1,0,0:0:0:0:
109,192,221303,1,0,0:0:0:0:
182,192,221386,1,0,0:0:0:0:
402,192,221386,1,0,0:0:0:0:
329,192,221386,1,0,0:0:0:0:
36,192,221469,1,0,0:0:0:0:
109,192,221469,1,0,0:0:0:0:
402,192,221553,1,0,0:0:0:0:
256,192,221553,1,0,0:0:0:0:
475,192,221553,1,0,0:0:0:0:
329,192,221636,1,0,0:0:0:0:
182,192,221636,1,0,0:0:0:0:
256,192,221719,1,0,0:0:0:0:
109,192,221719,1,0,0:0:0:0:
36,192,221719,1,0,0:0:0:0:
402,192,221802,1,0,0:0:0:0:
475,192,221802,1,0,0:0:0:0:
36,192,221885,1,0,0:0:0:0:
182,192,221885,1,0,0:0:0:0:
329,192,221885,1,0,0:0:0:0:
475,192,221968,1,0,0:0:0:0:
402,192,221968,1,0,0:0:0:0:
256,192,222051,1,0,0:0:0:0:
36,192,222051,1,0,0:0:0:0:
109,192,222051,1,0,0:0:0:0:
182,192,222134,1,0,0:0:0:0:
329,192,222134,1,0,0:0:0:0:
256,192,222217,1,0,0:0:0:0:
402,192,222217,1,0,0:0:0:0:
475,192,222217,1,0,0:0:0:0:
109,192,222300,1,0,0:0:0:0:
36,192,222300,1,0,0:0:0:0:
182,192,222384,1,0,0:0:0:0:
329,192,222384,1,0,0:0:0:0:
475,192,222384,1,0,0:0:0:0:
36,192,222467,1,0,0:0:0:0:
109,192,222467,1,0,0:0:0:0:
256,192,222550,1,0,0:0:0:0:
402,192,222550,1,0,0:0:0:0:
475,192,222550,1,0,0:0:0:0:
36,192,222633,1,0,0:0:0:0:
182,192,222633,1,0,0:0:0:0:
329,192,222633,1,0,0:0:0:0:
256,192,222716,1,0,0:0:0:0:
402,192,222716,1,0,0:0:0:0:
109,192,222716,1,0,0:0:0:0:
182,192,222799,1,0,0:0:0:0:
475,192,222799,1,0,0:0:0:0:
329,192,222799,1,0,0:0:0:0:
256,192,222882,1,0,0:0:0:0:
109,192,222882,1,0,0:0:0:0:
36,192,222882,1,0,0:0:0:0:
402,192,222882,1,0,0:0:0:0:
256,0,223215,128,0,223547:1:0:0:0:
475,192,223547,1,0,0:0:0:0:
36,192,223547,1,0,0:0:0:0:
329,192,223547,1,0,0:0:0:0:
182,192,223547,1,0,0:0:0:0:
402,192,223630,1,0,0:0:0:0:
109,192,223630,1,0,0:0:0:0:
256,192,223713,1,0,0:0:0:0:
36,192,223713,1,0,0:0:0:0:
329,192,223796,1,0,0:0:0:0:
182,192,223796,1,0,0:0:0:0:
256,192,223879,1,0,0:0:0:0:
402,192,223879,1,0,0:0:0:0:
475,192,223879,1,0,0:0:0:0:
36,192,223879,1,0,0:0:0:0:
329,192,223963,1,0,0:0:0:0:
109,192,223963,1,0,0:0:0:0:
402,192,224046,1,0,0:0:0:0:
182,192,224046,1,0,0:0:0:0:
256,192,224129,1,0,0:0:0:0:
475,192,224129,1,0,0:0:0:0:
36,192,224212,1,0,0:0:0:0:
329,192,224212,1,0,0:0:0:0:
182,192,224212,1,0,0:0:0:0:
402,192,224212,1,0,0:0:0:0:
109,192,224295,1,0,0:0:0:0:
256,192,224295,1,0,0:0:0:0:
402,192,224378,1,0,0:0:0:0:
182,192,224378,1,0,0:0:0:0:
475,192,224461,1,0,0:0:0:0:
329,192,224461,1,0,0:0:0:0:
402,192,224544,1,0,0:0:0:0:
109,192,224544,1,0,0:0:0:0:
256,192,224544,1,0,0:0:0:0:
36,192,224544,1,0,0:0:0:0:
182,192,224627,1,0,0:0:0:0:
329,192,224627,1,0,0:0:0:0:
109,192,224710,1,0,0:0:0:0:
256,192,224710,1,0,0:0:0:0:
329,192,224794,1,0,0:0:0:0:
182,192,224794,1,0,0:0:0:0:
36,192,224877,1,0,0:0:0:0:
256,192,224877,1,0,0:0:0:0:
475,192,224877,1,0,0:0:0:0:
402,192,224877,1,0,0:0:0:0:
329,192,224960,1,0,0:0:0:0:
109,192,224960,1,0,0:0:0:0:
402,192,225043,1,0,0:0:0:0:
182,192,225043,1,0,0:0:0:0:
256,192,225126,1,0,0:0:0:0:
109,192,225126,1,0,0:0:0:0:
329,192,225209,1,0,0:0:0:0:
182,192,225209,1,0,0:0:0:0:
36,192,225209,1,0,0:0:0:0:
475,192,225209,1,0,0:0:0:0:
256,192,225292,1,0,0:0:0:0:
402,192,225292,1,0,0:0:0:0:
182,192,225375,1,0,0:0:0:0:
329,192,225375,1,0,0:0:0:0:
109,192,225458,1,0,0:0:0:0:
256,192,225458,1,0,0:0:0:0:
36,192,225541,1,0,0:0:0:0:
182,192,225541,1,0,0:0:0:0:
329,192,225541,1,0,0:0:0:0:
475,192,225541,1,0,0:0:0:0:
402,192,225625,1,0,0:0:0:0:
256,192,225625,1,0,0:0:0:0:
109,192,225708,1,0,0:0:0:0:
475,192,225708,1,0,0:0:0:0:
329,192,225791,1,0,0:0:0:0:
182,192,225791,1,0,0:0:0:0:
109,192,225874,1,0,0:0:0:0:
256,192,225874,1,0,0:0:0:0:
36,192,225874,1,0,0:0:0:0:
475,192,225874,1,0,0:0:0:0:
402,192,225957,1,0,0:0:0:0:
182,192,225957,1,0,0:0:0:0:
109,192,226040,1,0,0:0:0:0:
329,192,226040,1,0,0:0:0:0:
36,192,226123,1,0,0:0:0:0:
256,192,226123,1,0,0:0:0:0:
109,192,226206,1,0,0:0:0:0:
329,192,226206,1,0,0:0:0:0:
182,192,226206,1,0,0:0:0:0:
475,192,226206,1,0,0:0:0:0:
402,192,226289,1,0,0:0:0:0:
256,192,226289,1,0,0:0:0:0:
329,192,226372,1,0,0:0:0:0:
109,192,226372,1,0,0:0:0:0:
182,192,226456,1,0,0:0:0:0:
475,192,226456,1,0,0:0:0:0:
36,192,226539,1,0,0:0:0:0:
256,192,226539,1,0,0:0:0:0:
402,192,226539,1,0,0:0:0:0:
109,192,226539,1,0,0:0:0:0:
329,192,226622,1,0,0:0:0:0:
475,192,226622,1,0,0:0:0:0:
402,192,226705,1,0,0:0:0:0:
182,192,226705,1,0,0:0:0:0:
256,192,226788,1,0,0:0:0:0:
109,192,226788,1,0,0:0:0:0:
182,192,226871,1,0,0:0:0:0:
329,192,226871,1,0,0:0:0:0:
36,192,226871,1,0,0:0:0:0:
475,192,226871,1,0,0:0:0:0:
402,192,226954,1,0,0:0:0:0:
256,192,226954,1,0,0:0:0:0:
109,192,227037,1,0,0:0:0:0:
329,192,227037,1,0,0:0:0:0:
402,192,227120,1,0,0:0:0:0:
182,192,227120,1,0,0:0:0:0:
256,192,227204,1,0,0:0:0:0:
109,192,227204,1,0,0:0:0:0:
36,192,227204,1,0,0:0:0:0:
475,192,227204,1,0,0:0:0:0:
182,192,227287,1,0,0:0:0:0:
402,192,227287,1,0,0:0:0:0:
329,192,227370,1,0,0:0:0:0:
36,192,227370,1,0,0:0:0:0:
256,192,227453,1,0,0:0:0:0:
109,192,227453,1,0,0:0:0:0:
36,192,227536,1,0,0:0:0:0:
182,192,227536,1,0,0:0:0:0:
329,192,227536,1,0,0:0:0:0:
402,192,227536,1,0,0:0:0:0:
256,192,227619,1,0,0:0:0:0:
475,192,227619,1,0,0:0:0:0:
402,192,227702,1,0,0:0:0:0:
109,192,227702,1,0,0:0:0:0:
182,192,227785,1,0,0:0:0:0:
329,192,227785,1,0,0:0:0:0:
256,192,227868,1,0,0:0:0:0:
402,192,227868,1,0,0:0:0:0:
36,192,227868,1,0,0:0:0:0:
475,192,227868,1,0,0:0:0:0:
109,192,227951,1,0,0:0:0:0:
329,192,227951,1,0,0:0:0:0:
182,192,228035,1,0,0:0:0:0:
402,192,228035,1,0,0:0:0:0:
475,192,228118,1,0,0:0:0:0:
256,192,228118,1,0,0:0:0:0:
402,192,228201,1,0,0:0:0:0:
182,192,228201,1,0,0:0:0:0:
329,192,228201,1,0,0:0:0:0:
36,192,228201,1,0,0:0:0:0:
109,192,228284,1,0,0:0:0:0:
256,192,228284,1,0,0:0:0:0:
36,192,228367,1,0,0:0:0:0:
402,192,228367,1,0,0:0:0:0:
182,192,228450,1,0,0:0:0:0:
329,192,228450,1,0,0:0:0:0:
402,192,228533,1,0,0:0:0:0:
475,192,228533,1,0,0:0:0:0:
256,192,228533,1,0,0:0:0:0:
36,192,228533,1,0,0:0:0:0:
109,192,228616,1,0,0:0:0:0:
329,192,228616,1,0,0:0:0:0:
182,192,228699,1,0,0:0:0:0:
475,192,228699,1,0,0:0:0:0:
256,192,228782,1,0,0:0:0:0:
402,192,228782,1,0,0:0:0:0:
475,192,228866,1,0,0:0:0:0:
109,192,228866,1,0,0:0:0:0:
36,192,228866,1,0,0:0:0:0:
329,192,228866,1,0,0:0:0:0:
402,192,228949,1,0,0:0:0:0:
182,192,228949,1,0,0:0:0:0:
256,192,229032,1,0,0:0:0:0:
109,192,229032,1,0,0:0:0:0:
329,192,229115,1,0,0:0:0:0:
182,192,229115,1,0,0:0:0:0:
402,192,229198,1,0,0:0:0:0:
256,192,229198,1,0,0:0:0:0:
109,192,229198,1,0,0:0:0:0:
36,192,229198,1,0,0:0:0:0:
475,192,229281,1,0,0:0:0:0:
329,192,229281,1,0,0:0:0:0:
402,192,229364,1,0,0:0:0:0:
109,192,229364,1,0,0:0:0:0:
329,192,229447,1,0,0:0:0:0:
182,192,229447,1,0,0:0:0:0:
36,192,229530,1,0,0:0:0:0:
402,192,229530,1,0,0:0:0:0:
475,192,229530,1,0,0:0:0:0:
256,192,229530,1,0,0:0:0:0:
329,192,229613,1,0,0:0:0:0:
109,192,229613,1,0,0:0:0:0:
402,192,229697,1,0,0:0:0:0:
182,192,229697,1,0,0:0:0:0:
329,192,229780,1,0,0:0:0:0:
109,192,229780,1,0,0:0:0:0:
256,192,229863,1,0,0:0:0:0:
475,192,229863,1,0,0:0:0:0:
402,192,229863,1,0,0:0:0:0:
36,192,229863,1,0,0:0:0:0:
182,192,229946,1,0,0:0:0:0:
329,192,229946,1,0,0:0:0:0:
475,192,230029,1,0,0:0:0:0:
109,192,230029,1,0,0:0:0:0:
402,192,230112,1,0,0:0:0:0:
182,192,230112,1,0,0:0:0:0:
36,192,230195,1,0,0:0:0:0:
109,192,230195,1,0,0:0:0:0:
329,192,230195,1,0,0:0:0:0:
475,192,230195,1,0,0:0:0:0:
402,192,230278,1,0,0:0:0:0:
256,192,230278,1,0,0:0:0:0:
329,192,230361,1,0,0:0:0:0:
109,192,230361,1,0,0:0:0:0:
402,192,230445,1,0,0:0:0:0:
182,192,230445,1,0,0:0:0:0:
475,192,230528,1,0,0:0:0:0:
109,192,230528,1,0,0:0:0:0:
256,192,230528,1,0,0:0:0:0:
36,192,230528,1,0,0:0:0:0:
182,192,230611,1,0,0:0:0:0:
402,192,230611,1,0,0:0:0:0:
109,192,230694,1,0,0:0:0:0:
329,192,230694,1,0,0:0:0:0:
256,192,230777,1,0,0:0:0:0:
402,192,230777,1,0,0:0:0:0:
182,192,230860,1,0,0:0:0:0:
329,192,230860,1,0,0:0:0:0:
36,192,230860,1,0,0:0:0:0:
475,192,230860,1,0,0:0:0:0:
256,192,230943,1,0,0:0:0:0:
109,192,230943,1,0,0:0:0:0:
402,192,231026,1,0,0:0:0:0:
36,192,231026,1,0,0:0:0:0:
329,192,231109,1,0,0:0:0:0:
182,192,231109,1,0,0:0:0:0:
475,192,231192,1,0,0:0:0:0:
109,192,231192,1,0,0:0:0:0:
36,192,231192,1,0,0:0:0:0:
256,192,231192,1,0,0:0:0:0:
402,192,231276,1,0,0:0:0:0:
182,192,231276,1,0,0:0:0:0:
329,192,231359,1,0,0:0:0:0:
36,192,231359,1,0,0:0:0:0:
256,192,231442,1,0,0:0:0:0:
109,192,231442,1,0,0:0:0:0:
36,192,231525,1,0,0:0:0:0:
182,192,231525,1,0,0:0:0:0:
329,192,231525,1,0,0:0:0:0:
475,192,231525,1,0,0:0:0:0:
402,192,231608,1,0,0:0:0:0:
256,192,231608,1,0,0:0:0:0:
329,192,231691,1,0,0:0:0:0:
109,192,231691,1,0,0:0:0:0:
475,192,231774,1,0,0:0:0:0:
182,192,231774,1,0,0:0:0:0:
109,192,231857,1,0,0:0:0:0:
256,192,231857,1,0,0:0:0:0:
36,192,231857,1,0,0:0:0:0:
402,192,231857,1,0,0:0:0:0:
475,192,231940,5,0,0:0:0:0:
329,192,231940,1,0,0:0:0:0:
182,192,232023,1,0,0:0:0:0:
36,192,232023,1,0,0:0:0:0:
256,192,232107,1,0,0:0:0:0:
402,192,232107,1,0,0:0:0:0:
182,192,232190,1,0,0:0:0:0:
475,192,232190,1,0,0:0:0:0:
329,192,232190,1,0,0:0:0:0:
36,192,232190,1,0,0:0:0:0:
256,192,232273,1,0,0:0:0:0:
109,192,232273,1,0,0:0:0:0:
182,192,232356,1,0,0:0:0:0:
329,192,232356,1,0,0:0:0:0:
402,192,232439,1,0,0:0:0:0:
256,192,232439,1,0,0:0:0:0:
182,192,232522,1,0,0:0:0:0:
475,192,232522,1,0,0:0:0:0:
36,192,232522,1,0,0:0:0:0:
329,192,232522,1,0,0:0:0:0:
402,192,232605,1,0,0:0:0:0:
109,192,232605,1,0,0:0:0:0:
182,192,232688,1,0,0:0:0:0:
329,192,232688,1,0,0:0:0:0:
402,192,232771,1,0,0:0:0:0:
256,192,232771,1,0,0:0:0:0:
329,192,232854,128,0,232938:0:0:0:0:
475,192,232854,128,0,232938:0:0:0:0:
182,192,232854,128,0,232938:0:0:0:0:
36,192,232854,128,0,232938:0:0:0:0:
109,192,232854,128,0,232938:0:0:0:0:
109,192,233021,128,0,233104:0:0:0:0:
402,192,233021,128,0,233104:0:0:0:0:
256,192,233104,128,0,233187:0:0:0:0:
182,192,233187,128,0,233270:0:0:0:0:
475,192,233187,128,0,233270:0:0:0:0:
329,192,233270,128,0,233353:0:0:0:0:
36,192,233353,128,0,233436:0:0:0:0:
256,192,233436,128,0,233519:0:0:0:0:
109,192,233519,128,0,233602:0:0:0:0:
402,192,233519,128,0,233602:0:0:0:0:
475,192,233519,128,0,233602:0:0:0:0:
36,192,233519,128,0,233602:0:0:0:0:
182,192,233519,128,0,233602:0:0:0:0:
329,192,233602,128,0,233686:0:0:0:0:
109,192,233686,128,0,233769:0:0:0:0:
256,192,233769,128,0,233852:0:0:0:0:
475,192,233852,128,0,233935:0:0:0:0:
36,192,233852,128,0,233935:0:0:0:0:
329,192,233935,128,0,234018:0:0:0:0:
182,192,234018,128,0,234101:0:0:0:0:
256,192,234101,128,0,234184:0:0:0:0:
329,192,234184,1,0,0:0:0:0:
475,192,234184,1,0,0:0:0:0:
109,192,234184,1,0,0:0:0:0:
36,192,234184,1,0,0:0:0:0:
182,192,234267,1,0,0:0:0:0:
402,192,234267,1,0,0:0:0:0:
329,192,234350,1,0,0:0:0:0:
36,192,234350,1,0,0:0:0:0:
256,192,234433,1,0,0:0:0:0:
109,192,234433,1,0,0:0:0:0:
36,192,234517,1,0,0:0:0:0:
329,192,234517,1,0,0:0:0:0:
475,192,234517,1,0,0:0:0:0:
182,192,234517,1,0,0:0:0:0:
256,192,234600,1,0,0:0:0:0:
402,192,234600,1,0,0:0:0:0:
329,192,234683,1,0,0:0:0:0:
109,192,234683,1,0,0:0:0:0:
402,192,234766,1,0,0:0:0:0:
182,192,234766,1,0,0:0:0:0:
256,192,234849,1,0,0:0:0:0:
109,192,234849,1,0,0:0:0:0:
475,192,234849,1,0,0:0:0:0:
36,192,234849,1,0,0:0:0:0:
182,192,234932,1,0,0:0:0:0:
402,192,234932,1,0,0:0:0:0:
109,192,235015,1,0,0:0:0:0:
329,192,235015,1,0,0:0:0:0:
36,192,235098,1,0,0:0:0:0:
256,192,235098,1,0,0:0:0:0:
475,192,235181,1,0,0:0:0:0:
109,192,235181,1,0,0:0:0:0:
182,192,235181,1,0,0:0:0:0:
329,192,235181,1,0,0:0:0:0:
402,192,235264,1,0,0:0:0:0:
256,192,235264,1,0,0:0:0:0:
329,192,235348,1,0,0:0:0:0:
109,192,235348,1,0,0:0:0:0:
402,192,235431,1,0,0:0:0:0:
182,192,235431,1,0,0:0:0:0:
256,192,235514,1,0,0:0:0:0:
36,192,235514,1,0,0:0:0:0:
109,192,235514,1,0,0:0:0:0:
475,192,235514,1,0,0:0:0:0:
329,192,235597,1,0,0:0:0:0:
182,192,235597,1,0,0:0:0:0:
402,192,235680,1,0,0:0:0:0:
36,192,235680,1,0,0:0:0:0:
329,192,235763,1,0,0:0:0:0:
182,192,235763,1,0,0:0:0:0:
475,192,235846,1,0,0:0:0:0:
256,192,235846,1,0,0:0:0:0:
109,192,235846,1,0,0:0:0:0:
36,192,235846,1,0,0:0:0:0:
182,192,235929,1,0,0:0:0:0:
402,192,235929,1,0,0:0:0:0:
109,192,236012,1,0,0:0:0:0:
329,192,236012,1,0,0:0:0:0:
256,192,236095,1,0,0:0:0:0:
36,192,236095,1,0,0:0:0:0:
329,192,236179,1,0,0:0:0:0:
182,192,236179,1,0,0:0:0:0:
109,192,236179,1,0,0:0:0:0:
475,192,236179,1,0,0:0:0:0:
402,192,236262,1,0,0:0:0:0:
256,192,236262,1,0,0:0:0:0:
329,192,236345,1,0,0:0:0:0:
109,192,236345,1,0,0:0:0:0:
475,192,236428,1,0,0:0:0:0:
182,192,236428,1,0,0:0:0:0:
402,192,236511,1,0,0:0:0:0:
109,192,236511,1,0,0:0:0:0:
36,192,236511,1,0,0:0:0:0:
256,192,236511,1,0,0:0:0:0:
475,192,236594,1,0,0:0:0:0:
329,192,236594,1,0,0:0:0:0:
109,192,236677,1,0,0:0:0:0:
256,192,236677,1,0,0:0:0:0:
182,192,236760,1,0,0:0:0:0:
329,192,236760,1,0,0:0:0:0:
256,192,236843,1,0,0:0:0:0:
475,192,236843,1,0,0:0:0:0:
402,192,236843,1,0,0:0:0:0:
36,192,236843,1,0,0:0:0:0:
329,192,236927,1,0,0:0:0:0:
109,192,236927,1,0,0:0:0:0:
402,192,237010,1,0,0:0:0:0:
182,192,237010,1,0,0:0:0:0:
256,192,237093,1,0,0:0:0:0:
475,192,237093,1,0,0:0:0:0:
36,192,237176,1,0,0:0:0:0:
402,192,237176,1,0,0:0:0:0:
182,192,237176,1,0,0:0:0:0:
329,192,237176,1,0,0:0:0:0:
256,192,237259,1,0,0:0:0:0:
109,192,237259,1,0,0:0:0:0:
36,192,237342,1,0,0:0:0:0:
402,192,237342,1,0,0:0:0:0:
329,192,237425,1,0,0:0:0:0:
182,192,237425,1,0,0:0:0:0:
256,192,237508,1,0,0:0:0:0:
402,192,237508,1,0,0:0:0:0:
475,192,237508,1,0,0:0:0:0:
109,192,237508,1,0,0:0:0:0:
36,192,237591,1,0,0:0:0:0:
329,192,237591,1,0,0:0:0:0:
182,192,237674,1,0,0:0:0:0:
475,192,237674,1,0,0:0:0:0:
329,192,237758,1,0,0:0:0:0:
109,192,237758,1,0,0:0:0:0:
402,192,237841,1,0,0:0:0:0:
475,192,237841,1,0,0:0:0:0:
256,192,237841,1,0,0:0:0:0:
36,192,237841,1,0,0:0:0:0:
109,192,237924,1,0,0:0:0:0:
329,192,237924,1,0,0:0:0:0:
182,192,238007,1,0,0:0:0:0:
402,192,238007,1,0,0:0:0:0:
256,192,238090,1,0,0:0:0:0:
36,192,238090,1,0,0:0:0:0:
109,192,238173,1,0,0:0:0:0:
182,192,238173,1,0,0:0:0:0:
329,192,238173,1,0,0:0:0:0:
475,192,238173,1,0,0:0:0:0:
402,192,238256,1,0,0:0:0:0:
36,192,238256,1,0,0:0:0:0:
182,192,238339,1,0,0:0:0:0:
475,192,238339,1,0,0:0:0:0:
329,192,238422,1,0,0:0:0:0:
36,192,238422,1,0,0:0:0:0:
402,192,238505,1,0,0:0:0:0:
109,192,238505,1,0,0:0:0:0:
256,192,238505,1,0,0:0:0:0:
475,192,238505,1,0,0:0:0:0:
182,192,238589,1,0,0:0:0:0:
329,192,238589,1,0,0:0:0:0:
402,192,238672,1,0,0:0:0:0:
109,192,238672,1,0,0:0:0:0:
256,192,238755,1,0,0:0:0:0:
475,192,238755,1,0,0:0:0:0:
329,192,238838,1,0,0:0:0:0:
402,192,238838,1,0,0:0:0:0:
182,192,238838,1,0,0:0:0:0:
36,192,238838,1,0,0:0:0:0:
256,192,238921,1,0,0:0:0:0:
109,192,238921,1,0,0:0:0:0:
475,192,239004,1,0,0:0:0:0:
182,192,239004,1,0,0:0:0:0:
109,192,239087,1,0,0:0:0:0:
329,192,239087,1,0,0:0:0:0:
402,192,239170,1,0,0:0:0:0:
475,192,239170,1,0,0:0:0:0:
256,192,239170,1,0,0:0:0:0:
36,192,239170,1,0,0:0:0:0:
182,192,239253,1,0,0:0:0:0:
329,192,239253,1,0,0:0:0:0:
109,192,239336,1,0,0:0:0:0:
402,192,239336,1,0,0:0:0:0:
36,192,239420,1,0,0:0:0:0:
256,192,239420,1,0,0:0:0:0:
182,192,239503,1,0,0:0:0:0:
109,192,239503,1,0,0:0:0:0:
329,192,239503,1,0,0:0:0:0:
475,192,239503,1,0,0:0:0:0:
402,192,239586,1,0,0:0:0:0:
256,192,239586,1,0,0:0:0:0:
475,192,239669,1,0,0:0:0:0:
109,192,239669,1,0,0:0:0:0:
36,192,239669,1,0,0:0:0:0:
182,192,239752,1,0,0:0:0:0:
329,192,239752,1,0,0:0:0:0:
256,192,239835,1,0,0:0:0:0:
475,192,239835,1,0,0:0:0:0:
36,192,239835,1,0,0:0:0:0:
109,192,239835,1,0,0:0:0:0:
329,192,239918,1,0,0:0:0:0:
402,192,239918,1,0,0:0:0:0:
109,192,240001,1,0,0:0:0:0:
475,192,240001,1,0,0:0:0:0:
182,192,240001,1,0,0:0:0:0:
402,192,240084,1,0,0:0:0:0:
256,192,240084,1,0,0:0:0:0:
475,192,240168,1,0,0:0:0:0:
109,192,240168,1,0,0:0:0:0:
36,192,240168,1,0,0:0:0:0:
329,192,240168,1,0,0:0:0:0:
182,192,240251,1,0,0:0:0:0:
256,192,240251,1,0,0:0:0:0:
402,192,240334,1,0,0:0:0:0:
36,192,240334,1,0,0:0:0:0:
329,192,240334,1,0,0:0:0:0:
256,192,240417,1,0,0:0:0:0:
109,192,240417,1,0,0:0:0:0:
402,192,240500,1,0,0:0:0:0:
475,192,240500,1,0,0:0:0:0:
182,192,240500,1,0,0:0:0:0:
329,192,240500,1,0,0:0:0:0:
36,192,240583,1,0,0:0:0:0:
109,192,240583,1,0,0:0:0:0:
256,192,240666,1,0,0:0:0:0:
402,192,240666,1,0,0:0:0:0:
475,192,240666,1,0,0:0:0:0:
329,192,240749,1,0,0:0:0:0:
182,192,240749,1,0,0:0:0:0:
36,192,240832,1,0,0:0:0:0:
256,192,240832,1,0,0:0:0:0:
475,192,240832,1,0,0:0:0:0:
109,192,240832,1,0,0:0:0:0:
329,192,240915,1,0,0:0:0:0:
402,192,240915,1,0,0:0:0:0:
182,192,240999,1,0,0:0:0:0:
36,192,240999,1,0,0:0:0:0:
475,192,240999,1,0,0:0:0:0:
329,192,241082,1,0,0:0:0:0:
256,192,241082,1,0,0:0:0:0:
109,192,241165,1,0,0:0:0:0:
36,192,241165,1,0,0:0:0:0:
475,192,241165,1,0,0:0:0:0:
402,192,241165,1,0,0:0:0:0:
182,192,241248,1,0,0:0:0:0:
329,192,241248,1,0,0:0:0:0:
475,192,241331,1,0,0:0:0:0:
36,192,241331,1,0,0:0:0:0:
256,192,241331,1,0,0:0:0:0:
109,192,241414,1,0,0:0:0:0:
182,192,241414,1,0,0:0:0:0:
475,192,241497,1,0,0:0:0:0:
256,192,241497,1,0,0:0:0:0:
402,192,241497,1,0,0:0:0:0:
36,192,241497,1,0,0:0:0:0:
329,192,241580,1,0,0:0:0:0:
109,192,241580,1,0,0:0:0:0:
182,192,241663,1,0,0:0:0:0:
402,192,241663,1,0,0:0:0:0:
475,192,241663,1,0,0:0:0:0:
109,192,241746,1,0,0:0:0:0:
256,192,241746,1,0,0:0:0:0:
329,192,241830,1,0,0:0:0:0:
475,192,241830,1,0,0:0:0:0:
36,192,241830,1,0,0:0:0:0:
182,192,241830,1,0,0:0:0:0:
256,192,241913,1,0,0:0:0:0:
402,192,241913,1,0,0:0:0:0:
329,192,241996,1,0,0:0:0:0:
36,192,241996,1,0,0:0:0:0:
109,192,241996,1,0,0:0:0:0:
182,192,242079,1,0,0:0:0:0:
402,192,242079,1,0,0:0:0:0:
256,192,242162,1,0,0:0:0:0:
109,192,242162,1,0,0:0:0:0:
36,192,242162,1,0,0:0:0:0:
475,192,242162,1,0,0:0:0:0:
402,192,242245,1,0,0:0:0:0:
182,192,242245,1,0,0:0:0:0:
329,192,242245,1,0,0:0:0:0:
36,192,242328,1,0,0:0:0:0:
475,192,242328,1,0,0:0:0:0:
109,192,242328,1,0,0:0:0:0:
402,192,242411,1,0,0:0:0:0:
329,192,242411,1,0,0:0:0:0:
182,192,242411,1,0,0:0:0:0:
475,192,242494,1,0,0:0:0:0:
256,192,242494,1,0,0:0:0:0:
36,192,242494,1,0,0:0:0:0:
329,192,242577,1,0,0:0:0:0:
109,192,242577,1,0,0:0:0:0:
182,192,242577,1,0,0:0:0:0:
256,192,242661,1,0,0:0:0:0:
475,192,242661,1,0,0:0:0:0:
36,192,242661,1,0,0:0:0:0:
329,192,242744,1,0,0:0:0:0:
182,192,242744,1,0,0:0:0:0:
109,192,242744,1,0,0:0:0:0:
475,192,242827,1,0,0:0:0:0:
256,192,242827,1,0,0:0:0:0:
402,192,242827,1,0,0:0:0:0:
182,192,242910,1,0,0:0:0:0:
36,192,242910,1,0,0:0:0:0:
109,192,242910,1,0,0:0:0:0:
329,192,242993,1,0,0:0:0:0:
402,192,242993,1,0,0:0:0:0:
475,192,242993,1,0,0:0:0:0:
109,192,243076,1,0,0:0:0:0:
256,192,243076,1,0,0:0:0:0:
36,192,243076,1,0,0:0:0:0:
182,192,243159,1,0,0:0:0:0:
475,192,243159,1,0,0:0:0:0:
329,192,243159,1,0,0:0:0:0:
256,192,243242,1,0,0:0:0:0:
109,192,243242,1,0,0:0:0:0:
402,192,243242,1,0,0:0:0:0:
182,192,243325,1,0,0:0:0:0:
329,192,243325,1,0,0:0:0:0:
36,192,243325,1,0,0:0:0:0:
475,192,243408,1,0,0:0:0:0:
402,192,243408,1,0,0:0:0:0:
256,192,243408,1,0,0:0:0:0:
182,192,243492,1,0,0:0:0:0:
36,192,243492,1,0,0:0:0:0:
329,192,243492,1,0,0:0:0:0:
109,192,243492,1,0,0:0:0:0:
402,192,243575,1,0,0:0:0:0:
256,192,243575,1,0,0:0:0:0:
475,192,243575,1,0,0:0:0:0:
329,192,243658,1,0,0:0:0:0:
36,192,243658,1,0,0:0:0:0:
109,192,243658,1,0,0:0:0:0:
182,192,243741,1,0,0:0:0:0:
402,192,243741,1,0,0:0:0:0:
475,192,243741,1,0,0:0:0:0:
256,192,243824,1,0,0:0:0:0:
109,192,243824,1,0,0:0:0:0:
36,192,243824,1,0,0:0:0:0:
182,192,243907,1,0,0:0:0:0:
329,192,243907,1,0,0:0:0:0:
475,192,243907,1,0,0:0:0:0:
402,192,243990,1,0,0:0:0:0:
256,192,243990,1,0,0:0:0:0:
36,192,243990,1,0,0:0:0:0:
109,192,244073,1,0,0:0:0:0:
182,192,244073,1,0,0:0:0:0:
329,192,244073,1,0,0:0:0:0:
475,192,244156,1,0,0:0:0:0:
256,192,244156,1,0,0:0:0:0:
36,192,244156,1,0,0:0:0:0:
402,192,244198,1,0,0:0:0:0:
329,192,244240,1,0,0:0:0:0:
109,192,244281,1,0,0:0:0:0:
182,192,244323,1,0,0:0:0:0:
256,192,244364,1,0,0:0:0:0:
329,192,244406,1,0,0:0:0:0:
36,192,244406,1,0,0:0:0:0:
109,192,244447,1,0,0:0:0:0:
182,192,244489,1,0,0:0:0:0:
475,192,244489,1,0,0:0:0:0:
402,192,244530,1,0,0:0:0:0:
329,192,244572,1,0,0:0:0:0:
109,192,244613,1,0,0:0:0:0:
182,192,244655,1,0,0:0:0:0:
256,192,244697,1,0,0:0:0:0:
329,192,244738,1,0,0:0:0:0:
402,192,244780,1,0,0:0:0:0:
182,192,244821,1,0,0:0:0:0:
475,192,244821,1,0,0:0:0:0:
109,192,244821,1,0,0:0:0:0:
36,192,244821,128,0,245154:0:0:0:0:
475,192,245154,128,0,245320:0:0:0:0:
329,192,245154,1,0,0:0:0:0:
182,192,245154,1,0,0:0:0:0:
256,192,245320,128,0,245486:0:0:0:0:
402,192,245320,1,0,0:0:0:0:
109,192,245320,1,0,0:0:0:0:
329,192,245486,1,0,0:0:0:0:
182,192,245569,1,0,0:0:0:0:
109,192,245652,128,0,245985:0:0:0:0:
329,192,245652,1,0,0:0:0:0:
256,192,245735,1,0,0:0:0:0:
36,192,245818,1,0,0:0:0:0:
402,192,245818,1,0,0:0:0:0:
182,192,245818,1,0,0:0:0:0:
256,192,245985,1,0,0:0:0:0:
475,192,245985,128,0,246816:0:0:0:0:
402,192,246068,1,0,0:0:0:0:
109,192,246151,1,0,0:0:0:0:
256,192,246151,1,0,0:0:0:0:
329,192,246317,1,0,0:0:0:0:
182,192,246317,1,0,0:0:0:0:
256,192,246483,1,0,0:0:0:0:
402,192,246483,1,0,0:0:0:0:
109,192,246483,1,0,0:0:0:0:
36,192,246649,1,0,0:0:0:0:
182,192,246733,1,0,0:0:0:0:
402,192,246816,1,0,0:0:0:0:
329,192,246816,1,0,0:0:0:0:
109,192,246899,1,0,0:0:0:0:
256,192,246982,1,0,0:0:0:0:
36,192,247065,1,0,0:0:0:0:
329,192,247148,128,0,247481:0:0:0:0:
475,192,247148,1,0,0:0:0:0:
182,192,247148,1,0,0:0:0:0:
182,192,247314,1,0,0:0:0:0:
109,192,247481,1,0,0:0:0:0:
36,192,247481,1,0,0:0:0:0:
402,192,247481,1,0,0:0:0:0:
475,192,247481,1,0,0:0:0:0:
256,192,247481,1,0,0:0:0:0:
182,192,247564,1,0,0:0:0:0:
109,192,247647,1,0,0:0:0:0:
329,192,247647,1,0,0:0:0:0:
256,192,247730,1,0,0:0:0:0:
402,192,247813,1,0,0:0:0:0:
475,192,247813,1,0,0:0:0:0:
182,192,247813,1,0,0:0:0:0:
36,192,247813,1,0,0:0:0:0:
329,192,247896,1,0,0:0:0:0:
256,192,247979,1,0,0:0:0:0:
109,192,247979,1,0,0:0:0:0:
402,192,247979,1,0,0:0:0:0:
475,192,247979,1,0,0:0:0:0:
36,192,247979,1,0,0:0:0:0:
182,192,248062,1,0,0:0:0:0:
109,192,248145,1,0,0:0:0:0:
329,192,248145,1,0,0:0:0:0:
402,192,248228,1,0,0:0:0:0:
329,192,248312,1,0,0:0:0:0:
182,192,248312,1,0,0:0:0:0:
36,192,248312,1,0,0:0:0:0:
109,192,248312,1,0,0:0:0:0:
475,192,248312,1,0,0:0:0:0:
256,192,248395,1,0,0:0:0:0:
109,192,248478,1,0,0:0:0:0:
402,192,248478,1,0,0:0:0:0:
182,192,248561,1,0,0:0:0:0:
109,192,248644,1,0,0:0:0:0:
36,192,248644,1,0,0:0:0:0:
256,192,248644,1,0,0:0:0:0:
475,192,248644,1,0,0:0:0:0:
402,192,248644,1,0,0:0:0:0:
329,192,248727,1,0,0:0:0:0:
182,192,248810,1,0,0:0:0:0:
109,192,248810,1,0,0:0:0:0:
402,192,248810,1,0,0:0:0:0:
475,192,248893,1,0,0:0:0:0:
256,192,248893,1,0,0:0:0:0:
109,192,248976,1,0,0:0:0:0:
36,192,248976,1,0,0:0:0:0:
402,192,248976,1,0,0:0:0:0:
182,192,249059,1,0,0:0:0:0:
329,192,249059,1,0,0:0:0:0:
256,192,249143,1,0,0:0:0:0:
475,192,249143,1,0,0:0:0:0:
402,192,249143,1,0,0:0:0:0:
182,192,249226,1,0,0:0:0:0:
109,192,249226,1,0,0:0:0:0:
36,192,249226,1,0,0:0:0:0:
475,192,249309,1,0,0:0:0:0:
402,192,249309,1,0,0:0:0:0:
256,192,249309,1,0,0:0:0:0:
329,192,249392,1,0,0:0:0:0:
182,192,249392,1,0,0:0:0:0:
109,192,249475,1,0,0:0:0:0:
475,192,249475,1,0,0:0:0:0:
256,192,249475,1,0,0:0:0:0:
36,192,249475,1,0,0:0:0:0:
402,192,249517,1,0,0:0:0:0:
182,192,249558,1,0,0:0:0:0:
329,192,249558,1,0,0:0:0:0:
109,192,249600,1,0,0:0:0:0:
36,192,249641,1,0,0:0:0:0:
475,192,249641,1,0,0:0:0:0:
402,192,249683,1,0,0:0:0:0:
329,192,249724,1,0,0:0:0:0:
182,192,249724,1,0,0:0:0:0:
109,192,249766,1,0,0:0:0:0:
36,192,249807,1,0,0:0:0:0:
475,192,249807,1,0,0:0:0:0:
256,192,249807,1,0,0:0:0:0:
402,192,249849,1,0,0:0:0:0:
329,192,249890,1,0,0:0:0:0:
182,192,249890,1,0,0:0:0:0:
109,192,249890,1,0,0:0:0:0:
36,192,249974,1,0,0:0:0:0:
475,192,249974,1,0,0:0:0:0:
256,192,249974,1,0,0:0:0:0:
402,192,250015,1,0,0:0:0:0:
182,192,250057,1,0,0:0:0:0:
329,192,250057,1,0,0:0:0:0:
109,192,250057,1,0,0:0:0:0:
402,192,250140,1,0,0:0:0:0:
475,192,250140,1,0,0:0:0:0:
256,192,250140,128,0,250306:0:0:0:0:
36,192,250140,1,0,0:0:0:0:
329,192,250306,1,0,0:0:0:0:
109,192,250306,1,0,0:0:0:0:
182,192,250472,1,0,0:0:0:0:
256,192,250472,1,0,0:0:0:0:
475,192,250472,1,0,0:0:0:0:
402,192,250472,128,0,250638:0:0:0:0:
36,192,250472,1,0,0:0:0:0:
109,192,250638,1,0,0:0:0:0:
329,192,250638,1,0,0:0:0:0:
182,192,250805,128,0,250971:0:0:0:0:
256,192,250805,1,0,0:0:0:0:
36,192,250805,1,0,0:0:0:0:
402,192,250805,1,0,0:0:0:0:
475,192,250805,1,0,0:0:0:0:
402,192,250971,128,0,251137:0:0:0:0:
329,192,250971,1,0,0:0:0:0:
109,192,250971,1,0,0:0:0:0:
475,192,250971,1,0,0:0:0:0:
256,192,251137,128,0,251303:0:0:0:0:
182,192,251137,1,0,0:0:0:0:
109,192,251137,1,0,0:0:0:0:
36,192,251137,1,0,0:0:0:0:
329,192,251137,1,0,0:0:0:0:
36,192,251303,128,0,251469:0:0:0:0:
402,192,251303,1,0,0:0:0:0:
475,192,251303,1,0,0:0:0:0:
182,192,251303,1,0,0:0:0:0:
109,192,251469,1,0,0:0:0:0:
329,192,251469,1,0,0:0:0:0:
182,192,251636,1,0,0:0:0:0:
256,192,251636,1,0,0:0:0:0:
475,192,251636,1,0,0:0:0:0:
402,192,251636,128,0,251802:0:0:0:0:
36,192,251802,1,0,0:0:0:0:
256,192,251802,1,0,0:0:0:0:
36,192,251968,1,0,0:0:0:0:
182,192,251968,1,0,0:0:0:0:
475,192,251968,1,0,0:0:0:0:
329,192,251968,128,0,252134:0:0:0:0:
256,192,252134,1,0,0:0:0:0:
402,192,252134,1,0,0:0:0:0:
475,192,252134,1,0,0:0:0:0:
182,192,252134,1,0,0:0:0:0:
109,192,252134,128,0,252300:0:0:0:0:
36,192,252300,128,0,252467:0:0:0:0:
329,192,252300,1,0,0:0:0:0:
402,192,252300,1,0,0:0:0:0:
256,192,252300,1,0,0:0:0:0:
182,192,252467,128,0,252633:0:0:0:0:
109,192,252467,1,0,0:0:0:0:
329,192,252467,1,0,0:0:0:0:
402,192,252467,1,0,0:0:0:0:
475,192,252467,1,0,0:0:0:0:
256,192,252633,1,0,0:0:0:0:
36,192,252633,1,0,0:0:0:0:
109,192,252633,1,0,0:0:0:0:
475,192,252633,128,0,252799:0:0:0:0:
182,192,252799,1,0,0:0:0:0:
402,192,252799,1,0,0:0:0:0:
36,192,252799,1,0,0:0:0:0:
256,192,252799,1,0,0:0:0:0:
329,192,252799,128,0,252965:0:0:0:0:
109,192,252965,1,0,0:0:0:0:
475,192,252965,1,0,0:0:0:0:
256,192,253131,128,0,253298:0:0:0:0:
402,192,253131,1,0,0:0:0:0:
182,192,253131,1,0,0:0:0:0:
329,192,253131,1,0,0:0:0:0:
36,192,253131,1,0,0:0:0:0:
109,192,253298,1,0,0:0:0:0:
475,192,253298,1,0,0:0:0:0:
182,192,253464,1,0,0:0:0:0:
256,192,253464,1,0,0:0:0:0:
402,192,253464,1,0,0:0:0:0:
36,192,253464,1,0,0:0:0:0:
329,192,253464,128,0,253630:0:0:0:0:
109,192,253630,1,0,0:0:0:0:
402,192,253630,1,0,0:0:0:0:
475,192,253630,1,0,0:0:0:0:
256,192,253630,128,0,253796:0:0:0:0:
182,192,253796,1,0,0:0:0:0:
109,192,253796,1,0,0:0:0:0:
329,192,253796,1,0,0:0:0:0:
475,192,253796,1,0,0:0:0:0:
36,192,253796,128,0,253963:0:0:0:0:
256,192,253963,1,0,0:0:0:0:
402,192,253963,1,0,0:0:0:0:
475,192,253963,1,0,0:0:0:0:
182,192,253963,128,0,254129:0:0:0:0:
329,192,254129,1,0,0:0:0:0:
109,192,254129,1,0,0:0:0:0:
109,192,254295,1,0,0:0:0:0:
402,192,254295,1,0,0:0:0:0:
475,192,254295,1,0,0:0:0:0:
256,192,254295,128,0,254461:0:0:0:0:
182,192,254461,1,0,0:0:0:0:
36,192,254461,1,0,0:0:0:0:
182,192,254627,1,0,0:0:0:0:
402,192,254627,1,0,0:0:0:0:
475,192,254627,1,0,0:0:0:0:
329,192,254627,128,0,254794:0:0:0:0:
109,192,254794,1,0,0:0:0:0:
402,192,254794,1,0,0:0:0:0:
475,192,254794,1,0,0:0:0:0:
36,192,254794,1,0,0:0:0:0:
256,192,254794,128,0,254960:0:0:0:0:
109,192,254960,1,0,0:0:0:0:
329,192,254960,1,0,0:0:0:0:
402,192,254960,1,0,0:0:0:0:
182,192,254960,128,0,255126:0:0:0:0:
109,192,255126,1,0,0:0:0:0:
36,192,255126,1,0,0:0:0:0:
256,192,255126,1,0,0:0:0:0:
475,192,255126,1,0,0:0:0:0:
402,192,255126,128,0,255292:0:0:0:0:
182,192,255292,1,0,0:0:0:0:
329,192,255292,1,0,0:0:0:0:
475,192,255292,1,0,0:0:0:0:
36,192,255292,1,0,0:0:0:0:
109,192,255458,1,0,0:0:0:0:
329,192,255458,1,0,0:0:0:0:
402,192,255458,1,0,0:0:0:0:
36,192,255458,1,0,0:0:0:0:
256,192,255458,128,0,255625:0:0:0:0:
109,192,255625,1,0,0:0:0:0:
329,192,255625,1,0,0:0:0:0:
402,192,255791,1,0,0:0:0:0:
182,192,255791,1,0,0:0:0:0:
256,192,255791,1,0,0:0:0:0:
36,192,255791,1,0,0:0:0:0:
475,192,255791,128,0,255957:0:0:0:0:
182,192,255957,1,0,0:0:0:0:
329,192,255957,1,0,0:0:0:0:
109,192,256123,1,0,0:0:0:0:
256,192,256123,1,0,0:0:0:0:
402,192,256123,1,0,0:0:0:0:
475,192,256123,1,0,0:0:0:0:
36,192,256123,128,0,256289:0:0:0:0:
256,192,256289,1,0,0:0:0:0:
402,192,256289,1,0,0:0:0:0:
329,192,256289,1,0,0:0:0:0:
182,192,256289,128,0,256456:0:0:0:0:
402,192,256456,1,0,0:0:0:0:
36,192,256456,1,0,0:0:0:0:
329,192,256456,1,0,0:0:0:0:
475,192,256456,1,0,0:0:0:0:
109,192,256456,128,0,256622:0:0:0:0:
475,192,256622,1,0,0:0:0:0:
256,192,256622,1,0,0:0:0:0:
182,192,256622,1,0,0:0:0:0:
402,192,256622,128,0,256788:0:0:0:0:
109,192,256788,1,0,0:0:0:0:
329,192,256788,1,0,0:0:0:0:
109,192,256954,1,0,0:0:0:0:
329,192,256954,1,0,0:0:0:0:
475,192,256954,1,0,0:0:0:0:
182,192,256954,128,0,257120:0:0:0:0:
402,192,257120,1,0,0:0:0:0:
36,192,257120,1,0,0:0:0:0:
182,192,257287,1,0,0:0:0:0:
109,192,257287,1,0,0:0:0:0:
475,192,257287,1,0,0:0:0:0:
256,192,257287,128,0,257453:0:0:0:0:
36,192,257453,1,0,0:0:0:0:
402,192,257453,1,0,0:0:0:0:
109,192,257453,1,0,0:0:0:0:
329,192,257453,1,0,0:0:0:0:
475,192,257453,128,0,257619:0:0:0:0:
329,192,257619,1,0,0:0:0:0:
36,192,257619,1,0,0:0:0:0:
402,192,257619,1,0,0:0:0:0:
182,192,257619,128,0,257785:0:0:0:0:
402,192,257785,1,0,0:0:0:0:
475,192,257785,1,0,0:0:0:0:
36,192,257785,1,0,0:0:0:0:
109,192,257785,1,0,0:0:0:0:
256,192,257785,128,0,257951:0:0:0:0:
182,192,257951,1,0,0:0:0:0:
329,192,257951,1,0,0:0:0:0:
402,192,257951,1,0,0:0:0:0:
109,192,257951,128,0,258118:0:0:0:0:
182,192,258118,1,0,0:0:0:0:
402,192,258118,1,0,0:0:0:0:
329,192,258118,1,0,0:0:0:0:
36,192,258118,1,0,0:0:0:0:
475,192,258118,128,0,258284:0:0:0:0:
109,192,258284,1,0,0:0:0:0:
256,192,258284,1,0,0:0:0:0:
402,192,258450,1,0,0:0:0:0:
475,192,258450,1,0,0:0:0:0:
329,192,258450,1,0,0:0:0:0:
36,192,258450,1,0,0:0:0:0:
182,192,258450,128,0,258616:0:0:0:0:
402,192,258616,1,0,0:0:0:0:
256,192,258616,1,0,0:0:0:0:
109,192,258782,1,0,0:0:0:0:
475,192,258782,1,0,0:0:0:0:
329,192,258782,1,0,0:0:0:0:
182,192,258782,1,0,0:0:0:0:
36,192,258782,128,0,258949:0:0:0:0:
475,192,258949,1,0,0:0:0:0:
402,192,258949,1,0,0:0:0:0:
109,192,258949,1,0,0:0:0:0:
256,192,258949,128,0,259115:0:0:0:0:
402,192,259115,1,0,0:0:0:0:
475,192,259115,1,0,0:0:0:0:
36,192,259115,1,0,0:0:0:0:
182,192,259115,1,0,0:0:0:0:
329,192,259115,128,0,259281:0:0:0:0:
109,192,259281,1,0,0:0:0:0:
256,192,259281,1,0,0:0:0:0:
36,192,259281,1,0,0:0:0:0:
475,192,259281,128,0,259447:0:0:0:0:
182,192,259447,1,0,0:0:0:0:
329,192,259447,1,0,0:0:0:0:
402,192,259447,1,0,0:0:0:0:
36,192,259447,1,0,0:0:0:0:
36,192,259613,128,0,259946:0:0:0:0:
109,192,259613,128,0,259946:0:0:0:0:
256,192,259613,128,0,259946:0:0:0:0:
475,192,259946,128,0,260112:0:0:0:0:
329,192,259946,128,0,260112:0:0:0:0:
182,192,260112,128,0,260278:0:0:0:0:
36,192,260112,128,0,260278:0:0:0:0:
256,192,260112,1,0,0:0:0:0:
402,192,260112,1,0,0:0:0:0:
109,192,260278,128,0,260445:0:0:0:0:
329,192,260278,128,0,260445:0:0:0:0:
475,192,260278,128,0,260445:0:0:0:0:
402,192,260445,128,0,260611:0:0:0:0:
256,192,260445,128,0,260611:0:0:0:0:
36,192,260445,128,0,260611:0:0:0:0:
329,192,260611,128,0,260777:0:0:0:0:
182,192,260611,128,0,260777:0:0:0:0:
256,192,260777,1,0,0:0:0:0:
475,192,260777,1,0,0:0:0:0:
402,192,260777,1,0,0:0:0:0:
109,192,260777,1,0,0:0:0:0:
36,192,260777,128,0,260943:0:0:0:0:
182,192,260943,1,0,0:0:0:0:
329,192,260943,1,0,0:0:0:0:
256,192,261109,1,0,0:0:0:0:
182,192,261109,1,0,0:0:0:0:
36,192,261109,1,0,0:0:0:0:
475,192,261109,1,0,0:0:0:0:
402,192,261109,128,0,261276:0:0:0:0:
109,192,261276,1,0,0:0:0:0:
329,192,261276,1,0,0:0:0:0:
256,192,261442,1,0,0:0:0:0:
36,192,261442,1,0,0:0:0:0:
402,192,261442,1,0,0:0:0:0:
475,192,261442,1,0,0:0:0:0:
182,192,261442,128,0,261608:0:0:0:0:
109,192,261608,1,0,0:0:0:0:
256,192,261608,1,0,0:0:0:0:
475,192,261608,1,0,0:0:0:0:
329,192,261608,128,0,261774:0:0:0:0:
182,192,261774,1,0,0:0:0:0:
109,192,261774,1,0,0:0:0:0:
402,192,261774,1,0,0:0:0:0:
475,192,261774,1,0,0:0:0:0:
36,192,261774,128,0,261940:0:0:0:0:
182,192,261940,1,0,0:0:0:0:
402,192,261940,1,0,0:0:0:0:
475,192,261940,1,0,0:0:0:0:
256,192,261940,128,0,262107:0:0:0:0:
109,192,262107,1,0,0:0:0:0:
329,192,262107,1,0,0:0:0:0:
182,192,262273,1,0,0:0:0:0:
329,192,262273,1,0,0:0:0:0:
36,192,262273,1,0,0:0:0:0:
475,192,262273,128,0,262439:0:0:0:0:
256,192,262439,1,0,0:0:0:0:
402,192,262439,1,0,0:0:0:0:
109,192,262605,1,0,0:0:0:0:
36,192,262605,1,0,0:0:0:0:
402,192,262605,1,0,0:0:0:0:
256,192,262605,128,0,262771:0:0:0:0:
109,192,262771,1,0,0:0:0:0:
329,192,262771,1,0,0:0:0:0:
36,192,262771,1,0,0:0:0:0:
475,192,262771,1,0,0:0:0:0:
182,192,262771,128,0,262938:0:0:0:0:
475,192,262938,1,0,0:0:0:0:
36,192,262938,1,0,0:0:0:0:
256,192,262938,1,0,0:0:0:0:
402,192,262938,128,0,263104:0:0:0:0:
329,192,263104,1,0,0:0:0:0:
475,192,263104,1,0,0:0:0:0:
36,192,263104,1,0,0:0:0:0:
109,192,263104,1,0,0:0:0:0:
182,192,263104,128,0,263270:0:0:0:0:
256,192,263270,1,0,0:0:0:0:
402,192,263270,1,0,0:0:0:0:
109,192,263270,1,0,0:0:0:0:
329,192,263270,128,0,263436:0:0:0:0:
402,192,263436,1,0,0:0:0:0:
36,192,263436,1,0,0:0:0:0:
475,192,263436,1,0,0:0:0:0:
182,192,263436,1,0,0:0:0:0:
256,192,263436,128,0,263602:0:0:0:0:
402,192,263602,1,0,0:0:0:0:
109,192,263602,1,0,0:0:0:0:
182,192,263769,1,0,0:0:0:0:
256,192,263769,1,0,0:0:0:0:
329,192,263769,1,0,0:0:0:0:
475,192,263769,1,0,0:0:0:0:
36,192,263769,128,0,263935:0:0:0:0:
109,192,263935,1,0,0:0:0:0:
256,192,263935,1,0,0:0:0:0:
475,192,264101,1,0,0:0:0:0:
329,192,264101,1,0,0:0:0:0:
182,192,264101,1,0,0:0:0:0:
36,192,264101,1,0,0:0:0:0:
402,192,264101,128,0,264267:0:0:0:0:
182,192,264267,1,0,0:0:0:0:
256,192,264267,1,0,0:0:0:0:
329,192,264267,1,0,0:0:0:0:
109,192,264267,128,0,264433:0:0:0:0:
402,192,264433,1,0,0:0:0:0:
329,192,264433,1,0,0:0:0:0:
256,192,264433,1,0,0:0:0:0:
36,192,264433,1,0,0:0:0:0:
475,192,264433,128,0,264600:0:0:0:0:
109,192,264600,1,0,0:0:0:0:
329,192,264600,1,0,0:0:0:0:
402,192,264600,1,0,0:0:0:0:
182,192,264600,128,0,264766:0:0:0:0:
329,192,264766,1,0,0:0:0:0:
36,192,264766,1,0,0:0:0:0:
402,192,264932,1,0,0:0:0:0:
256,192,264932,1,0,0:0:0:0:
109,192,264932,1,0,0:0:0:0:
475,192,264932,128,0,265098:0:0:0:0:
182,192,265098,1,0,0:0:0:0:
329,192,265098,1,0,0:0:0:0:
182,192,265264,1,0,0:0:0:0:
329,192,265264,1,0,0:0:0:0:
402,192,265264,1,0,0:0:0:0:
36,192,265264,128,0,265431:0:0:0:0:
109,192,265431,1,0,0:0:0:0:
256,192,265431,1,0,0:0:0:0:
475,192,265431,1,0,0:0:0:0:
402,192,265431,128,0,265597:0:0:0:0:
182,192,265597,1,0,0:0:0:0:
109,192,265597,1,0,0:0:0:0:
36,192,265597,1,0,0:0:0:0:
329,192,265597,128,0,265763:0:0:0:0:
256,192,265763,1,0,0:0:0:0:
402,192,265763,1,0,0:0:0:0:
475,192,265763,1,0,0:0:0:0:
36,192,265763,1,0,0:0:0:0:
182,192,265763,128,0,265929:0:0:0:0:
329,192,265929,1,0,0:0:0:0:
475,192,265929,1,0,0:0:0:0:
402,192,265929,1,0,0:0:0:0:
109,192,265929,128,0,266095:0:0:0:0:
182,192,266095,1,0,0:0:0:0:
256,192,266095,1,0,0:0:0:0:
36,192,266095,1,0,0:0:0:0:
475,192,266095,1,0,0:0:0:0:
402,192,266095,128,0,266262:0:0:0:0:
182,192,266262,1,0,0:0:0:0:
329,192,266262,1,0,0:0:0:0:
36,192,266262,1,0,0:0:0:0:
109,192,266428,128,0,266594:0:0:0:0:
256,192,266428,1,0,0:0:0:0:
329,192,266428,1,0,0:0:0:0:
475,192,266428,1,0,0:0:0:0:
36,192,266428,1,0,0:0:0:0:
182,192,266594,1,0,0:0:0:0:
402,192,266594,1,0,0:0:0:0:
256,192,266594,1,0,0:0:0:0:
329,192,266760,128,0,266927:0:0:0:0:
109,192,266760,1,0,0:0:0:0:
36,192,266760,1,0,0:0:0:0:
402,192,266760,1,0,0:0:0:0:
475,192,266760,1,0,0:0:0:0:
182,192,266927,128,0,267093:0:0:0:0:
256,192,266927,1,0,0:0:0:0:
36,192,266927,1,0,0:0:0:0:
475,192,266927,1,0,0:0:0:0:
402,192,267093,128,0,267259:0:0:0:0:
329,192,267093,1,0,0:0:0:0:
109,192,267093,1,0,0:0:0:0:
36,192,267093,1,0,0:0:0:0:
475,192,267093,1,0,0:0:0:0:
256,192,267259,128,0,267425:0:0:0:0:
109,192,267259,1,0,0:0:0:0:
182,192,267259,1,0,0:0:0:0:
329,192,267259,1,0,0:0:0:0:
402,192,267425,1,0,0:0:0:0:
182,192,267425,1,0,0:0:0:0:
36,192,267425,1,0,0:0:0:0:
109,192,267591,128,0,267758:0:0:0:0:
256,192,267591,1,0,0:0:0:0:
329,192,267591,1,0,0:0:0:0:
475,192,267591,1,0,0:0:0:0:
402,192,267591,1,0,0:0:0:0:
182,192,267758,1,0,0:0:0:0:
329,192,267758,1,0,0:0:0:0:
36,192,267758,1,0,0:0:0:0:
475,192,267924,128,0,268090:0:0:0:0:
109,192,267924,1,0,0:0:0:0:
182,192,267924,1,0,0:0:0:0:
256,192,267924,1,0,0:0:0:0:
402,192,267924,1,0,0:0:0:0:
36,192,268090,128,0,268256:0:0:0:0:
109,192,268090,1,0,0:0:0:0:
256,192,268090,1,0,0:0:0:0:
402,192,268090,1,0,0:0:0:0:
329,192,268090,1,0,0:0:0:0:
329,192,268256,128,0,268422:0:0:0:0:
182,192,268256,1,0,0:0:0:0:
475,192,268256,1,0,0:0:0:0:
402,192,268256,1,0,0:0:0:0:
182,192,268422,128,0,268589:0:0:0:0:
36,192,268422,1,0,0:0:0:0:
109,192,268422,1,0,0:0:0:0:
256,192,268422,1,0,0:0:0:0:
475,192,268422,1,0,0:0:0:0:
402,192,268589,128,0,268755:0:0:0:0:
329,192,268589,1,0,0:0:0:0:
109,192,268589,1,0,0:0:0:0:
475,192,268589,1,0,0:0:0:0:
256,192,268755,128,0,268921:0:0:0:0:
182,192,268755,1,0,0:0:0:0:
329,192,268755,1,0,0:0:0:0:
36,192,268755,1,0,0:0:0:0:
109,192,268755,1,0,0:0:0:0:
475,192,268838,1,0,0:0:0:0:
36,192,268921,1,0,0:0:0:0:
402,192,268921,1,0,0:0:0:0:
182,192,268921,1,0,0:0:0:0:
329,192,269004,1,0,0:0:0:0:
475,192,269087,128,0,269253:0:0:0:0:
182,192,269087,1,0,0:0:0:0:
402,192,269087,1,0,0:0:0:0:
36,192,269087,1,0,0:0:0:0:
109,192,269087,1,0,0:0:0:0:
256,192,269170,1,0,0:0:0:0:
329,192,269253,1,0,0:0:0:0:
109,192,269253,1,0,0:0:0:0:
256,192,269336,1,0,0:0:0:0:
109,192,269420,128,0,269586:0:0:0:0:
182,192,269420,1,0,0:0:0:0:
402,192,269420,1,0,0:0:0:0:
475,192,269420,1,0,0:0:0:0:
36,192,269420,1,0,0:0:0:0:
329,192,269503,1,0,0:0:0:0:
182,192,269586,128,0,269752:0:0:0:0:
256,192,269586,1,0,0:0:0:0:
475,192,269586,1,0,0:0:0:0:
402,192,269669,1,0,0:0:0:0:
475,192,269752,128,0,269918:0:0:0:0:
329,192,269752,1,0,0:0:0:0:
36,192,269752,1,0,0:0:0:0:
109,192,269752,1,0,0:0:0:0:
256,192,269835,1,0,0:0:0:0:
402,192,269918,128,0,270084:0:0:0:0:
109,192,269918,1,0,0:0:0:0:
36,192,269918,1,0,0:0:0:0:
182,192,269918,1,0,0:0:0:0:
329,192,270001,1,0,0:0:0:0:
36,192,270084,1,0,0:0:0:0:
109,192,270084,1,0,0:0:0:0:
256,192,270084,1,0,0:0:0:0:
402,192,270168,1,0,0:0:0:0:
475,192,270168,1,0,0:0:0:0:
182,192,270168,1,0,0:0:0:0:
36,192,270251,1,0,0:0:0:0:
109,192,270251,1,0,0:0:0:0:
329,192,270251,1,0,0:0:0:0:
256,192,270334,1,0,0:0:0:0:
402,192,270334,1,0,0:0:0:0:
475,192,270334,1,0,0:0:0:0:
329,192,270417,1,0,0:0:0:0:
182,192,270417,1,0,0:0:0:0:
36,192,270417,1,0,0:0:0:0:
109,192,270500,1,0,0:0:0:0:
256,192,270500,1,0,0:0:0:0:
402,192,270500,1,0,0:0:0:0:
182,192,270583,1,0,0:0:0:0:
329,192,270583,1,0,0:0:0:0:
475,192,270583,1,0,0:0:0:0:
256,192,270666,1,0,0:0:0:0:
109,192,270666,1,0,0:0:0:0:
36,192,270666,1,0,0:0:0:0:
402,192,270749,1,0,0:0:0:0:
475,192,270749,1,0,0:0:0:0:
329,192,270749,1,0,0:0:0:0:
36,192,270791,1,0,0:0:0:0:
109,192,270832,1,0,0:0:0:0:
182,192,270874,1,0,0:0:0:0:
256,192,270915,1,0,0:0:0:0:
475,192,270915,1,0,0:0:0:0:
402,192,270957,1,0,0:0:0:0:
329,192,270999,1,0,0:0:0:0:
36,192,270999,1,0,0:0:0:0:
109,192,271040,1,0,0:0:0:0:
182,192,271082,1,0,0:0:0:0:
475,192,271082,1,0,0:0:0:0:
402,192,271123,1,0,0:0:0:0:
329,192,271165,1,0,0:0:0:0:
256,192,271206,1,0,0:0:0:0:
182,192,271248,1,0,0:0:0:0:
475,192,271248,1,0,0:0:0:0:
109,192,271289,1,0,0:0:0:0:
402,192,271289,1,0,0:0:0:0:
36,192,271331,1,0,0:0:0:0:
329,192,271331,1,0,0:0:0:0:
256,192,271372,1,0,0:0:0:0:
182,192,271414,1,0,0:0:0:0:
402,192,271414,1,0,0:0:0:0:
475,192,271414,1,0,0:0:0:0:
109,192,271580,1,0,0:0:0:0:
329,192,271580,1,0,0:0:0:0:
256,192,271746,1,0,0:0:0:0:
36,192,271746,1,0,0:0:0:0:
402,192,271746,1,0,0:0:0:0:
475,192,271746,1,0,0:0:0:0:
109,192,271913,1,0,0:0:0:0:
329,192,271913,1,0,0:0:0:0:
182,192,272079,1,0,0:0:0:0:
475,192,272079,1,0,0:0:0:0:
402,192,272079,1,0,0:0:0:0:
36,192,272079,1,0,0:0:0:0:
329,192,272162,1,0,0:0:0:0:
109,192,272162,1,0,0:0:0:0:
256,192,272245,1,0,0:0:0:0:
36,192,272245,1,0,0:0:0:0:
182,192,272411,1,0,0:0:0:0:
329,192,272411,1,0,0:0:0:0:
402,192,272411,1,0,0:0:0:0:
475,192,272411,1,0,0:0:0:0:
329,192,272577,1,0,0:0:0:0:
182,192,272577,1,0,0:0:0:0:
256,192,272744,1,0,0:0:0:0:
109,192,272744,1,0,0:0:0:0:
36,192,272744,1,0,0:0:0:0:
475,192,272744,1,0,0:0:0:0:
182,192,272910,1,0,0:0:0:0:
402,192,272910,1,0,0:0:0:0:
329,192,273076,1,0,0:0:0:0:
109,192,273076,1,0,0:0:0:0:
36,192,273076,1,0,0:0:0:0:
256,192,273076,1,0,0:0:0:0:
402,192,273242,1,0,0:0:0:0:
182,192,273242,1,0,0:0:0:0:
329,192,273408,1,0,0:0:0:0:
475,192,273408,1,0,0:0:0:0:
109,192,273408,1,0,0:0:0:0:
36,192,273408,1,0,0:0:0:0:
182,192,273492,1,0,0:0:0:0:
256,192,273575,1,0,0:0:0:0:
402,192,273575,1,0,0:0:0:0:
109,192,273658,1,0,0:0:0:0:
182,192,273741,1,0,0:0:0:0:
36,192,273741,1,0,0:0:0:0:
329,192,273741,1,0,0:0:0:0:
475,192,273741,1,0,0:0:0:0:
475,192,273907,1,0,0:0:0:0:
36,192,273907,1,0,0:0:0:0:
109,192,274073,1,0,0:0:0:0:
182,192,274073,1,0,0:0:0:0:
329,192,274073,1,0,0:0:0:0:
402,192,274073,1,0,0:0:0:0:
256,192,274240,1,0,0:0:0:0:
475,192,274240,1,0,0:0:0:0:
402,192,274406,1,0,0:0:0:0:
182,192,274406,1,0,0:0:0:0:
36,192,274406,1,0,0:0:0:0:
329,192,274406,1,0,0:0:0:0:
109,192,274572,1,0,0:0:0:0:
256,192,274572,1,0,0:0:0:0:
182,192,274738,1,0,0:0:0:0:
329,192,274738,1,0,0:0:0:0:
475,192,274738,1,0,0:0:0:0:
36,192,274738,1,0,0:0:0:0:
256,192,274821,1,0,0:0:0:0:
402,192,274821,1,0,0:0:0:0:
329,192,274904,1,0,0:0:0:0:
109,192,274904,1,0,0:0:0:0:
182,192,275071,1,0,0:0:0:0:
256,192,275071,1,0,0:0:0:0:
402,192,275071,1,0,0:0:0:0:
475,192,275071,1,0,0:0:0:0:
402,192,275237,1,0,0:0:0:0:
182,192,275237,1,0,0:0:0:0:
256,192,275403,1,0,0:0:0:0:
329,192,275403,1,0,0:0:0:0:
109,192,275403,1,0,0:0:0:0:
36,192,275403,1,0,0:0:0:0:
182,192,275569,1,0,0:0:0:0:
402,192,275569,1,0,0:0:0:0:
475,192,275735,1,0,0:0:0:0:
256,192,275735,1,0,0:0:0:0:
109,192,275735,1,0,0:0:0:0:
36,192,275735,1,0,0:0:0:0:
182,192,275902,1,0,0:0:0:0:
402,192,275902,1,0,0:0:0:0:
329,192,276068,1,0,0:0:0:0:
475,192,276068,1,0,0:0:0:0:
36,192,276068,1,0,0:0:0:0:
256,192,276068,1,0,0:0:0:0:
109,192,276151,1,0,0:0:0:0:
329,192,276234,1,0,0:0:0:0:
182,192,276234,1,0,0:0:0:0:
475,192,276317,1,0,0:0:0:0:
402,192,276400,1,0,0:0:0:0:
256,192,276400,1,0,0:0:0:0:
109,192,276400,1,0,0:0:0:0:
36,192,276400,1,0,0:0:0:0:
109,192,276566,1,0,0:0:0:0:
256,192,276566,128,0,276649:0:0:0:0:
329,192,276649,128,0,276733:0:0:0:0:
402,192,276733,1,0,0:0:0:0:
475,192,276733,1,0,0:0:0:0:
182,192,276733,1,0,0:0:0:0:
36,192,276733,1,0,0:0:0:0:
329,192,276899,1,0,0:0:0:0:
256,192,276899,1,0,0:0:0:0:
109,192,277065,1,0,0:0:0:0:
475,192,277065,1,0,0:0:0:0:
182,192,277065,1,0,0:0:0:0:
36,192,277065,1,0,0:0:0:0:
256,192,277231,1,0,0:0:0:0:
402,192,277231,1,0,0:0:0:0:
329,192,277397,1,0,0:0:0:0:
36,192,277397,1,0,0:0:0:0:
182,192,277397,1,0,0:0:0:0:
475,192,277397,1,0,0:0:0:0:
109,192,277481,1,0,0:0:0:0:
402,192,277481,1,0,0:0:0:0:
36,192,277564,1,0,0:0:0:0:
256,192,277564,1,0,0:0:0:0:
329,192,277730,1,0,0:0:0:0:
475,192,277730,1,0,0:0:0:0:
182,192,277730,1,0,0:0:0:0:
109,192,277730,1,0,0:0:0:0:
182,192,277896,1,0,0:0:0:0:
475,192,277896,1,0,0:0:0:0:
36,192,278062,1,0,0:0:0:0:
402,192,278062,1,0,0:0:0:0:
256,192,278062,1,0,0:0:0:0:
109,192,278062,1,0,0:0:0:0:
329,192,278228,1,0,0:0:0:0:
182,192,278228,1,0,0:0:0:0:
36,192,278395,1,0,0:0:0:0:
256,192,278395,1,0,0:0:0:0:
475,192,278395,1,0,0:0:0:0:
402,192,278395,1,0,0:0:0:0:
109,192,278561,1,0,0:0:0:0:
329,192,278561,1,0,0:0:0:0:
182,192,278727,1,0,0:0:0:0:
36,192,278727,1,0,0:0:0:0:
256,192,278727,1,0,0:0:0:0:
475,192,278727,1,0,0:0:0:0:
402,192,278810,1,0,0:0:0:0:
329,192,278893,1,0,0:0:0:0:
109,192,278893,1,0,0:0:0:0:
182,192,278976,1,0,0:0:0:0:
402,192,279059,1,0,0:0:0:0:
475,192,279059,1,0,0:0:0:0:
256,192,279059,1,0,0:0:0:0:
36,192,279059,1,0,0:0:0:0:
36,192,279226,1,0,0:0:0:0:
256,192,279226,1,0,0:0:0:0:
475,192,279392,1,0,0:0:0:0:
329,192,279392,1,0,0:0:0:0:
109,192,279392,1,0,0:0:0:0:
182,192,279392,1,0,0:0:0:0:
402,192,279558,1,0,0:0:0:0:
256,192,279558,1,0,0:0:0:0:
36,192,279724,1,0,0:0:0:0:
329,192,279724,1,0,0:0:0:0:
475,192,279724,1,0,0:0:0:0:
182,192,279724,1,0,0:0:0:0:
402,192,279890,1,0,0:0:0:0:
109,192,279890,1,0,0:0:0:0:
475,192,280057,1,0,0:0:0:0:
36,192,280057,1,0,0:0:0:0:
182,192,280057,1,0,0:0:0:0:
329,192,280057,1,0,0:0:0:0:
256,192,280140,1,0,0:0:0:0:
109,192,280140,1,0,0:0:0:0:
475,192,280223,1,0,0:0:0:0:
329,192,280223,1,0,0:0:0:0:
402,192,280389,1,0,0:0:0:0:
36,192,280389,1,0,0:0:0:0:
182,192,280389,1,0,0:0:0:0:
256,192,280389,1,0,0:0:0:0:
36,192,280555,1,0,0:0:0:0:
402,192,280555,1,0,0:0:0:0:
109,192,280722,1,0,0:0:0:0:
475,192,280722,1,0,0:0:0:0:
256,192,280722,1,0,0:0:0:0:
329,192,280722,1,0,0:0:0:0:
182,192,280722,1,0,0:0:0:0:
402,192,280888,128,0,281054:0:0:0:0:
36,192,280888,1,0,0:0:0:0:
182,192,280971,1,0,0:0:0:0:
109,192,281054,1,0,0:0:0:0:
36,192,281137,1,0,0:0:0:0:
402,192,281220,128,0,281386:0:0:0:0:
182,192,281220,1,0,0:0:0:0:
36,192,281386,1,0,0:0:0:0:
182,192,281469,1,0,0:0:0:0:
402,192,281553,128,0,281719:0:0:0:0:
36,192,281553,1,0,0:0:0:0:
182,192,281636,1,0,0:0:0:0:
109,192,281719,1,0,0:0:0:0:
329,192,281719,128,0,281802:0:0:0:0:
182,192,281802,1,0,0:0:0:0:
402,192,281802,128,0,281885:0:0:0:0:
256,192,281885,1,0,0:0:0:0:
36,192,281885,1,0,0:0:0:0:
475,192,281885,128,0,282051:0:0:0:0:
329,192,281968,1,0,0:0:0:0:
402,192,282051,1,0,0:0:0:0:
36,192,282051,1,0,0:0:0:0:
109,192,282051,1,0,0:0:0:0:
182,192,282051,1,0,0:0:0:0:
182,192,282217,1,0,0:0:0:0:
329,192,282217,1,0,0:0:0:0:
109,192,282384,1,0,0:0:0:0:
36,192,282384,1,0,0:0:0:0:
256,192,282384,1,0,0:0:0:0:
475,192,282384,1,0,0:0:0:0:
182,192,282550,1,0,0:0:0:0:
402,192,282550,1,0,0:0:0:0:
109,192,282716,1,0,0:0:0:0:
475,192,282716,1,0,0:0:0:0:
256,192,282716,1,0,0:0:0:0:
36,192,282716,1,0,0:0:0:0:
329,192,282799,1,0,0:0:0:0:
182,192,282799,1,0,0:0:0:0:
402,192,282882,1,0,0:0:0:0:
109,192,282882,1,0,0:0:0:0:
182,192,283048,1,0,0:0:0:0:
329,192,283048,1,0,0:0:0:0:
36,192,283048,1,0,0:0:0:0:
475,192,283048,1,0,0:0:0:0:
475,192,283215,1,0,0:0:0:0:
182,192,283215,1,0,0:0:0:0:
256,192,283381,1,0,0:0:0:0:
329,192,283381,1,0,0:0:0:0:
36,192,283381,1,0,0:0:0:0:
402,192,283381,1,0,0:0:0:0:
182,192,283547,1,0,0:0:0:0:
109,192,283547,1,0,0:0:0:0:
402,192,283713,1,0,0:0:0:0:
475,192,283713,1,0,0:0:0:0:
36,192,283713,1,0,0:0:0:0:
256,192,283713,1,0,0:0:0:0:
329,192,283879,1,0,0:0:0:0:
182,192,283879,1,0,0:0:0:0:
402,192,284046,1,0,0:0:0:0:
475,192,284046,1,0,0:0:0:0:
256,192,284046,1,0,0:0:0:0:
36,192,284046,1,0,0:0:0:0:
109,192,284129,1,0,0:0:0:0:
182,192,284212,1,0,0:0:0:0:
329,192,284212,1,0,0:0:0:0:
256,192,284295,1,0,0:0:0:0:
182,192,284378,1,0,0:0:0:0:
109,192,284378,1,0,0:0:0:0:
329,192,284378,1,0,0:0:0:0:
475,192,284378,1,0,0:0:0:0:
475,192,284544,1,0,0:0:0:0:
109,192,284544,1,0,0:0:0:0:
36,192,284710,1,0,0:0:0:0:
182,192,284710,1,0,0:0:0:0:
329,192,284710,1,0,0:0:0:0:
402,192,284710,1,0,0:0:0:0:
256,192,284877,1,0,0:0:0:0:
475,192,284877,1,0,0:0:0:0:
402,192,285043,1,0,0:0:0:0:
109,192,285043,1,0,0:0:0:0:
36,192,285043,1,0,0:0:0:0:
182,192,285043,1,0,0:0:0:0:
329,192,285209,1,0,0:0:0:0:
256,192,285209,1,0,0:0:0:0:
182,192,285375,1,0,0:0:0:0:
402,192,285375,1,0,0:0:0:0:
475,192,285375,1,0,0:0:0:0:
36,192,285375,1,0,0:0:0:0:
109,192,285458,1,0,0:0:0:0:
329,192,285458,1,0,0:0:0:0:
402,192,285541,1,0,0:0:0:0:
182,192,285541,1,0,0:0:0:0:
109,192,285708,1,0,0:0:0:0:
256,192,285708,1,0,0:0:0:0:
329,192,285708,1,0,0:0:0:0:
475,192,285708,1,0,0:0:0:0:
256,192,285874,1,0,0:0:0:0:
109,192,285874,1,0,0:0:0:0:
182,192,286040,1,0,0:0:0:0:
329,192,286040,1,0,0:0:0:0:
475,192,286040,1,0,0:0:0:0:
36,192,286040,1,0,0:0:0:0:
256,192,286206,1,0,0:0:0:0:
402,192,286206,1,0,0:0:0:0:
475,192,286372,1,0,0:0:0:0:
329,192,286372,1,0,0:0:0:0:
182,192,286372,1,0,0:0:0:0:
36,192,286372,1,0,0:0:0:0:
109,192,286539,1,0,0:0:0:0:
256,192,286539,1,0,0:0:0:0:
402,192,286705,1,0,0:0:0:0:
475,192,286705,1,0,0:0:0:0:
36,192,286705,1,0,0:0:0:0:
182,192,286705,1,0,0:0:0:0:
329,192,286788,1,0,0:0:0:0:
402,192,286871,1,0,0:0:0:0:
109,192,286871,1,0,0:0:0:0:
256,192,286954,1,0,0:0:0:0:
475,192,287037,1,0,0:0:0:0:
329,192,287037,1,0,0:0:0:0:
182,192,287037,1,0,0:0:0:0:
36,192,287037,1,0,0:0:0:0:
182,192,287204,1,0,0:0:0:0:
329,192,287204,128,0,287287:0:0:0:0:
475,192,287287,128,0,287370:0:0:0:0:
256,192,287370,1,0,0:0:0:0:
402,192,287370,1,0,0:0:0:0:
109,192,287370,1,0,0:0:0:0:
36,192,287370,1,0,0:0:0:0:
329,192,287536,1,0,0:0:0:0:
182,192,287536,1,0,0:0:0:0:
402,192,287536,1,0,0:0:0:0:
109,192,287702,1,0,0:0:0:0:
475,192,287702,1,0,0:0:0:0:
256,192,287702,1,0,0:0:0:0:
36,192,287702,1,0,0:0:0:0:
256,192,287868,1,0,0:0:0:0:
402,192,287868,1,0,0:0:0:0:
109,192,287868,1,0,0:0:0:0:
329,192,288035,1,0,0:0:0:0:
36,192,288035,1,0,0:0:0:0:
182,192,288035,1,0,0:0:0:0:
475,192,288035,1,0,0:0:0:0:
256,192,288118,1,0,0:0:0:0:
402,192,288118,1,0,0:0:0:0:
36,192,288201,1,0,0:0:0:0:
182,192,288201,1,0,0:0:0:0:
475,192,288201,1,0,0:0:0:0:
402,192,288367,1,0,0:0:0:0:
475,192,288367,1,0,0:0:0:0:
256,192,288367,1,0,0:0:0:0:
109,192,288367,1,0,0:0:0:0:
109,192,288533,1,0,0:0:0:0:
256,192,288533,1,0,0:0:0:0:
36,192,288533,1,0,0:0:0:0:
36,192,288699,1,0,0:0:0:0:
475,192,288699,1,0,0:0:0:0:
329,192,288699,1,0,0:0:0:0:
182,192,288699,1,0,0:0:0:0:
402,192,288866,1,0,0:0:0:0:
256,192,288866,1,0,0:0:0:0:
109,192,288866,1,0,0:0:0:0:
36,192,289032,1,0,0:0:0:0:
256,192,289032,1,0,0:0:0:0:
475,192,289032,1,0,0:0:0:0:
402,192,289032,1,0,0:0:0:0:
109,192,289198,1,0,0:0:0:0:
329,192,289198,1,0,0:0:0:0:
182,192,289198,1,0,0:0:0:0:
402,192,289364,1,0,0:0:0:0:
36,192,289364,1,0,0:0:0:0:
256,192,289364,1,0,0:0:0:0:
475,192,289364,1,0,0:0:0:0:
329,192,289447,1,0,0:0:0:0:
402,192,289530,1,0,0:0:0:0:
109,192,289530,1,0,0:0:0:0:
182,192,289530,1,0,0:0:0:0:
36,192,289613,1,0,0:0:0:0:
329,192,289697,1,0,0:0:0:0:
475,192,289697,1,0,0:0:0:0:
182,192,289697,1,0,0:0:0:0:
109,192,289697,1,0,0:0:0:0:
109,192,289863,1,0,0:0:0:0:
256,192,289863,1,0,0:0:0:0:
402,192,289863,1,0,0:0:0:0:
475,192,290029,1,0,0:0:0:0:
329,192,290029,1,0,0:0:0:0:
36,192,290029,1,0,0:0:0:0:
182,192,290029,1,0,0:0:0:0:
256,192,290112,1,0,0:0:0:0:
402,192,290112,1,0,0:0:0:0:
109,192,290195,1,0,0:0:0:0:
36,192,290195,1,0,0:0:0:0:
475,192,290195,1,0,0:0:0:0:
182,192,290278,1,0,0:0:0:0:
329,192,290278,1,0,0:0:0:0:
402,192,290361,1,0,0:0:0:0:
475,192,290361,1,0,0:0:0:0:
36,192,290361,1,0,0:0:0:0:
109,192,290361,1,0,0:0:0:0:
256,192,290445,1,0,0:0:0:0:
329,192,290445,1,0,0:0:0:0:
182,192,290528,1,0,0:0:0:0:
36,192,290528,1,0,0:0:0:0:
475,192,290528,1,0,0:0:0:0:
329,192,290611,1,0,0:0:0:0:
402,192,290611,1,0,0:0:0:0:
256,192,290694,1,0,0:0:0:0:
182,192,290694,1,0,0:0:0:0:
109,192,290694,1,0,0:0:0:0:
36,192,290694,1,0,0:0:0:0:
402,192,290777,1,0,0:0:0:0:
475,192,290777,1,0,0:0:0:0:
329,192,290860,1,0,0:0:0:0:
182,192,290860,1,0,0:0:0:0:
36,192,290860,1,0,0:0:0:0:
109,192,290943,1,0,0:0:0:0:
256,192,290943,1,0,0:0:0:0:
475,192,291026,1,0,0:0:0:0:
182,192,291026,1,0,0:0:0:0:
36,192,291026,1,0,0:0:0:0:
329,192,291026,1,0,0:0:0:0:
256,192,291109,1,0,0:0:0:0:
402,192,291109,1,0,0:0:0:0:
109,192,291192,1,0,0:0:0:0:
36,192,291192,1,0,0:0:0:0:
475,192,291192,1,0,0:0:0:0:
182,192,291276,1,0,0:0:0:0:
329,192,291276,1,0,0:0:0:0:
475,192,291359,1,0,0:0:0:0:
256,192,291359,1,0,0:0:0:0:
402,192,291359,1,0,0:0:0:0:
36,192,291359,128,0,291525:0:0:0:0:
109,192,291400,128,0,291566:0:0:0:0:
182,192,291442,128,0,291608:0:0:0:0:
475,192,291525,128,0,291608:0:0:0:0:
402,192,291566,128,0,291649:0:0:0:0:
329,192,291608,128,0,291691:0:0:0:0:
256,192,291649,128,0,291733:0:0:0:0:
36,192,291691,128,0,291774:0:0:0:0:
182,192,291774,128,0,291857:0:0:0:0:
475,192,291774,128,0,291857:0:0:0:0:
36,192,291857,128,0,291940:0:0:0:0:
329,192,291857,128,0,291940:0:0:0:0:
182,192,291940,128,0,292023:0:0:0:0:
475,192,291940,128,0,292023:0:0:0:0:
109,192,292023,128,0,292148:0:0:0:0:
329,192,292023,128,0,292190:0:0:0:0:
402,192,292023,128,0,292190:0:0:0:0:
182,192,292107,128,0,292231:0:0:0:0:
256,192,292190,128,0,292314:0:0:0:0:
36,192,292356,1,0,0:0:0:0:
402,192,292356,1,0,0:0:0:0:
475,192,292356,1,0,0:0:0:0:
109,192,292397,1,0,0:0:0:0:
329,192,292439,1,0,0:0:0:0:
182,192,292439,1,0,0:0:0:0:
475,192,292522,1,0,0:0:0:0:
402,192,292522,1,0,0:0:0:0:
36,192,292522,1,0,0:0:0:0:
109,192,292522,1,0,0:0:0:0:
182,192,292605,1,0,0:0:0:0:
329,192,292605,1,0,0:0:0:0:
402,192,292647,1,0,0:0:0:0:
256,192,292688,1,0,0:0:0:0:
475,192,292688,1,0,0:0:0:0:
36,192,292688,1,0,0:0:0:0:
109,192,292688,1,0,0:0:0:0:
