osu file format v14

[General]
AudioFilename: audio.mp3
AudioLeadIn: 0
PreviewTime: 51700
Countdown: 0
SampleSet: Normal
StackLeniency: 0.8
Mode: 0
LetterboxInBreaks: 0
WidescreenStoryboard: 0

[Editor]
Bookmarks: 10728,31154,36260,52856,83494,89238
DistanceSpacing: 0.6
BeatDivisor: 4
GridSize: 4
TimelineZoom: 1

[Metadata]
Title:RAY OF LIGHT
TitleUnicode:RAY OF LIGHT
Artist:Shoko Nakagawa
ArtistUnicode:Shoko Nakagawa
Creator:Osuology
Version:Sacrifice
Source:
Tags:
BeatmapID:2002710
BeatmapSetID:956661

[Difficulty]
HPDrainRate:7
CircleSize:4.6
OverallDifficulty:6.5
ApproachRate:8
SliderMultiplier:1.55
SliderTickRate:1

[Events]
//Background and Video events
0,0,"cropped-1920-1080-108067.jpg",0,0
//Break Periods
//Storyboard Layer 0 (Background)
//Storyboard Layer 1 (Fail)
//Storyboard Layer 2 (Pass)
//Storyboard Layer 3 (Foreground)
//Storyboard Sound Samples
Sample,36317,0,"Lev_Clap_027.wav",70

[TimingPoints]
516,638.297872340426,4,2,0,75,1,0
10728,-80,4,3,0,75,0,0
31154,-133.333333333333,4,3,0,45,0,0
35622,-100,4,1,1,90,0,0
36260,-80,4,1,1,75,0,0
52856,638.297872340426,4,1,1,80,1,0
52856,-66.6666666666667,4,1,1,80,0,1
62909,-66.6666666666667,4,1,1,80,0,0
63068,-66.6666666666667,4,1,1,80,0,1
78387,-100,4,1,1,80,0,0
80941,-100,4,1,1,80,0,1
81100,-66.6666666666667,4,1,1,80,0,0
83494,-80,4,1,1,80,0,0
86047,-133.333333333333,4,1,1,80,0,0
89238,-133.333333333333,4,2,0,20,0,0

[Colours]
Combo1 : 255,249,136
Combo2 : 247,249,200
Combo3 : 254,230,197

[HitObjects]
136,24,516,6,0,P|155:72|145:108,1,77.5,6|2,0:0|0:0,0:0:0:0:
259,56,1154,2,0,P|240:104|250:140,1,77.5,2|2,0:0|0:0,0:0:0:0:
227,143,1633,1,2,0:0:0:0:
212,161,1792,2,0,L|217:219,2,38.75,2|0|0,0:0|0:0|0:0,0:0:0:0:
271,260,2430,2,0,P|232:279|186:279,1,77.5,10|0,0:0|0:0,0:0:0:0:
22,121,3069,6,0,P|37:160|29:200,1,77.5,2|2,0:0|0:0,0:0:0:0:
134,140,3707,1,2,0:0:0:0:
121,223,4026,2,0,L|156:258,1,38.75,2|2,0:0|0:0,0:0:0:0:
57,278,4345,1,2,0:0:0:0:
34,282,4505,2,0,P|6:314|1:349,1,77.5,0|0,0:0|0:0,0:0:0:0:
58,337,4984,2,0,P|86:305|91:270,1,77.5,10|0,0:0|0:0,0:0:0:0:
173,67,5622,6,0,P|191:102|171:150,1,77.5,2|2,0:0|0:0,0:0:0:0:
293,103,6260,2,0,P|275:138|295:186,1,77.5,2|2,0:0|0:0,0:0:0:0:
275,195,6739,1,2,0:0:0:0:
259,211,6898,1,2,0:0:0:0:
237,220,7058,2,0,P|247:269|234:294,1,77.5,0|0,0:0|0:0,0:0:0:0:
189,255,7537,2,0,P|179:206|192:181,1,77.5,10|0,0:0|0:0,0:0:0:0:
299,89,8175,6,0,P|282:129|302:174,1,77.5,2|0,0:0|0:0,0:0:0:0:
178,129,8813,2,0,P|195:169|175:214,1,77.5,2|0,0:0|0:0,0:0:0:0:
135,172,9292,2,0,P|162:144|214:148,1,77.5,10|0,0:0|0:0,0:0:0:0:
186,200,9771,1,8,0:0:0:0:
167,213,9930,1,2,0:3:0:0:
151,230,10090,1,10,0:2:0:0:
165,248,10250,1,2,0:3:0:0:
184,260,10409,2,0,L|192:304,1,38.75,2|2,0:3|0:3,0:0:0:0:
47,131,10728,6,0,L|65:230,1,96.875,4|0,0:0|0:0,0:0:0:0:
201,164,11367,2,0,L|183:263,1,96.875,0|2,0:0|0:0,0:0:0:0:
161,277,11845,1,0,0:0:0:0:
139,296,12005,1,2,0:0:0:0:
137,324,12164,1,8,0:0:0:0:
154,347,12324,2,0,L|187:384,1,48.4375,2|0,0:0|0:0,0:0:0:0:
57,370,12643,2,0,L|0:377,2,48.4375,10|0|2,0:0|0:0|0:0,0:0:0:0:
240,171,13281,6,0,L|266:272,1,96.875,2|0,0:0|0:0,0:0:0:0:
403,195,13920,2,0,L|382:302,1,96.875,0|2,0:0|0:0,0:0:0:0:
358,303,14398,1,0,0:0:0:0:
332,317,14558,1,0,0:0:0:0:
321,343,14718,1,8,0:0:0:0:
458,382,15196,2,0,L|517:385,2,48.4375,10|0|2,0:0|0:0|0:0,0:0:0:0:
329,147,15835,6,0,L|310:262,1,96.875,2|2,0:0|0:0,0:0:0:0:
175,171,16473,1,2,0:0:0:0:
198,275,16792,1,2,0:0:0:0:
227,284,16952,1,0,0:0:0:0:
256,293,17111,2,0,L|314:308,3,48.4375,2|0|2|0,0:0|0:0|0:0|0:0,0:0:0:0:
332,312,17750,2,0,P|374:325|390:379,1,96.875,10|2,0:0|0:0,0:0:0:0:
437,156,18388,6,0,L|411:264,1,96.875,0|0,0:0|0:0,0:0:0:0:
276,179,19026,2,0,L|302:287,1,96.875,0|0,0:0|0:0,0:0:0:0:
445,322,19664,1,2,0:0:0:0:
417,332,19824,1,8,0:0:0:0:
397,354,19984,1,2,0:0:0:0:
511,376,20303,2,0,L|520:270,1,96.875,10|2,0:0|0:0,0:0:0:0:
465,46,20941,6,0,L|435:143,1,96.875,0|0,0:0|0:0,0:0:0:0:
288,91,21579,2,0,L|318:188,1,96.875,2|0,0:0|0:0,0:0:0:0:
464,232,22218,1,2,0:0:0:0:
444,253,22377,1,0,0:0:0:0:
422,274,22537,1,2,0:0:0:0:
297,366,22856,2,0,P|247:344|224:287,1,96.875,10|2,0:0|0:0,0:0:0:0:
107,85,23494,6,0,L|128:189,1,96.875,0|0,0:0|0:0,0:0:0:0:
264,108,24133,1,0,0:0:0:0:
244,202,24452,1,0,0:0:0:0:
224,223,24611,1,0,0:0:0:0:
201,242,24771,1,2,0:0:0:0:
193,270,24930,1,8,0:0:0:0:
202,297,25090,1,2,0:0:0:0:
339,368,25409,2,0,P|357:328|351:268,1,96.875,10|2,0:0|0:0,0:0:0:0:
267,60,26047,6,0,L|296:179,1,96.875,0|0,0:0|0:0,0:0:0:0:
426,79,26686,2,0,L|397:198,1,96.875,2|2,0:0|0:0,0:0:0:0:
381,192,27164,1,2,0:0:0:0:
355,206,27324,2,0,L|327:248,2,48.4375,0|0|2,0:0|0:0|0:0,0:0:0:0:
210,261,27962,2,0,P|234:322|277:349,1,96.875,10|2,0:0|0:0,0:0:0:0:
423,146,28601,6,0,L|404:248,1,96.875,0|0,0:0|0:0,0:0:0:0:
385,220,29079,1,0,0:0:0:0:
362,238,29239,2,0,L|391:341,1,96.875,0|0,0:0|0:0,0:0:0:0:
511,260,29877,1,0,0:0:0:0:
493,283,30037,1,8,0:0:0:0:
489,311,30196,1,2,0:3:0:0:
461,331,30356,1,2,0:3:0:0:
424,343,30516,1,2,0:3:0:0:
381,353,30675,1,2,0:3:0:0:
334,366,30835,1,2,0:3:0:0:
193,180,31154,6,0,P|220:226|197:288,1,116.250004434586,6|2,0:2|0:0,0:0:0:0:
368,199,32430,2,0,P|347:237|347:273,1,58.1250022172929,0|2,0:0|0:0,0:0:0:0:
265,299,33069,2,0,L|308:318,1,29.0625011086464,0|0,0:0|0:0,0:0:0:0:
175,362,33388,2,0,L|186:335,1,29.0625011086464,2|0,0:0|0:0,0:0:0:0:
226,127,33707,6,0,B|272:147|328:145|328:145|362:145|375:215|333:226|269:205,1,232.500008869171,6|0,0:2|0:0,0:0:0:0:
223,226,35143,2,0,L|207:262,2,29.0625011086464,0|2|0,0:0|0:0|0:0,0:0:0:0:
298,354,35622,2,0,P|300:316|279:285,1,77.5,8|2,0:0|0:0,0:0:0:0:
90,66,36260,5,6,0:2:0:0:
27,207,36579,1,2,0:0:0:0:
203,245,36898,2,0,P|162:219|103:212,1,96.875,10|2,0:0|0:0,0:0:0:0:
17,293,37537,2,0,L|111:319,1,96.875,0|2,0:0|0:0,0:0:0:0:
271,350,38175,2,0,P|312:376|371:383,1,96.875,10|2,0:0|0:0,0:0:0:0:
183,53,38813,6,0,L|199:149,1,96.875,0|2,0:0|0:0,0:0:0:0:
400,73,39452,2,0,P|330:68|287:94,1,96.875,10|2,0:0|0:0,0:0:0:0:
287,99,39930,1,0,0:0:0:0:
270,122,40090,1,0,0:0:0:0:
274,150,40250,1,0,0:0:0:0:
294,170,40409,1,0,0:0:0:0:
432,258,40728,2,0,P|479:252|511:217,1,96.875,10|2,0:0|0:0,0:0:0:0:
392,22,41367,6,0,L|329:132,1,96.875,2|0,0:0|0:0,0:0:0:0:
179,111,42005,2,0,P|217:141|295:130,1,96.875,8|2,0:0|0:0,0:0:0:0:
289,157,42484,1,0,0:0:0:0:
310,175,42643,2,0,L|361:180,2,48.4375,2|0|2,0:0|0:0|0:0,0:0:0:0:
209,220,43281,2,0,P|184:270|192:315,1,96.875,10|2,0:0|0:0,0:0:0:0:
308,50,43920,5,2,0:0:0:0:
148,89,44239,1,2,0:0:0:0:
304,140,44558,2,0,P|241:145|202:183,1,96.875,10|2,0:0|0:0,0:0:0:0:
58,215,45196,1,0,0:0:0:0:
216,262,45516,1,0,0:0:0:0:
57,305,45835,2,0,P|120:310|159:348,1,96.875,8|2,0:0|0:0,0:0:0:0:
301,47,46473,6,0,L|271:152,1,96.875,2|2,0:0|0:0,0:0:0:0:
117,88,47111,2,0,P|165:119|167:192,1,96.875,10|2,0:0|0:0,0:0:0:0:
329,215,47750,1,0,0:0:0:0:
169,255,48069,1,0,0:0:0:0:
325,305,48388,2,0,P|394:277|410:237,1,96.875,8|2,0:0|0:0,0:0:0:0:
376,38,49026,5,2,0:0:0:0:
349,49,49186,1,0,0:0:0:0:
322,61,49345,1,2,0:0:0:0:
295,73,49505,1,0,0:0:0:0:
281,98,49664,2,0,P|280:170|325:212,1,96.875,10|14,0:0|0:0,0:0:0:0:
485,192,50622,5,8,0:0:0:0:
280,224,50941,1,8,0:0:0:0:
483,306,51260,1,8,0:0:0:0:
217,320,52218,5,2,0:3:0:0:
253,332,52324,1,0,0:0:0:0:
290,341,52430,1,0,0:0:0:0:
328,348,52537,1,2,0:3:0:0:
292,362,52643,1,0,0:0:0:0:
254,373,52750,1,0,0:0:0:0:
208,379,52856,6,0,B|233:322|233:322|204:273,1,116.250004434586,6|2,0:2|0:0,0:0:0:0:
95,250,53494,2,0,B|70:193|70:193|97:146,1,116.250004434586,10|2,0:0|0:0,0:0:0:0:
141,130,53973,1,2,0:0:0:0:
206,121,54132,1,0,0:0:0:0:
168,66,54292,1,8,0:0:0:0:
102,60,54451,1,0,0:0:0:0:
0,0,54770,2,0,P|-9:46|12:113,1,116.250004434586,10|2,0:0|0:0,0:0:0:0:
48,307,55409,5,2,0:0:0:0:
186,246,55728,1,2,0:0:0:0:
373,203,56047,2,0,B|314:195|314:195|254:206,1,116.250004434586,10|2,0:0|0:0,0:0:0:0:
232,146,56526,1,2,0:0:0:0:
294,134,56685,1,0,0:0:0:0:
251,86,56845,1,8,0:0:0:0:
312,70,57004,2,0,L|373:107,1,58.1250022172929,0|0,0:0|0:0,0:0:0:0:
431,37,57324,1,10,0:0:0:0:
245,9,57643,1,2,0:0:0:0:
432,314,57962,5,6,0:2:0:0:
248,281,58281,1,2,0:0:0:0:
64,250,58600,1,10,0:0:0:0:
247,221,58919,1,2,0:0:0:0:
297,180,59079,1,0,0:0:0:0:
344,137,59238,2,0,B|403:146|403:146|449:187,1,116.250004434586,2|2,0:0|0:0,0:0:0:0:
267,61,59877,2,0,B|165:69|165:69|119:28,1,116.250004434586,10|2,0:0|0:0,0:0:0:0:
67,274,60515,5,2,0:0:0:0:
247,231,60834,1,2,0:0:0:0:
65,189,61153,2,0,L|0:210,2,58.1250022172929,10|0|2,0:0|0:0|0:0,0:0:0:0:
97,133,61632,1,2,0:0:0:0:
135,79,61792,2,0,L|200:58,3,58.1250022172929,0|8|0|0,0:0|0:0|0:0|0:0,0:0:0:0:
253,52,62430,1,2,0:3:0:0:
316,44,62590,1,2,0:3:0:0:
378,34,62749,2,0,L|346:116,1,58.1250022172929,2|2,0:3|0:3,0:0:0:0:
220,293,63068,6,0,L|127:287,1,58.1250022172929,6|0,0:2|0:0,0:0:0:0:
71,265,63387,1,2,0:0:0:0:
250,213,63707,1,10,0:0:0:0:
72,158,64026,1,2,0:0:0:0:
133,145,64185,1,2,0:0:0:0:
195,131,64345,2,0,P|201:165|186:195,2,58.1250022172929,0|8|0,0:0|0:0|0:0,0:0:0:0:
20,66,64983,2,0,B|75:47|75:47|165:56,1,116.250004434586,10|2,0:0|0:0,0:0:0:0:
130,238,65621,5,2,0:0:0:0:
314,208,65941,1,2,0:0:0:0:
498,183,66260,2,0,B|446:158|446:158|380:152,1,116.250004434586,10|2,0:0|0:0,0:0:0:0:
325,137,66738,1,2,0:0:0:0:
385,116,66898,1,0,0:0:0:0:
337,72,67058,1,8,0:0:0:0:
273,66,67217,1,0,0:0:0:0:
80,26,67536,2,0,B|132:51|132:51|198:57,1,116.250004434586,10|2,0:0|0:0,0:0:0:0:
258,304,68175,6,0,B|297:261|297:261|304:196,1,116.250004434586,6|2,0:2|0:0,0:0:0:0:
172,162,68813,2,0,B|133:205|133:205|126:270,1,116.250004434586,10|2,0:0|0:0,0:0:0:0:
360,130,69451,1,2,0:0:0:0:
178,88,69770,1,2,0:0:0:0:
356,33,70090,2,0,B|293:29|293:29|210:78,1,116.250004434586,10|2,0:0|0:0,0:0:0:0:
209,311,70728,6,0,B|238:262|238:262|222:196,1,116.250004434586,0|2,0:0|0:0,0:0:0:0:
46,150,71366,2,0,B|17:199|17:199|33:265,1,116.250004434586,10|2,0:0|0:0,0:0:0:0:
115,93,72004,2,0,P|95:75|45:72,2,58.1250022172929,8|0|2,0:0|0:0|0:0,0:0:0:0:
176,75,72483,1,2,0:3:0:0:
237,57,72643,2,0,P|265:63|286:82,2,58.1250022172929,2|2|2,0:3|0:3|0:3,0:0:0:0:
84,288,73281,5,6,0:2:0:0:
276,245,73600,1,2,0:0:0:0:
98,178,73919,2,0,B|72:232|72:232|85:293,1,116.250004434586,10|2,0:0|0:0,0:0:0:0:
288,164,74558,1,0,0:0:0:0:
112,102,74877,1,2,0:0:0:0:
287,50,75196,2,0,B|299:110|299:110|282:192,1,116.250004434586,10|2,0:0|0:0,0:0:0:0:
199,327,75834,6,0,B|235:280|235:280|318:265,1,116.250004434586,2|0,0:0|0:0,0:0:0:0:
474,233,76473,2,0,B|438:280|438:280|355:295,1,116.250004434586,10|0,0:0|0:0,0:0:0:0:
207,226,77111,1,2,0:0:0:0:
230,166,77270,1,8,0:0:0:0:
196,111,77430,1,2,0:0:0:0:
95,32,77749,2,0,B|118:93|118:93|95:152,1,116.250004434586,10|2,0:0|0:0,0:0:0:0:
62,307,78387,6,0,L|85:222,1,77.5,2|0,0:3|0:0,0:0:0:0:
194,285,79026,1,2,0:0:0:0:
284,199,79345,2,0,L|261:114,1,77.5,6|0,0:3|0:0,0:0:0:0:
121,159,79983,1,2,0:3:0:0:
48,59,80302,1,2,0:3:0:0:
89,50,80462,1,2,0:3:0:0:
130,39,80621,1,2,0:3:0:0:
66,281,80941,6,0,L|323:255,1,232.5,6|0,0:2|0:0,0:0:0:0:
424,241,82217,1,6,0:2:0:0:
309,183,82536,1,2,0:0:0:0:
446,126,82856,1,10,0:0:0:0:
264,83,83175,2,0,P|272:48|302:29,1,58.1250022172929,10|2,0:0|0:0,0:0:0:0:
105,247,83494,6,0,B|151:225|151:225|222:232,1,96.875,4|0,0:2|0:0,0:0:0:0:
373,217,84132,2,0,B|327:239|327:239|256:232,1,96.875,10|0,0:0|0:0,0:0:0:0:
253,226,84611,1,0,0:0:0:0:
226,215,84770,1,0,0:0:0:0:
200,201,84930,1,0,0:0:0:0:
225,187,85090,1,0,0:0:0:0:
252,176,85249,1,0,0:0:0:0:
279,166,85409,2,0,P|288:128|244:91,1,96.875,10|0,0:0|0:0,0:0:0:0:
221,82,85887,1,0,0:0:0:0:
168,63,86047,5,4,0:2:0:0:
256,192,86207,12,0,89238,0:0:0:0:
