osu file format v14

[General]
AudioFilename: audio.mp3
AudioLeadIn: 0
PreviewTime: 40939
Countdown: 0
SampleSet: Soft
StackLeniency: 0.7
Mode: 0
LetterboxInBreaks: 0
WidescreenStoryboard: 0

[Editor]
Bookmarks: 92429,97045
DistanceSpacing: 1
BeatDivisor: 4
GridSize: 4
TimelineZoom: 1

[Metadata]
Title:You Reposted in the Wrong Neighborhood
TitleUnicode:You Reposted in the Wrong Neighborhood
Artist:Shokk
ArtistUnicode:Shokk
Creator:ezek
Version:Normal
Source:
Tags:Glue70 Casin Shake that bloo Eminem Nate Dogg Remix meme two to one hobbes2 青 neighbourhood
BeatmapID:1118550
BeatmapSetID:527207

[Difficulty]
HPDrainRate:4
CircleSize:3.5
OverallDifficulty:4
ApproachRate:5
SliderMultiplier:1.5
SliderTickRate:2

[Events]
//Background and Video events
Video,0,"Crystilonz is sexy AF.avi"
0,0,"Crys is mine.jpg",0,0
//Break Periods
//Storyboard Layer 0 (Background)
//Storyboard Layer 1 (Fail)
//Storyboard Layer 2 (Pass)
//Storyboard Layer 3 (Foreground)
//Storyboard Sound Samples

[TimingPoints]
122,576.923076923077,4,2,1,50,1,0
4160,-100,4,2,0,50,0,0
4737,-100,4,2,1,80,0,0
87814,-100,4,2,1,60,0,0
90122,-100,4,2,1,40,0,0
92429,-100,4,2,1,20,0,0
94737,-100,4,2,1,10,0,0

[Colours]
Combo1 : 141,141,141
Combo2 : 15,174,187
Combo3 : 239,152,33
Combo4 : 255,70,70

[HitObjects]
53,106,122,6,0,P|103:157|180:164,1,150,2|2,0:0|0:0,0:0:0:0:
244,128,987,1,0,0:0:0:0:
308,89,1275,2,0,P|381:95|433:147,1,150,2|2,0:0|0:0,0:0:0:0:
463,216,2141,1,0,0:0:0:0:
442,287,2429,6,0,L|287:323,1,150,2|2,0:0|0:0,0:0:0:0:
157,262,3583,1,2,0:0:0:0:
120,196,3872,1,0,0:0:0:0:
171,141,4160,1,2,0:0:0:0:
171,141,4737,6,0,B|116:115|116:115|7:127,1,150,2|8,0:0|0:0,0:0:0:0:
3,195,5602,1,0,0:0:0:0:
43,258,5891,2,0,L|18:333,2,75,2|0|8,0:0|0:0|0:0,0:0:0:0:
115,237,6756,1,0,0:0:0:0:
188,219,7045,6,0,P|258:209|335:236,1,150,2|8,0:0|0:0,0:0:0:0:
367,300,7910,1,0,0:0:0:0:
425,253,8198,2,0,L|458:182,1,75,2|0,0:0|0:0,0:0:0:0:
486,115,8775,1,8,0:0:0:0:
348,56,9352,6,0,B|295:41|274:61|253:82|199:62,1,150,2|8,0:0|0:0,0:0:0:0:
131,35,10218,1,0,0:0:0:0:
97,101,10506,2,0,P|67:75|57:42,2,75,2|0|8,0:0|0:0|0:0,0:0:0:0:
155,148,11372,1,0,0:0:0:0:
96,195,11660,6,0,L|112:350,1,150,2|8,0:0|0:0,0:0:0:0:
180,374,12525,1,0,0:0:0:0:
250,349,12814,2,0,L|330:343,1,75,2|0,0:0|0:0,0:0:0:0:
371,284,13391,1,8,0:0:0:0:
371,284,13679,1,0,0:0:0:0:
326,223,13968,6,0,P|317:152|326:74,1,150,2|8,0:0|0:0,0:0:0:0:
381,22,14833,1,0,0:0:0:0:
434,74,15122,2,0,P|455:39|452:-2,2,75,2|0|8,0:0|0:0|0:0,0:0:0:0:
355,204,16275,6,0,P|350:243|363:275,1,75,2|0,0:0|0:0,0:0:0:0:
336,345,16852,2,0,L|247:339,1,75,8|0,0:0|0:0,0:0:0:0:
250,265,17429,2,0,P|263:230|258:193,2,75,2|0|8,0:0|0:0|0:0,0:0:0:0:
191,312,18295,1,0,0:0:0:0:
123,279,18583,6,0,B|93:225|93:225|82:129,1,150,2|8,0:0|0:0,0:0:0:0:
124,74,19448,1,0,0:0:0:0:
198,82,19737,2,0,P|238:57|257:32,2,75,2|0|8,0:0|0:0|0:0,0:0:0:0:
269,213,20891,6,0,P|341:174|392:118,1,150,2|8,0:0|0:0,0:0:0:0:
456,96,21756,1,0,0:0:0:0:
447,170,22045,2,0,P|405:240|390:314,1,150,2|8,0:0|0:0,0:0:0:0:
331,352,22910,1,0,0:0:0:0:
283,294,23198,6,0,L|207:304,1,75,2|0,0:0|0:0,0:0:0:0:
164,242,23775,2,0,L|88:252,2,75,8|0|2,0:0|0:0|0:0,0:0:0:0:
201,176,24641,1,0,0:0:0:0:
185,102,24929,2,0,P|190:58|207:30,1,75,8|0,0:0|0:0,0:0:0:0:
281,32,25506,6,0,B|325:80|325:80|417:91,1,150,2|8,0:0|0:0,0:0:0:0:
484,89,26372,1,0,0:0:0:0:
449,155,26660,2,0,P|451:238|420:308,1,150,2|8,0:0|0:0,0:0:0:0:
354,321,27525,1,0,0:0:0:0:
294,275,27814,6,0,B|226:265|226:265|139:278,1,150,2|8,0:0|0:0,0:0:0:0:
87,325,28679,1,0,0:0:0:0:
47,260,28968,2,0,L|36:180,2,75,2|0|8,0:0|0:0|0:0,0:0:0:0:
157,158,30122,6,0,B|180:111|155:83|133:56|158:9,1,150,2|8,0:0|0:0,0:0:0:0:
222,47,30987,1,0,0:0:0:0:
286,83,31275,2,0,L|282:159,1,75,2|0,0:0|0:0,0:0:0:0:
281,236,31852,1,8,0:0:0:0:
281,236,32141,1,0,0:0:0:0:
349,206,32429,6,0,P|415:168|478:202,1,150,2|8,0:0|0:0,0:0:0:0:
415,244,33295,1,0,0:0:0:0:
394,316,33583,2,0,P|434:318|467:300,2,75,2|0|8,0:0|0:0|0:0,0:0:0:0:
244,304,34737,6,0,P|172:332|104:300,1,150,2|8,0:0|0:0,0:0:0:0:
56,252,35603,1,0,0:0:0:0:
112,200,35891,2,0,P|80:180|32:180,2,75,2|0|8,0:0|0:0|0:0,0:0:0:0:
176,240,36756,1,0,0:0:0:0:
202,169,37045,6,0,B|218:137|218:73|218:73|218:17,1,150,2|8,0:0|0:0,0:0:0:0:
294,21,37910,1,0,0:0:0:0:
294,21,38198,2,0,B|294:72|294:72|294:136|310:168,1,150,2|8,0:0|0:0,0:0:0:0:
328,316,39352,6,0,B|280:316|256:300|256:300|232:316|184:316,2,150,2|8|2,0:0|0:0|0:0,0:0:0:0:
404,308,40795,1,0,0:0:0:0:
413,233,41083,2,0,P|402:190|388:160,1,75,8|0,0:0|0:0,0:0:0:0:
346,100,41660,5,0,0:0:0:0:
346,100,42237,2,0,L|272:119,1,75,8|0,0:0|0:0,0:0:0:0:
208,156,42814,2,0,P|240:200|332:224,1,150,2|8,0:0|0:0,0:0:0:0:
382,170,43679,1,0,0:0:0:0:
453,194,43968,6,0,B|480:237|467:290|467:290|454:343,1,150,2|8,0:0|0:0,0:0:0:0:
384,313,44833,1,0,0:0:0:0:
322,269,45122,2,0,P|309:299|315:344,2,75,2|0|8,0:0|0:0|0:0,0:0:0:0:
326,194,45987,1,0,0:0:0:0:
290,128,46275,6,0,P|244:68|175:39,1,150,2|8,0:0|0:0,0:0:0:0:
113,79,47141,1,0,0:0:0:0:
61,133,47429,2,0,P|40:94|41:56,2,75,2|0|8,0:0|0:0|0:0,0:0:0:0:
183,220,48583,6,0,P|211:243|227:278,1,75,2|0,0:0|0:0,0:0:0:0:
260,345,49160,2,0,L|346:361,1,75,8|0,0:0|0:0,0:0:0:0:
398,320,49737,2,0,P|392:250|430:164,1,150,2|8,0:0|0:0,0:0:0:0:
467,118,50602,1,2,3:0:0:0:
395,94,50891,6,0,B|349:99|349:99|310:69|310:69|251:75,1,150,2|8,0:0|0:0,0:0:0:0:
182,92,51756,1,0,0:0:0:0:
114,59,52045,1,2,0:0:0:0:
53,102,52333,1,0,0:0:0:0:
57,176,52622,2,0,L|135:215,1,75,8|0,0:0|0:0,0:0:0:0:
182,258,53198,6,0,P|201:298|298:306,1,150,2|8,0:0|0:0,0:0:0:0:
327,238,54064,1,0,0:0:0:0:
401,231,54352,1,2,0:0:0:0:
394,81,54929,2,0,L|319:96,1,75,8|0,0:0|0:0,0:0:0:0:
245,105,55506,6,0,B|183:66|183:66|95:53,1,150,2|8,0:0|0:0,0:0:0:0:
38,85,56372,1,0,0:0:0:0:
46,159,56660,2,0,L|41:246,2,75,2|0|8,0:0|0:0|0:0,0:0:0:0:
119,142,57525,1,0,0:0:0:0:
188,170,57814,6,0,B|200:236|200:236|180:272|196:316,1,150,2|8,0:0|0:0,0:0:0:0:
256,360,58679,1,0,0:0:0:0:
316,316,58968,2,0,B|332:272|312:236|312:236|324:170,1,150,2|8,0:0|0:0,0:0:0:0:
428,60,60122,6,0,P|360:84|288:60,1,150,2|8,0:0|0:0,0:0:0:0:
140,40,61275,1,2,0:0:0:0:
68,60,61564,1,0,0:0:0:0:
101,128,61852,1,8,0:0:0:0:
147,270,62429,6,0,P|134:314|106:337,1,75,2|0,0:0|0:0,0:0:0:0:
46,299,63006,2,0,P|59:255|87:232,1,75,8|0,0:0|0:0,0:0:0:0:
142,194,63583,1,2,0:0:0:0:
256,290,64160,1,8,0:0:0:0:
256,290,64737,6,0,B|274:244|253:221|231:194|259:142,1,150,2|8,0:0|0:0,0:0:0:0:
371,46,65891,1,2,0:0:0:0:
446,59,66180,1,0,0:0:0:0:
482,125,66468,1,8,0:0:0:0:
463,273,67045,6,0,B|389:282,1,75,2|0,0:0|0:0,0:0:0:0:
349,346,67622,2,0,B|275:355,1,75,8|0,0:0|0:0,0:0:0:0:
203,330,68198,2,0,B|181:322|174:306|174:306|162:294|166:276|166:276|155:264|135:264|135:264|132:239|113:222,1,150,2|8,0:0|0:0,0:0:0:0:
184,92,69352,6,0,B|256:113|256:113|328:92,1,150,2|8,0:0|0:0,0:0:0:0:
455,170,70506,1,2,0:0:0:0:
401,223,70795,1,0,0:0:0:0:
472,244,71083,1,8,0:0:0:0:
359,343,71660,6,0,P|325:319|292:310,1,75,2|0,0:0|0:0,0:0:0:0:
218,310,72237,2,0,P|182:320|152:342,1,75,8|0,0:0|0:0,0:0:0:0:
81,369,72814,1,2,0:0:0:0:
20,231,73391,1,8,0:0:0:0:
120,119,73968,6,0,B|157:110|193:120|193:120|227:88|273:86,1,150,2|8,0:0|0:0,0:0:0:0:
406,52,75122,1,2,0:0:0:0:
478,71,75410,1,0,0:0:0:0:
499,142,75698,1,8,0:0:0:0:
410,263,76275,6,0,P|402:220|403:185,1,75,2|0,0:0|0:0,0:0:0:0:
364,123,76852,2,0,L|275:142,1,75,8|0,0:0|0:0,0:0:0:0:
251,203,77429,2,0,P|258:239|258:277,1,75,2|0,0:0|0:0,0:0:0:0:
209,334,78006,1,8,0:0:0:0:
209,334,78295,1,0,0:0:0:0:
149,286,78583,6,0,P|122:242|39:190,1,150,2|8,0:0|0:0,0:0:0:0:
118,60,79737,2,0,L|204:65,2,75,2|0|8,0:0|0:0|0:0,0:0:0:0:
218,170,80891,6,0,P|275:143|313:65,1,150,2|8,0:0|0:0,0:0:0:0:
380,35,81756,1,0,0:0:0:0:
430,90,82045,2,0,P|429:132|437:171,1,75,2|0,0:0|0:0,0:0:0:0:
468,231,82622,1,8,0:0:0:0:
438,299,82910,1,0,0:0:0:0:
372,264,83198,6,0,P|299:245|217:245,2,150,2|8|2,0:0|0:0|0:0,0:0:0:0:
438,299,84641,1,0,0:0:0:0:
414,370,84929,1,8,0:0:0:0:
264,356,85506,6,0,P|189:354|116:336,1,150,2|8,0:0|0:0,0:0:0:0:
51,297,86372,1,0,0:0:0:0:
20,228,86660,2,0,L|77:89,1,150,2|8,0:0|0:0,0:0:0:0:
150,74,87525,1,0,0:0:0:0:
213,113,87814,6,0,P|288:88|344:39,1,150,2|8,0:0|0:0,0:0:0:0:
416,47,88679,1,0,0:0:0:0:
445,116,88968,2,0,B|461:165|461:165|432:213|432:213|446:261,1,150,2|8,0:0|0:0,0:0:0:0:
412,321,89833,1,0,0:0:0:0:
342,349,90122,6,0,L|271:325,1,75,2|0,0:0|0:0,0:0:0:0:
210,280,90698,2,0,L|133:304,1,75,8|0,0:0|0:0,0:0:0:0:
68,273,91275,2,0,P|73:203|128:145,1,150,2|8,0:0|0:0,0:0:0:0:
192,113,92141,1,0,0:0:0:0:
256,192,92429,12,2,97045,0:0:0:0:
