osu file format v14

[General]
AudioFilename: audio.mp3
AudioLeadIn: 0
PreviewTime: 40939
Countdown: 0
SampleSet: Soft
StackLeniency: 0.7
Mode: 0
LetterboxInBreaks: 0
WidescreenStoryboard: 1

[Editor]
Bookmarks: 92429,97045
DistanceSpacing: 1.9
BeatDivisor: 8
GridSize: 4
TimelineZoom: 1

[Metadata]
Title:You Reposted in the Wrong Neighborhood
TitleUnicode:You Reposted in the Wrong Neighborhood
Artist:Shokk
ArtistUnicode:Shokk
Creator:ezek
Version:Hobbes2's Hard
Source:
Tags:Glue70 Casin Shake that bloo Eminem Nate Dogg Remix meme two to one hobbes2 青 neighbourhood
BeatmapID:1120614
BeatmapSetID:527207

[Difficulty]
HPDrainRate:6
CircleSize:4
OverallDifficulty:6
ApproachRate:7
SliderMultiplier:1.9
SliderTickRate:2

[Events]
//Background and Video events
Video,0,"Crystilonz is sexy AF.avi"
0,0,"Crys is mine.jpg",0,0
//Break Periods
//Storyboard Layer 0 (Background)
//Storyboard Layer 1 (Fail)
//Storyboard Layer 2 (Pass)
//Storyboard Layer 3 (Foreground)
//Storyboard Sound Samples

[TimingPoints]
122,576.923076923077,4,2,1,50,1,0
122,-133.333333333333,4,2,1,50,0,0
4160,-200,4,2,1,50,0,0
4737,-100,4,2,1,80,0,0
13679,-83.3333333333333,4,2,1,80,0,0
13896,-83.3333333333333,4,2,1,5,0,0
13968,-100,4,2,1,80,0,0
32141,-83.3333333333333,4,2,1,80,0,0
32357,-83.3333333333333,4,2,1,5,0,0
32429,-100,4,2,1,80,0,0
41660,-142.857142857143,4,2,2,80,0,0
42237,-100,4,2,1,80,0,0
59833,-83.3333333333333,4,2,1,80,0,0
60049,-83.3333333333333,4,2,1,5,0,0
60122,-100,4,2,1,80,0,0
78295,-100,4,2,1,80,0,0
78511,-100,4,2,1,5,0,0
78583,-100,4,2,1,80,0,0
87814,-100,4,2,1,60,0,0
90122,-100,4,2,1,40,0,0
92429,-100,4,2,1,20,0,0

[Colours]
Combo1 : 141,141,141
Combo2 : 15,174,187
Combo3 : 239,152,33
Combo4 : 255,70,70

[HitObjects]
453,96,122,6,0,L|457:175,3,71.2500027179719,2|0|2|0,0:0|0:0|0:0|0:0,0:0:0:0:
369,153,1275,2,0,L|366:232,3,71.2500027179719,2|0|2|0,0:0|0:0|0:0|0:0,0:0:0:0:
453,96,2429,6,0,L|457:175,3,71.2500027179719,2|0|2|0,0:0|0:0|0:0|0:0,0:0:0:0:
369,153,3583,2,0,L|366:232,1,71.2500027179719,2|0,0:0|0:0,0:0:0:0:
453,96,4160,6,0,L|457:175,1,71.25,0|2,0:0|0:3,0:0:0:0:
458,172,4737,6,0,L|462:268,1,95,2|0,0:0|0:0,0:0:0:0:
363,316,5170,1,0,0:0:0:0:
363,316,5314,2,0,L|368:216,1,95,8|0,0:0|0:0,0:0:0:0:
298,136,5747,1,0,0:0:0:0:
298,136,5891,2,0,P|237:174|189:176,1,95,2|0,0:0|0:0,0:0:0:0:
233,65,6323,1,0,0:0:0:0:
233,65,6468,2,0,P|155:67|92:43,1,142.5,8|0,0:0|0:0,0:0:0:0:
16,123,7045,6,0,P|20:176|13:222,1,95,2|0,0:0|0:0,0:0:0:0:
191,238,7622,1,8,0:0:0:0:
199,242,7766,1,0,0:0:0:0:
206,246,7910,2,0,L|211:342,2,95,0|2|0,0:0|0:0|0:0,0:0:0:0:
349,70,8775,2,0,P|350:148|326:210,1,142.5,8|0,0:0|0:0,0:0:0:0:
320,316,9352,6,0,L|324:219,1,95,2|0,0:0|0:0,0:0:0:0:
442,229,9785,1,0,0:0:0:0:
442,229,9929,2,0,L|436:132,1,95,8|0,0:0|0:0,0:0:0:0:
332,103,10362,1,0,0:0:0:0:
332,103,10506,2,0,P|252:93|226:80,2,95,2|0|8,0:0|0:0|0:0,0:0:0:0:
66,245,11372,1,0,0:0:0:0:
145,248,11516,1,0,0:0:0:0:
225,248,11660,6,0,P|286:286|334:288,1,95,2|0,0:0|0:0,0:0:0:0:
291,177,12093,1,0,0:0:0:0:
291,177,12237,2,0,P|368:179|417:160,1,95,8|0,0:0|0:0,0:0:0:0:
463,100,12670,1,0,0:0:0:0:
463,100,12814,2,0,L|472:218,2,95,2|0|8,0:0|0:0|0:0,0:0:0:0:
201,133,13679,6,0,P|167:114|144:157,1,85.4999973907472,0|0,0:0|0:0,0:0:0:0:
141,144,13968,6,0,L|136:241,1,95,2|0,0:0|0:0,0:0:0:0:
248,300,14401,1,0,0:0:0:0:
248,300,14545,2,0,L|247:201,1,95,8|0,0:0|0:0,0:0:0:0:
302,112,14978,1,0,0:0:0:0:
302,112,15122,2,0,P|351:175|364:218,1,95,2|0,0:0|0:0,0:0:0:0:
421,92,15554,1,0,0:0:0:0:
421,92,15698,2,0,P|452:168|445:247,1,142.5,8|0,0:0|0:0,0:0:0:0:
365,293,16275,6,0,P|371:317|381:338,1,47.5,2|0,0:0|0:0,0:0:0:0:
316,241,16564,2,0,B|331:298|312:347,2,95,0|8|0,0:0|0:0|0:0,0:0:0:0:
244,154,17285,1,0,0:0:0:0:
244,154,17429,2,0,L|239:250,1,95,2|0,0:0|0:0,0:0:0:0:
142,302,17862,1,0,0:0:0:0:
142,302,18006,1,8,0:0:0:0:
100,81,18295,2,0,P|92:43|92:28,1,47.5,0|0,0:0|0:0,0:0:0:0:
142,154,18583,6,0,P|139:100|157:62,1,95,2|0,0:0|0:0,0:0:0:0:
268,100,19016,1,0,0:0:0:0:
268,100,19160,2,0,P|286:143|281:190,1,95,8|0,0:0|0:0,0:0:0:0:
377,119,19593,1,0,0:0:0:0:
377,119,19737,2,0,L|381:5,2,95,2|0|8,0:0|0:0|0:0,0:0:0:0:
487,317,20602,1,0,0:0:0:0:
263,298,20891,6,0,L|164:290,1,95,2|0,0:0|0:0,0:0:0:0:
66,321,21323,1,0,0:0:0:0:
66,321,21468,1,8,0:0:0:0:
126,104,21756,2,0,P|123:146|126:169,1,47.5,0|0,0:0|0:0,0:0:0:0:
81,43,22045,2,0,L|176:85,2,95,2|0|8,0:0|0:0|0:0,0:0:0:0:
260,160,22910,1,0,0:0:0:0:
256,168,23054,1,0,0:0:0:0:
252,176,23198,6,0,L|247:273,1,95,2|0,0:0|0:0,0:0:0:0:
149,324,23631,1,0,0:0:0:0:
149,324,23775,2,0,P|111:328|92:328,1,47.5,8|0,0:0|0:0,0:0:0:0:
28,248,24064,2,0,P|66:245|85:245,1,47.5,0|0,0:0|0:0,0:0:0:0:
145,150,24352,2,0,P|153:210|153:252,1,95,2|0,0:0|0:0,0:0:0:0:
221,150,24785,2,0,P|202:184|187:214,1,47.5,0|8,0:0|0:0,0:0:0:0:
225,267,25073,1,0,0:0:0:0:
358,74,25506,6,0,L|363:171,1,95,2|0,0:0|0:0,0:0:0:0:
434,252,25939,1,0,0:0:0:0:
434,252,26083,2,0,P|434:298|430:321,1,47.5,8|0,0:0|0:0,0:0:0:0:
328,340,26372,2,0,P|396:336|434:351,2,95,0|2|0,0:0|0:0|0:0,0:0:0:0:
434,252,27093,2,0,P|434:298|430:321,1,47.5,0|8,0:0|0:0,0:0:0:0:
210,290,27525,2,0,P|210:245|214:222,1,47.5,0|0,0:0|0:0,0:0:0:0:
161,362,27814,6,0,P|168:283|161:260,1,95,2|0,0:0|0:0,0:0:0:0:
92,188,28247,1,0,0:0:0:0:
92,188,28391,2,0,L|85:248,1,47.5,8|0,0:0|0:0,0:0:0:0:
183,173,28679,2,0,L|191:112,1,47.5,0|0,0:0|0:0,0:0:0:0:
96,88,28968,2,0,P|72:85|49:80,2,47.5,2|0|0,0:0|0:0|0:0,0:0:0:0:
156,28,29400,1,0,0:0:0:0:
156,28,29545,1,8,0:0:0:0:
305,36,29833,1,0,0:0:0:0:
360,89,29977,1,0,0:0:0:0:
407,150,30122,6,0,P|411:210|407:252,1,95,2|0,0:0|0:0,0:0:0:0:
331,321,30554,1,0,0:0:0:0:
331,321,30698,2,0,P|256:321|229:317,1,95,8|0,0:0|0:0,0:0:0:0:
161,241,31131,1,0,0:0:0:0:
161,241,31275,2,0,L|153:343,1,95,2|0,0:0|0:0,0:0:0:0:
87,250,31708,2,0,P|113:295|127:305,1,47.5,0|8,0:0|0:0,0:0:0:0:
165,93,32141,6,0,P|199:93|183:55,1,85.4999973907472
186,55,32429,6,0,L|289:54,1,95,2|0,0:0|0:0,0:0:0:0:
335,154,32862,1,0,0:0:0:0:
335,154,33006,2,0,L|233:152,1,95,8|0,0:0|0:0,0:0:0:0:
161,229,33439,1,0,0:0:0:0:
152,236,33583,2,0,P|144:296|144:304,1,47.5
68,356,33872,2,0,P|65:332|60:309,1,47.5
8,236,34160,1,8,0:0:0:0:
128,52,34448,1,0,0:0:0:0:
339,119,34737,6,0,P|411:135|445:138,2,95,2|0|8,0:0|0:0|0:0,0:0:0:0:
256,43,35458,1,0,0:0:0:0:
256,43,35602,1,0,0:0:0:0:
248,267,35891,2,0,P|244:313|248:336,1,47.5,2|0,0:0|0:0,0:0:0:0:
145,362,36179,2,0,P|149:317|145:294,1,47.5,0|0,0:0|0:0,0:0:0:0:
168,207,36468,1,8,0:0:0:0:
39,21,36756,1,0,0:0:0:0:
263,32,37045,6,0,L|268:136,1,95,2|0,0:0|0:0,0:0:0:0:
373,81,37477,1,0,0:0:0:0:
373,81,37622,2,0,L|368:184,1,95,8|0,0:0|0:0,0:0:0:0:
286,248,38054,1,0,0:0:0:0:
286,248,38198,2,0,P|282:290|286:313,1,47.5,2|0,0:0|0:0,0:0:0:0:
396,298,38487,2,0,P|361:273|340:266,1,47.5,0|0,0:0|0:0,0:0:0:0:
431,375,38775,2,0,P|478:324|472:256,1,142.5,8|0,0:0|0:0,0:0:0:0:
417,377,39352,6,0,P|370:378|328:359,2,95,2|0|8,0:0|0:0|0:0,0:0:0:0:
407,146,40218,2,0,P|347:123|305:131,2,95,0|2|0,0:0|0:0|0:0,0:0:0:0:
457,248,40939,1,0,0:0:0:0:
457,248,41083,2,0,L|396:260,1,47.5,8|0,0:0|0:0,0:0:0:0:
305,294,41372,2,0,L|244:305,1,47.5,0|0,0:0|0:0,0:0:0:0:
142,343,41660,6,0,B|138:321|149:298|149:298|138:264|138:264|149:237|138:199,1,132.999995941162,0|8,0:0|0:0,0:0:0:0:
297,55,42525,5,0,0:0:0:0:
305,59,42670,1,0,0:0:0:0:
313,63,42814,2,0,B|321:117|344:170,1,95,2|0,0:0|0:0,0:0:0:0:
259,233,43247,1,0,0:0:0:0:
259,233,43391,2,0,B|252:180|229:127,1,95,8|0,0:0|0:0,0:0:0:0:
134,104,43823,1,0,0:0:0:0:
134,104,43968,6,0,B|127:148|97:167|97:167|104:189|101:210|101:210|72:224|58:277,2,190,2|8|2,0:0|0:0|0:0,0:0:0:0:
347,24,45410,1,0,0:0:0:0:
354,24,45554,1,0,0:0:0:0:
362,24,45698,2,0,P|377:62|388:85,1,47.5,8|0,0:0|0:0,0:0:0:0:
309,154,45987,2,0,P|293:116|282:93,1,47.5,0|0,0:0|0:0,0:0:0:0:
331,237,46275,6,0,P|339:169|350:135,1,95,2|0,0:0|0:0,0:0:0:0:
453,188,46708,1,0,0:0:0:0:
453,188,46852,2,0,L|445:286,1,95,8|0,0:0|0:0,0:0:0:0:
373,362,47285,1,0,0:0:0:0:
373,362,47429,2,0,P|430:362|479:366,2,95,2|0|8,0:0|0:0|0:0,0:0:0:0:
145,359,48295,1,0,0:0:0:0:
206,142,48583,6,0,P|200:177|202:199,1,47.5,2|0,0:0|0:0,0:0:0:0:
314,208,48872,2,0,P|286:187|267:176,1,47.5,0|0,0:0|0:0,0:0:0:0:
399,192,49160,2,0,P|384:261|339:290,1,95,8|0,0:0|0:0,0:0:0:0:
277,338,49593,1,0,0:0:0:0:
277,338,49737,2,0,L|163:341,2,95,2|0|8,0:0|0:0|0:0,0:0:0:0:
309,119,50602,1,2,3:0:0:0:
309,127,50747,1,0,0:0:0:0:
309,135,50891,6,0,P|295:89|303:43,1,95,2|0,0:0|0:0,0:0:0:0:
381,93,51323,1,0,0:0:0:0:
381,93,51468,2,0,P|386:157|366:199,1,95,8|0,0:0|0:0,0:0:0:0:
282,245,51900,1,0,0:0:0:0:
282,245,52045,2,0,L|385:267,2,95,2|0|8,0:0|0:0|0:0,0:0:0:0:
73,336,52910,2,0,P|81:290|77:267,1,47.5,0|0,0:0|0:0,0:0:0:0:
73,214,53198,1,2,0:0:0:0:
123,275,53343,6,0,P|115:214|126:169,1,95
210,119,53775,2,0,P|293:123|331:116,1,95,8|0,0:0|0:0,0:0:0:0:
400,70,54208,1,0,0:0:0:0:
400,70,54352,2,0,P|468:108|491:131,2,95,2|0|8,0:0|0:0|0:0,0:0:0:0:
290,267,55218,1,0,0:0:0:0:
77,195,55506,6,0,L|66:89,1,95,2|0,0:0|0:0,0:0:0:0:
157,36,55939,1,0,0:0:0:0:
157,36,56083,2,0,P|218:40|252:32,1,95,8|0,0:0|0:0,0:0:0:0:
358,13,56516,1,0,0:0:0:0:
358,13,56660,2,0,P|363:51|362:64,1,47.5,2|0,0:0|0:0,0:0:0:0:
296,146,56948,2,0,P|291:108|292:95,1,47.5,0|0,0:0|0:0,0:0:0:0:
385,155,57237,1,8,0:0:0:0:
220,328,57525,1,0,0:0:0:0:
140,328,57670,1,0,0:0:0:0:
60,328,57814,6,0,P|52:256|56:208,1,95,2|0,0:0|0:0,0:0:0:0:
144,172,58247,1,0,0:0:0:0:
144,172,58391,2,0,P|144:219|136:266,1,95,8|0,0:0|0:0,0:0:0:0:
60,152,58823,1,0,0:0:0:0:
60,152,58968,2,0,L|56:40,2,95,2|0|8,0:0|0:0|0:0,0:0:0:0:
332,64,59833,6,0,P|356:60|320:32,1,85.4999973907472,0|0,0:0|0:0,0:0:0:0:
336,19,60122,6,0,P|368:8|440:24,1,95,2|0,0:0|0:0,0:0:0:0:
500,96,60554,1,0,0:0:0:0:
500,96,60698,2,0,P|500:156|480:200,1,95,8|0,0:0|0:0,0:0:0:0:
388,216,61131,1,0,0:0:0:0:
388,216,61275,2,0,P|304:216|272:208,1,95,2|0,0:0|0:0,0:0:0:0:
204,152,61708,1,0,0:0:0:0:
204,152,61852,1,8,0:0:0:0:
60,320,62141,2,0,P|64:280|64:268,1,47.5,0|0,0:0|0:0,0:0:0:0:
132,356,62429,6,0,P|112:320|148:272,2,95,2|0|8,0:0|0:0|0:0,0:0:0:0:
352,348,63295,2,0,L|288:348,1,47.5
436,312,63583,2,0,P|376:300|336:272,1,95,2|0,0:0|0:0,0:0:0:0:
288,192,64016,1,0,0:0:0:0:
288,192,64160,2,0,L|280:72,1,95,8|0,0:0|0:0,0:0:0:0:
104,224,64737,6,0,P|104:276|104:288,1,47.5,2|0,0:0|0:0,0:0:0:0:
24,188,65025,2,0,P|24:240|24:252,1,47.5,0|0,0:0|0:0,0:0:0:0:
88,140,65314,2,0,P|128:84|180:60,1,95,8|0,0:0|0:0,0:0:0:0:
256,40,65747,1,0,0:0:0:0:
256,40,65891,2,0,P|328:56|388:52,1,95,2|0,0:0|0:0,0:0:0:0:
456,28,66323,1,0,0:0:0:0:
456,28,66468,1,8,0:0:0:0:
384,236,66756,2,0,L|328:244,1,47.5,0|0,0:0|0:0,0:0:0:0:
468,180,67045,6,0,L|372:192,2,95,2|0|8,0:0|0:0|0:0,0:0:0:0:
292,308,67910,2,0,L|224:300,1,47.5,0|0,0:0|0:0,0:0:0:0:
360,364,68198,6,0,B|340:352|320:344|320:344|300:332|292:308|292:308|308:260|304:228|276:184,1,190,2|8,0:0|0:0,0:0:0:0:
139,52,69064,1,0,0:0:0:0:
356,69,69352,6,0,P|371:123|333:110,1,95,2|0,0:0|0:0,0:0:0:0:
464,110,69785,1,0,0:0:0:0:
464,110,69929,2,0,P|442:163|397:197,1,95,8|0,0:0|0:0,0:0:0:0:
307,208,70362,1,0,0:0:0:0:
307,208,70506,2,0,P|335:273|377:306,1,95,2|0,0:0|0:0,0:0:0:0:
247,276,70939,2,0,P|298:300|319:304,2,47.5,0|8|0,0:0|0:0|0:0,0:0:0:0:
112,266,71660,6,0,L|112:159,2,95,2|0|8,0:0|0:0|0:0,0:0:0:0:
244,91,72525,2,0,P|230:133|227:141,1,47.5,0|0,0:0|0:0,0:0:0:0:
295,19,72814,2,0,P|294:78|312:143,1,95,2|0,0:0|0:0,0:0:0:0:
392,173,73247,1,0,0:0:0:0:
392,173,73391,2,0,L|392:63,1,95,8|0,0:0|0:0,0:0:0:0:
273,266,73968,6,0,P|221:291|193:342,1,95,2|0,0:0|0:0,0:0:0:0:
302,357,74400,1,0,0:0:0:0:
302,357,74545,2,0,P|354:332|382:281,1,95,8|0,0:0|0:0,0:0:0:0:
328,188,74977,1,0,0:0:0:0:
328,188,75122,2,0,P|321:104|325:77,2,95,2|0|8,0:0|0:0|0:0,0:0:0:0:
132,84,75987,1,0,0:0:0:0:
100,154,76131,1,0,0:0:0:0:
80,228,76275,6,0,L|80:336,2,95,2|0|8,0:0|0:0|0:0,0:0:0:0:
222,173,77141,2,0,L|217:250,1,47.5,0|0,0:0|0:0,0:0:0:0:
327,208,77429,2,0,L|215:274,2,95,2|0|8,0:0|0:0|0:0,0:0:0:0:
432,15,78295,6,0,P|393:30|384:9,1,71.25,0|0,0:0|0:0,0:0:0:0:
384,11,78583,6,0,L|320:12,1,47.5,2|0,0:0|0:0,0:0:0:0:
448,116,79016,1,0,0:0:0:0:
380,148,79160,2,0,L|320:148,1,47.5,8|0,0:0|0:0,0:0:0:0:
442,251,79593,1,0,0:0:0:0:
374,283,79737,2,0,L|268:284,2,95,2|0|8,0:0|0:0|0:0,0:0:0:0:
376,64,80602,1,0,0:0:0:0:
200,196,80891,6,0,P|192:236|180:264,2,47.5,2|0|0,0:0|0:0|0:0,0:0:0:0:
144,104,81323,1,0,0:0:0:0:
144,104,81468,2,0,P|104:140|72:232,1,142.5,8|0,0:0|0:0,0:0:0:0:
152,296,82045,2,0,L|276:288,2,95,2|0|8,0:0|0:0|0:0,0:0:0:0:
64,96,82910,1,0,0:0:0:0:
268,84,83198,6,0,P|308:64|324:56,1,47.5,2|0,0:0|0:0,0:0:0:0:
384,156,83487,2,0,P|381:154|341:134,1,47.5,0|0,0:0|0:0,0:0:0:0:
396,20,83775,2,0,L|396:68,2,47.5,8|0|0,0:0|0:0|0:0,0:0:0:0:
200,116,84352,2,0,P|192:192|196:228,2,95,2|0|8,0:0|0:0|0:0,0:0:0:0:
396,216,85218,1,0,0:0:0:0:
192,292,85506,6,0,P|180:208|184:176,1,95,2|0,0:0|0:0,0:0:0:0:
240,104,85939,1,0,0:0:0:0:
240,104,86083,2,0,P|324:100|376:84,1,95,8|0,0:0|0:0,0:0:0:0:
436,60,86516,1,0,0:0:0:0:
436,60,86660,2,0,P|440:144|448:180,1,95,2|0,0:0|0:0,0:0:0:0:
332,344,87237,2,0,P|328:260|320:224,1,95,8|0,0:0|0:0,0:0:0:0:
108,236,87814,6,0,B|146:237|161:209|161:209|180:226|208:216|208:216|226:171|196:124,1,190,2|8,0:0|0:0,0:0:0:0:
256,192,88679,12,0,92429,0:0:0:0:
