osu file format v14

[General]
AudioFilename: audio.mp3
AudioLeadIn: 0
PreviewTime: 40939
Countdown: 0
SampleSet: Soft
StackLeniency: 0.7
Mode: 0
LetterboxInBreaks: 0
WidescreenStoryboard: 0

[Editor]
Bookmarks: 92429,97045
DistanceSpacing: 1.3
BeatDivisor: 4
GridSize: 4
TimelineZoom: 1

[Metadata]
Title:You Reposted in the Wrong Neighborhood
TitleUnicode:You Reposted in the Wrong Neighborhood
Artist:Shokk
ArtistUnicode:Shokk
Creator:ezek
Version:Wrong Neighborhood Boi!
Source:
Tags:Glue70 Casin Shake that bloo Eminem Nate Dogg Remix meme two to one hobbes2 青 neighbourhood
BeatmapID:1118551
BeatmapSetID:527207

[Difficulty]
HPDrainRate:6
CircleSize:6.5
OverallDifficulty:6
ApproachRate:8
SliderMultiplier:2.1
SliderTickRate:2

[Events]
//Background and Video events
Video,0,"Crystilonz is sexy AF.avi"
0,0,"Crys is mine.jpg",0,0
//Break Periods
//Storyboard Layer 0 (Background)
//Storyboard Layer 1 (Fail)
//Storyboard Layer 2 (Pass)
//Storyboard Layer 3 (Foreground)
//Storyboard Sound Samples

[TimingPoints]
122,576.923076923077,4,2,1,50,1,0
4160,-100,4,2,0,50,0,0
4737,-100,4,2,1,80,0,0
41660,-142.857142857143,4,2,2,80,0,0
42237,-100,4,2,1,80,0,0
87814,-100,4,2,1,60,0,0
90122,-100,4,2,1,40,0,0
92429,-100,4,2,1,20,0,0
94737,-100,4,2,1,10,0,0

[Colours]
Combo1 : 141,141,141
Combo2 : 15,174,187
Combo3 : 239,152,33
Combo4 : 255,70,70

[HitObjects]
100,217,122,6,0,L|93:101,1,105,2|0,0:0|0:0,0:0:0:0:
204,33,698,1,2,0:0:0:0:
332,78,987,1,0,0:0:0:0:
241,180,1275,2,0,P|233:229|248:296,1,105,2|0,0:0|0:0,0:0:0:0:
347,370,1852,2,0,P|355:321|340:254,1,105,2|0,0:0|0:0,0:0:0:0:
241,180,2429,5,2,0:0:0:0:
268,46,2718,1,0,0:0:0:0:
423,48,3006,1,2,0:0:0:0:
454,177,3295,1,0,0:0:0:0:
344,264,3583,1,2,0:0:0:0:
232,344,3872,2,0,B|200:353|200:353|164:344|164:344|128:354,1,105,0|2,0:0|0:0,0:0:0:0:
26,122,4593,1,2,3:0:0:0:
26,122,4737,6,0,P|79:138|129:138,1,105,2|0,0:0|0:0,0:0:0:0:
195,122,5170,1,0,0:0:0:0:
251,53,5314,2,0,P|304:37|354:37,1,105,8|0,0:0|0:0,0:0:0:0:
382,98,5747,1,0,0:0:0:0:
316,158,5891,2,0,L|305:270,1,105,2|0,0:0|0:0,0:0:0:0:
366,300,6323,1,0,0:0:0:0:
453,277,6468,2,0,L|463:173,1,105,8|0,0:0|0:0,0:0:0:0:
440,108,6900,1,0,0:0:0:0:
503,23,7045,5,2,0:0:0:0:
346,68,7333,1,0,0:0:0:0:
346,68,7477,1,0,0:0:0:0:
346,68,7622,2,0,L|293:73,1,52.5,8|0,0:0|0:0,0:0:0:0:
262,145,7910,2,0,L|315:140,1,52.5
199,106,8198,2,0,P|189:153|213:202,2,105,2|0|8,0:0|0:0|0:0,0:0:0:0:
77,41,9064,1,0,0:0:0:0:
47,249,9352,6,0,P|95:263|134:307,1,105,2|0,0:0|0:0,0:0:0:0:
153,367,9785,1,0,0:0:0:0:
231,324,9929,2,0,L|337:316,1,105,8|0,0:0|0:0,0:0:0:0:
400,339,10362,1,0,0:0:0:0:
457,272,10506,1,2,0:0:0:0:
457,272,10650,1,0,0:0:0:0:
457,272,10795,1,0,0:0:0:0:
351,141,11083,1,8,0:0:0:0:
208,229,11372,1,0,0:0:0:0:
140,235,11516,1,0,0:0:0:0:
72,242,11660,6,0,P|51:184|52:134,1,105,2|0,0:0|0:0,0:0:0:0:
94,87,12093,2,0,L|204:113,1,105
261,93,12525,1,0,0:0:0:0:
212,44,12670,1,0,0:0:0:0:
301,36,12814,2,0,P|328:75|321:129,1,105,2|0,0:0|0:0,0:0:0:0:
281,304,13391,2,0,P|254:265|261:211,1,105,8|0,0:0|0:0,0:0:0:0:
341,358,13968,6,0,P|385:374|436:354,1,105,2|0,0:0|0:0,0:0:0:0:
387,306,14400,1,0,0:0:0:0:
457,250,14545,2,0,B|462:215|462:215|449:182|449:182|456:144,1,105,8|0,0:0|0:0,0:0:0:0:
469,81,14977,1,0,0:0:0:0:
398,136,15122,2,0,B|390:170|390:170|366:196|366:196|359:234,1,105,2|0,0:0|0:0,0:0:0:0:
313,280,15554,1,0,0:0:0:0:
233,239,15698,2,0,P|189:236|131:253,1,105,8|0,0:0|0:0,0:0:0:0:
81,301,16131,1,0,0:0:0:0:
51,200,16275,6,0,L|47:144,1,52.5,2|0,0:0|0:0,0:0:0:0:
75,85,16564,2,0,L|71:29,1,52.5
148,79,16852,2,0,P|192:82|250:65,1,105,8|0,0:0|0:0,0:0:0:0:
406,153,17429,2,0,P|362:150|304:167,1,105,2|0,0:0|0:0,0:0:0:0:
248,207,17862,1,0,0:0:0:0:
318,263,18006,2,0,P|362:266|420:249,1,105,8|0,0:0|0:0,0:0:0:0:
466,198,18439,1,0,0:0:0:0:
466,198,18583,6,0,P|442:239|476:281,1,105,2|0,0:0|0:0,0:0:0:0:
512,336,19016,2,0,P|463:312|415:336,1,105
362,366,19448,1,0,0:0:0:0:
362,366,19593,1,0,0:0:0:0:
312,320,19737,2,0,B|298:290|312:275|327:258|307:218,2,105,2|0|8,0:0|0:0|0:0,0:0:0:0:
161,365,20602,1,0,0:0:0:0:
63,178,20891,6,0,L|55:71,1,105,2|0,0:0|0:0,0:0:0:0:
109,33,21323,2,0,P|159:50|201:25,1,105
256,65,21756,1,0,0:0:0:0:
122,199,22045,1,2,0:0:0:0:
306,242,22333,1,0,0:0:0:0:
256,65,22622,1,8,0:0:0:0:
247,106,22766,1,0,0:0:0:0:
237,146,22910,1,0,0:0:0:0:
226,186,23054,1,0,0:0:0:0:
261,285,23198,6,0,P|309:305|358:278,1,105,2|0,0:0|0:0,0:0:0:0:
394,227,23631,1,0,0:0:0:0:
338,157,23775,2,0,L|327:106,1,52.5,8|0,0:0|0:0,0:0:0:0:
385,70,24064,2,0,L|396:125,1,52.5
462,181,24352,2,0,L|484:283,1,105,2|0,0:0|0:0,0:0:0:0:
473,351,24785,1,0,0:0:0:0:
392,313,24929,2,0,P|366:312|337:322,2,52.5,8|0|0,0:0|0:0|0:0,0:0:0:0:
186,355,25506,6,0,B|148:357|148:357|117:343|117:343|84:346,1,105,2|0,0:0|0:0,0:0:0:0:
15,350,25939,1,0,0:0:0:0:
76,284,26083,2,0,L|130:279,1,52.5,8|0,0:0|0:0,0:0:0:0:
196,272,26372,1,0,0:0:0:0:
196,272,26660,6,0,P|172:222|127:207,1,105,2|0,0:0|0:0,0:0:0:0:
60,218,27093,1,0,0:0:0:0:
25,136,27237,2,0,P|49:86|94:71,1,105,8|0,0:0|0:0,0:0:0:0:
157,95,27670,1,0,0:0:0:0:
234,24,27814,6,0,L|252:129,1,105,2|0,0:0|0:0,0:0:0:0:
312,160,28247,1,0,0:0:0:0:
396,131,28391,2,0,P|383:105|367:89,1,52.5,8|0,0:0|0:0,0:0:0:0:
408,34,28679,2,0,P|421:60|437:76,1,52.5
482,155,28968,2,0,L|477:213,1,52.5,2|0,0:0|0:0,0:0:0:0:
440,264,29256,1,0,0:0:0:0:
375,243,29400,1,0,0:0:0:0:
419,324,29545,2,0,P|446:327|472:319,1,52.5,8|0,0:0|0:0,0:0:0:0:
352,303,29833,2,0,P|329:287|314:265,1,52.5
275,142,30122,6,0,P|250:191|204:197,1,105,2|0,0:0|0:0,0:0:0:0:
163,143,30554,2,0,P|188:94|234:88,1,105
301,80,30987,1,0,0:0:0:0:
301,80,31131,1,0,0:0:0:0:
235,19,31275,2,0,L|130:29,1,105,2|0,0:0|0:0,0:0:0:0:
108,93,31708,1,0,0:0:0:0:
31,47,31852,2,0,B|11:84|26:101|42:116|26:149,1,105,8|0,0:0|0:0,0:0:0:0:
4,213,32285,1,0,0:0:0:0:
107,195,32429,6,0,B|160:209|160:209|192:253,1,105,2|0,0:0|0:0,0:0:0:0:
122,265,32862,1,0,0:0:0:0:
41,302,33006,2,0,B|70:343|70:343|123:357,1,105,8|0,0:0|0:0,0:0:0:0:
190,343,33439,1,0,0:0:0:0:
258,285,33583,2,0,P|264:231|236:187,2,105,2|0|8,0:0|0:0|0:0,0:0:0:0:
122,265,34448,1,0,0:0:0:0:
329,300,34737,6,0,L|439:315,1,105,2|0,0:0|0:0,0:0:0:0:
487,272,35170,1,0,0:0:0:0:
426,207,35314,2,0,P|419:183|422:154,1,52.5,8|0,0:0|0:0,0:0:0:0:
469,107,35602,1,0,0:0:0:0:
302,44,35891,2,0,L|250:47,1,52.5,2|0,0:0|0:0,0:0:0:0:
196,89,36179,1,0,0:0:0:0:
257,118,36323,1,0,0:0:0:0:
175,156,36468,2,0,P|137:126|129:70,1,105,8|0,0:0|0:0,0:0:0:0:
60,271,37045,6,0,P|98:301|106:357,1,105,2|0,0:0|0:0,0:0:0:0:
40,338,37477,1,0,0:0:0:0:
3,255,37622,2,0,L|18:152,1,105,8|0,0:0|0:0,0:0:0:0:
67,103,38054,1,0,0:0:0:0:
131,165,38198,2,0,B|144:212|144:212|191:250,1,105,2|0,0:0|0:0,0:0:0:0:
249,277,38631,1,0,0:0:0:0:
310,212,38775,2,0,L|421:207,1,105,8|0,0:0|0:0,0:0:0:0:
284,41,39352,6,0,L|179:45,2,105,2|0|8,0:0|0:0|0:0,0:0:0:0:
407,100,40218,1,0,0:0:0:0:
281,153,40506,2,0,P|275:210|298:253,1,105,2|0,0:0|0:0,0:0:0:0:
351,291,40939,1,0,0:0:0:0:
291,357,41083,2,0,L|237:365,1,52.5,8|0,0:0|0:0,0:0:0:0:
176,337,41372,2,0,L|166:284,1,52.5
198,208,41660,6,0,P|157:241|105:221,1,110.249996635437,2|2,0:0|3:0,0:0:0:0:
64,169,42237,5,8,0:0:0:0:
197,35,42525,1,0,0:0:0:0:
339,161,42814,2,0,P|348:213|376:259,1,105,2|0,0:0|0:0,0:0:0:0:
441,270,43247,1,0,0:0:0:0:
385,339,43391,2,0,L|328:345,1,52.5,8|0,0:0|0:0,0:0:0:0:
265,351,43679,1,0,0:0:0:0:
173,161,43968,6,0,P|164:213|136:259,1,105,2|0,0:0|0:0,0:0:0:0:
77,289,44400,1,0,0:0:0:0:
46,205,44545,2,0,L|37:100,1,105,8|0,0:0|0:0,0:0:0:0:
73,42,44977,1,0,0:0:0:0:
146,95,45122,2,0,B|179:108|196:94|213:78|249:95,1,105,2|0,0:0|0:0,0:0:0:0:
300,137,45554,1,0,0:0:0:0:
342,59,45698,2,0,L|406:57,1,52.5,8|0,0:0|0:0,0:0:0:0:
419,121,45987,2,0,L|355:123,1,52.5
296,200,46275,6,0,P|296:262|311:308,1,105,2|0,0:0|0:0,0:0:0:0:
362,344,46708,1,0,0:0:0:0:
418,275,46852,1,8,0:0:0:0:
418,275,46997,1,0,0:0:0:0:
418,275,47141,1,0,0:0:0:0:
337,116,47429,2,0,L|232:107,2,105,2|0|8,0:0|0:0|0:0,0:0:0:0:
252,224,48295,1,0,0:0:0:0:
184,218,48439,1,0,0:0:0:0:
184,218,48583,6,0,P|172:191|171:160,1,52.5,2|0,0:0|0:0,0:0:0:0:
101,164,48872,2,0,P|113:191|114:222,1,52.5
119,303,49160,2,0,L|101:354,1,52.5,8|0,0:0|0:0,0:0:0:0:
169,357,49448,2,0,L|187:306,1,52.5
254,248,49737,2,0,P|291:241|364:246,1,105,2|0,0:0|0:0,0:0:0:0:
401,297,50170,1,0,0:0:0:0:
452,224,50314,2,0,B|462:190|462:190|449:158|449:158|459:122,1,105,8|2,0:0|3:0,0:0:0:0:
264,46,50891,6,0,P|213:95|183:95,1,105,2|0,0:0|0:0,0:0:0:0:
125,58,51323,1,0,0:0:0:0:
54,114,51468,2,0,L|44:219,1,105,8|0,0:0|0:0,0:0:0:0:
36,286,51900,1,0,0:0:0:0:
115,243,52045,2,0,L|105:348,1,105,2|0,0:0|0:0,0:0:0:0:
165,379,52477,1,0,0:0:0:0:
165,379,52622,1,8,0:0:0:0:
303,250,52910,1,0,0:0:0:0:
180,81,53198,6,0,P|236:98|280:85,1,105,2|0,0:0|0:0,0:0:0:0:
326,36,53631,1,0,0:0:0:0:
392,96,53775,2,0,B|412:136|397:153|383:168|397:198,1,105,8|0,0:0|0:0,0:0:0:0:
442,248,54208,1,0,0:0:0:0:
393,323,54352,2,0,B|357:338|340:326|321:314|291:328,1,105,2|0,0:0|0:0,0:0:0:0:
228,356,54785,1,0,0:0:0:0:
232,267,54929,2,0,L|237:205,1,52.5,8|0,0:0|0:0,0:0:0:0:
182,154,55218,2,0,L|177:216,1,52.5
238,119,55506,6,0,P|188:89|143:102,1,105,2|0,0:0|0:0,0:0:0:0:
91,142,55939,1,0,0:0:0:0:
57,59,56083,1,8,0:0:0:0:
46,223,56372,2,0,P|73:237|95:241,1,52.5
180,213,56660,1,2,0:0:0:0:
209,183,56804,1,0,0:0:0:0:
238,153,56948,1,0,0:0:0:0:
267,123,57093,1,0,0:0:0:0:
296,93,57237,1,8,0:0:0:0:
421,234,57525,2,0,L|387:273,1,52.5
415,170,57814,6,0,P|461:184|485:239,1,105,2|0,0:0|0:0,0:0:0:0:
473,300,58247,1,0,0:0:0:0:
392,338,58391,2,0,P|346:324|322:269,1,105,8|0,0:0|0:0,0:0:0:0:
318,207,58823,1,0,0:0:0:0:
235,172,58968,1,2,0:0:0:0:
195,184,59112,1,0,0:0:0:0:
155,197,59256,1,0,0:0:0:0:
115,210,59401,1,0,0:0:0:0:
76,223,59545,1,8,0:0:0:0:
207,360,59833,1,0,0:0:0:0:
315,179,60122,6,0,P|312:122|275:88,1,105,2|0,0:0|0:0,0:0:0:0:
252,152,60554,1,0,0:0:0:0:
284,235,60698,2,0,P|333:262|382:249,1,105,8|0,0:0|0:0,0:0:0:0:
436,215,61131,1,0,0:0:0:0:
382,144,61275,2,0,L|361:41,1,105,2|0,0:0|0:0,0:0:0:0:
419,4,61708,1,0,0:0:0:0:
469,78,61852,2,0,L|490:181,1,105,8|0,0:0|0:0,0:0:0:0:
304,286,62429,6,0,P|307:229|344:195,1,105,2|0,0:0|0:0,0:0:0:0:
367,259,62861,1,0,0:0:0:0:
335,342,63006,2,0,P|285:369|236:356,1,105,8|0,0:0|0:0,0:0:0:0:
183,322,63438,1,0,0:0:0:0:
237,251,63583,2,0,L|258:148,1,105,2|0,0:0|0:0,0:0:0:0:
200,111,64015,1,0,0:0:0:0:
150,185,64159,2,0,L|138:236,2,52.5,8|0|0,0:0|0:0|0:0,0:0:0:0:
272,13,64737,5,2,0:0:0:0:
313,15,64881,1,0,0:0:0:0:
347,38,65025,1,0,0:0:0:0:
367,75,65170,1,0,0:0:0:0:
367,116,65314,1,8,0:0:0:0:
225,223,65602,2,0,L|282:226,1,52.5
301,313,65891,2,0,L|195:306,1,105,2|0,0:0|0:0,0:0:0:0:
136,339,66323,1,0,0:0:0:0:
68,280,66468,2,0,P|53:229|68:180,1,105,8|0,0:0|0:0,0:0:0:0:
179,41,67045,6,0,B|229:64|229:64|278:52,1,105,2|0,0:0|0:0,0:0:0:0:
344,37,67477,1,0,0:0:0:0:
295,113,67622,2,0,B|245:124|245:124|211:167,1,105,8|0,0:0|0:0,0:0:0:0:
172,222,68054,1,0,0:0:0:0:
235,285,68198,2,0,B|257:293|257:293|278:283|278:283|296:293|296:293|318:286|318:286|343:296,1,105
386,333,68631,1,0,0:0:0:0:
376,244,68775,2,0,B|385:212|385:212|383:200|383:200|404:178|406:146,1,105,8|0,0:0|0:0,0:0:0:0:
268,32,69352,5,2,0:0:0:0:
228,44,69496,1,0,0:0:0:0:
188,57,69640,1,0,0:0:0:0:
148,70,69785,1,0,0:0:0:0:
109,83,69929,2,0,B|120:137|120:137|109:185,1,105,8|0,0:0|0:0,0:0:0:0:
84,249,70362,1,0,0:0:0:0:
161,294,70506,2,0,B|195:313|213:293|231:275|262:295,1,105,2|0,0:0|0:0,0:0:0:0:
315,335,70939,1,0,0:0:0:0:
384,278,71083,1,8,0:0:0:0:
384,278,71227,1,0,0:0:0:0:
384,278,71372,1,0,0:0:0:0:
348,69,71660,6,0,P|301:88|272:131,1,105,2|0,0:0|0:0,0:0:0:0:
276,200,72093,1,0,0:0:0:0:
354,156,72237,2,0,L|467:160,1,105,8|0,0:0|0:0,0:0:0:0:
512,116,72670,1,0,0:0:0:0:
510,205,72814,2,0,P|519:257|509:307,1,105,2|0,0:0|0:0,0:0:0:0:
467,362,73247,1,0,0:0:0:0:
408,295,73391,2,0,L|303:291,1,105,8|0,0:0|0:0,0:0:0:0:
101,350,73968,5,2,0:0:0:0:
77,314,74112,1,0,0:0:0:0:
68,273,74256,1,0,0:0:0:0:
68,231,74400,1,0,0:0:0:0:
80,190,74545,1,8,0:0:0:0:
178,48,74833,1,0,0:0:0:0:
178,48,74977,1,0,0:0:0:0:
178,48,75122,2,0,B|219:88|274:70,1,105,2|0,0:0|0:0,0:0:0:0:
336,39,75554,1,0,0:0:0:0:
401,100,75698,2,0,B|417:136|417:136|411:167|411:167|423:199,1,105,8|0,0:0|0:0,0:0:0:0:
462,255,76131,1,0,0:0:0:0:
356,262,76275,6,0,P|329:318|336:360,2,105,2|0|8,0:0|0:0|0:0,0:0:0:0:
271,116,77141,2,0,L|261:65,1,52.5
338,20,77429,2,0,P|358:61|356:119,1,105,2|0,0:0|0:0,0:0:0:0:
323,179,77862,1,0,0:0:0:0:
267,248,78006,2,0,P|263:299|284:347,1,105,8|0,0:0|0:0,0:0:0:0:
344,380,78439,1,0,0:0:0:0:
418,306,78583,5,2,0:0:0:0:
427,265,78727,1,0,0:0:0:0:
436,224,78871,1,0,0:0:0:0:
446,184,79016,1,0,0:0:0:0:
455,143,79160,2,0,L|467:91,1,52.5,8|0,0:0|0:0,0:0:0:0:
410,53,79448,2,0,L|398:105,1,52.5
309,105,79737,2,0,P|309:56|334:5,2,105,2|0|8,0:0|0:0|0:0,0:0:0:0:
326,171,80458,1,0,0:0:0:0:
326,171,80602,1,0,0:0:0:0:
117,217,80891,6,0,L|63:221,1,52.5,2|0,0:0|0:0,0:0:0:0:
88,156,81179,2,0,L|142:152,1,52.5
186,229,81468,2,0,P|204:281|197:331,1,105,8|0,0:0|0:0,0:0:0:0:
155,383,81900,1,0,0:0:0:0:
70,356,82045,2,0,P|52:304|59:254,1,105,2|0,0:0|0:0,0:0:0:0:
90,195,82477,1,0,0:0:0:0:
52,114,82622,2,0,L|0:103,2,52.5,8|0|0,0:0|0:0|0:0,0:0:0:0:
259,149,83198,5,2,0:0:0:0:
298,133,83343,1,0,0:0:0:0:
329,105,83487,1,0,0:0:0:0:
350,68,83631,1,0,0:0:0:0:
364,28,83775,2,0,L|421:19,1,52.5,8|0,0:0|0:0,0:0:0:0:
477,50,84064,2,0,L|494:100,1,52.5
426,158,84352,2,0,P|422:220|427:268,2,105,2|0|8,0:0|0:0|0:0,0:0:0:0:
426,89,85073,1,0,0:0:0:0:
426,89,85218,1,0,0:0:0:0:
426,89,85362,1,0,0:0:0:0:
339,147,85506,6,0,L|234:146,1,105,2|0,0:0|0:0,0:0:0:0:
263,207,85939,1,0,0:0:0:0:
184,248,86083,2,0,L|79:247,2,105,8|0|2,0:0|0:0|0:0,0:0:0:0:
236,292,86804,1,0,0:0:0:0:
267,352,86948,2,0,P|297:361|321:362,1,52.5
350,278,87237,2,0,P|320:269|296:268,1,52.5,8|0,0:0|0:0,0:0:0:0:
236,292,87525,1,0,0:0:0:0:
96,134,87814,5,2,0:0:0:0:
129,109,87958,1,0,0:0:0:0:
142,69,88102,1,0,0:0:0:0:
139,26,88247,1,0,0:0:0:0:
178,12,88391,2,0,L|237:16,1,52.5,8|0,0:0|0:0,0:0:0:0:
275,66,88679,2,0,L|349:71,1,52.5
380,113,88968,2,0,P|375:177|411:212,1,105,2|0,0:0|0:0,0:0:0:0:
306,366,89545,1,8,0:0:0:0:
306,366,89689,1,0,0:0:0:0:
306,366,89833,1,0,0:0:0:0:
122,261,90122,6,0,L|73:286,2,52.5,2|0|0,0:0|0:0|0:0,0:0:0:0:
184,233,90554,1,0,0:0:0:0:
247,208,90698,2,0,P|207:169|160:169,1,105,8|0,0:0|0:0,0:0:0:0:
259,319,91275,1,2,0:0:0:0:
403,199,91564,2,0,L|411:144,1,52.5
475,127,91852,2,0,L|467:178,1,52.5,8|0,0:0|0:0,0:0:0:0:
453,246,92141,1,0,0:0:0:0:
256,192,92429,12,2,97045,0:0:0:0:
