osu file format v14

[General]
AudioFilename: audio.mp3
AudioLeadIn: 0
PreviewTime: 44345
Countdown: 0
SampleSet: Soft
StackLeniency: 0.3
Mode: 0
LetterboxInBreaks: 0
WidescreenStoryboard: 0

[Editor]
Bookmarks: 14345,28059,34916,45202,72631,86131
DistanceSpacing: 0.7
BeatDivisor: 4
GridSize: 8
TimelineZoom: 1

[Metadata]
Title:BREAK IN TO BREAK OUT (TV Size)
TitleUnicode:BREAK IN TO BREAK OUT (TV Size)
Artist:Shoji Meguro ft. Lyn
ArtistUnicode:Shoji Meguro ft. Lyn
Creator:TastyApple
Version:Joker
Source:ペルソナ5アニメ
Tags:Persona 5 The Animation Benjamin Franklin
BeatmapID:1989122
BeatmapSetID:952616

[Difficulty]
HPDrainRate:6
CircleSize:4
OverallDifficulty:7.5
ApproachRate:9.2
SliderMultiplier:2
SliderTickRate:1

[Events]
//Background and Video events
0,0,"persona-5-cover.jpg",0,0
//Break Periods
//Storyboard Layer 0 (Background)
//Storyboard Layer 1 (Fail)
//Storyboard Layer 2 (Pass)
//Storyboard Layer 3 (Foreground)
//Storyboard Sound Samples

[TimingPoints]
631,428.571428571429,4,2,0,60,1,0
34273,-133.333333333333,4,2,0,60,0,0
37916,-100,4,2,0,60,0,0
38345,-133.333333333333,4,2,0,60,0,0
39845,-100,4,2,0,60,0,0
44559,-200,4,2,0,60,0,0
44988,-100,4,2,0,60,0,0
45202,-80,4,2,0,60,0,1
51202,-100,4,2,0,60,0,0
52059,-80,4,2,0,60,0,1
58059,-100,4,2,0,60,0,0
58916,-80,4,2,0,60,0,1
64916,-100,4,2,0,60,0,0
65773,-80,4,2,0,60,0,1
72631,-100,4,2,0,60,0,0

[Colours]
Combo1 : 235,235,235
Combo2 : 198,0,0
Combo3 : 250,237,3
Combo4 : 251,47,200
Combo5 : 30,171,247
Combo6 : 52,60,86
Combo7 : 72,224,7
Combo8 : 135,9,189

[HitObjects]
144,237,631,5,0,0:0:0:0:
104,108,1059,2,0,B|131:40|215:29|215:29|168:93,1,200
241,172,1702,2,0,P|300:159|355:177,1,100
293,271,2131,2,0,P|296:325|351:374,1,100
377,291,2559,2,0,P|453:209|453:121,1,200
337,167,3202,1,0,0:0:0:0:
244,126,3416,1,0,0:0:0:0:
245,225,3631,1,0,0:0:0:0:
144,237,3845,1,0,0:0:0:0:
42,58,4059,5,0,0:0:0:0:
243,125,4488,2,0,B|190:93|190:93|111:110|84:172,1,200
249,267,5131,2,0,P|204:314|129:321,1,100
84,172,5559,1,0,0:0:0:0:
84,172,5988,2,0,B|169:193|169:193|188:216|188:216|285:238,1,200
371,249,6631,1,0,0:0:0:0:
506,346,6845,1,0,0:0:0:0:
430,117,7059,1,0,0:0:0:0:
422,95,7488,5,0,0:0:0:0:
300,48,7916,2,0,B|243:-7|203:46|171:90|97:29,1,200
1,83,8559,2,0,P|33:133|85:160,1,100
258,223,8988,2,0,P|225:172|173:145,1,100
138,351,9416,2,0,L|126:138,1,200
116,43,10059,1,0,0:0:0:0:
116,43,10273,1,0,0:0:0:0:
242,34,10488,1,0,0:0:0:0:
332,125,10702,1,0,0:0:0:0:
286,283,10916,5,0,0:0:0:0:
430,173,11345,2,0,B|459:128|509:160|507:210|473:250|473:250|441:289|425:308,1,200
194,333,11988,2,0,P|179:285|193:238,1,100
332,125,12416,1,0,0:0:0:0:
332,125,12845,2,0,B|259:138|241:183|200:191|137:170|137:170|156:219|203:243,1,300
286,283,13702,5,0,0:0:0:0:
375,41,13916,1,0,0:0:0:0:
241,17,14345,6,0,L|195:105,1,100
133,224,14773,1,0,0:0:0:0:
226,262,15202,1,0,0:0:0:0:
133,224,15416,1,0,0:0:0:0:
93,94,15631,1,0,0:0:0:0:
93,94,16059,6,0,P|51:50|-27:39,1,100
11,134,16488,1,0,0:0:0:0:
11,245,16702,2,0,P|12:305|71:357,1,100
134,256,17131,1,0,0:0:0:0:
253,226,17345,2,0,P|230:182|187:157,1,100
31,30,17773,6,0,P|95:33|139:70,1,100
85,180,18202,1,0,0:0:0:0:
78,279,18631,1,0,0:0:0:0:
85,180,18845,1,0,0:0:0:0:
206,152,19059,1,0,0:0:0:0:
206,152,19488,6,0,P|237:85|294:59,1,100
409,26,19916,1,0,0:0:0:0:
306,150,20131,2,0,P|402:134|479:194,1,200
373,257,20773,1,0,0:0:0:0:
373,257,21202,6,0,L|350:385,1,100
482,329,21631,1,0,0:0:0:0:
510,234,22059,1,0,0:0:0:0:
482,329,22273,1,0,0:0:0:0:
426,207,22488,1,0,0:0:0:0:
446,118,22702,1,0,0:0:0:0:
489,35,22916,6,0,P|411:32|365:65,1,100
253,146,23345,1,0,0:0:0:0:
61,66,23559,2,0,P|80:137|139:182,1,150
242,271,23988,2,0,P|178:233|105:243,1,150
10,344,24416,2,0,P|63:265|59:62,1,300
10,21,25488,5,0,0:0:0:0:
40,221,25702,1,0,0:0:0:0:
143,102,25916,1,0,0:0:0:0:
260,37,26345,2,0,P|271:105|187:238,1,200
346,132,26988,2,0,P|285:141|245:179,2,100
348,272,27631,1,0,0:0:0:0:
348,272,28059,5,0,0:0:0:0:
424,371,28273,1,0,0:0:0:0:
300,369,28488,2,0,P|245:370|199:346,1,100
269,266,28916,1,0,0:0:0:0:
296,144,29131,1,0,0:0:0:0:
177,179,29345,2,0,P|123:192|85:227,1,100
86,355,29773,5,0,0:0:0:0:
181,276,29988,1,0,0:0:0:0:
90,220,30202,2,0,P|35:182|21:110,1,100
120,118,30631,1,0,0:0:0:0:
259,118,30845,1,0,0:0:0:0:
196,47,31059,2,0,P|238:26|326:46,1,100
477,214,31488,5,0,0:0:0:0:
477,214,31916,2,0,L|469:103,1,100
373,36,32345,1,0,0:0:0:0:
332,196,32559,1,0,0:0:0:0:
210,35,32773,2,0,P|259:48|298:115,1,100
404,196,33202,1,0,0:0:0:0:
363,36,33416,1,0,0:0:0:0:
203,149,33631,2,0,P|216:198|283:237,2,100
290,84,34273,2,0,P|188:45|127:76,1,150.000005722046
31,288,34916,6,0,P|40:189|2:115,1,150.000005722046
181,288,35559,2,0,P|172:189|210:115,1,150.000005722046
106,82,36202,1,0,0:0:0:0:
106,172,36416,2,0,L|106:358,1,150.000005722046
306,255,37059,5,0,0:0:0:0:
261,321,37488,1,0,0:0:0:0:
369,167,37702,1,0,0:0:0:0:
209,212,37916,2,0,L|255:116,1,100
252,121,38345,6,0,P|293:52|388:30,1,150.000005722046
348,119,38988,2,0,P|295:57|202:53,1,150.000005722046
110,146,39631,1,0,0:0:0:0:
69,33,39845,2,0,P|7:86|-8:136,2,100
1,210,40488,1,0,0:0:0:0:
87,337,40702,1,0,0:0:0:0:
318,334,40916,2,0,P|273:356|224:357,1,100
29,282,41345,2,0,P|92:244|141:242,1,100
337,234,41773,5,0,0:0:0:0:
478,253,42202,2,0,P|480:204|459:160,2,100
447,44,42845,1,0,0:0:0:0:
337,234,43273,1,0,0:0:0:0:
197,4,43488,5,0,0:0:0:0:
106,50,43702,1,0,0:0:0:0:
68,84,43809,1,0,0:0:0:0:
44,132,43916,1,0,0:0:0:0:
33,191,44023,1,0,0:0:0:0:
56,253,44130,1,0,0:0:0:0:
108,304,44237,1,0,0:0:0:0:
178,331,44344,1,0,0:0:0:0:
426,214,44559,2,0,P|435:191|429:148,2,50
263,166,45202,6,0,L|81:149,2,125
414,37,45845,1,0,0:0:0:0:
366,187,46059,1,0,0:0:0:0:
265,21,46273,1,0,0:0:0:0:
271,178,46487,1,0,0:0:0:0:
104,83,46702,1,0,0:0:0:0:
210,19,46916,5,0,0:0:0:0:
183,206,47131,1,0,0:0:0:0:
120,55,47345,1,0,0:0:0:0:
94,240,47560,1,0,0:0:0:0:
244,366,47773,6,0,P|272:316|255:226,1,125
178,290,48202,1,0,0:0:0:0:
267,250,48416,2,0,P|239:200|256:110,1,125
333,174,48845,1,0,0:0:0:0:
243,134,49059,6,0,P|271:84|254:-6,2,125
177,58,49702,1,0,0:0:0:0:
351,128,49916,1,0,0:0:0:0:
339,29,50131,1,0,0:0:0:0:
458,189,50345,1,0,0:0:0:0:
458,24,50559,2,0,L|458:151,1,125
458,336,50988,1,0,0:0:0:0:
386,257,51202,1,0,0:0:0:0:
386,336,51416,5,0,0:0:0:0:
299,257,51631,1,0,0:0:0:0:
386,172,51845,1,0,0:0:0:0:
268,38,52059,6,0,P|208:21|149:37,2,125
209,161,52702,1,0,0:0:0:0:
111,300,52916,1,0,0:0:0:0:
107,128,53131,1,0,0:0:0:0:
211,266,53345,1,0,0:0:0:0:
47,215,53559,1,0,0:0:0:0:
172,183,53773,5,0,0:0:0:0:
51,37,53988,1,0,0:0:0:0:
204,108,54202,1,0,0:0:0:0:
98,268,54416,1,0,0:0:0:0:
267,288,54631,1,0,0:0:0:0:
243,178,54845,5,0,0:0:0:0:
330,212,55059,1,0,0:0:0:0:
412,260,55273,2,0,P|456:299|489:369,2,125
243,178,55916,5,0,0:0:0:0:
435,136,56131,1,0,0:0:0:0:
274,171,56345,1,0,0:0:0:0:
142,35,56559,1,0,0:0:0:0:
205,192,56773,1,0,0:0:0:0:
334,47,56988,1,0,0:0:0:0:
387,198,57202,5,0,0:0:0:0:
242,77,57416,1,0,0:0:0:0:
244,240,57631,1,0,0:0:0:0:
99,119,57845,1,0,0:0:0:0:
99,274,58059,2,0,L|100:410,1,100
223,349,58488,5,0,0:0:0:0:
309,287,58702,1,0,0:0:0:0:
380,207,58916,2,0,P|403:153|413:88,2,125
