osu file format v14

[General]
AudioFilename: audio.mp3
AudioLeadIn: 0
PreviewTime: 59182
Countdown: 0
SampleSet: Soft
StackLeniency: 0.3
Mode: 0
LetterboxInBreaks: 0
WidescreenStoryboard: 1

[Editor]
Bookmarks: 364,15009,30600,45718,60836,72175,75954,87293,91072
DistanceSpacing: 0.5
BeatDivisor: 4
GridSize: 16
TimelineZoom: 1.7

[Metadata]
Title:WAKE UP, GET UP, GET OUT THERE!
TitleUnicode:WAKE UP, GET UP, GET OUT THERE!
Artist:Shoji Meguro
ArtistUnicode:目黒 将司
Creator:DeviousPanda
Version:Light Insane
Source:Persona 5
Tags:
BeatmapID:1572049
BeatmapSetID:745504

[Difficulty]
HPDrainRate:4
CircleSize:4
OverallDifficulty:6.5
ApproachRate:9
SliderMultiplier:2.39999990463257
SliderTickRate:1

[Events]
//Background and Video events
0,0,"P5.jpg",0,0
//Break Periods
2,8831,56929
//Storyboard Layer 0 (Background)
//Storyboard Layer 1 (Fail)
//Storyboard Layer 2 (Pass)
//Storyboard Layer 3 (Foreground)
//Storyboard Sound Samples

[TimingPoints]
364,472.44094488189,4,2,0,30,1,0
364,-200,4,2,0,30,0,0
7923,-133.333333333333,4,2,0,35,0,0
15009,-200,4,2,0,40,0,0
15482,-100,4,2,0,40,0,0
37214,-200,4,2,0,40,0,0
37450,-100,4,2,0,40,0,0
44773,-200,4,2,0,40,0,0
45245,-100,4,2,0,40,0,0
59182,-100,4,2,0,50,0,0
60836,-100,4,2,0,60,0,1
72175,-133.333333333333,4,2,0,50,0,0
74064,-100,4,2,0,50,0,0
75954,-100,4,2,0,60,0,1
87293,-133.333333333333,4,2,0,50,0,0
91072,-200,4,2,0,30,0,0

[Colours]
Combo1 : 128,128,128
Combo2 : 255,0,0

[HitObjects]
78,190,364,6,0,P|129:204|186:185,1,89.9999964237214
224,148,1072,1,0,0:0:0:0:
224,148,1545,5,0,0:0:0:0:
219,127,1663,1,0,0:0:0:0:
198,305,2253,5,0,0:0:0:0:
198,305,2962,6,0,P|238:296|268:304,1,59.9999976158143
305,359,3434,2,0,P|287:306|306:226,1,119.999995231629
387,136,4143,6,0,L|276:144,1,89.9999964237214
224,148,4852,1,0,0:0:0:0:
224,148,5324,5,0,0:0:0:0:
226,131,5442,1,0,0:0:0:0:
229,114,5560,2,0,L|219:64,1,29.9999988079071
156,234,5797,6,0,B|207:266|258:246|258:246|315:224|363:246,1,209.99999165535
370,255,6741,2,0,P|350:197|368:148,1,89.9999964237214
423,127,7214,6,0,L|519:135,1,89.9999964237214
300,115,7686,1,0,0:0:0:0:
300,115,7923,6,0,P|286:68|296:23,1,89.9999998569489
355,170,8277,2,0,P|352:218|327:257,1,89.9999998569489
260,275,8631,1,0,0:0:0:0:
256,192,57529,12,0,58710,0:0:0:0:
109,158,59182,5,0,0:0:0:0:
109,158,59419,6,0,P|179:132|247:157,1,119.999995231629
276,199,59773,1,0,0:0:0:0:
276,199,59891,2,0,P|322:203|364:185,1,59.9999976158143
311,60,60127,2,0,L|303:155,1,59.9999976158143
176,247,60364,6,0,B|153:189|153:189|171:122,1,119.999995231629
192,62,60718,1,0,0:0:0:0:
119,5,60836,6,0,L|-6:3,1,119.999995231629
192,62,61190,2,0,L|317:60,1,119.999995231629
176,247,61545,5,0,0:0:0:0:
122,190,61663,2,0,P|67:177|-3:207,1,119.999995231629
176,247,62017,5,0,0:0:0:0:
195,170,62135,1,0,0:0:0:0:
212,93,62253,2,0,L|146:97,1,59.9999976158143
289,384,62489,5,0,0:0:0:0:
268,302,62607,1,0,0:0:0:0:
252,219,62725,2,0,L|318:223,1,59.9999976158143
367,73,62962,6,0,P|310:57|253:72,1,119.999995231629
212,93,63316,1,0,0:0:0:0:
167,104,63434,1,0,0:0:0:0:
124,88,63552,1,0,0:0:0:0:
53,32,63671,5,0,0:0:0:0:
53,32,63789,2,0,B|36:72|36:72|46:153,1,119.999995231629
47,337,64143,2,0,B|63:296|63:296|53:215,1,119.999995231629
45,148,64497,1,0,0:0:0:0:
147,206,64615,6,0,L|288:199,1,119.999995231629
447,161,64970,2,0,L|306:154,1,119.999995231629
307,323,65324,5,0,0:0:0:0:
354,264,65442,2,0,P|354:195|291:135,1,119.999995231629
257,124,65797,1,0,0:0:0:0:
82,111,66033,6,0,B|142:104|142:104|205:129|205:129|281:121,1,179.999992847443
356,51,66505,5,0,0:0:0:0:
437,45,66623,1,0,0:0:0:0:
437,45,66741,2,0,B|457:99|457:99|443:184,1,119.999995231629
445,351,67096,2,0,B|425:297|425:297|435:235,1,119.999995231629
374,186,67450,6,0,L|301:176,1,59.9999976158143
248,213,67686,1,0,0:0:0:0:
248,213,67804,2,0,L|175:223,1,59.9999976158143
272,384,68041,5,0,0:0:0:0:
274,350,68159,1,0,0:0:0:0:
277,316,68277,1,0,0:0:0:0:
248,213,68395,6,0,L|240:93,1,119.999995231629
368,186,68749,2,0,L|360:305,1,119.999995231629
183,42,69104,5,0,0:0:0:0:
240,93,69222,2,0,P|306:100|364:70,1,119.999995231629
183,42,69576,5,0,0:0:0:0:
167,116,69694,1,0,0:0:0:0:
151,190,69812,2,0,B|156:232|156:232|153:271|153:271|160:320,1,119.999995231629
353,140,70167,5,0,0:0:0:0:
290,181,70285,2,0,L|207:187,1,59.9999976158143
360,214,70521,2,0,L|443:220,1,59.9999976158143
345,28,70757,2,0,P|368:89|345:150,1,119.999995231629
290,181,71112,1,0,0:0:0:0:
167,116,71230,5,0,0:0:0:0:
167,116,71348,2,0,B|147:156|147:156|163:256,1,119.999995231629
218,277,71702,2,0,L|294:274,1,59.9999976158143
360,271,71938,1,0,0:0:0:0:
360,271,72056,1,0,0:0:0:0:
486,153,72175,6,0,B|421:127|421:127|329:161,1,134.999999785423
290,181,72647,1,0,0:0:0:0:
170,136,72883,5,0,0:0:0:0:
290,181,73001,2,0,P|295:102|239:33,1,134.999999785423
39,141,73592,6,0,L|116:136,1,44.9999999284745
170,136,73828,1,0,0:0:0:0:
170,136,73946,1,0,0:0:0:0:
134,312,74064,5,0,0:0:0:0:
134,312,74301,6,0,P|114:230|136:182,1,119.999995231629
170,136,74655,1,0,0:0:0:0:
170,136,74773,2,0,P|174:106|163:72,1,59.9999976158143
24,119,75009,6,0,L|83:115,1,59.9999976158143
263,210,75245,1,0,0:0:0:0:
263,210,75364,2,0,L|204:206,1,59.9999976158143
114,20,75600,5,0,0:0:0:0:
166,77,75718,2,0,P|174:106|170:136,1,59.9999976158143
119,261,75954,6,0,L|-11:248,1,119.999995231629
180,312,76308,2,0,L|310:299,1,119.999995231629
311,50,76663,5,0,0:0:0:0:
251,99,76781,2,0,P|237:157|271:217,1,119.999995231629
311,50,77135,5,0,0:0:0:0:
234,56,77253,1,0,0:0:0:0:
158,63,77371,2,0,L|90:53,1,59.9999976158143
262,209,77608,5,0,0:0:0:0:
346,216,77726,1,0,0:0:0:0:
429,223,77844,2,0,L|497:213,1,59.9999976158143
418,49,78080,6,0,P|383:120|415:186,1,119.999995231629
429,223,78434,1,0,0:0:0:0:
452,268,78552,1,0,0:0:0:0:
448,318,78671,1,0,0:0:0:0:
376,375,78789,5,0,0:0:0:0:
376,375,78907,2,0,B|329:363|329:363|244:376,1,119.999995231629
112,297,79261,2,0,B|159:309|159:309|244:296,1,119.999995231629
302,282,79615,1,0,0:0:0:0:
223,184,79734,6,0,L|230:42,1,119.999995231629
106,177,80088,2,0,L|113:319,1,119.999995231629
376,156,80442,5,0,0:0:0:0:
340,91,80560,2,0,P|278:61|205:72,1,119.999995231629
159,89,80915,1,0,0:0:0:0:
151,264,81151,6,0,B|146:199|146:199|164:157|164:157|156:58,1,179.999992847443
66,32,81623,5,0,0:0:0:0:
0,76,81741,1,0,0:0:0:0:
0,76,81860,2,0,B|15:116|15:116|0:229,1,119.999995231629
56,367,82214,2,0,B|41:327|41:327|56:214,1,119.999995231629
151,264,82568,6,0,P|220:281|279:248,1,119.999995231629
331,220,82923,2,0,P|400:203|459:236,1,119.999995231629
495,283,83277,1,0,0:0:0:0:
495,283,83395,1,0,0:0:0:0:
392,169,83513,6,0,L|397:39,1,119.999995231629
258,143,83867,2,0,L|263:273,1,119.999995231629
317,90,84222,5,0,0:0:0:0:
258,143,84340,2,0,P|189:155|144:122,1,119.999995231629
317,90,84694,5,0,0:0:0:0:
327,170,84812,1,0,0:0:0:0:
336,250,84930,2,0,B|286:247|286:247|261:252|261:252|197:247,1,119.999995231629
52,198,85285,5,0,0:0:0:0:
90,133,85403,2,0,L|82:47,1,59.9999976158143
254,313,85639,5,0,0:0:0:0:
216,248,85757,1,0,0:0:0:0:
178,183,85875,2,0,L|186:97,1,59.9999976158143
11,265,86112,5,0,0:0:0:0:
132,290,86230,1,0,0:0:0:0:
254,313,86348,2,0,B|301:307|301:307|333:311|333:311|393:304,1,119.999995231629
452,221,86702,5,0,0:0:0:0:
469,145,86820,2,0,P|468:105|447:65,1,59.9999976158143
254,67,87056,5,0,0:0:0:0:
254,179,87175,1,0,0:0:0:0:
254,313,87293,6,0,L|254:157,1,134.999999785423
254,67,87765,1,0,0:0:0:0:
254,67,88001,5,0,0:0:0:0:
196,17,88119,2,0,P|138:12|65:47,1,134.999999785423
160,243,88710,6,0,L|155:175,1,44.9999999284745
152,122,88946,1,0,0:0:0:0:
152,122,89064,1,0,0:0:0:0:
293,163,89182,6,0,L|280:315,1,134.999999785423
277,384,89655,1,0,0:0:0:0:
277,384,89891,5,0,0:0:0:0:
345,343,90009,2,0,P|420:329|477:354,1,134.999999785423
408,287,90600,6,0,L|410:215,1,44.9999999284745
414,129,90836,6,0,L|416:90,2,29.9999999523163
399,150,91072,6,0,P|362:159|326:145,1,59.9999976158143
280,111,91426,2,0,P|243:102|207:116,1,59.9999976158143
163,153,91781,1,0,0:0:0:0:
