osu file format v14

[General]
AudioFilename: audio.mp3
AudioLeadIn: 0
PreviewTime: 59182
Countdown: 0
SampleSet: Soft
StackLeniency: 0.3
Mode: 0
LetterboxInBreaks: 0
WidescreenStoryboard: 0

[Editor]
Bookmarks: 364,15009,30600,45718,60836,72175,75954,87293,91072
DistanceSpacing: 0.5
BeatDivisor: 4
GridSize: 16
TimelineZoom: 1.7

[Metadata]
Title:WAKE UP, GET UP, GET OUT THERE!
TitleUnicode:WAKE UP, GET UP, GET OUT THERE!
Artist:Shoji Meguro
ArtistUnicode:目黒 将司
Creator:DeviousPanda
Version:Expert
Source:Persona 5
Tags:
BeatmapID:1571641
BeatmapSetID:745504

[Difficulty]
HPDrainRate:6
CircleSize:5
OverallDifficulty:8
ApproachRate:9.3
SliderMultiplier:2.39999990463257
SliderTickRate:1

[Events]
//Background and Video events
0,0,"P5.jpg",0,0
//Break Periods
//Storyboard Layer 0 (Background)
//Storyboard Layer 1 (Fail)
//Storyboard Layer 2 (Pass)
//Storyboard Layer 3 (Foreground)
//Storyboard Sound Samples

[TimingPoints]
364,472.44094488189,4,2,0,30,1,0
364,-200,4,2,0,30,0,0
7923,-133.333333333333,4,2,0,35,0,0
15009,-200,4,2,0,40,0,0
15482,-100,4,2,0,40,0,0
37214,-200,4,2,0,40,0,0
37450,-100,4,2,0,40,0,0
44773,-200,4,2,0,40,0,0
45245,-100,4,2,0,40,0,0
59182,-100,4,2,0,50,0,0
60836,-100,4,2,0,60,0,1
61131,-100,4,2,0,5,0,1
61190,-100,4,2,0,60,0,1
64911,-100,4,2,0,5,0,1
64970,-100,4,2,0,60,0,1
68690,-100,4,2,0,5,0,1
68749,-100,4,2,0,60,0,1
72175,-100,4,2,0,50,0,0
75954,-100,4,2,0,60,0,1
76249,-100,4,2,0,5,0,1
76308,-100,4,2,0,60,0,1
80029,-100,4,2,0,5,0,1
80088,-100,4,2,0,60,0,1
83808,-100,4,2,0,5,0,1
83867,-100,4,2,0,60,0,1
87293,-100,4,2,0,50,0,0
91072,-200,4,2,0,30,0,0

[Colours]
Combo1 : 128,128,128
Combo2 : 255,0,0

[HitObjects]
105,149,364,6,0,P|133:139|178:150,1,59.9999976158143,2|0,0:0|0:0,0:0:0:0:
222,178,718,2,0,P|250:188|295:177,1,59.9999976158143,2|0,0:0|0:0,0:0:0:0:
335,148,1072,1,2,0:0:0:0:
192,11,1545,5,0,0:0:0:0:
197,22,1663,2,0,L|199:85,1,59.9999976158143
162,142,2017,1,0,0:0:0:0:
172,281,2253,5,0,3:0:0:0:
192,11,2844,5,2,0:0:0:0:
197,22,2962,2,0,L|199:85,1,59.9999976158143,2|0,0:0|0:0,0:0:0:0:
172,281,3434,5,2,0:0:0:0:
172,281,4143,6,0,P|179:239|169:203,1,59.9999976158143,2|0,0:0|0:0,0:0:0:0:
137,166,4497,2,0,P|130:124|140:88,1,59.9999976158143,2|0,0:0|0:0,0:0:0:0:
170,50,4852,1,2,0:0:0:0:
328,156,5324,5,0,0:0:0:0:
315,150,5442,1,0,0:0:0:0:
301,145,5560,2,0,P|280:145|265:148,1,29.9999988079071
132,107,5797,6,0,P|204:98|282:28,1,179.999992847443
105,169,6741,6,0,P|132:202|202:219,1,89.9999964237214
261,217,7214,2,0,P|219:207|153:237,1,89.9999964237214
128,274,7686,1,0,0:0:0:0:
300,314,7923,6,0,P|305:290|302:267,1,44.9999999284745,2|0,0:0|0:0,0:0:0:0:
261,217,8159,1,2,0:0:0:0:
261,217,8277,2,0,P|254:171|273:117,1,89.9999998569489,2|0,0:0|0:0,0:0:0:0:
311,77,8631,1,2,0:0:0:0:
433,277,8867,5,0,0:0:0:0:
367,275,8986,1,0,0:0:0:0:
302,269,9104,5,0,0:0:0:0:
297,256,9222,2,0,L|295:195,1,44.9999999284745
339,157,9458,1,0,0:0:0:0:
302,269,9694,5,0,0:0:0:0:
297,256,9812,2,0,L|295:195,1,44.9999999284745
339,157,10048,1,0,0:0:0:0:
344,144,10166,2,0,L|346:83,1,44.9999999284745
201,207,10403,5,0,0:0:0:0:
211,218,10521,2,0,P|257:228|296:210,1,89.9999998569489,2|0,0:0|0:0,0:0:0:0:
135,91,10993,6,0,B|139:153|139:153|116:206|116:206|124:284,1,179.999999713898,2|2,0:0|0:0,0:0:0:0:
202,320,11702,6,0,P|229:323|265:315,1,44.9999999284745,2|0,0:0|0:0,0:0:0:0:
300,280,11938,1,2,0:0:0:0:
300,280,12056,2,0,P|345:270|396:287,1,89.9999998569489,2|0,0:0|0:0,0:0:0:0:
436,323,12411,1,2,0:0:0:0:
277,110,12883,5,0,0:0:0:0:
264,109,13001,1,0,0:0:0:0:
250,108,13119,2,0,L|194:113,1,44.9999999284745
155,304,13356,6,0,B|162:221|162:221|112:130|112:130|121:43,1,269.999999570847
54,292,14301,6,0,B|59:239|59:239|25:178|25:178|31:121,1,179.999999713898
336,111,15009,6,0,P|291:98|240:113,1,89.9999964237214,2|0,0:0|0:0,0:0:0:0:
179,167,15482,6,0,L|186:240,1,59.9999976158143,14|0,0:0|0:0,0:0:0:0:
191,297,15718,1,2,0:0:0:0:
179,167,15836,2,0,L|168:42,1,119.999995231629,2|0,0:0|0:0,0:0:0:0:
362,231,16190,6,0,B|300:222|300:222|240:234|240:234|181:226,1,179.999992847443,14|0,0:0|0:0,0:0:0:0:
393,90,16663,5,10,0:0:0:0:
436,149,16781,2,0,P|418:197|353:231,1,119.999995231629,10|0,0:0|0:0,0:0:0:0:
500,189,17135,5,10,0:0:0:0:
468,255,17253,2,0,P|417:263|355:224,1,119.999995231629,10|0,0:0|0:0,0:0:0:0:
329,166,17608,5,2,0:0:0:0:
331,150,17726,1,2,0:0:0:0:
393,90,17844,6,0,L|461:94,1,59.9999976158143,10|0,0:0|0:0,0:0:0:0:
335,18,18080,5,2,0:0:0:0:
337,34,18198,1,2,0:0:0:0:
399,292,18316,5,2,0:0:0:0:
359,231,18434,2,0,L|362:165,1,59.9999976158143,2|0,0:0|0:0,0:0:0:0:
226,357,18671,5,2,0:0:0:0:
266,296,18789,2,0,L|263:230,1,59.9999976158143,10|0,0:0|0:0,0:0:0:0:
190,65,19025,5,2,0:0:0:0:
188,79,19143,1,2,0:0:0:0:
181,157,19261,6,0,L|263:147,1,59.9999976158143,14|0,0:0|0:0,0:0:0:0:
309,139,19497,1,2,0:0:0:0:
181,157,19615,2,0,L|62:171,1,119.999995231629,2|0,0:0|0:0,0:0:0:0:
245,328,19970,5,10,0:0:0:0:
255,259,20088,2,0,B|261:200|261:200|240:148|240:148|250:73,1,179.999992847443,10|0,0:0|0:0,0:0:0:0:
322,25,20560,5,2,0:0:0:0:
330,38,20678,2,0,L|339:106,1,59.9999976158143,10|0,0:0|0:0,0:0:0:0:
93,106,20915,6,0,P|166:57|271:116,1,179.999992847443,2|0,0:0|0:0,0:0:0:0:
288,144,21387,5,2,0:0:0:0:
285,163,21505,1,2,0:0:0:0:
224,212,21623,6,0,L|155:207,1,59.9999976158143,10|0,0:0|0:0,0:0:0:0:
286,280,21860,5,2,0:0:0:0:
283,261,21978,1,2,0:0:0:0:
179,27,22096,5,2,0:0:0:0:
140,86,22214,2,0,P|135:122|140:149,1,59.9999976158143,2|0,0:0|0:0,0:0:0:0:
312,0,22450,5,2,0:0:0:0:
351,59,22568,2,0,P|356:95|351:122,1,59.9999976158143,10|0,0:0|0:0,0:0:0:0:
179,27,22804,5,2,0:0:0:0:
351,59,22923,1,2,0:0:0:0:
238,243,23041,6,0,L|242:180,1,59.9999976158143,14|0,0:0|0:0,0:0:0:0:
245,113,23277,1,2,0:0:0:0:
238,243,23395,2,0,L|231:367,1,119.999995231629,2|0,0:0|0:0,0:0:0:0:
68,171,23749,6,0,B|124:165|124:165|182:191|182:191|256:180,1,179.999992847443,10|0,0:0|0:0,0:0:0:0:
111,27,24222,5,10,0:0:0:0:
53,68,24340,2,0,P|34:116|69:172,1,119.999995231629,10|0,0:0|0:0,0:0:0:0:
24,314,24694,5,10,0:0:0:0:
81,273,24812,2,0,P|100:224|65:168,1,119.999995231629,10|0,0:0|0:0,0:0:0:0:
6,226,25167,5,2,0:0:0:0:
23,230,25285,1,2,0:0:0:0:
66,170,25403,6,0,L|65:98,1,59.9999976158143,10|0,0:0|0:0,0:0:0:0:
137,218,25639,5,2,0:0:0:0:
120,222,25757,1,2,0:0:0:0:
236,33,25875,5,2,0:0:0:0:
264,96,25993,2,0,L|260:164,1,59.9999976158143,2|0,0:0|0:0,0:0:0:0:
65,110,26230,5,2,0:0:0:0:
37,173,26348,2,0,L|41:241,1,59.9999976158143,10|0,0:0|0:0,0:0:0:0:
213,320,26584,5,2,0:0:0:0:
217,305,26702,1,2,0:0:0:0:
196,226,26820,6,0,L|128:216,1,59.9999976158143,14|0,0:0|0:0,0:0:0:0:
69,203,27056,1,0,0:0:0:0:
196,226,27175,2,0,L|313:243,1,119.999995231629,2|0,0:0|0:0,0:0:0:0:
143,43,27529,5,10,0:0:0:0:
129,112,27647,2,0,B|123:159|123:159|139:220|139:220|127:300,1,179.999992847443,10|0,0:0|0:0,0:0:0:0:
48,361,28119,5,2,0:0:0:0:
32,345,28238,2,0,L|22:268,1,59.9999976158143,10|0,0:0|0:0,0:0:0:0:
84,60,28474,5,2,0:0:0:0:
84,60,29655,6,0,L|100:-18,1,59.9999976158143,10|0,0:0|0:0,0:0:0:0:
80,185,29891,2,0,L|67:104,1,59.9999976158143,10|0,0:0|0:0,0:0:0:0:
136,223,30127,5,10,0:0:0:0:
149,224,30245,1,10,0:0:0:0:
225,310,30364,5,10,0:0:0:0:
285,166,30482,5,10,0:0:0:0:
344,243,30600,6,0,P|401:233|474:254,1,119.999995231629,14|0,0:0|0:0,0:0:0:0:
288,347,30954,5,2,0:0:0:0:
225,310,31072,2,0,P|200:244|213:190,1,119.999995231629,10|0,0:0|0:0,0:0:0:0:
334,46,31426,5,2,0:0:0:0:
346,60,31545,2,0,P|353:94|343:120,1,59.9999976158143,10|0,0:0|0:0,0:0:0:0:
285,166,31781,5,2,0:0:0:0:
271,163,31899,1,2,0:0:0:0:
209,197,32017,6,0,P|200:255|222:301,1,59.9999976158143,10|0,0:0|0:0,0:0:0:0:
415,364,32253,5,2,0:0:0:0:
459,306,32371,2,0,L|461:233,1,59.9999976158143,2|0,0:0|0:0,0:0:0:0:
316,280,32608,5,2,0:0:0:0:
272,222,32726,2,0,L|270:149,1,59.9999976158143,2|0,0:0|0:0,0:0:0:0:
390,65,32962,5,10,0:0:0:0:
390,65,33198,5,2,0:0:0:0:
434,123,33316,2,0,L|436:196,1,59.9999976158143,2|0,0:0|0:0,0:0:0:0:
270,162,33553,5,2,0:0:0:0:
226,220,33671,2,0,L|224:293,1,59.9999976158143,2|0,0:0|0:0,0:0:0:0:
366,367,33907,5,10,0:0:0:0:
366,367,34143,5,2,0:0:0:0:
367,351,34261,1,2,0:0:0:0:
335,267,34379,6,0,P|268:256|209:300,1,119.999995231629,14|0,0:0|0:0,0:0:0:0:
367,351,34734,5,2,0:0:0:0:
433,326,34852,2,0,P|454:261|420:196,1,119.999995231629,10|0,0:0|0:0,0:0:0:0:
316,59,35206,5,2,0:0:0:0:
307,73,35324,2,0,P|304:110|319:135,1,59.9999976158143,10|0,0:0|0:0,0:0:0:0:
370,170,35560,5,2,0:0:0:0:
384,167,35678,1,2,0:0:0:0:
437,214,35797,6,0,P|454:271|433:326,1,119.999995231629,10|0,0:0|0:0,0:0:0:0:
236,240,36151,5,2,0:0:0:0:
232,227,36269,2,0,P|230:192|239:155,1,59.9999976158143,10|0,0:0|0:0,0:0:0:0:
338,92,36505,2,0,P|308:111|272:121,1,59.9999976158143,10|0,0:0|0:0,0:0:0:0:
221,99,36741,5,10,0:0:0:0:
163,57,36860,1,2,0:0:0:0:
93,58,36978,1,2,0:0:0:0:
37,100,37096,1,2,0:0:0:0:
51,224,37214,6,0,B|60:193|60:193|56:156,1,59.9999976158143,14|0,0:0|0:0,0:0:0:0:
37,100,37568,1,2,0:0:0:0:
57,165,37686,2,0,P|96:174|124:166,1,59.9999976158143,10|0,0:0|0:0,0:0:0:0:
224,116,37923,5,2,0:0:0:0:
221,99,38041,1,2,0:0:0:0:
291,24,38159,6,0,P|364:8|424:28,1,119.999995231629,14|0,0:0|0:0,0:0:0:0:
499,198,38513,5,2,0:0:0:0:
429,206,38631,2,0,P|378:150|365:88,1,119.999995231629,10|0,0:0|0:0,0:0:0:0:
500,1,38986,5,2,0:0:0:0:
512,19,39104,2,0,P|517:50|508:80,1,59.9999976158143,10|0,0:0|0:0,0:0:0:0:
457,121,39340,5,2,0:0:0:0:
439,118,39458,1,2,0:0:0:0:
381,154,39576,6,0,P|376:185|385:215,1,59.9999976158143,10|0,0:0|0:0,0:0:0:0:
487,333,39812,5,2,0:0:0:0:
429,294,39930,2,0,L|350:297,1,59.9999976158143,2|0,0:0|0:0,0:0:0:0:
281,228,40167,5,2,0:0:0:0:
223,267,40285,2,0,L|144:264,1,59.9999976158143,2|0,0:0|0:0,0:0:0:0:
42,332,40521,5,10,0:0:0:0:
42,332,40757,5,2,0:0:0:0:
88,272,40875,2,0,L|89:189,1,59.9999976158143,2|0,0:0|0:0,0:0:0:0:
281,228,41112,5,2,0:0:0:0:
235,168,41230,2,0,L|234:85,1,59.9999976158143,2|0,0:0|0:0,0:0:0:0:
162,9,41466,5,10,0:0:0:0:
162,9,41702,5,2,0:0:0:0:
147,4,41820,1,2,0:0:0:0:
75,49,41938,6,0,P|55:96|83:172,1,119.999995231629,14|0,0:0|0:0,0:0:0:0:
229,236,42293,5,2,0:0:0:0:
235,168,42411,2,0,P|204:127|124:113,1,119.999995231629,10|0,0:0|0:0,0:0:0:0:
50,285,42765,5,2,0:0:0:0:
66,295,42883,2,0,P|97:298|127:287,1,59.9999976158143,10|0,0:0|0:0,0:0:0:0:
184,240,43119,5,2,0:0:0:0:
181,223,43238,1,2,0:0:0:0:
235,168,43356,6,0,P|304:147|360:171,1,119.999995231629,10|0,0:0|0:0,0:0:0:0:
316,299,43710,5,2,0:0:0:0:
304,286,43828,2,0,P|295:257|304:211,1,59.9999976158143,10|0,0:0|0:0,0:0:0:0:
394,126,44064,2,0,P|373:148|329:163,1,59.9999976158143,10|0,0:0|0:0,0:0:0:0:
266,156,44301,5,10,0:0:0:0:
198,137,44419,1,2,0:0:0:0:
229,246,44537,5,2,0:0:0:0:
297,227,44655,1,2,0:0:0:0:
156,213,44773,6,0,B|148:252|148:252|158:293|158:293|147:354,1,119.999995231629,14|2,0:0|0:0,0:0:0:0:
151,330,45482,1,2,0:0:0:0:
230,146,45718,6,0,P|266:138|298:143,1,59.9999976158143,14|0,0:0|0:0,0:0:0:0:
352,159,45954,1,2,0:0:0:0:
230,146,46072,2,0,P|160:165|90:128,1,119.999995231629,10|0,0:0|0:0,0:0:0:0:
137,59,46426,5,2,0:0:0:0:
152,54,46545,1,2,0:0:0:0:
231,86,46663,6,0,L|229:166,1,59.9999976158143,10|0,0:0|0:0,0:0:0:0:
370,307,46899,5,2,0:0:0:0:
355,313,47018,1,2,0:0:0:0:
274,286,47136,6,0,L|270:206,1,59.9999976158143,10|0,0:0|0:0,0:0:0:0:
408,99,47371,5,2,0:0:0:0:
411,114,47489,1,2,0:0:0:0:
359,171,47608,5,10,0:0:0:0:
289,140,47726,2,0,L|225:146,1,59.9999976158143,2|0,0:0|0:0,0:0:0:0:
122,288,47962,6,0,P|137:260|132:212,1,59.9999976158143,2|0,0:0|0:0,0:0:0:0:
225,267,48198,2,0,P|218:235|183:202,1,59.9999976158143,2|0,0:0|0:0,0:0:0:0:
147,54,48434,6,0,P|127:110|155:172,1,119.999995231629,2|0,0:0|0:0,0:0:0:0:
348,145,48789,6,0,L|265:138,1,59.9999976158143,2|0,0:0|0:0,0:0:0:0:
412,184,49025,2,0,L|495:177,1,59.9999976158143,10|0,0:0|0:0,0:0:0:0:
345,227,49261,5,2,0:0:0:0:
342,242,49379,1,2,0:0:0:0:
377,314,49497,6,0,P|443:336|491:308,1,119.999995231629,14|0,0:0|0:0,0:0:0:0:
345,227,49852,5,2,0:0:0:0:
281,268,49970,2,0,P|267:336|300:380,1,119.999995231629,10|0,0:0|0:0,0:0:0:0:
426,240,50324,5,2,0:0:0:0:
431,224,50442,2,0,P|426:190|398:153,1,59.9999976158143,10|0,0:0|0:0,0:0:0:0:
356,127,50678,5,2,0:0:0:0:
341,128,50797,1,2,0:0:0:0:
279,93,50915,6,0,P|265:61|269:15,1,59.9999976158143,10|0,0:0|0:0,0:0:0:0:
341,128,51151,2,0,P|338:157|325:184,1,59.9999976158143,2|0,0:0|0:0,0:0:0:0:
75,159,51387,5,10,0:0:0:0:
131,117,51505,2,0,L|199:121,1,59.9999976158143,2|0,0:0|0:0,0:0:0:0:
334,242,51741,6,0,P|335:218|318:175,1,59.9999976158143,2|0,0:0|0:0,0:0:0:0:
236,271,51977,2,0,P|252:253|266:209,1,59.9999976158143,2|0,0:0|0:0,0:0:0:0:
156,213,52213,5,2,0:0:0:0:
137,281,52332,2,0,P|159:336|219:361,1,119.999995231629,10|0,0:0|0:0,0:0:0:0:
323,184,52685,5,2,0:0:0:0:
279,130,52804,2,0,P|240:123|219:127,1,59.9999976158143,10|0,0:0|0:0,0:0:0:0:
165,190,53041,5,2,0:0:0:0:
168,203,53159,1,2,0:0:0:0:
137,281,53277,6,0,P|101:288|63:281,1,59.9999976158143,14|0,0:0|0:0,0:0:0:0:
11,266,53513,1,2,0:0:0:0:
137,281,53631,2,0,P|196:269|262:287,1,119.999995231629,10|0,0:0|0:0,0:0:0:0:
217,373,53986,5,2,0:0:0:0:
197,378,54104,1,2,0:0:0:0:
134,339,54222,6,0,P|131:304|138:276,1,59.9999976158143,10|0,0:0|0:0,0:0:0:0:
168,203,54458,2,0,P|171:168|164:140,1,59.9999976158143,2|0,0:0|0:0,0:0:0:0:
113,6,54694,6,0,P|116:41|109:69,1,59.9999976158143,10|0,0:0|0:0,0:0:0:0:
79,142,54930,2,0,P|76:177|83:205,1,59.9999976158143,2|0,0:0|0:0,0:0:0:0:
356,129,55167,5,10,0:0:0:0:
303,81,55285,2,0,L|225:88,1,59.9999976158143,2|0,0:0|0:0,0:0:0:0:
111,218,55521,6,0,P|146:214|173:197,1,59.9999976158143,2|0,0:0|0:0,0:0:0:0:
212,293,55757,2,0,P|226:260|224:228,1,59.9999976158143,2|0,0:0|0:0,0:0:0:0:
303,81,55993,6,0,P|249:118|226:179,1,119.999995231629,2|0,0:0|0:0,0:0:0:0:
367,252,56348,6,0,L|359:187,1,59.9999976158143,2|0,0:0|0:0,0:0:0:0:
312,309,56584,2,0,L|304:374,1,59.9999976158143,10|0,0:0|0:0,0:0:0:0:
268,247,56820,5,2,0:0:0:0:
251,244,56938,1,2,0:0:0:0:
202,182,57056,6,0,P|185:131|213:41,1,119.999995231629,14|0,0:0|0:0,0:0:0:0:
246,15,57411,1,0,0:0:0:0:
263,18,57529,1,10,0:0:0:0:
256,192,57558,12,2,58710,0:0:0:0:
115,111,59182,6,0,P|134:92|221:99,1,119.999995231629,14|10,0:0|0:0,0:0:0:0:
147,225,59537,5,2,0:0:0:0:
174,159,59655,1,2,0:0:0:0:
215,213,59773,1,2,0:0:0:0:
143,284,59891,6,0,L|148:203,1,59.9999976158143,10|2,0:0|0:0,0:0:0:0:
174,159,60127,1,2,0:0:0:0:
246,338,60245,6,0,L|241:257,1,59.9999976158143,2|10,0:0|0:0,0:0:0:0:
215,213,60481,1,2,0:0:0:0:
140,380,60600,5,2,0:0:0:0:
246,338,60718,1,2,0:0:0:0:
143,284,60836,6,0,B|134:240|134:240|150:188|150:188|142:119,1,149.999994039536,14|0,0:0|0:0,0:0:0:0:
178,78,61190,6,0,P|227:104|303:67,1,119.999995231629,6|0,0:0|0:0,0:0:0:0:
237,20,61545,5,10,0:0:0:0:
215,213,61663,2,0,L|226:272,1,59.9999976158143,10|0,0:0|0:0,0:0:0:0:
79,100,62017,5,10,0:0:0:0:
101,293,62135,2,0,L|90:352,1,59.9999976158143,10|0,0:0|0:0,0:0:0:0:
4,182,62371,5,2,0:0:0:0:
22,114,62489,2,0,P|49:100|98:107,1,59.9999976158143,2|0,0:0|0:0,0:0:0:0:
273,210,62726,6,0,P|243:218|201:205,1,59.9999976158143,6|0,0:0|0:0,0:0:0:0:
177,24,62962,6,0,B|193:100|193:100|170:147,1,119.999995231629,10|2,0:0|0:0,0:0:0:0:
139,189,63316,1,2,0:0:0:0:
122,94,63434,1,2,0:0:0:0:
249,138,63552,1,2,0:0:0:0:
142,304,63671,6,0,B|126:269|126:269|139:188,1,119.999995231629,10|0,0:0|0:0,0:0:0:0:
329,317,64025,6,0,L|195:331,1,119.999995231629,10|0,0:0|0:0,0:0:0:0:
198,146,64379,5,2,0:0:0:0:
389,191,64497,1,2,0:0:0:0:
198,146,64615,6,0,B|249:138|249:138|294:146|294:146|359:136,1,149.999994039536,14|0,0:0|0:0,0:0:0:0:
389,191,64970,6,0,P|376:239|412:308,1,119.999995231629,6|0,0:0|0:0,0:0:0:0:
461,235,65324,5,10,0:0:0:0:
222,259,65442,2,0,B|202:202|202:202|224:131,1,119.999995231629,10|0,0:0|0:0,0:0:0:0:
250,83,65797,1,2,0:0:0:0:
288,200,65915,1,2,0:0:0:0:
115,164,66033,6,0,L|111:126,6,29.9999988079071,10|2|2|2|2|2|2,0:0|0:0|0:0|0:0|0:0|0:0|0:0,0:0:0:0:
126,268,66505,5,10,0:0:0:0:
107,74,66623,2,0,L|113:155,1,59.9999976158143,2|2,0:0|0:0,0:0:0:0:
133,331,66860,5,2,0:0:0:0:
65,247,66978,1,10,0:0:0:0:
168,215,67096,1,2,0:0:0:0:
126,268,67214,1,2,0:0:0:0:
126,268,67332,1,2,0:0:0:0:
177,86,67450,6,0,L|172:153,1,59.9999976158143,10|2,0:0|0:0,0:0:0:0:
168,215,67686,1,2,0:0:0:0:
56,118,67804,6,0,L|61:185,1,59.9999976158143,2|10,0:0|0:0,0:0:0:0:
65,247,68040,1,2,0:0:0:0:
177,86,68159,5,2,0:0:0:0:
45,51,68277,1,2,0:0:0:0:
60,177,68395,6,0,B|106:169|106:169|154:192|154:192|204:185,1,149.999994039536,14|0,0:0|0:0,0:0:0:0:
255,223,68749,6,0,P|274:275|260:340,1,119.999995231629,6|0,0:0|0:0,0:0:0:0:
174,286,69104,5,10,0:0:0:0:
385,312,69222,2,0,L|458:297,1,59.9999976158143,10|0,0:0|0:0,0:0:0:0:
350,158,69458,5,2,0:0:0:0:
310,230,69576,1,2,0:0:0:0:
393,231,69694,1,2,0:0:0:0:
406,103,69812,6,0,B|347:84|347:84|286:102,1,119.999995231629,10|2,0:0|0:0,0:0:0:0:
176,97,70167,1,2,0:0:0:0:
176,97,70285,2,0,B|235:116|235:116|296:98,1,119.999995231629,10|2,0:0|0:0,0:0:0:0:
231,37,70639,5,2,0:0:0:0:
350,158,70757,2,0,L|346:239,1,59.9999976158143,10|0,0:0|0:0,0:0:0:0:
176,97,70993,5,2,0:0:0:0:
231,37,71112,1,2,0:0:0:0:
176,97,71230,2,0,L|109:88,1,59.9999976158143,10|0,0:0|0:0,0:0:0:0:
290,165,71466,2,0,L|357:156,1,59.9999976158143,10|0,0:0|0:0,0:0:0:0:
188,285,71702,5,10,0:0:0:0:
153,193,71820,1,10,0:0:0:0:
176,97,71938,1,10,0:0:0:0:
248,30,72056,1,10,0:0:0:0:
359,95,72175,6,0,B|388:114|388:114|286:108,1,119.999995231629,14|0,0:0|0:0,0:0:0:0:
176,97,72529,1,2,0:0:0:0:
176,97,72647,1,10,0:0:0:0:
72,210,72883,5,10,0:0:0:0:
116,262,73001,2,0,B|173:308|227:273|227:273|292:233|365:292,1,239.999990463257,10|0,0:0|0:0,0:0:0:0:
282,330,73592,5,10,0:0:0:0:
271,257,73710,1,2,0:0:0:0:
339,274,73828,1,2,0:0:0:0:
282,330,73946,1,2,0:0:0:0:
274,197,74064,6,0,L|270:259,1,59.9999976158143,10|0,0:0|0:0,0:0:0:0:
200,384,74301,6,0,P|180:318|204:275,1,119.999995231629,2|10,0:0|0:0,0:0:0:0:
415,342,74655,5,2,0:0:0:0:
348,336,74773,1,2,0:0:0:0:
282,330,74891,1,2,0:0:0:0:
404,214,75009,6,0,L|410:288,1,59.9999976158143,10|2,0:0|0:0,0:0:0:0:
415,342,75245,1,2,0:0:0:0:
325,114,75364,6,0,L|319:188,1,59.9999976158143,2|10,0:0|0:0,0:0:0:0:
314,242,75600,1,2,0:0:0:0:
431,115,75718,5,2,0:0:0:0:
263,55,75836,1,2,0:0:0:0:
314,242,75954,6,0,B|319:193|319:193|306:145|306:145|314:78,1,149.999994039536,14|0,0:0|0:0,0:0:0:0:
263,55,76308,6,0,P|201:71|149:47,1,119.999995231629,6|0,0:0|0:0,0:0:0:0:
208,0,76663,5,10,0:0:0:0:
230,193,76781,2,0,L|219:252,1,59.9999976158143,10|0,0:0|0:0,0:0:0:0:
385,101,77135,5,10,0:0:0:0:
363,294,77253,2,0,L|374:353,1,59.9999976158143,10|0,0:0|0:0,0:0:0:0:
442,150,77489,5,2,0:0:0:0:
385,101,77608,2,0,P|356:108|330:122,1,59.9999976158143,2|0,0:0|0:0,0:0:0:0:
488,86,77844,6,0,P|496:57|497:27,1,59.9999976158143,6|0,0:0|0:0,0:0:0:0:
385,101,78080,6,0,B|373:182|373:182|390:221,1,119.999995231629,10|0,0:0|0:0,0:0:0:0:
419,273,78434,1,2,0:0:0:0:
448,174,78552,1,2,0:0:0:0:
312,229,78671,1,2,0:0:0:0:
416,383,78789,6,0,P|434:349|411:264,1,119.999995231629,10|0,0:0|0:0,0:0:0:0:
223,376,79143,6,0,L|344:385,1,119.999995231629,10|0,0:0|0:0,0:0:0:0:
253,126,79497,5,2,0:0:0:0:
191,311,79615,1,2,0:0:0:0:
253,126,79733,6,0,B|256:177|256:177|244:221|244:221|248:287,1,149.999994039536,14|0,0:0|0:0,0:0:0:0:
191,311,80088,6,0,P|144:293|72:323,1,119.999995231629,6|0,0:0|0:0,0:0:0:0:
138,375,80442,5,10,0:0:0:0:
122,177,80560,2,0,B|186:159|186:159|242:170,1,119.999995231629,10|0,0:0|0:0,0:0:0:0:
304,188,80915,1,0,0:0:0:0:
188,232,81033,1,0,0:0:0:0:
229,72,81151,6,0,L|270:75,6,29.9999988079071,10|2|2|2|2|2|2,0:0|0:0|0:0|0:0|0:0|0:0|0:0,0:0:0:0:
125,69,81623,5,10,0:0:0:0:
319,80,81741,2,0,L|238:73,1,59.9999976158143,2|2,0:0|0:0,0:0:0:0:
61,66,81978,5,2,0:0:0:0:
160,9,82096,1,10,0:0:0:0:
170,118,82214,1,2,0:0:0:0:
125,69,82332,1,2,0:0:0:0:
125,69,82450,1,2,0:0:0:0:
49,195,82568,6,0,L|56:128,1,59.9999976158143,10|2,0:0|0:0,0:0:0:0:
61,66,82804,1,2,0:0:0:0:
182,247,82923,6,0,L|174:180,1,59.9999976158143,2|10,0:0|0:0,0:0:0:0:
170,118,83159,1,2,0:0:0:0:
41,277,83277,5,2,0:0:0:0:
182,247,83395,1,2,0:0:0:0:
55,135,83513,6,0,B|108:133|108:133|149:156|149:156|202:153,1,149.999994039536,14|0,0:0|0:0,0:0:0:0:
259,113,83867,6,0,P|281:58|272:0,1,119.999995231629,6|0,0:0|0:0,0:0:0:0:
176,48,84222,5,10,0:0:0:0:
387,22,84340,2,0,L|460:37,1,59.9999976158143,10|0,0:0|0:0,0:0:0:0:
347,173,84576,5,2,0:0:0:0:
307,101,84694,1,2,0:0:0:0:
390,100,84812,1,2,0:0:0:0:
404,229,84930,6,0,B|346:246|346:246|281:222,1,119.999995231629,10|0,0:0|0:0,0:0:0:0:
176,222,85285,1,2,0:0:0:0:
176,222,85403,2,0,B|234:205|234:205|299:229,1,119.999995231629,10|0,0:0|0:0,0:0:0:0:
230,278,85757,5,2,0:0:0:0:
347,173,85875,2,0,L|339:100,1,59.9999976158143,10|0,0:0|0:0,0:0:0:0:
176,222,86112,5,2,0:0:0:0:
230,278,86230,1,2,0:0:0:0:
176,222,86348,2,0,L|185:158,1,59.9999976158143,10|0,0:0|0:0,0:0:0:0:
298,304,86584,2,0,L|307:368,1,59.9999976158143,10|0,0:0|0:0,0:0:0:0:
387,150,86820,5,10,0:0:0:0:
354,42,86938,1,10,0:0:0:0:
245,69,87056,1,10,0:0:0:0:
271,180,87175,1,10,0:0:0:0:
439,170,87293,6,0,B|471:156|471:156|376:149,1,119.999995231629,14|0,0:0|0:0,0:0:0:0:
214,138,87647,1,2,0:0:0:0:
214,138,87765,1,10,0:0:0:0:
262,357,88001,5,10,0:0:0:0:
318,314,88119,2,0,B|364:257|329:203|329:203|289:138|348:65,1,239.999990463257,10|0,0:0|0:0,0:0:0:0:
405,70,88710,6,0,L|471:80,1,59.9999976158143,10|0,0:0|0:0,0:0:0:0:
313,157,88946,2,0,L|247:167,1,59.9999976158143,2|0,0:0|0:0,0:0:0:0:
121,62,89182,6,0,B|146:36|146:36|143:124,1,119.999995231629,10|0,0:0|0:0,0:0:0:0:
148,264,89537,1,2,0:0:0:0:
148,264,89655,1,10,0:0:0:0:
488,246,89891,5,10,0:0:0:0:
445,190,90009,2,0,B|388:144|334:179|334:179|269:219|196:160,1,239.999990463257,10|0,0:0|0:0,0:0:0:0:
223,106,90600,6,0,L|240:32,1,59.9999976158143,10|0,0:0|0:0,0:0:0:0:
90,114,90836,5,0,3:0:0:0:
95,125,90915,1,0,3:0:0:0:
99,138,90993,1,0,3:0:0:0:
105,149,91072,6,0,P|133:139|178:150,1,59.9999976158143,2|0,0:0|0:0,0:0:0:0:
222,178,91426,2,0,P|250:188|295:177,1,59.9999976158143,2|0,0:0|0:0,0:0:0:0:
335,148,91780,1,2,0:0:0:0:
