osu file format v14

[General]
AudioFilename: audio.mp3
AudioLeadIn: 0
PreviewTime: 56861
Countdown: 0
SampleSet: Normal
StackLeniency: 0.7
Mode: 1
LetterboxInBreaks: 0
WidescreenStoryboard: 0

[Editor]
DistanceSpacing: 1.2
BeatDivisor: 4
GridSize: 32
TimelineZoom: 1.6

[Metadata]
Title:The Fog (ATLUS Konishi Remix)
TitleUnicode:The Fog (ATLUS Konishi Remix)
Artist:Shoji Meguro
ArtistUnicode:Shoji Meguro
Creator:Lost The Lights
Version:Oni
Source:ペルソナ4 ダンシングオールナイト
Tags:Persona 4 Dancing All Night Tohru Adachi
BeatmapID:1413819
BeatmapSetID:668267

[Difficulty]
HPDrainRate:6
CircleSize:5
OverallDifficulty:6
ApproachRate:9
SliderMultiplier:1.4
SliderTickRate:1

[Events]
//Background and Video events
0,0,"Adachi.Tohru.full.1193668.jpg",0,50
//Break Periods
//Storyboard Layer 0 (Background)
//Storyboard Layer 1 (Fail)
//Storyboard Layer 2 (Pass)
//Storyboard Layer 3 (Foreground)
//Storyboard Sound Samples

[TimingPoints]
476,361.44578313253,4,1,0,80,1,0
58307,-100,4,1,0,90,0,1
104572,-100,4,1,0,50,0,0
127704,-100,4,1,0,65,0,0
149391,-100,4,1,0,30,0,0
171620,-100,4,1,0,40,0,0
171801,-100,4,1,0,50,0,0
171982,-100,4,1,0,60,0,0
172162,-100,4,1,0,70,0,0
172343,-100,4,1,0,80,0,0
172524,-100,4,1,0,90,0,0
173969,-100,4,1,0,89,0,1
220235,-100,4,1,0,80,0,0

[HitObjects]
256,192,476,5,0,0:0:0:0:
256,192,656,1,0,0:0:0:0:
256,192,837,1,8,0:0:0:0:
256,192,1198,1,0,0:0:0:0:
256,192,1379,1,0,0:0:0:0:
256,192,1560,1,0,0:0:0:0:
256,192,1741,1,8,0:0:0:0:
256,192,1831,1,0,0:0:0:0:
256,192,1921,1,0,0:0:0:0:
256,192,2102,1,0,0:0:0:0:
256,192,2283,1,8,0:0:0:0:
256,192,2463,1,0,0:0:0:0:
256,192,2644,1,12,0:0:0:0:
256,192,2825,1,0,0:0:0:0:
256,192,3006,1,12,0:0:0:0:
256,192,3367,1,0,0:0:0:0:
256,192,3548,1,0,0:0:0:0:
256,192,3729,1,8,0:0:0:0:
256,192,4090,1,0,0:0:0:0:
256,192,4271,1,0,0:0:0:0:
256,192,4451,1,0,0:0:0:0:
256,192,4632,1,8,0:0:0:0:
256,192,4722,1,0,0:0:0:0:
256,192,4813,1,0,0:0:0:0:
256,192,4994,1,8,0:0:0:0:
256,192,5174,1,0,0:0:0:0:
256,192,5355,1,0,0:0:0:0:
256,192,5536,1,0,0:0:0:0:
256,192,5716,1,12,0:0:0:0:
256,192,6259,1,0,0:0:0:0:
256,192,6439,1,0,0:0:0:0:
256,192,6620,1,8,0:0:0:0:
256,192,6982,1,0,0:0:0:0:
256,192,7162,1,0,0:0:0:0:
256,192,7343,1,0,0:0:0:0:
256,192,7524,1,8,0:0:0:0:
256,192,7614,1,0,0:0:0:0:
256,192,7704,1,0,0:0:0:0:
256,192,7885,1,0,0:0:0:0:
256,192,8066,1,8,0:0:0:0:
256,192,8247,1,0,0:0:0:0:
256,192,8427,1,12,0:0:0:0:
256,192,8608,1,0,0:0:0:0:
256,192,8789,1,12,0:0:0:0:
256,192,9150,1,0,0:0:0:0:
256,192,9331,1,0,0:0:0:0:
256,192,9512,1,8,0:0:0:0:
256,192,9873,1,0,0:0:0:0:
256,192,10054,1,0,0:0:0:0:
256,192,10235,1,0,0:0:0:0:
256,192,10415,1,8,0:0:0:0:
256,192,10506,1,0,0:0:0:0:
256,192,10596,1,0,0:0:0:0:
256,192,10777,1,8,0:0:0:0:
256,192,10957,1,0,0:0:0:0:
256,192,11138,1,0,0:0:0:0:
256,192,11319,1,0,0:0:0:0:
256,192,11500,1,8,0:0:0:0:
256,192,11680,1,0,0:0:0:0:
256,192,11861,1,8,0:0:0:0:
256,192,12042,1,4,0:0:0:0:
256,192,12222,1,4,0:0:0:0:
256,192,12403,1,12,0:0:0:0:
256,192,12765,1,0,0:0:0:0:
256,192,12945,1,4,0:0:0:0:
256,192,13126,1,4,0:0:0:0:
256,192,13307,1,12,0:0:0:0:
256,192,13488,1,0,0:0:0:0:
256,192,13668,1,0,0:0:0:0:
256,192,13849,1,8,0:0:0:0:
256,192,14030,1,0,0:0:0:0:
256,192,14210,1,12,0:0:0:0:
256,192,14391,1,0,0:0:0:0:
256,192,14572,1,12,0:0:0:0:
256,192,14933,1,4,0:0:0:0:
256,192,15114,1,4,0:0:0:0:
256,192,15295,1,12,0:0:0:0:
256,192,15656,1,0,0:0:0:0:
256,192,15837,1,4,0:0:0:0:
256,192,16018,1,4,0:0:0:0:
256,192,16198,1,12,0:0:0:0:
256,192,16379,1,0,0:0:0:0:
256,192,16560,1,8,0:0:0:0:
256,192,16741,1,0,0:0:0:0:
256,192,16921,1,0,0:0:0:0:
256,192,17102,1,0,0:0:0:0:
256,192,17283,1,8,0:0:0:0:
256,192,17463,1,0,0:0:0:0:
256,192,17644,1,8,0:0:0:0:
256,192,17825,1,4,0:0:0:0:
256,192,18006,1,4,0:0:0:0:
256,192,18186,1,12,0:0:0:0:
256,192,18548,1,0,0:0:0:0:
256,192,18729,1,4,0:0:0:0:
256,192,18909,1,4,0:0:0:0:
256,192,19090,1,12,0:0:0:0:
256,192,19271,1,0,0:0:0:0:
256,192,19451,1,0,0:0:0:0:
256,192,19632,1,8,0:0:0:0:
256,192,19813,1,0,0:0:0:0:
256,192,19994,1,12,0:0:0:0:
256,192,20174,1,0,0:0:0:0:
256,192,20355,1,12,0:0:0:0:
256,192,20716,1,4,0:0:0:0:
256,192,20897,1,4,0:0:0:0:
256,192,21078,1,12,0:0:0:0:
256,192,21439,1,0,0:0:0:0:
256,192,21620,1,4,0:0:0:0:
256,192,21801,1,4,0:0:0:0:
256,192,21982,1,12,0:0:0:0:
256,192,22162,1,0,0:0:0:0:
256,192,22253,1,0,0:0:0:0:
256,192,22343,1,8,0:0:0:0:
256,192,22433,1,0,0:0:0:0:
256,192,22524,1,8,0:0:0:0:
256,192,22704,1,0,0:0:0:0:
256,192,22885,1,0,0:0:0:0:
256,192,23066,1,12,0:0:0:0:
256,192,23247,1,12,0:0:0:0:
256,192,23608,1,0,0:0:0:0:
256,192,23789,1,0,0:0:0:0:
256,192,23969,1,8,0:0:0:0:
256,192,24331,1,0,0:0:0:0:
256,192,24512,1,0,0:0:0:0:
256,192,24692,1,0,0:0:0:0:
256,192,24873,1,8,0:0:0:0:
256,192,25054,1,0,0:0:0:0:
256,192,25235,1,8,0:0:0:0:
256,192,25415,1,0,0:0:0:0:
256,192,25596,1,0,0:0:0:0:
256,192,25777,1,8,0:0:0:0:
256,192,25957,1,0,0:0:0:0:
256,192,26138,1,8,0:0:0:0:
256,192,26500,1,0,0:0:0:0:
256,192,26680,1,0,0:0:0:0:
256,192,26861,1,8,0:0:0:0:
256,192,27222,1,0,0:0:0:0:
256,192,27403,1,0,0:0:0:0:
256,192,27584,1,0,0:0:0:0:
256,192,27765,1,8,0:0:0:0:
256,192,27945,1,0,0:0:0:0:
256,192,28126,1,8,0:0:0:0:
256,192,28307,1,0,0:0:0:0:
256,192,28488,1,0,0:0:0:0:
256,192,28668,1,12,0:0:0:0:
256,192,28849,1,0,0:0:0:0:
256,192,28939,1,0,0:0:0:0:
256,192,29030,1,8,0:0:0:0:
256,192,29391,1,4,0:0:0:0:
256,192,29572,1,0,0:0:0:0:
256,192,29662,1,0,0:0:0:0:
256,192,29753,1,8,0:0:0:0:
256,192,29933,1,0,0:0:0:0:
256,192,30114,1,8,0:0:0:0:
256,192,30295,1,0,0:0:0:0:
256,192,30385,1,0,0:0:0:0:
256,192,30475,1,8,0:0:0:0:
256,192,30656,1,8,0:0:0:0:
256,192,30837,1,0,0:0:0:0:
256,192,31018,1,8,0:0:0:0:
256,192,31108,1,8,0:0:0:0:
256,192,31198,1,0,0:0:0:0:
256,192,31379,1,8,0:0:0:0:
256,192,31741,1,0,0:0:0:0:
256,192,31831,1,0,0:0:0:0:
256,192,31921,1,8,0:0:0:0:
256,192,32102,1,8,0:0:0:0:
256,192,32283,1,0,0:0:0:0:
256,192,32463,1,8,0:0:0:0:
256,192,32554,1,0,0:0:0:0:
256,192,32644,1,8,0:0:0:0:
256,192,32825,1,8,0:0:0:0:
256,192,33006,1,8,0:0:0:0:
256,192,33186,1,0,0:0:0:0:
256,192,33367,1,8,0:0:0:0:
256,192,33548,1,0,0:0:0:0:
256,192,33909,1,0,0:0:0:0:
256,192,34000,1,0,0:0:0:0:
256,192,34090,1,8,0:0:0:0:
256,192,34271,1,0,0:0:0:0:
256,192,34451,1,8,0:0:0:0:
256,192,34632,1,8,0:0:0:0:
256,192,34722,1,8,0:0:0:0:
256,192,34813,1,8,0:0:0:0:
256,192,34994,1,0,0:0:0:0:
256,192,35174,1,8,0:0:0:0:
256,192,35355,1,8,0:0:0:0:
256,192,35445,1,0,0:0:0:0:
256,192,35536,1,0,0:0:0:0:
256,192,35716,1,8,0:0:0:0:
256,192,36078,1,0,0:0:0:0:
256,192,36168,1,0,0:0:0:0:
256,192,36259,1,8,0:0:0:0:
256,192,36439,1,0,0:0:0:0:
256,192,36801,1,0,0:0:0:0:
256,192,36982,1,8,0:0:0:0:
256,192,37162,1,0,0:0:0:0:
256,192,37253,1,0,0:0:0:0:
256,192,37343,1,8,0:0:0:0:
256,192,37524,1,0,0:0:0:0:
256,192,37704,1,8,0:0:0:0:
256,192,37795,1,8,0:0:0:0:
256,192,37885,1,8,0:0:0:0:
256,192,38066,1,8,0:0:0:0:
256,192,38247,1,0,0:0:0:0:
256,192,38337,1,0,0:0:0:0:
256,192,38427,1,8,0:0:0:0:
256,192,38608,1,8,0:0:0:0:
256,192,38789,1,0,0:0:0:0:
256,192,38969,1,0,0:0:0:0:
256,192,39060,1,0,0:0:0:0:
256,192,39150,1,8,0:0:0:0:
256,192,39331,1,8,0:0:0:0:
256,192,39692,1,8,0:0:0:0:
256,192,39783,1,8,0:0:0:0:
256,192,39873,1,0,0:0:0:0:
256,192,40054,1,8,0:0:0:0:
256,192,40144,1,8,0:0:0:0:
256,192,40235,1,8,0:0:0:0:
256,192,40415,1,8,0:0:0:0:
256,192,40596,1,0,0:0:0:0:
256,192,40957,1,4,0:0:0:0:
256,192,41319,1,8,0:0:0:0:
256,192,41500,1,0,0:0:0:0:
256,192,41590,1,0,0:0:0:0:
256,192,41680,1,8,0:0:0:0:
256,192,41861,1,8,0:0:0:0:
256,192,42042,1,0,0:0:0:0:
256,192,42222,1,8,0:0:0:0:
256,192,42403,1,0,0:0:0:0:
256,192,42765,1,0,0:0:0:0:
256,192,42945,1,8,0:0:0:0:
256,192,43126,1,8,0:0:0:0:
256,192,43307,1,0,0:0:0:0:
256,192,43397,1,0,0:0:0:0:
256,192,43488,1,8,0:0:0:0:
256,192,43668,1,0,0:0:0:0:
256,192,44030,1,0,0:0:0:0:
256,192,44120,1,0,0:0:0:0:
256,192,44210,1,8,0:0:0:0:
256,192,44391,1,8,0:0:0:0:
256,192,44572,1,8,0:0:0:0:
256,192,44753,1,0,0:0:0:0:
256,192,44933,1,8,0:0:0:0:
256,192,45114,1,0,0:0:0:0:
256,192,45475,1,0,0:0:0:0:
256,192,45656,1,8,0:0:0:0:
256,192,45837,1,0,0:0:0:0:
256,192,46018,1,8,0:0:0:0:
256,192,46108,1,0,0:0:0:0:
256,192,46198,1,0,0:0:0:0:
256,192,46289,1,0,0:0:0:0:
256,192,46379,1,8,0:0:0:0:
256,192,46560,1,0,0:0:0:0:
256,192,46741,1,8,0:0:0:0:
256,192,46921,1,0,0:0:0:0:
256,192,47012,1,0,0:0:0:0:
256,192,47102,1,0,0:0:0:0:
256,192,47283,1,8,0:0:0:0:
256,192,47463,1,0,0:0:0:0:
256,192,47644,1,0,0:0:0:0:
256,192,47735,1,0,0:0:0:0:
256,192,47825,1,8,0:0:0:0:
256,192,48006,1,8,0:0:0:0:
256,192,48186,1,8,0:0:0:0:
256,192,48367,1,0,0:0:0:0:
256,192,48457,1,0,0:0:0:0:
256,192,48548,1,0,0:0:0:0:
256,192,48729,1,8,0:0:0:0:
256,192,48909,1,0,0:0:0:0:
256,192,49090,1,8,0:0:0:0:
256,192,49180,1,0,0:0:0:0:
256,192,49271,1,8,0:0:0:0:
256,192,49451,1,8,0:0:0:0:
256,192,49632,1,0,0:0:0:0:
256,192,49813,1,0,0:0:0:0:
256,192,49903,1,0,0:0:0:0:
256,192,49994,1,8,0:0:0:0:
256,192,50174,1,0,0:0:0:0:
256,192,50265,1,0,0:0:0:0:
256,192,50355,1,8,0:0:0:0:
256,192,50536,1,0,0:0:0:0:
256,192,50626,1,0,0:0:0:0:
256,192,50716,1,8,0:0:0:0:
256,192,50897,1,0,0:0:0:0:
256,192,50988,1,0,0:0:0:0:
256,192,51078,1,8,0:0:0:0:
256,192,51259,1,0,0:0:0:0:
256,192,51439,1,8,0:0:0:0:
256,192,51620,1,8,0:0:0:0:
256,192,51710,1,0,0:0:0:0:
256,192,51801,1,8,0:0:0:0:
256,192,51982,1,0,0:0:0:0:
256,192,52162,1,8,0:0:0:0:
256,192,52253,1,8,0:0:0:0:
256,192,52343,1,0,0:0:0:0:
256,192,52524,1,12,0:0:0:0:
256,192,52704,1,0,0:0:0:0:
256,192,52795,1,0,0:0:0:0:
256,192,52885,1,8,0:0:0:0:
256,192,53066,1,8,0:0:0:0:
256,192,53247,1,0,0:0:0:0:
256,192,53427,1,0,0:0:0:0:
256,192,53518,1,0,0:0:0:0:
256,192,53608,1,8,0:0:0:0:
256,192,53789,1,0,0:0:0:0:
256,192,53969,1,0,0:0:0:0:
256,192,54150,1,0,0:0:0:0:
256,192,54331,1,8,0:0:0:0:
256,192,54512,1,0,0:0:0:0:
256,192,54602,1,0,0:0:0:0:
256,192,54692,1,8,0:0:0:0:
256,192,54873,1,8,0:0:0:0:
256,192,55054,1,8,0:0:0:0:
256,192,55235,1,0,0:0:0:0:
256,192,55325,1,0,0:0:0:0:
256,192,55415,1,8,0:0:0:0:
256,192,55596,1,0,0:0:0:0:
256,192,55777,1,8,0:0:0:0:
256,192,55957,1,0,0:0:0:0:
256,192,56048,1,0,0:0:0:0:
256,192,56138,1,8,0:0:0:0:
256,192,56319,1,0,0:0:0:0:
256,192,56500,1,0,0:0:0:0:
256,192,56680,1,0,0:0:0:0:
256,192,56861,1,12,0:0:0:0:
256,192,57222,1,0,0:0:0:0:
256,192,57403,1,0,0:0:0:0:
256,192,57584,1,12,0:0:0:0:
256,192,57765,1,0,0:0:0:0:
256,192,58126,1,0,0:0:0:0:
256,192,58307,1,12,0:0:0:0:
256,192,58488,1,0,0:0:0:0:
256,192,58668,1,8,0:0:0:0:
256,192,58849,1,0,0:0:0:0:
256,192,58939,1,0,0:0:0:0:
256,192,59030,1,0,0:0:0:0:
256,192,59210,1,0,0:0:0:0:
256,192,59391,1,8,0:0:0:0:
256,192,59572,1,0,0:0:0:0:
256,192,59753,1,8,0:0:0:0:
256,192,59933,1,0,0:0:0:0:
256,192,60024,1,0,0:0:0:0:
256,192,60114,1,8,0:0:0:0:
256,192,60295,1,8,0:0:0:0:
256,192,60475,1,0,0:0:0:0:
256,192,60656,1,0,0:0:0:0:
256,192,60837,1,8,0:0:0:0:
256,192,61018,1,0,0:0:0:0:
256,192,61108,1,0,0:0:0:0:
256,192,61198,1,8,0:0:0:0:
256,192,61379,1,0,0:0:0:0:
256,192,61469,1,0,0:0:0:0:
256,192,61560,1,0,0:0:0:0:
256,192,61741,1,8,0:0:0:0:
256,192,61921,1,0,0:0:0:0:
256,192,62102,1,0,0:0:0:0:
256,192,62283,1,8,0:0:0:0:
256,192,62463,1,0,0:0:0:0:
256,192,62644,1,12,0:0:0:0:
256,192,62825,1,0,0:0:0:0:
256,192,62915,1,0,0:0:0:0:
256,192,63006,1,0,0:0:0:0:
256,192,63186,1,0,0:0:0:0:
256,192,63367,1,12,0:0:0:0:
256,192,63548,1,0,0:0:0:0:
256,192,63638,1,0,0:0:0:0:
256,192,63729,1,8,0:0:0:0:
256,192,63909,1,0,0:0:0:0:
256,192,64090,1,12,0:0:0:0:
256,192,64271,1,0,0:0:0:0:
256,192,64361,1,0,0:0:0:0:
256,192,64451,1,8,0:0:0:0:
256,192,64632,1,8,0:0:0:0:
256,192,64813,1,0,0:0:0:0:
256,192,64994,1,0,0:0:0:0:
256,192,65174,1,8,0:0:0:0:
256,192,65355,1,0,0:0:0:0:
256,192,65445,1,0,0:0:0:0:
256,192,65536,1,8,0:0:0:0:
256,192,65716,1,0,0:0:0:0:
256,192,65897,1,8,0:0:0:0:
256,192,66078,1,0,0:0:0:0:
256,192,66259,1,8,0:0:0:0:
256,192,66439,1,0,0:0:0:0:
256,192,66530,1,0,0:0:0:0:
256,192,66620,1,8,0:0:0:0:
256,192,66710,1,0,0:0:0:0:
256,192,66801,1,8,0:0:0:0:
256,192,66982,1,0,0:0:0:0:
256,192,67162,1,0,0:0:0:0:
256,192,67343,1,8,0:0:0:0:
256,192,67524,1,0,0:0:0:0:
256,192,67614,1,0,0:0:0:0:
256,192,67704,1,0,0:0:0:0:
256,192,67885,1,0,0:0:0:0:
256,192,68066,1,8,0:0:0:0:
256,192,68247,1,0,0:0:0:0:
256,192,68427,1,12,0:0:0:0:
256,192,68608,1,0,0:0:0:0:
256,192,68698,1,0,0:0:0:0:
256,192,68789,1,0,0:0:0:0:
256,192,68969,1,0,0:0:0:0:
256,192,69150,1,12,0:0:0:0:
256,192,69331,1,0,0:0:0:0:
256,192,69421,1,0,0:0:0:0:
256,192,69512,1,8,0:0:0:0:
256,192,69692,1,0,0:0:0:0:
256,192,69873,1,12,0:0:0:0:
256,192,70054,1,0,0:0:0:0:
256,192,70144,1,0,0:0:0:0:
256,192,70235,1,8,0:0:0:0:
256,192,70415,1,0,0:0:0:0:
256,192,70596,1,8,0:0:0:0:
256,192,70777,1,0,0:0:0:0:
256,192,70867,1,0,0:0:0:0:
256,192,70957,1,8,0:0:0:0:
256,192,71048,1,8,0:0:0:0:
256,192,71138,1,0,0:0:0:0:
256,192,71319,1,0,0:0:0:0:
256,192,71500,1,0,0:0:0:0:
256,192,71680,1,8,0:0:0:0:
256,192,71771,1,8,0:0:0:0:
256,192,71861,1,0,0:0:0:0:
256,192,71951,1,0,0:0:0:0:
256,192,72042,1,8,0:0:0:0:
256,192,72222,1,0,0:0:0:0:
256,192,72313,1,0,0:0:0:0:
256,192,72403,1,8,0:0:0:0:
256,192,72584,1,0,0:0:0:0:
256,192,72765,1,0,0:0:0:0:
256,192,72945,1,8,0:0:0:0:
256,192,73036,1,8,0:0:0:0:
256,192,73126,1,0,0:0:0:0:
256,192,73307,1,0,0:0:0:0:
256,192,73488,1,8,0:0:0:0:
256,192,73668,1,0,0:0:0:0:
256,192,73849,1,8,0:0:0:0:
256,192,74030,1,8,0:0:0:0:
256,192,74210,1,8,0:0:0:0:
256,192,74391,1,0,0:0:0:0:
256,192,74482,1,0,0:0:0:0:
256,192,74572,1,8,0:0:0:0:
256,192,74753,1,0,0:0:0:0:
256,192,74933,1,8,0:0:0:0:
256,192,75114,1,0,0:0:0:0:
256,192,75204,1,0,0:0:0:0:
256,192,75295,1,8,0:0:0:0:
256,192,75475,1,0,0:0:0:0:
256,192,75656,1,12,0:0:0:0:
256,192,75837,1,0,0:0:0:0:
256,192,76018,1,8,0:0:0:0:
256,192,76198,1,0,0:0:0:0:
256,192,76289,1,0,0:0:0:0:
256,192,76379,1,0,0:0:0:0:
256,192,76560,1,0,0:0:0:0:
256,192,76741,1,8,0:0:0:0:
256,192,76921,1,8,0:0:0:0:
256,192,77012,1,0,0:0:0:0:
256,192,77102,1,0,0:0:0:0:
256,192,77283,1,0,0:0:0:0:
256,192,77463,1,8,0:0:0:0:
256,192,77644,1,0,0:0:0:0:
256,192,77735,1,0,0:0:0:0:
256,192,77825,1,8,0:0:0:0:
256,192,78006,1,0,0:0:0:0:
256,192,78186,1,12,0:0:0:0:
256,192,78548,1,0,0:0:0:0:
256,192,78729,1,0,0:0:0:0:
256,192,78909,1,8,0:0:0:0:
256,192,79090,1,0,0:0:0:0:
256,192,79271,1,0,0:0:0:0:
256,192,79451,1,0,0:0:0:0:
256,192,79542,1,0,0:0:0:0:
256,192,79632,1,8,0:0:0:0:
256,192,79813,1,0,0:0:0:0:
256,192,79994,1,12,0:0:0:0:
256,192,80174,1,0,0:0:0:0:
256,192,80265,1,0,0:0:0:0:
256,192,80355,1,0,0:0:0:0:
256,192,80536,1,0,0:0:0:0:
256,192,80716,1,12,0:0:0:0:
256,192,80897,1,0,0:0:0:0:
256,192,80988,1,0,0:0:0:0:
256,192,81078,1,8,0:0:0:0:
256,192,81259,1,0,0:0:0:0:
256,192,81439,1,12,0:0:0:0:
256,192,81620,1,0,0:0:0:0:
256,192,81801,1,8,0:0:0:0:
256,192,81982,1,0,0:0:0:0:
256,192,82072,1,0,0:0:0:0:
256,192,82162,1,0,0:0:0:0:
256,192,82343,1,0,0:0:0:0:
256,192,82524,1,8,0:0:0:0:
256,192,82704,1,0,0:0:0:0:
256,192,82885,1,8,0:0:0:0:
256,192,83066,1,0,0:0:0:0:
256,192,83156,1,0,0:0:0:0:
256,192,83247,1,8,0:0:0:0:
256,192,83427,1,8,0:0:0:0:
256,192,83608,1,0,0:0:0:0:
256,192,83789,1,0,0:0:0:0:
256,192,83969,1,8,0:0:0:0:
256,192,84150,1,0,0:0:0:0:
256,192,84241,1,0,0:0:0:0:
256,192,84331,1,8,0:0:0:0:
256,192,84512,1,0,0:0:0:0:
256,192,84602,1,0,0:0:0:0:
256,192,84692,1,0,0:0:0:0:
256,192,84873,1,8,0:0:0:0:
256,192,85054,1,0,0:0:0:0:
256,192,85235,1,0,0:0:0:0:
256,192,85415,1,8,0:0:0:0:
256,192,85596,1,0,0:0:0:0:
256,192,85777,1,12,0:0:0:0:
256,192,85957,1,0,0:0:0:0:
256,192,86048,1,0,0:0:0:0:
256,192,86138,1,0,0:0:0:0:
256,192,86319,1,0,0:0:0:0:
256,192,86500,1,12,0:0:0:0:
256,192,86680,1,0,0:0:0:0:
256,192,86771,1,0,0:0:0:0:
256,192,86861,1,8,0:0:0:0:
256,192,87042,1,0,0:0:0:0:
256,192,87222,1,12,0:0:0:0:
256,192,87403,1,0,0:0:0:0:
256,192,87494,1,0,0:0:0:0:
256,192,87584,1,8,0:0:0:0:
256,192,87765,1,8,0:0:0:0:
256,192,87945,1,0,0:0:0:0:
256,192,88126,1,0,0:0:0:0:
256,192,88307,1,8,0:0:0:0:
256,192,88488,1,0,0:0:0:0:
256,192,88578,1,0,0:0:0:0:
256,192,88668,1,8,0:0:0:0:
256,192,88849,1,0,0:0:0:0:
256,192,89030,1,8,0:0:0:0:
256,192,89210,1,0,0:0:0:0:
256,192,89391,1,8,0:0:0:0:
256,192,89572,1,0,0:0:0:0:
256,192,89662,1,0,0:0:0:0:
256,192,89753,1,8,0:0:0:0:
256,192,89843,1,0,0:0:0:0:
256,192,89933,1,8,0:0:0:0:
256,192,90114,1,0,0:0:0:0:
256,192,90295,1,0,0:0:0:0:
256,192,90475,1,8,0:0:0:0:
256,192,90656,1,0,0:0:0:0:
256,192,90747,1,0,0:0:0:0:
256,192,90837,1,0,0:0:0:0:
256,192,91018,1,0,0:0:0:0:
256,192,91198,1,8,0:0:0:0:
256,192,91379,1,0,0:0:0:0:
256,192,91560,1,12,0:0:0:0:
256,192,91741,1,0,0:0:0:0:
256,192,91831,1,0,0:0:0:0:
256,192,91921,1,0,0:0:0:0:
256,192,92102,1,0,0:0:0:0:
256,192,92283,1,12,0:0:0:0:
256,192,92463,1,0,0:0:0:0:
256,192,92554,1,0,0:0:0:0:
256,192,92644,1,8,0:0:0:0:
256,192,92825,1,0,0:0:0:0:
256,192,93006,1,12,0:0:0:0:
256,192,93186,1,0,0:0:0:0:
256,192,93277,1,0,0:0:0:0:
256,192,93367,1,8,0:0:0:0:
256,192,93548,1,0,0:0:0:0:
256,192,93729,1,8,0:0:0:0:
256,192,93909,1,0,0:0:0:0:
256,192,94000,1,0,0:0:0:0:
256,192,94090,1,8,0:0:0:0:
256,192,94180,1,8,0:0:0:0:
256,192,94271,1,0,0:0:0:0:
256,192,94451,1,0,0:0:0:0:
256,192,94632,1,0,0:0:0:0:
256,192,94813,1,8,0:0:0:0:
256,192,94903,1,8,0:0:0:0:
256,192,94994,1,0,0:0:0:0:
256,192,95084,1,0,0:0:0:0:
256,192,95174,1,8,0:0:0:0:
256,192,95355,1,0,0:0:0:0:
256,192,95536,1,12,0:0:0:0:
256,192,95716,1,0,0:0:0:0:
256,192,95897,1,0,0:0:0:0:
256,192,96078,1,8,0:0:0:0:
256,192,96168,1,8,0:0:0:0:
256,192,96259,1,0,0:0:0:0:
256,192,96439,1,0,0:0:0:0:
256,192,96620,1,8,0:0:0:0:
256,192,96801,1,0,0:0:0:0:
256,192,96982,1,8,0:0:0:0:
256,192,97162,1,8,0:0:0:0:
256,192,97343,1,8,0:0:0:0:
256,192,97524,1,0,0:0:0:0:
256,192,97614,1,0,0:0:0:0:
256,192,97704,1,8,0:0:0:0:
256,192,97885,1,0,0:0:0:0:
256,192,98066,1,8,0:0:0:0:
256,192,98247,1,0,0:0:0:0:
256,192,98337,1,0,0:0:0:0:
256,192,98427,1,8,0:0:0:0:
256,192,98608,1,0,0:0:0:0:
256,192,98789,1,12,0:0:0:0:
256,192,98969,1,0,0:0:0:0:
256,192,99150,1,8,0:0:0:0:
256,192,99331,1,0,0:0:0:0:
256,192,99421,1,0,0:0:0:0:
256,192,99512,1,0,0:0:0:0:
256,192,99692,1,0,0:0:0:0:
256,192,99873,1,8,0:0:0:0:
256,192,100054,1,8,0:0:0:0:
256,192,100144,1,0,0:0:0:0:
256,192,100235,1,0,0:0:0:0:
256,192,100415,1,0,0:0:0:0:
256,192,100596,1,8,0:0:0:0:
256,192,100777,1,0,0:0:0:0:
256,192,100867,1,0,0:0:0:0:
256,192,100957,1,8,0:0:0:0:
256,192,101138,1,0,0:0:0:0:
256,192,101319,1,12,0:0:0:0:
256,192,101680,1,0,0:0:0:0:
256,192,101861,1,0,0:0:0:0:
256,192,102042,1,8,0:0:0:0:
256,192,102222,1,0,0:0:0:0:
256,192,102403,1,0,0:0:0:0:
256,192,102584,1,0,0:0:0:0:
256,192,102674,1,0,0:0:0:0:
256,192,102765,1,8,0:0:0:0:
256,192,102945,1,0,0:0:0:0:
256,192,103126,1,8,0:0:0:0:
256,192,103307,1,0,0:0:0:0:
256,192,103397,1,0,0:0:0:0:
256,192,103488,1,8,0:0:0:0:
256,192,103668,1,0,0:0:0:0:
256,192,103849,1,0,0:0:0:0:
256,192,104030,1,8,0:0:0:0:
256,192,104120,1,0,0:0:0:0:
256,192,104210,1,0,0:0:0:0:
256,192,104391,1,8,0:0:0:0:
256,192,104572,1,0,0:0:0:0:
256,192,104753,1,0,0:0:0:0:
256,192,104933,1,8,0:0:0:0:
256,192,105114,1,0,0:0:0:0:
256,192,105204,1,0,0:0:0:0:
256,192,105295,1,8,0:0:0:0:
256,192,105475,1,0,0:0:0:0:
256,192,105656,1,0,0:0:0:0:
256,192,105837,1,8,0:0:0:0:
256,192,106018,1,0,0:0:0:0:
256,192,106108,1,0,0:0:0:0:
256,192,106198,1,0,0:0:0:0:
256,192,106560,1,8,0:0:0:0:
256,192,106741,1,0,0:0:0:0:
256,192,106921,1,8,0:0:0:0:
256,192,107102,1,8,0:0:0:0:
256,192,107192,1,8,0:0:0:0:
256,192,107283,1,0,0:0:0:0:
256,192,107463,1,0,0:0:0:0:
256,192,107644,1,0,0:0:0:0:
256,192,107825,1,8,0:0:0:0:
256,192,108006,1,0,0:0:0:0:
256,192,108186,1,8,0:0:0:0:
256,192,108367,1,0,0:0:0:0:
256,192,108548,1,0,0:0:0:0:
256,192,108729,1,8,0:0:0:0:
256,192,108909,1,0,0:0:0:0:
256,192,109090,1,0,0:0:0:0:
256,192,109271,1,0,0:0:0:0:
256,192,109451,1,8,0:0:0:0:
256,192,109632,1,0,0:0:0:0:
256,192,109813,1,8,0:0:0:0:
256,192,109903,1,0,0:0:0:0:
256,192,109994,1,8,0:0:0:0:
256,192,110084,1,0,0:0:0:0:
256,192,110174,1,0,0:0:0:0:
256,192,110265,1,8,0:0:0:0:
256,192,110355,1,0,0:0:0:0:
256,192,110536,1,0,0:0:0:0:
256,192,110716,1,8,0:0:0:0:
256,192,110897,1,0,0:0:0:0:
256,192,110988,1,0,0:0:0:0:
256,192,111078,1,8,0:0:0:0:
256,192,111259,1,8,0:0:0:0:
256,192,111349,1,0,0:0:0:0:
256,192,111439,1,8,0:0:0:0:
256,192,111530,1,0,0:0:0:0:
256,192,111620,1,8,0:0:0:0:
256,192,111801,1,0,0:0:0:0:
256,192,111891,1,0,0:0:0:0:
256,192,111982,1,0,0:0:0:0:
256,192,112162,1,0,0:0:0:0:
256,192,112253,1,0,0:0:0:0:
256,192,112343,1,8,0:0:0:0:
256,192,112524,1,0,0:0:0:0:
256,192,112614,1,0,0:0:0:0:
256,192,112704,1,8,0:0:0:0:
256,192,112795,1,8,0:0:0:0:
256,192,112885,1,0,0:0:0:0:
256,192,113066,1,8,0:0:0:0:
256,192,113247,1,0,0:0:0:0:
256,192,113427,1,0,0:0:0:0:
256,192,113608,1,8,0:0:0:0:
256,192,113789,1,0,0:0:0:0:
256,192,113969,1,8,0:0:0:0:
256,192,114060,1,8,0:0:0:0:
256,192,114150,1,0,0:0:0:0:
256,192,114241,1,0,0:0:0:0:
256,192,114331,1,0,0:0:0:0:
256,192,114512,1,8,0:0:0:0:
256,192,114692,1,0,0:0:0:0:
256,192,114873,1,8,0:0:0:0:
256,192,115054,1,0,0:0:0:0:
256,192,115235,1,0,0:0:0:0:
256,192,115415,1,0,0:0:0:0:
256,192,115596,1,8,0:0:0:0:
256,192,115686,1,0,0:0:0:0:
256,192,115777,1,8,0:0:0:0:
256,192,115867,1,0,0:0:0:0:
256,192,115957,1,8,0:0:0:0:
256,192,116048,1,8,0:0:0:0:
256,192,116138,1,4,0:0:0:0:
256,192,116319,1,0,0:0:0:0:
256,192,116500,1,8,0:0:0:0:
256,192,116680,1,0,0:0:0:0:
256,192,116771,1,0,0:0:0:0:
256,192,116861,1,8,0:0:0:0:
256,192,117042,1,0,0:0:0:0:
256,192,117222,1,0,0:0:0:0:
256,192,117403,1,8,0:0:0:0:
256,192,117765,1,0,0:0:0:0:
256,192,117855,1,0,0:0:0:0:
256,192,117945,1,0,0:0:0:0:
256,192,118126,1,8,0:0:0:0:
256,192,118307,1,0,0:0:0:0:
256,192,118488,1,8,0:0:0:0:
256,192,118578,1,0,0:0:0:0:
256,192,118668,1,8,0:0:0:0:
256,192,118759,1,8,0:0:0:0:
256,192,118849,1,0,0:0:0:0:
256,192,118939,1,0,0:0:0:0:
256,192,119030,1,8,0:0:0:0:
256,192,119210,1,0,0:0:0:0:
256,192,119391,1,8,0:0:0:0:
256,192,119482,1,8,0:0:0:0:
256,192,119572,1,0,0:0:0:0:
256,192,119662,1,0,0:0:0:0:
256,192,119753,1,8,0:0:0:0:
256,192,119933,1,8,0:0:0:0:
256,192,120024,1,0,0:0:0:0:
256,192,120114,1,8,0:0:0:0:
256,192,120204,1,0,0:0:0:0:
256,192,120295,1,8,0:0:0:0:
256,192,120385,1,8,0:0:0:0:
256,192,120475,1,0,0:0:0:0:
256,192,120656,1,0,0:0:0:0:
256,192,120837,1,8,0:0:0:0:
256,192,121018,1,0,0:0:0:0:
256,192,121198,1,8,0:0:0:0:
256,192,121379,1,8,0:0:0:0:
256,192,121469,1,0,0:0:0:0:
256,192,121560,1,8,0:0:0:0:
256,192,121650,1,0,0:0:0:0:
256,192,121741,1,8,0:0:0:0:
256,192,121831,1,8,0:0:0:0:
256,192,121921,1,0,0:0:0:0:
256,192,122102,1,0,0:0:0:0:
256,192,122283,1,8,0:0:0:0:
256,192,122463,1,8,0:0:0:0:
256,192,122554,1,0,0:0:0:0:
256,192,122644,1,0,0:0:0:0:
256,192,122825,1,0,0:0:0:0:
256,192,123006,1,0,0:0:0:0:
256,192,123186,1,8,0:0:0:0:
256,192,123277,1,0,0:0:0:0:
256,192,123367,1,0,0:0:0:0:
256,192,123548,1,8,0:0:0:0:
256,192,123909,1,8,0:0:0:0:
256,192,124000,1,8,0:0:0:0:
256,192,124090,1,0,0:0:0:0:
256,192,124271,1,8,0:0:0:0:
256,192,124451,1,8,0:0:0:0:
256,192,124632,1,8,0:0:0:0:
256,192,124813,1,0,0:0:0:0:
256,192,124994,1,0,0:0:0:0:
256,192,125174,1,8,0:0:0:0:
256,192,125536,1,0,0:0:0:0:
256,192,125716,1,0,0:0:0:0:
256,192,125897,1,0,0:0:0:0:
256,192,126078,1,8,0:0:0:0:
256,192,126439,1,0,0:0:0:0:
256,192,126982,1,0,0:0:0:0:
256,192,127162,1,8,0:0:0:0:
256,192,127343,1,0,0:0:0:0:
256,192,127524,1,8,0:0:0:0:
256,192,127704,1,4,0:0:0:0:
256,192,127885,1,0,0:0:0:0:
256,192,128066,1,8,0:0:0:0:
256,192,128427,1,0,0:0:0:0:
256,192,128608,1,8,0:0:0:0:
256,192,128698,1,0,0:0:0:0:
256,192,128789,1,8,0:0:0:0:
256,192,128879,1,0,0:0:0:0:
256,192,128969,1,8,0:0:0:0:
256,192,129150,1,0,0:0:0:0:
256,192,129331,1,8,0:0:0:0:
256,192,129421,1,8,0:0:0:0:
256,192,129512,1,0,0:0:0:0:
256,192,129692,1,8,0:0:0:0:
256,192,129873,1,0,0:0:0:0:
256,192,130054,1,8,0:0:0:0:
256,192,130235,1,8,0:0:0:0:
256,192,130415,1,0,0:0:0:0:
256,192,130596,1,0,0:0:0:0:
256,192,130686,1,0,0:0:0:0:
256,192,130777,1,0,0:0:0:0:
256,192,130867,1,0,0:0:0:0:
256,192,130957,1,8,0:0:0:0:
256,192,131048,1,8,0:0:0:0:
256,192,131138,1,0,0:0:0:0:
256,192,131319,1,8,0:0:0:0:
256,192,131500,1,8,0:0:0:0:
256,192,131680,1,8,0:0:0:0:
256,192,131861,1,0,0:0:0:0:
256,192,132042,1,8,0:0:0:0:
256,192,132132,1,8,0:0:0:0:
256,192,132222,1,8,0:0:0:0:
256,192,132313,1,8,0:0:0:0:
256,192,132403,1,8,0:0:0:0:
256,192,132494,1,8,0:0:0:0:
256,192,132584,1,8,0:0:0:0:
256,192,132765,1,0,0:0:0:0:
256,192,132945,1,0,0:0:0:0:
256,192,133036,1,0,0:0:0:0:
256,192,133126,1,8,0:0:0:0:
256,192,133307,1,0,0:0:0:0:
256,192,133488,1,0,0:0:0:0:
256,192,133578,1,0,0:0:0:0:
256,192,133668,1,0,0:0:0:0:
256,192,133759,1,0,0:0:0:0:
256,192,133849,1,8,0:0:0:0:
256,192,133939,1,0,0:0:0:0:
256,192,134030,1,8,0:0:0:0:
256,192,134210,1,0,0:0:0:0:
256,192,134391,1,8,0:0:0:0:
256,192,134572,1,0,0:0:0:0:
256,192,134753,1,8,0:0:0:0:
256,192,134933,1,0,0:0:0:0:
256,192,135114,1,0,0:0:0:0:
256,192,135295,1,8,0:0:0:0:
256,192,135475,1,8,0:0:0:0:
256,192,135837,1,0,0:0:0:0:
256,192,136018,1,8,0:0:0:0:
256,192,136198,1,0,0:0:0:0:
256,192,136379,1,0,0:0:0:0:
256,192,136469,1,0,0:0:0:0:
256,192,136560,1,0,0:0:0:0:
256,192,136650,1,0,0:0:0:0:
256,192,136741,1,0,0:0:0:0:
256,192,136831,1,0,0:0:0:0:
256,192,136921,1,0,0:0:0:0:
256,192,137102,1,8,0:0:0:0:
256,192,137283,1,8,0:0:0:0:
256,192,137373,1,8,0:0:0:0:
256,192,137463,1,8,0:0:0:0:
256,192,137644,1,0,0:0:0:0:
256,192,137825,1,4,0:0:0:0:
256,192,138006,1,0,0:0:0:0:
256,192,138096,1,0,0:0:0:0:
256,192,138186,1,0,0:0:0:0:
256,192,138277,1,0,0:0:0:0:
256,192,138367,1,0,0:0:0:0:
256,192,138729,1,0,0:0:0:0:
256,192,138909,1,8,0:0:0:0:
256,192,139000,1,8,0:0:0:0:
256,192,139090,1,8,0:0:0:0:
256,192,139271,1,0,0:0:0:0:
256,192,139451,1,0,0:0:0:0:
256,192,139542,1,0,0:0:0:0:
256,192,139632,1,8,0:0:0:0:
256,192,139813,1,0,0:0:0:0:
256,192,139994,1,8,0:0:0:0:
256,192,140174,1,0,0:0:0:0:
256,192,140265,1,0,0:0:0:0:
256,192,140355,1,0,0:0:0:0:
256,192,140536,1,8,0:0:0:0:
256,192,140716,1,8,0:0:0:0:
256,192,140807,1,8,0:0:0:0:
256,192,140897,1,8,0:0:0:0:
256,192,140988,1,8,0:0:0:0:
256,192,141078,1,8,0:0:0:0:
256,192,141168,1,8,0:0:0:0:
256,192,141259,1,8,0:0:0:0:
256,192,141439,1,0,0:0:0:0:
256,192,141620,1,8,0:0:0:0:
256,192,141801,1,0,0:0:0:0:
256,192,141982,1,8,0:0:0:0:
256,192,142162,1,0,0:0:0:0:
256,192,142253,1,0,0:0:0:0:
256,192,142343,1,0,0:0:0:0:
256,192,142433,1,0,0:0:0:0:
256,192,142524,1,8,0:0:0:0:
256,192,142614,1,8,0:0:0:0:
256,192,142704,1,0,0:0:0:0:
256,192,142885,1,0,0:0:0:0:
256,192,143066,1,8,0:0:0:0:
256,192,143156,1,8,0:0:0:0:
256,192,143247,1,0,0:0:0:0:
256,192,143427,1,0,0:0:0:0:
256,192,143608,1,0,0:0:0:0:
256,192,143698,1,0,0:0:0:0:
256,192,143789,1,0,0:0:0:0:
256,192,143879,1,0,0:0:0:0:
256,192,143969,1,0,0:0:0:0:
256,192,144060,1,0,0:0:0:0:
256,192,144150,1,0,0:0:0:0:
256,192,144331,1,8,0:0:0:0:
256,192,144512,1,8,0:0:0:0:
256,192,144602,1,0,0:0:0:0:
256,192,144692,1,8,0:0:0:0:
256,192,144873,1,0,0:0:0:0:
256,192,145054,1,0,0:0:0:0:
256,192,145144,1,0,0:0:0:0:
256,192,145235,1,0,0:0:0:0:
256,192,145325,1,0,0:0:0:0:
256,192,145415,1,8,0:0:0:0:
256,192,145506,1,0,0:0:0:0:
256,192,145596,1,8,0:0:0:0:
256,192,145777,1,0,0:0:0:0:
256,192,145957,1,8,0:0:0:0:
256,192,146048,1,8,0:0:0:0:
256,192,146138,1,0,0:0:0:0:
256,192,146319,1,8,0:0:0:0:
256,192,146500,1,0,0:0:0:0:
256,192,146680,1,8,0:0:0:0:
256,192,146861,1,8,0:0:0:0:
256,192,147042,1,0,0:0:0:0:
256,192,147222,1,8,0:0:0:0:
256,192,147313,1,0,0:0:0:0:
256,192,147403,1,8,0:0:0:0:
256,192,147584,1,8,0:0:0:0:
256,192,147765,1,0,0:0:0:0:
256,192,147945,1,12,0:0:0:0:
256,192,148126,1,8,0:0:0:0:
256,192,148488,1,8,0:0:0:0:
256,192,148849,1,0,0:0:0:0:
256,192,149030,1,8,0:0:0:0:
256,192,149210,1,8,0:0:0:0:
256,192,149391,1,0,0:0:0:0:
256,192,150114,1,8,0:0:0:0:
256,192,150837,1,0,0:0:0:0:
256,192,151198,1,0,0:0:0:0:
256,192,151379,1,0,0:0:0:0:
256,192,151560,1,8,0:0:0:0:
256,192,151921,1,8,0:0:0:0:
256,192,152283,1,8,0:0:0:0:
256,192,152644,1,0,0:0:0:0:
256,192,153006,1,0,0:0:0:0:
256,192,153367,1,8,0:0:0:0:
256,192,153729,1,0,0:0:0:0:
256,192,154271,1,0,0:0:0:0:
256,192,154451,1,8,0:0:0:0:
256,192,154813,1,0,0:0:0:0:
256,192,155174,1,0,0:0:0:0:
256,192,155897,1,8,0:0:0:0:
256,192,156620,1,0,0:0:0:0:
256,192,156982,1,0,0:0:0:0:
256,192,157162,1,0,0:0:0:0:
256,192,157343,1,8,0:0:0:0:
256,192,157704,1,8,0:0:0:0:
256,192,158066,1,8,0:0:0:0:
256,192,158427,1,0,0:0:0:0:
256,192,158789,1,0,0:0:0:0:
256,192,159150,1,8,0:0:0:0:
256,192,159512,1,8,0:0:0:0:
256,192,160054,1,0,0:0:0:0:
256,192,160235,1,8,0:0:0:0:
256,192,160415,1,0,0:0:0:0:
256,192,160596,1,0,0:0:0:0:
256,192,160957,1,0,0:0:0:0:
256,192,161680,1,8,0:0:0:0:
256,192,162403,1,8,0:0:0:0:
256,192,162765,1,8,0:0:0:0:
256,192,162855,1,0,0:0:0:0:
256,192,162945,1,0,0:0:0:0:
256,192,163126,1,8,0:0:0:0:
256,192,163488,1,8,0:0:0:0:
256,192,163849,1,0,0:0:0:0:
256,192,164030,1,0,0:0:0:0:
256,192,164210,1,8,0:0:0:0:
256,192,164572,1,8,0:0:0:0:
256,192,164753,1,0,0:0:0:0:
256,192,164933,1,8,0:0:0:0:
256,192,165475,1,0,0:0:0:0:
256,192,165656,1,8,0:0:0:0:
256,192,166018,1,8,0:0:0:0:
256,192,166198,1,0,0:0:0:0:
256,192,166379,1,8,0:0:0:0:
256,192,166560,1,8,0:0:0:0:
256,192,166741,1,0,0:0:0:0:
256,192,167463,1,0,0:0:0:0:
256,192,168186,1,8,0:0:0:0:
256,192,168548,1,8,0:0:0:0:
256,192,168638,1,0,0:0:0:0:
256,192,168729,1,0,0:0:0:0:
256,192,168909,1,8,0:0:0:0:
256,192,169271,1,8,0:0:0:0:
256,192,169451,1,0,0:0:0:0:
256,192,169813,1,0,0:0:0:0:
256,192,169994,1,8,0:0:0:0:
256,192,170174,1,0,0:0:0:0:
256,192,170355,1,8,0:0:0:0:
256,192,170716,1,8,0:0:0:0:
256,192,171078,1,0,0:0:0:0:
256,192,171439,1,0,0:0:0:0:
256,192,171620,1,0,0:0:0:0:
256,192,171801,1,8,0:0:0:0:
256,192,171982,1,8,0:0:0:0:
256,192,172162,1,8,0:0:0:0:
256,192,172343,1,8,0:0:0:0:
256,192,172524,1,12,0:0:0:0:
256,192,173066,1,0,0:0:0:0:
256,192,173247,1,12,0:0:0:0:
256,192,173427,1,0,0:0:0:0:
256,192,173789,1,0,0:0:0:0:
256,192,173969,1,12,0:0:0:0:
256,192,174150,1,0,0:0:0:0:
256,192,174331,1,8,0:0:0:0:
256,192,174512,1,0,0:0:0:0:
256,192,174602,1,0,0:0:0:0:
256,192,174692,1,0,0:0:0:0:
256,192,174873,1,0,0:0:0:0:
256,192,175054,1,8,0:0:0:0:
256,192,175235,1,0,0:0:0:0:
256,192,175415,1,8,0:0:0:0:
256,192,175596,1,0,0:0:0:0:
256,192,175686,1,0,0:0:0:0:
256,192,175777,1,8,0:0:0:0:
256,192,175957,1,8,0:0:0:0:
256,192,176138,1,0,0:0:0:0:
256,192,176319,1,0,0:0:0:0:
256,192,176500,1,8,0:0:0:0:
256,192,176680,1,0,0:0:0:0:
256,192,176771,1,0,0:0:0:0:
256,192,176861,1,8,0:0:0:0:
256,192,177042,1,0,0:0:0:0:
256,192,177132,1,0,0:0:0:0:
256,192,177222,1,0,0:0:0:0:
256,192,177403,1,8,0:0:0:0:
256,192,177584,1,0,0:0:0:0:
256,192,177765,1,0,0:0:0:0:
256,192,177945,1,8,0:0:0:0:
256,192,178126,1,0,0:0:0:0:
256,192,178307,1,12,0:0:0:0:
256,192,178488,1,0,0:0:0:0:
256,192,178578,1,0,0:0:0:0:
256,192,178668,1,0,0:0:0:0:
256,192,178849,1,0,0:0:0:0:
256,192,179030,1,12,0:0:0:0:
256,192,179210,1,0,0:0:0:0:
256,192,179301,1,0,0:0:0:0:
256,192,179391,1,8,0:0:0:0:
256,192,179572,1,0,0:0:0:0:
256,192,179753,1,12,0:0:0:0:
256,192,179933,1,0,0:0:0:0:
256,192,180024,1,0,0:0:0:0:
256,192,180114,1,8,0:0:0:0:
256,192,180295,1,8,0:0:0:0:
256,192,180475,1,0,0:0:0:0:
256,192,180656,1,0,0:0:0:0:
256,192,180837,1,8,0:0:0:0:
256,192,181018,1,0,0:0:0:0:
256,192,181108,1,0,0:0:0:0:
256,192,181198,1,8,0:0:0:0:
256,192,181379,1,0,0:0:0:0:
256,192,181560,1,8,0:0:0:0:
256,192,181741,1,0,0:0:0:0:
256,192,181921,1,8,0:0:0:0:
256,192,182102,1,0,0:0:0:0:
256,192,182192,1,0,0:0:0:0:
256,192,182283,1,8,0:0:0:0:
256,192,182373,1,0,0:0:0:0:
256,192,182463,1,8,0:0:0:0:
256,192,182644,1,0,0:0:0:0:
256,192,182825,1,0,0:0:0:0:
256,192,183006,1,8,0:0:0:0:
256,192,183186,1,0,0:0:0:0:
256,192,183277,1,0,0:0:0:0:
256,192,183367,1,0,0:0:0:0:
256,192,183548,1,0,0:0:0:0:
256,192,183729,1,8,0:0:0:0:
256,192,183909,1,0,0:0:0:0:
256,192,184090,1,12,0:0:0:0:
256,192,184271,1,0,0:0:0:0:
256,192,184361,1,0,0:0:0:0:
256,192,184451,1,0,0:0:0:0:
256,192,184632,1,0,0:0:0:0:
256,192,184813,1,12,0:0:0:0:
256,192,184994,1,0,0:0:0:0:
256,192,185084,1,0,0:0:0:0:
256,192,185174,1,8,0:0:0:0:
256,192,185355,1,0,0:0:0:0:
256,192,185536,1,12,0:0:0:0:
256,192,185716,1,0,0:0:0:0:
256,192,185807,1,0,0:0:0:0:
256,192,185897,1,8,0:0:0:0:
256,192,186078,1,0,0:0:0:0:
256,192,186259,1,8,0:0:0:0:
256,192,186439,1,0,0:0:0:0:
256,192,186530,1,0,0:0:0:0:
256,192,186620,1,8,0:0:0:0:
256,192,186710,1,8,0:0:0:0:
256,192,186801,1,0,0:0:0:0:
256,192,186982,1,0,0:0:0:0:
256,192,187162,1,0,0:0:0:0:
256,192,187343,1,8,0:0:0:0:
256,192,187433,1,8,0:0:0:0:
256,192,187524,1,0,0:0:0:0:
256,192,187614,1,0,0:0:0:0:
256,192,187704,1,8,0:0:0:0:
256,192,187885,1,0,0:0:0:0:
256,192,187975,1,0,0:0:0:0:
256,192,188066,1,8,0:0:0:0:
256,192,188247,1,0,0:0:0:0:
256,192,188427,1,0,0:0:0:0:
256,192,188608,1,8,0:0:0:0:
256,192,188698,1,8,0:0:0:0:
256,192,188789,1,0,0:0:0:0:
256,192,188969,1,0,0:0:0:0:
256,192,189150,1,8,0:0:0:0:
256,192,189331,1,0,0:0:0:0:
256,192,189512,1,8,0:0:0:0:
256,192,189692,1,8,0:0:0:0:
256,192,189873,1,8,0:0:0:0:
256,192,190054,1,0,0:0:0:0:
256,192,190144,1,0,0:0:0:0:
256,192,190235,1,8,0:0:0:0:
256,192,190415,1,0,0:0:0:0:
256,192,190596,1,8,0:0:0:0:
256,192,190777,1,0,0:0:0:0:
256,192,190867,1,0,0:0:0:0:
256,192,190957,1,8,0:0:0:0:
256,192,191138,1,0,0:0:0:0:
256,192,191319,1,12,0:0:0:0:
256,192,191500,1,0,0:0:0:0:
256,192,191680,1,8,0:0:0:0:
256,192,191861,1,0,0:0:0:0:
256,192,191951,1,0,0:0:0:0:
256,192,192042,1,0,0:0:0:0:
256,192,192222,1,0,0:0:0:0:
256,192,192403,1,8,0:0:0:0:
256,192,192584,1,8,0:0:0:0:
256,192,192674,1,0,0:0:0:0:
256,192,192765,1,0,0:0:0:0:
256,192,192945,1,0,0:0:0:0:
256,192,193126,1,8,0:0:0:0:
256,192,193307,1,0,0:0:0:0:
256,192,193397,1,0,0:0:0:0:
256,192,193488,1,8,0:0:0:0:
256,192,193668,1,0,0:0:0:0:
256,192,193849,1,12,0:0:0:0:
256,192,194210,1,0,0:0:0:0:
256,192,194391,1,0,0:0:0:0:
256,192,194572,1,8,0:0:0:0:
256,192,194753,1,0,0:0:0:0:
256,192,194933,1,0,0:0:0:0:
256,192,195114,1,0,0:0:0:0:
256,192,195204,1,0,0:0:0:0:
256,192,195295,1,8,0:0:0:0:
256,192,195475,1,0,0:0:0:0:
256,192,195656,1,8,0:0:0:0:
256,192,195777,1,0,0:0:0:0:
256,192,195897,1,0,0:0:0:0:
256,192,196018,1,8,0:0:0:0:
256,192,196138,1,0,0:0:0:0:
256,192,196259,1,0,0:0:0:0:
256,192,196379,1,8,0:0:0:0:
256,192,196500,1,8,0:0:0:0:
256,192,196620,1,0,0:0:0:0:
256,192,196741,1,8,0:0:0:0:
256,192,196861,1,8,0:0:0:0:
256,192,196982,1,0,0:0:0:0:
256,192,197102,1,12,0:0:0:0:
256,192,197463,1,0,0:0:0:0:
256,192,197644,1,0,0:0:0:0:
256,192,197735,1,0,0:0:0:0:
256,192,197825,1,8,0:0:0:0:
256,192,198006,1,8,0:0:0:0:
256,192,198096,1,0,0:0:0:0:
256,192,198186,1,8,0:0:0:0:
256,192,198367,1,0,0:0:0:0:
256,192,198548,1,8,0:0:0:0:
256,192,198729,1,0,0:0:0:0:
256,192,198819,1,0,0:0:0:0:
256,192,198909,1,8,0:0:0:0:
256,192,199090,1,8,0:0:0:0:
256,192,199271,1,8,0:0:0:0:
256,192,199451,1,8,0:0:0:0:
256,192,199632,1,0,0:0:0:0:
256,192,199813,1,8,0:0:0:0:
256,192,199903,1,0,0:0:0:0:
256,192,199994,1,8,0:0:0:0:
256,192,200174,1,0,0:0:0:0:
256,192,200355,1,8,0:0:0:0:
256,192,200445,1,0,0:0:0:0:
256,192,200536,1,8,0:0:0:0:
256,192,200626,1,8,0:0:0:0:
256,192,200716,1,0,0:0:0:0:
256,192,200897,1,8,0:0:0:0:
256,192,201078,1,0,0:0:0:0:
256,192,201259,1,8,0:0:0:0:
256,192,201439,1,0,0:0:0:0:
256,192,201620,1,8,0:0:0:0:
256,192,201710,1,8,0:0:0:0:
256,192,201801,1,0,0:0:0:0:
256,192,201982,1,0,0:0:0:0:
256,192,202162,1,8,0:0:0:0:
256,192,202343,1,0,0:0:0:0:
256,192,202433,1,0,0:0:0:0:
256,192,202524,1,8,0:0:0:0:
256,192,202704,1,0,0:0:0:0:
256,192,202885,1,8,0:0:0:0:
256,192,203066,1,0,0:0:0:0:
256,192,203156,1,0,0:0:0:0:
256,192,203247,1,8,0:0:0:0:
256,192,203427,1,0,0:0:0:0:
256,192,203608,1,8,0:0:0:0:
256,192,203789,1,0,0:0:0:0:
256,192,203879,1,0,0:0:0:0:
256,192,203969,1,8,0:0:0:0:
256,192,204150,1,0,0:0:0:0:
256,192,204331,1,8,0:0:0:0:
256,192,204512,1,0,0:0:0:0:
256,192,204692,1,8,0:0:0:0:
256,192,204783,1,8,0:0:0:0:
256,192,204873,1,0,0:0:0:0:
256,192,205054,1,8,0:0:0:0:
256,192,205235,1,0,0:0:0:0:
256,192,205415,1,8,0:0:0:0:
256,192,205596,1,0,0:0:0:0:
256,192,205777,1,8,0:0:0:0:
256,192,205957,1,0,0:0:0:0:
256,192,206048,1,0,0:0:0:0:
256,192,206138,1,8,0:0:0:0:
256,192,206319,1,0,0:0:0:0:
256,192,206500,1,8,0:0:0:0:
256,192,206590,1,0,0:0:0:0:
256,192,206680,1,8,0:0:0:0:
256,192,206861,1,8,0:0:0:0:
256,192,207042,1,0,0:0:0:0:
256,192,207222,1,8,0:0:0:0:
256,192,207403,1,0,0:0:0:0:
256,192,207494,1,0,0:0:0:0:
256,192,207584,1,8,0:0:0:0:
256,192,207765,1,8,0:0:0:0:
256,192,207945,1,8,0:0:0:0:
256,192,208036,1,0,0:0:0:0:
256,192,208126,1,8,0:0:0:0:
256,192,208307,1,8,0:0:0:0:
256,192,208488,1,8,0:0:0:0:
256,192,208668,1,8,0:0:0:0:
256,192,208759,1,8,0:0:0:0:
256,192,208849,1,0,0:0:0:0:
256,192,208939,1,0,0:0:0:0:
256,192,209030,1,0,0:0:0:0:
256,192,209120,1,0,0:0:0:0:
256,192,209210,1,8,0:0:0:0:
256,192,209301,1,0,0:0:0:0:
256,192,209391,1,8,0:0:0:0:
256,192,209482,1,8,0:0:0:0:
256,192,209572,1,0,0:0:0:0:
256,192,209662,1,0,0:0:0:0:
256,192,209753,1,8,0:0:0:0:
256,192,209843,1,0,0:0:0:0:
256,192,209933,1,0,0:0:0:0:
256,192,210024,1,0,0:0:0:0:
256,192,210114,1,8,0:0:0:0:
256,192,210204,1,0,0:0:0:0:
256,192,210295,1,8,0:0:0:0:
256,192,210385,1,8,0:0:0:0:
256,192,210475,1,0,0:0:0:0:
256,192,210566,1,0,0:0:0:0:
256,192,210656,1,8,0:0:0:0:
256,192,210747,1,0,0:0:0:0:
256,192,210837,1,8,0:0:0:0:
256,192,210927,1,8,0:0:0:0:
256,192,211018,1,0,0:0:0:0:
256,192,211108,1,0,0:0:0:0:
256,192,211198,1,8,0:0:0:0:
256,192,211289,1,8,0:0:0:0:
256,192,211379,1,0,0:0:0:0:
256,192,211469,1,8,0:0:0:0:
256,192,211560,1,0,0:0:0:0:
256,192,211741,1,0,0:0:0:0:
256,192,211921,1,8,0:0:0:0:
256,192,212012,1,0,0:0:0:0:
256,192,212102,1,8,0:0:0:0:
256,192,212463,1,0,0:0:0:0:
256,192,212644,1,8,0:0:0:0:
256,192,212825,1,0,0:0:0:0:
256,192,213006,1,8,0:0:0:0:
256,192,213096,1,8,0:0:0:0:
256,192,213186,1,0,0:0:0:0:
256,192,213277,1,0,0:0:0:0:
256,192,213367,1,8,0:0:0:0:
256,192,213457,1,8,0:0:0:0:
256,192,213548,1,0,0:0:0:0:
256,192,213638,1,0,0:0:0:0:
256,192,213729,1,8,0:0:0:0:
256,192,213819,1,0,0:0:0:0:
256,192,213909,1,0,0:0:0:0:
256,192,214000,1,0,0:0:0:0:
256,192,214090,1,8,0:0:0:0:
256,192,214180,1,8,0:0:0:0:
256,192,214271,1,8,0:0:0:0:
256,192,214361,1,8,0:0:0:0:
256,192,214451,1,0,0:0:0:0:
256,192,214632,1,0,0:0:0:0:
256,192,214722,1,0,0:0:0:0:
256,192,214813,1,8,0:0:0:0:
256,192,214994,1,0,0:0:0:0:
256,192,215174,1,8,0:0:0:0:
256,192,215355,1,8,0:0:0:0:
256,192,215536,1,0,0:0:0:0:
256,192,215716,1,8,0:0:0:0:
256,192,216078,1,0,0:0:0:0:
256,192,216259,1,8,0:0:0:0:
256,192,216439,1,0,0:0:0:0:
256,192,216530,1,0,0:0:0:0:
256,192,216620,1,8,0:0:0:0:
256,192,216801,1,0,0:0:0:0:
256,192,216982,1,12,0:0:0:0:
256,192,217162,1,8,0:0:0:0:
256,192,217343,1,0,0:0:0:0:
256,192,217524,1,0,0:0:0:0:
256,192,217614,1,0,0:0:0:0:
256,192,217704,1,8,0:0:0:0:
256,192,217885,1,0,0:0:0:0:
256,192,218066,1,8,0:0:0:0:
256,192,218247,1,8,0:0:0:0:
256,192,218337,1,8,0:0:0:0:
256,192,218427,1,0,0:0:0:0:
256,192,218608,1,8,0:0:0:0:
256,192,218789,1,8,0:0:0:0:
256,192,218969,1,0,0:0:0:0:
256,192,219060,1,0,0:0:0:0:
256,192,219150,1,8,0:0:0:0:
256,192,219331,1,0,0:0:0:0:
256,192,219692,1,0,0:0:0:0:
256,192,219873,1,8,0:0:0:0:
256,192,219963,1,8,0:0:0:0:
256,192,220054,1,8,0:0:0:0:
256,192,220235,1,4,0:0:0:0:
256,192,220415,1,0,0:0:0:0:
256,192,220596,1,8,0:0:0:0:
256,192,220777,1,0,0:0:0:0:
256,192,220867,1,0,0:0:0:0:
256,192,220957,1,8,0:0:0:0:
256,192,221138,1,0,0:0:0:0:
256,192,221319,1,0,0:0:0:0:
256,192,221500,1,8,0:0:0:0:
256,192,221680,1,0,0:0:0:0:
256,192,221861,1,0,0:0:0:0:
256,192,222042,1,8,0:0:0:0:
256,192,222222,1,0,0:0:0:0:
256,192,222403,1,12,0:0:0:0:
256,192,222584,1,0,0:0:0:0:
256,192,222765,1,12,0:0:0:0:
256,192,222945,1,0,0:0:0:0:
256,192,223126,1,0,0:0:0:0:
256,192,223307,1,0,0:0:0:0:
256,192,223488,1,8,0:0:0:0:
256,192,223668,1,0,0:0:0:0:
256,192,223849,1,8,0:0:0:0:
256,192,224030,1,0,0:0:0:0:
256,192,224210,1,0,0:0:0:0:
256,192,224391,1,8,0:0:0:0:
256,192,224753,1,0,0:0:0:0:
256,192,224933,1,8,0:0:0:0:
256,192,225114,1,0,0:0:0:0:
256,192,225204,1,0,0:0:0:0:
256,192,225295,1,0,0:0:0:0:
256,192,225475,1,12,0:0:0:0:
256,192,226018,1,0,0:0:0:0:
256,192,226198,1,0,0:0:0:0:
256,192,226379,1,8,0:0:0:0:
256,192,226560,1,8,0:0:0:0:
256,192,226650,1,8,0:0:0:0:
256,192,226741,1,0,0:0:0:0:
256,192,226921,1,0,0:0:0:0:
256,192,227102,1,0,0:0:0:0:
256,192,227283,1,8,0:0:0:0:
256,192,227644,1,0,0:0:0:0:
256,192,227735,1,0,0:0:0:0:
256,192,227825,1,0,0:0:0:0:
256,192,228006,1,0,0:0:0:0:
256,192,228186,1,12,0:0:0:0:
256,192,228367,1,0,0:0:0:0:
256,192,228548,1,12,0:0:0:0:
256,192,228909,1,0,0:0:0:0:
256,192,229090,1,0,0:0:0:0:
256,192,229271,1,8,0:0:0:0:
256,192,229451,1,0,0:0:0:0:
256,192,229632,1,8,0:0:0:0:
256,192,229813,1,0,0:0:0:0:
256,192,229994,1,0,0:0:0:0:
256,192,230174,1,8,0:0:0:0:
256,192,230536,1,0,0:0:0:0:
256,192,230716,1,8,0:0:0:0:
256,192,230897,1,8,0:0:0:0:
256,192,230988,1,8,0:0:0:0:
256,192,231078,1,0,0:0:0:0:
256,192,231259,1,8,0:0:0:0:
256,192,231439,1,0,0:0:0:0:
256,192,231620,1,8,0:0:0:0:
256,192,231801,1,4,0:0:0:0:
256,192,231982,1,4,0:0:0:0:
256,192,232162,1,12,0:0:0:0:
256,192,232524,1,0,0:0:0:0:
256,192,232704,1,4,0:0:0:0:
256,192,232885,1,4,0:0:0:0:
256,192,233066,1,12,0:0:0:0:
256,192,233247,1,0,0:0:0:0:
256,192,233427,1,0,0:0:0:0:
256,192,233518,1,0,0:0:0:0:
256,192,233608,1,8,0:0:0:0:
256,192,233789,1,8,0:0:0:0:
256,192,233969,1,12,0:0:0:0:
256,192,234150,1,0,0:0:0:0:
256,192,234331,1,12,0:0:0:0:
256,192,234692,1,4,0:0:0:0:
256,192,234873,1,4,0:0:0:0:
256,192,235054,1,12,0:0:0:0:
256,192,235415,1,0,0:0:0:0:
256,192,235596,1,4,0:0:0:0:
256,192,235777,1,4,0:0:0:0:
256,192,235957,1,12,0:0:0:0:
256,192,236319,1,8,0:0:0:0:
256,192,236500,1,0,0:0:0:0:
256,192,236680,1,8,0:0:0:0:
256,192,236771,1,8,0:0:0:0:
256,192,236861,1,0,0:0:0:0:
256,192,237042,1,8,0:0:0:0:
256,192,237222,1,8,0:0:0:0:
256,192,237313,1,8,0:0:0:0:
256,192,237403,1,8,0:0:0:0:
256,192,237494,1,8,0:0:0:0:
256,192,237584,1,4,0:0:0:0:
256,192,237765,1,4,0:0:0:0:
256,192,237945,1,12,0:0:0:0:
256,192,238307,1,0,0:0:0:0:
256,192,238488,1,4,0:0:0:0:
256,192,238668,1,4,0:0:0:0:
256,192,238849,1,12,0:0:0:0:
256,192,239030,1,0,0:0:0:0:
256,192,239210,1,8,0:0:0:0:
256,192,239301,1,8,0:0:0:0:
256,192,239391,1,0,0:0:0:0:
256,192,239572,1,0,0:0:0:0:
256,192,239753,1,12,0:0:0:0:
256,192,239933,1,0,0:0:0:0:
256,192,240114,1,12,0:0:0:0:
256,192,240295,1,0,0:0:0:0:
256,192,240475,1,4,0:0:0:0:
256,192,240656,1,4,0:0:0:0:
256,192,240837,1,12,0:0:0:0:
256,192,241379,1,4,0:0:0:0:
256,192,241560,1,4,0:0:0:0:
256,192,241741,1,12,0:0:0:0:
