osu file format v14

[General]
AudioFilename: SNOWFLAKES.mp3
AudioLeadIn: 0
PreviewTime: -1
Countdown: 0
SampleSet: Soft
StackLeniency: 0.7
Mode: 0
LetterboxInBreaks: 0
WidescreenStoryboard: 0

[Editor]
DistanceSpacing: 1.3
BeatDivisor: 4
GridSize: 8
TimelineZoom: 1

[Metadata]
Title:SNOWFLAKES
TitleUnicode:SNOWFLAKES
Artist:Shoji Meguro
ArtistUnicode:目黒将司
Creator:lkx_Shore
Version:SnowFlakes
Source:ペルソナ4
Tags:めぐろ しょうじ RPG ATLUS Shin Megami Tensei: Persona 4
BeatmapID:861285
BeatmapSetID:395791

[Difficulty]
HPDrainRate:6
CircleSize:4
OverallDifficulty:7
ApproachRate:7.8
SliderMultiplier:1.6
SliderTickRate:1

[Events]
//Background and Video events
0,0,"bg24.jpg",0,0
//Break Periods
2,102920,114341
//Storyboard Layer 0 (Background)
//Storyboard Layer 1 (Fail)
//Storyboard Layer 2 (Pass)
//Storyboard Layer 3 (Foreground)
//Storyboard Sound Samples

[TimingPoints]
320,800,4,2,0,40,1,0
51520,-100,4,2,0,40,0,1
102720,-100,4,2,0,40,0,0
141120,-100,4,2,0,40,0,1
192320,-100,4,2,0,40,0,0

[HitObjects]
400,64,320,6,0,L|384:144,1,80,0|2,1:2|0:0,0:0:0:0:
400,344,1120,2,0,L|415:265,1,80,0|2,1:2|0:0,0:0:0:0:
336,232,1720,1,0,0:0:0:0:
280,296,1920,2,0,L|232:280,1,40,0|0,1:0|0:0,0:0:0:0:
176,336,2320,2,0,L|128:320,1,40,0|0,1:0|0:0,0:0:0:0:
56,296,2720,1,2,1:2:0:0:
56,296,3120,1,2,0:0:0:0:
128,248,3320,1,0,0:0:0:0:
200,200,3520,6,0,L|296:224,1,80,0|2,1:0|0:0,0:0:0:0:
480,136,4320,2,0,L|402:116,1,80,0|2,1:0|0:0,0:0:0:0:
320,104,4920,1,2,0:0:0:0:
240,88,5120,2,0,L|248:128,1,40,0|0,1:0|0:0,0:0:0:0:
176,176,5520,2,0,L|136:152,1,40,0|0,1:0|0:0,0:0:0:0:
152,72,5920,1,0,1:0:0:0:
152,72,6320,1,2,0:0:0:0:
104,144,6520,1,0,0:0:0:0:
128,232,6720,6,0,P|136:272|128:320,1,80,0|2,1:0|0:0,0:0:0:0:
272,128,7520,2,0,P|264:168|272:216,1,80,0|2,1:0|0:0,0:0:0:0:
328,272,8120,1,0,0:0:0:0:
416,288,8320,2,0,P|384:288|352:296,1,40,0|0,1:0|0:0,0:0:0:0:
304,344,8720,2,0,P|272:344|240:336,1,40,0|0,1:0|0:0,0:0:0:0:
192,296,9120,1,0,1:0:0:0:
216,120,9520,1,2,0:0:0:0:
56,192,9920,6,0,P|104:216|160:224,1,80,0|2,1:0|0:0,0:0:0:0:
280,312,10720,2,0,P|224:320|176:344,1,80,0|2,1:0|0:0,0:0:0:0:
120,352,11320,1,0,0:0:0:0:
40,328,11520,2,0,P|33:297|32:280,1,40,0|0,1:0|0:0,0:0:0:0:
80,216,11920,2,0,P|86:185|88:168,1,40,0|0,1:0|0:0,0:0:0:0:
64,96,12320,1,0,1:0:0:0:
64,96,12720,1,2,0:0:0:0:
136,56,12920,1,0,0:0:0:0:
216,48,13120,6,0,P|264:64|296:88,1,80,0|2,1:0|0:0,0:0:0:0:
328,248,13920,2,0,P|317:198|322:158,1,80,0|2,1:0|0:0,0:0:0:0:
376,104,14520,1,0,0:0:0:0:
456,120,14720,2,0,P|469:146|472:160,1,40,0|0,1:0|0:0,0:0:0:0:
448,240,15120,2,0,P|434:266|432:280,1,40,0|0,1:0|0:0,0:0:0:0:
384,344,15520,2,0,L|288:336,1,80,0|2,1:0|0:0,0:0:0:0:
96,264,16320,6,0,L|192:272,1,80,0|2,1:0|0:0,0:0:0:0:
320,184,17120,2,0,P|272:176|208:184,1,80,0|2,1:0|0:0,0:0:0:0:
160,168,17720,1,0,0:0:0:0:
104,104,17920,2,0,P|112:80|128:56,1,40,0|0,1:0|0:0,0:0:0:0:
200,56,18320,2,0,P|192:32|176:8,1,40,0|0,1:0|0:0,0:0:0:0:
40,48,18720,1,0,1:0:0:0:
152,176,19120,1,2,0:0:0:0:
320,144,19520,6,0,L|408:168,1,80,0|2,1:0|0:0,0:0:0:0:
229,197,20320,2,0,L|141:173,1,80,0|2,1:0|0:0,0:0:0:0:
72,200,20920,1,0,0:0:0:0:
40,280,21120,2,0,P|56:312|64:320,1,40,0|0,1:0|0:0,0:0:0:0:
144,304,21520,2,0,P|128:272|120:264,1,40,0|0,1:0|0:0,0:0:0:0:
0,168,21920,1,0,1:0:0:0:
104,40,22320,1,2,0:0:0:0:
256,104,22720,5,4,1:2:0:0:
256,104,23520,1,0,3:0:0:0:
320,168,24120,1,0,0:0:0:0:
320,168,24320,2,0,L|312:216,1,40,2|0,0:0|0:0,0:0:0:0:
352,288,24720,1,0,3:0:0:0:
352,288,25120,2,0,L|232:280,1,120,0|0,1:0|0:0,0:0:0:0:
144,272,25920,5,0,1:0:0:0:
112,104,26320,1,2,0:0:0:0:
272,152,26720,2,0,P|248:184|208:208,1,80,0|2,1:0|0:0,0:0:0:0:
48,176,27520,1,0,1:0:0:0:
192,80,27920,1,2,0:0:0:0:
256,232,28320,2,0,L|240:312,1,80,0|0,1:0|0:0,0:0:0:0:
304,360,28920,1,0,0:0:0:0:
384,344,29120,5,0,1:0:0:0:
432,192,29520,1,2,0:0:0:0:
312,88,29920,1,0,1:0:0:0:
368,240,30320,1,2,0:0:0:0:
368,240,30520,2,0,L|288:248,1,80
208,256,31120,1,2,0:0:0:0:
64,192,31520,1,0,1:0:0:0:
128,336,31920,1,2,0:0:0:0:
208,312,32120,1,0,0:0:0:0:
288,288,32320,6,0,L|312:208,1,80,0|2,1:0|0:0,0:0:0:0:
176,272,33120,1,0,1:0:0:0:
320,344,33520,1,2,0:0:0:0:
456,272,33920,2,0,L|384:224,1,80,0|2,1:0|0:0,0:0:0:0:
256,136,34720,1,0,1:0:0:0:
344,272,35120,1,2,0:0:0:0:
448,152,35520,6,0,L|344:168,1,80,0|2,1:0|0:0,0:0:0:0:
240,256,36320,2,0,L|319:243,1,80,0|2,1:0|0:0,0:0:0:0:
392,280,36920,1,2,0:0:0:0:
464,320,37120,2,0,L|424:312,1,40,0|0,1:0|0:0,0:0:0:0:
352,344,37520,2,0,L|312:336,1,40,0|0,1:0|0:0,0:0:0:0:
232,328,37920,2,0,P|184:328|136:344,1,80,0|2,1:0|0:0,0:0:0:0:
153,336,38520,1,0,0:0:0:0:
153,336,38720,6,0,P|104:336|72:320,1,80,0|2,1:2|0:0,0:0:0:0:
112,168,39520,2,0,P|161:168|193:184,1,80,0|2,1:2|0:0,0:0:0:0:
280,312,40320,1,0,1:0:0:0:
128,368,40720,2,0,L|144:288,1,80,2|0,0:0|1:0,0:0:0:0:
168,128,41520,2,0,P|128:128|104:120,1,40,2|0,0:0|0:0,0:0:0:0:
224,64,41920,6,0,P|264:64|312:88,1,80,0|2,1:0|0:0,0:0:0:0:
368,224,42720,1,0,1:0:0:0:
224,304,43120,1,2,0:0:0:0:
224,304,43320,2,0,L|336:320,1,80,2|2,0:0|0:0,0:0:0:0:
384,328,43920,1,2,0:0:0:0:
504,216,44320,1,0,1:0:0:0:
392,96,44720,2,0,P|432:96|456:88,1,40,2|0,0:0|0:0,0:0:0:0:
320,48,45120,6,0,P|272:40|232:48,1,80,0|2,1:0|0:0,0:0:0:0:
176,192,45920,2,0,L|160:112,1,80,0|2,1:0|0:0,0:0:0:0:
80,256,46720,1,0,1:0:0:0:
80,256,47120,2,0,L|95:334,1,80,2|0,0:0|1:0,0:0:0:0:
256,352,47920,1,2,0:0:0:0:
368,240,48320,6,0,P|328:232|288:232,1,80,0|2,1:0|0:0,0:0:0:0:
432,320,49120,1,0,1:0:0:0:
432,320,49520,1,2,0:0:0:0:
432,320,49720,2,0,L|456:240,1,80,2|0,0:0|1:0,0:0:0:0:
480,168,50320,1,2,0:0:0:0:
448,96,50520,1,0,3:0:0:0:
344,40,50720,5,0,1:0:0:0:
376,152,50920,1,4,3:0:0:0:
432,72,51120,1,8,3:0:0:0:
336,120,51320,1,4,3:0:0:0:
456,192,51520,2,0,L|440:272,1,80,4|2,1:2|0:0,0:0:0:0:
304,352,52320,5,0,1:0:0:0:
208,224,52720,1,2,0:0:0:0:
344,136,53120,2,0,P|392:136|440:152,1,80,0|2,1:0|0:0,0:0:0:0:
392,304,53920,2,0,P|344:304|296:288,1,80,0|2,1:0|0:0,0:0:0:0:
176,224,54520,1,0,0:0:0:0:
176,224,54720,6,0,B|251:235|258:185|333:196,1,160,0|0,1:2|1:0,0:0:0:0:
312,344,55920,1,2,0:0:0:0:
232,353,56120,1,0,0:0:0:0:
159,320,56320,2,0,L|72:261,2,80,0|0|0,1:0|1:0|1:0,0:0:0:0:
360,224,57520,2,0,L|368:264,1,40,2|0,0:0|0:0,0:0:0:0:
288,176,57920,6,0,P|280:136|288:80,1,80,0|2,1:2|0:0,0:0:0:0:
432,160,58720,1,0,1:0:0:0:
336,288,59120,1,2,0:0:0:0:
184,336,59520,2,0,L|136:256,1,80,0|2,1:0|0:0,0:0:0:0:
192,88,60320,2,0,P|224:120|240:160,1,80,0|2,1:0|0:0,0:0:0:0:
288,280,60920,1,0,0:0:0:0:
288,280,61120,6,0,P|384:272|424:216,1,160,0|0,1:0|1:0,0:0:0:0:
344,88,62320,1,2,0:0:0:0:
336,168,62520,1,0,0:0:0:0:
384,232,62720,2,0,P|392:256|392:280,1,40,0|0,1:0|1:0,0:0:0:0:
288,360,63120,2,0,P|280:336|280:312,1,40,0|0,1:0|0:0,0:0:0:0:
304,208,63520,2,0,P|304:176|280:128,1,80,0|0,1:0|1:0,0:0:0:0:
208,192,64120,1,0,1:0:0:0:
208,192,64320,6,0,P|168:176|112:176,1,80,4|2,1:2|0:0,0:0:0:0:
0,288,65120,1,0,1:0:0:0:
152,328,65520,1,2,0:0:0:0:
288,240,65920,2,0,L|312:144,1,80,0|2,1:0|0:0,0:0:0:0:
192,56,66720,2,0,P|168:88|160:136,1,80,0|2,1:0|0:0,0:0:0:0:
200,240,67320,1,2,0:0:0:0:
200,240,67520,6,0,L|88:256,1,80,0|2,1:0|0:0,0:0:0:0:
312,240,68320,2,0,L|424:256,1,80,0|2,1:0|0:0,0:0:0:0:
448,328,68920,1,0,0:0:0:0:
448,328,69120,2,0,L|384:344,1,40,0|0,1:0|0:0,0:0:0:0:
464,184,69520,2,0,L|400:168,1,40,0|0,1:0|0:0,0:0:0:0:
512,264,69920,1,0,1:0:0:0:
264,296,70320,2,0,P|293:298|312:304,1,40,2|0,0:0|0:0,0:0:0:0:
192,352,70720,6,0,L|80:304,1,120,0|2,1:0|0:0,0:0:0:0:
8,272,71520,2,0,P|16:232|40:192,1,80,0|2,1:0|0:0,0:0:0:0:
184,152,72320,1,0,1:0:0:0:
240,304,72720,1,0,1:0:0:0:
80,272,73120,1,0,1:0:0:0:
184,152,73520,2,0,P|176:184|168:200,1,40,2|0,0:0|0:0,0:0:0:0:
144,80,73920,6,0,P|160:40|192:8,1,80,0|2,1:0|0:0,0:0:0:0:
272,152,74720,2,0,L|256:240,1,80,0|2,1:0|0:0,0:0:0:0:
112,296,75520,1,0,1:0:0:0:
257,230,75920,1,2,0:0:0:0:
321,278,76120,1,2,0:0:0:0:
385,326,76320,2,0,P|408:328|448:320,1,40,0|0,1:0|1:0,0:0:0:0:
504,288,76720,2,0,L|512:240,1,40,0|0,1:0|0:0,0:0:0:0:
488,144,77120,6,0,B|440:192|392:192|392:192|416:176|416:128,1,160,4|0,1:2|1:0,0:0:0:0:
288,32,78320,1,2,0:0:0:0:
160,128,78720,2,0,P|160:168|176:216,1,80,0|2,1:0|0:0,0:0:0:0:
312,336,79520,2,0,P|312:296|296:248,1,80,0|2,1:0|0:0,0:0:0:0:
232,304,80120,1,0,0:0:0:0:
232,304,80320,6,0,P|176:328|128:320,1,80,0|2,1:2|0:0,0:0:0:0:
120,176,81120,2,0,P|176:152|224:160,1,80,0|2,1:2|0:0,0:0:0:0:
264,192,81720,1,0,0:0:0:0:
328,232,81920,2,0,P|352:232|384:224,1,40,0|0,1:0|0:0,0:0:0:0:
448,208,82320,2,0,P|448:232|440:264,1,40,0|0,1:0|0:0,0:0:0:0:
384,144,82720,1,0,1:0:0:0:
384,144,83120,1,2,0:0:0:0:
320,96,83320,1,0,0:0:0:0:
240,72,83520,6,0,P|176:80|144:96,1,80,0|2,1:0|0:0,0:0:0:0:
184,240,84320,2,0,P|248:232|280:216,1,80,0|2,1:0|0:0,0:0:0:0:
352,96,85120,1,0,1:0:0:0:
472,200,85520,1,2,0:0:0:0:
368,320,85920,1,0,1:0:0:0:
248,216,86320,1,2,0:0:0:0:
288,64,86720,6,0,P|328:48|392:48,1,80,0|2,1:0|0:0,0:0:0:0:
224,176,87520,2,0,P|264:168|328:160,1,80,0|2,1:0|0:0,0:0:0:0:
384,168,88120,1,0,0:0:0:0:
448,216,88320,2,0,P|456:240|456:280,1,40,0|0,1:0|1:0,0:0:0:0:
496,144,88720,2,0,P|488:120|488:80,1,40,0|2,1:0|0:0,0:0:0:0:
416,64,89120,1,0,1:0:0:0:
368,208,89520,1,2,0:0:0:0:
368,208,89720,1,0,0:0:0:0:
368,208,89920,6,0,P|320:216|208:176,1,160,4|0,1:2|1:0,0:0:0:0:
344,88,91120,1,2,0:0:0:0:
440,216,91520,2,0,L|416:320,1,80,0|2,1:0|0:0,0:0:0:0:
264,328,92320,1,0,1:0:0:0:
296,168,92720,1,2,0:0:0:0:
376,304,93120,6,0,P|336:312|272:312,1,80,0|2,1:0|0:0,0:0:0:0:
224,272,93720,1,0,0:0:0:0:
152,240,93920,2,0,P|112:241|72:249,1,80,0|2,1:0|0:0,0:0:0:0:
40,320,94520,2,0,L|88:336,1,40,0|0,0:0|1:0,0:0:0:0:
240,328,95120,1,0,1:0:0:0:
328,192,95520,1,0,1:0:0:0:
264,48,95920,2,0,P|239:62|232:72,1,40,2|0,0:0|0:0,0:0:0:0:
256,144,96320,6,0,L|240:224,1,80,0|2,1:0|0:0,0:0:0:0:
104,336,97120,1,0,1:0:0:0:
40,192,97520,2,0,P|64:184|104:184,1,40,2|0,0:0|0:0,0:0:0:0:
160,200,97920,1,0,1:0:0:0:
272,312,98320,1,2,0:0:0:0:
416,240,98720,1,0,1:0:0:0:
392,80,99120,1,2,0:0:0:0:
232,56,99520,5,4,1:2:0:0:
232,56,99920,1,2,0:0:0:0:
160,128,100320,2,0,L|176:208,1,80,0|2,1:0|0:0,0:0:0:0:
280,288,101120,2,0,L|264:232,1,40,0|0,1:0|1:0,0:0:0:0:
256,200,101520,2,0,L|368:184,2,80,0|0|2,1:0|1:0|0:0,0:0:0:0:
32,248,102720,5,4,1:2:0:0:
448,32,115120,6,0,P|424:56|416:72,1,40
440,136,115520,2,0,L|416:240,1,80,0|2,1:0|0:0,0:0:0:0:
304,320,116320,2,0,P|264:312|208:312,1,80,0|2,1:0|0:0,0:0:0:0:
56,344,117120,1,0,1:0:0:0:
112,192,117520,1,2,0:0:0:0:
200,328,117920,2,0,P|184:344|160:352,1,40,0|0,1:0|0:0,0:0:0:0:
112,288,118320,1,2,0:0:0:0:
152,216,118520,1,2,0:0:0:0:
224,240,118720,6,0,P|280:256|320:256,1,80,0|2,1:0|0:0,0:0:0:0:
448,144,119520,2,0,P|392:160|352:160,1,80,0|2,1:0|0:0,0:0:0:0:
296,128,120120,1,0,1:0:0:0:
152,56,120520,1,2,0:0:0:0:
152,56,120720,2,0,P|112:88|96:128,1,80,0|0,1:0|1:0,0:0:0:0:
200,240,121520,2,0,L|208:200,1,40,2|0,0:0|0:0,0:0:0:0:
120,264,121920,6,0,P|104:304|104:352,1,80,0|2,1:0|0:0,0:0:0:0:
264,352,122720,1,0,1:0:0:0:
400,272,123120,2,0,L|408:320,1,40,2|0,0:0|0:0,0:0:0:0:
480,256,123520,2,0,P|496:216|496:168,1,80,0|2,1:0|0:0,0:0:0:0:
400,56,124320,1,0,1:0:0:0:
240,56,124720,1,2,0:0:0:0:
240,216,125120,6,0,P|288:232|336:224,1,80,0|2,1:0|0:0,0:0:0:0:
464,160,125920,1,0,1:0:0:0:
376,296,126320,1,2,0:0:0:0:
376,296,126520,2,0,L|264:288,1,80,0|0,1:0|0:0,0:0:0:0:
216,280,127120,1,0,1:0:0:0:
56,264,127520,1,0,1:0:0:0:
152,136,127920,2,0,P|167:128|192:128,1,40,2|0,0:0|0:0,0:0:0:0:
264,160,128320,6,0,P|304:152|352:120,1,80,0|2,1:0|0:0,0:0:0:0:
216,32,129120,2,0,P|200:72|200:112,1,80,0|2,1:0|0:0,0:0:0:0:
240,176,129720,1,0,0:0:0:0:
304,224,129920,2,0,P|320:264|320:304,1,80,0|2,1:0|0:0,0:0:0:0:
168,344,130720,1,0,1:0:0:0:
184,184,131120,2,0,P|208:168|232:160,1,40,2|0,0:0|0:0,0:0:0:0:
296,184,131520,6,0,L|272:272,1,80,0|2,1:0|0:0,0:0:0:0:
408,344,132320,1,0,1:0:0:0:
480,200,132720,2,0,P|472:176|456:152,1,40,2|0,0:0|0:0,0:0:0:0:
400,120,133120,5,0,1:0:0:0:
320,104,133320,1,2,0:0:0:0:
240,128,133520,1,0,3:0:0:0:
240,128,133920,2,0,P|200:120|152:96,1,80,0|2,1:0|0:0,0:0:0:0:
168,192,134520,1,0,0:0:0:0:
168,192,134720,6,0,P|184:232|184:272,1,80,0|2,1:0|0:0,0:0:0:0:
320,344,135520,2,0,L|304:264,1,80,0|2,1:0|0:0,0:0:0:0:
328,192,136120,1,2,0:0:0:0:
352,120,136320,1,0,1:0:0:0:
456,240,136720,1,2,0:0:0:0:
304,296,137120,1,0,1:0:0:0:
160,224,137520,1,2,0:0:0:0:
120,72,137920,5,0,1:0:0:0:
224,192,138320,1,2,0:0:0:0:
168,344,138720,2,0,P|120:352|72:336,1,80,0|2,1:0|0:0,0:0:0:0:
56,272,139320,1,2,0:0:0:0:
72,192,139520,2,0,L|112:176,1,40,0|0,1:0|1:0,0:0:0:0:
184,144,139920,5,0,1:0:0:0:
288,232,140120,1,0,3:0:0:0:
160,280,140320,1,4,3:0:0:0:
160,280,140520,1,12,3:0:0:0:
248,192,140720,1,0,1:0:0:0:
216,344,140920,1,0,3:0:0:0:
168,200,141120,6,0,L|152:112,1,80,4|0,1:2|0:0,0:0:0:0:
296,56,141920,1,0,1:0:0:0:
416,168,142320,1,2,0:0:0:0:
336,304,142720,2,0,P|288:312|240:304,1,80,0|2,1:0|0:0,0:0:0:0:
112,232,143520,2,0,P|160:224|208:232,1,80,0|2,1:0|0:0,0:0:0:0:
264,200,144120,1,0,0:0:0:0:
264,200,144320,6,0,L|280:112,1,80,0|2,1:0|0:0,0:0:0:0:
120,96,145120,1,0,1:0:0:0:
72,248,145520,2,0,P|88:264|104:272,1,40,2|0,0:0|0:0,0:0:0:0:
184,264,145920,2,0,P|232:280|256:296,1,80,0|2,1:0|0:0,0:0:0:0:
416,304,146720,1,0,1:0:0:0:
472,152,147120,2,0,L|480:112,1,40,2|0,0:0|0:0,0:0:0:0:
424,48,147520,6,0,P|384:64|344:64,1,80,0|2,1:0|0:0,0:0:0:0:
192,32,148320,1,0,1:0:0:0:
312,136,148720,1,2,0:0:0:0:
296,296,149120,1,0,1:0:0:0:
144,344,149520,1,2,0:0:0:0:
96,192,149920,1,0,1:0:0:0:
248,144,150320,1,2,0:0:0:0:
152,272,150720,6,0,L|64:256,1,80,0|2,1:0|0:0,0:0:0:0:
216,192,151520,2,0,L|312:160,1,80,0|2,1:0|0:0,0:0:0:0:
232,280,152120,1,0,0:0:0:0:
232,280,152320,2,0,L|224:328,1,40,0|0,1:0|1:0,0:0:0:0:
320,280,152720,2,0,L|304:360,1,80,0|0,1:0|1:0,0:0:0:0:
384,336,153320,1,0,0:0:0:0:
384,336,153520,2,0,L|400:264,1,40,2|0,0:0|0:0,0:0:0:0:
408,216,153920,6,0,B|416:160|373:122|373:122|352:144|320:136,1,160,4|0,1:2|1:0,0:0:0:0:
168,104,155120,1,2,0:0:0:0:
304,24,155520,2,0,P|328:56|336:96,1,80,0|2,1:0|0:0,0:0:0:0:
264,240,156320,1,0,1:0:0:0:
120,168,156720,1,2,0:0:0:0:
160,24,157120,6,0,P|201:29|240:56,1,80,0|2,1:0|0:0,0:0:0:0:
344,160,157920,1,0,1:0:0:0:
448,40,158320,2,0,P|416:24|392:16,1,40,2|0,0:0|0:0,0:0:0:0:
336,32,158720,1,0,1:0:0:0:
232,152,159120,1,0,1:0:0:0:
280,304,159520,1,0,1:0:0:0:
432,248,159920,2,0,P|416:232|400:224,1,40,2|0,0:0|0:0,0:0:0:0:
320,240,160320,6,0,P|272:240|224:224,1,80,0|2,1:0|0:0,0:0:0:0:
136,112,161120,1,0,1:0:0:0:
256,8,161520,1,2,0:0:0:0:
384,104,161920,2,0,L|368:192,1,80,0|0,1:0|1:0,0:0:0:0:
336,336,162720,1,0,1:0:0:0:
176,336,163120,2,0,P|152:336|120:328,1,40,2|0,0:0|0:0,0:0:0:0:
72,280,163520,5,0,1:0:0:0:
64,120,163920,1,2,0:0:0:0:
216,64,164320,2,0,P|258:91|272:120,1,80,0|2,1:0|0:0,0:0:0:0:
296,272,165120,1,0,1:0:0:0:
456,296,165520,1,2,0:0:0:0:
488,136,165920,2,0,P|464:120|448:112,1,40,0|0,0:0|1:0,0:0:0:0:
376,144,166320,2,0,P|360:136|342:122,1,40,0|0,3:0|3:0,0:0:0:0:
280,56,166720,6,0,B|216:40|176:64|176:64|112:48,1,160,4|0,1:2|1:0,0:0:0:0:
32,176,167920,1,2,0:0:0:0:
88,328,168320,2,0,P|144:336|176:328,1,80,0|2,1:0|0:0,0:0:0:0:
312,264,169120,1,0,1:0:0:0:
464,320,169520,1,2,0:0:0:0:
304,336,169920,6,0,L|192:304,1,80,0|2,1:0|0:0,0:0:0:0:
72,264,170720,1,0,1:0:0:0:
184,152,171120,2,0,L|224:144,1,40,2|0,0:0|0:0,0:0:0:0:
288,184,171520,2,0,L|376:200,1,80,0|2,1:0|0:0,0:0:0:0:
488,96,172320,1,0,1:0:0:0:
336,56,172720,2,0,P|328:80|328:104,1,40,2|0,0:0|0:0,0:0:0:0:
368,168,173120,6,0,L|352:256,1,80,0|2,1:0|0:0,0:0:0:0:
216,320,173920,1,0,1:0:0:0:
72,240,174320,1,2,0:0:0:0:
88,80,174720,2,0,P|120:64|184:64,1,80,0|2,1:0|0:0,0:0:0:0:
304,136,175520,1,0,1:0:0:0:
208,264,175920,1,2,0:0:0:0:
128,128,176320,6,0,L|152:48,1,80,0|2,1:0|0:0,0:0:0:0:
256,176,177120,2,0,L|280:96,1,80,0|2,1:0|0:0,0:0:0:0:
360,80,177720,1,0,0:0:0:0:
440,64,177920,1,0,1:0:0:0:
472,224,178320,1,2,0:0:0:0:
392,208,178520,1,0,0:0:0:0:
312,184,178720,2,0,P|288:224|280:264,1,80,0|2,1:0|0:0,0:0:0:0:
200,272,179320,1,0,0:0:0:0:
200,272,179520,6,0,P|144:288|48:240,1,160,4|0,1:2|1:0,0:0:0:0:
40,88,180720,1,2,0:0:0:0:
192,48,181120,2,0,P|208:88|208:128,1,80,0|2,1:0|0:0,0:0:0:0:
160,264,181920,1,0,1:0:0:0:
48,144,182320,1,2,0:0:0:0:
176,48,182720,6,0,P|216:40|280:48,1,80,0|2,1:0|0:0,0:0:0:0:
384,136,183520,1,0,1:0:0:0:
296,272,183920,1,2,0:0:0:0:
248,208,184120,1,0,0:0:0:0:
192,144,184320,2,0,L|208:48,1,80,0|0,1:0|1:0,0:0:0:0:
91,202,185120,1,0,1:0:0:0:
200,320,185520,1,2,0:0:0:0:
200,320,185920,6,0,P|256:336|320:328,1,120,0|0,1:0|0:0,0:0:0:0:
384,288,186720,2,0,P|416:272|480:272,1,80,0|2,1:0|0:0,0:0:0:0:
464,192,187320,1,0,0:0:0:0:
464,192,187520,2,0,P|447:142|408:112,1,80,0|2,1:0|0:0,0:0:0:0:
288,32,188320,1,0,1:0:0:0:
184,152,188720,1,2,0:0:0:0:
256,296,189120,5,0,1:0:0:0:
360,280,189520,1,2,0:0:0:0:
400,184,189920,1,0,1:0:0:0:
384,80,190320,1,2,0:0:0:0:
288,40,190720,2,0,L|272:88,1,40,0|0,1:0|1:0,0:0:0:0:
256,128,191120,2,0,L|160:104,2,80,0|0|2,1:0|1:0|0:0,0:0:0:0:
464,192,192320,5,4,1:2:0:0:
